  0
SECTION
  2
HEADER
  9
$ACADVER
  1
AC1009
  9
$INSBASE
 10
0.000000
 20
0.000000
  9
$EXTMIN
 10
0.000000
 20
0.000000
  9
$EXTMAX
 10
297.000000
 20
210.000000
  9
$LIMMIN
 10
0.000000
 20
0.000000
  9
$LIMMAX
 10
297.000000
 20
210.000000
  9
$VIEWCTR
 10
148.500000
 20
105.000000
  9
$VIEWSIZE
 40
210.000000
  9
$PEXTMIN
 10
0.000000
 20
0.000000
 30
0.000000
  9
$PEXTMAX
 10
297.000000
 20
210.000000
 30
0.000000
  9
$SNAPMODE
 70
     0
  9
$SNAPUNIT
 10
1.000000
 20
1.000000
  9
$SNAPBASE
 10
0.000000
 20
0.000000
  9
$SNAPANG
 50
0.000000
  9
$SNAPISOPAIR
 70
     0
  9
$SNAPSTYLE
 70
     0
  9
$GRIDMODE
 70
     0
  9
$GRIDUNIT
 10
0.000000
 20
0.000000
  9
$ORTHOMODE
 70
     0
  9
$REGENMODE
 70
     1
  9
$FILLMODE
 70
     1
  9
$QTEXTMODE
 70
     0
  9
$DRAGMODE
 70
     2
  9
$LTSCALE
 40
0.250000
  9
$OSMODE
 70
     0
  9
$ATTMODE
 70
     1
  9
$TEXTSIZE
 40
2.000000
  9
$TRACEWID
 40
0.050000
  9
$TEXTSTYLE
  7
STANDARD
  9
$CLAYER
  8
0
  9
$CELTYPE
  6
BYLAYER
  9
$CECOLOR
 62
   256
  9
$DIMSCALE
 40
1.000000
  9
$DIMASZ
 40
1.000000
  9
$DIMEXO
 40
0.000000
  9
$DIMDLI
 40
0.500000
  9
$DIMRND
 40
0.000000
  9
$DIMDLE
 40
0.000000
  9
$DIMEXE
 40
0.000000
  9
$DIMTP
 40
0.000000
  9
$DIMTM
 40
0.000000
  9
$DIMTXT
 40
3.000000
  9
$DIMCEN
 40
0.000000
  9
$DIMTSZ
 40
0.000000
  9
$DIMTOL
 70
     0
  9
$DIMLIM
 70
     0
  9
$DIMTIH
 70
     1
  9
$DIMTOH
 70
     1
  9
$DIMSE1
 70
     0
  9
$DIMSE2
 70
     0
  9
$DIMTAD
 70
     0
  9
$DIMZIN
 70
     0
  9
$DIMBLK
  1

  9
$DIMASO
 70
     0
  9
$DIMSHO
 70
     0
  9
$DIMPOST
  1

  9
$DIMAPOST
  1

  9
$DIMALT
 70
     0
  9
$DIMALTD
 70
     0
  9
$DIMALTF
 40
25.400000
  9
$DIMLFAC
 40
1.000000
  9
$DIMTOFL
 70
     0
  9
$DIMTVP
 40
0.000000
  9
$DIMTIX
 70
     0
  9
$DIMSOXD
 70
     0
  9
$DIMSAH
 70
     0
  9
$DIMBLKL
  1

  9
$DIMBLKR
  1

  9
$LUNITS
 70
     2
  9
$LUPREC
 70
     2
  9
$AXISMODE
 70
     0
  9
$AXISUNIT
 10
1.000000
 20
1.000000
  9
$SKETCHINC
 40
0.000000
  9
$FILLETRAD
 40
0.000000
  9
$AUNITS
 70
     1
  9
$AUPREC
 70
     2
  9
$MENU
  1
ACAD
  9
$ELEVATION
 40
0.000000
  9
$THICKNESS
 40
0.000000
  9
$VIEWDIR
 10
0.000000
 20
0.000000
 30
1.000000
  9
$LIMCHECK
 70
     1
  9
$BLIPMODE
 70
     1
  9
$CHAMFERA
 40
0.000000
  9
$CHAMFERB
 40
0.000000
  9
$FASTZOOM
 70
     1
  9
$SKPOLY
 70
     0
  9
$TDCREATE
 40
0.000000
  9
$TDUPDATE
 40
0.000000
  9
$TDINDWG
 40
0.000000
  9
$TDUSRTIMER
 40
0.000000
  9
$USRTIMER
 70
     1
  9
$ANGBASE
 50
0.000000
  9
$ANGDIR
 70
     0
  9
$PDMODE
 70
     0
  9
$PDSIZE
 40
0.000000
  9
$PLINEWID
 40
0.000000
  9
$COORDS
 70
     2
  9
$USERI1
 70
     0
  9
$USERI2
 70
     0
  9
$USERI3
 70
     0
  9
$USERI4
 70
     0
  9
$USERI5
 70
     0
  9
$USERR1
 40
0.000000
  9
$USERR2
 40
0.000000
  9
$USERR3
 40
0.000000
  9
$USERR4
 40
0.000000
  9
$USERR5
 40
0.000000
  0
ENDSEC
  0
SECTION
  2
TABLES
  0
TABLE
  2
LTYPE
 70
     5
  0
LTYPE
  2
CONTINUOUS
 70
    64
  3
Solid line
 72
    65
 73
     0
 40
0.0
  0
LTYPE
  2
HIDDEN
 70
    64
  3
------------------------
 72
    65
 73
     2
 40
12.6
 49
8.4
 49
-4.2
  0
LTYPE
  2
DOT
 70
    64
  3
････････････････････････
 72
    65
 73
     2
 40
8.0
 49
6.0
 49
-2.0
  0
LTYPE
  2
DASHDOT
 70
    64
  3
--･--･--･--･--･--･--･--
 72
    65
 73
     4
 40
50.5
 49
30.0
 49
-9.0
 49
2.5
 49
-9.0
  0
LTYPE
  2
DIVIDE
 70
    64
  3
--･･--･･--･･--･･--･･--
 72
    65
 73
     6
 40
58.0
 49
30.0
 49
-9.0
 49
2.5
 49
-5.0
 49
2.5
 49
-9.0
  0
LTYPE
  2
ACAD_ISO06W100
 70
    64
  3
____ ... ____ ... ____
 72
    65
 73
     8
 40
37.5
 49
24.0
 49
-3.0
 49
0.5
 49
-3.0
 49
0.5
 49
-3.0
 49
0.5
 49
-3.0
  0
LTYPE
  2
ACAD_ISO14W100
 70
    64
  3
__ . . . __ . . . __ . . . 
 72
    65
 73
     8
 40
25.5
 49
12.0
 49
-3.0
 49
0.5
 49
-3.0
 49
0.5
 49
-3.0
 49
0.5
 49
-3.0
  0
ENDTAB
  0
TABLE
  2
LAYER
 70
1
  0
LAYER
  2
1
 70
64
 62
7
  6
CONTINUOUS
  0
ENDTAB
  0
TABLE
  2
STYLE
 70
     2
  0
STYLE
  2
STANDARD
 70
    64
 40
0.0
 41
1.0
 50
0.0
 71
     0
 42
0.2
  3
TXT
  4

  0
STYLE
  2
KANJI
 70
    64
 40
0.0
 41
1.0
 50
0.0
 71
     0
 42
0.2
  3
TXT
  4
BIGFONT
  0
ENDTAB
  0
TABLE
  2
VIEW
 70
     0
  0
ENDTAB
  0
ENDSEC
  0
SECTION
  2
BLOCKS
  0
BLOCK
  8
1
 62
7
  6
CONTINUOUS
  2
*D1
 70
    65
 10
0.0
 20
0.0
  0
LINE
  8
1
 62
7
  6
CONTINUOUS
 10
97.840694
 20
23.424310
 11
97.840694
 21
42.424310
  0
LINE
  8
1
 62
7
  6
CONTINUOUS
 10
95.840694
 20
23.424310
 11
117.124921
 21
23.424310
  0
LINE
  8
1
 62
7
  6
CONTINUOUS
 10
95.840694
 20
42.424310
 11
112.979866
 21
42.424310
  0
LINE
  8
1
 62
7
  6
CONTINUOUS
 10
97.840694
 20
23.424310
 11
97.064237
 21
26.322088
  0
LINE
  8
1
 62
7
  6
CONTINUOUS
 10
97.840694
 20
23.424310
 11
98.617151
 21
26.322088
  0
LINE
  8
1
 62
7
  6
CONTINUOUS
 10
97.840694
 20
42.424310
 11
98.617151
 21
39.526533
  0
LINE
  8
1
 62
7
  6
CONTINUOUS
 10
97.840694
 20
42.424310
 11
97.064237
 21
39.526533
  0
TEXT
  8
1
 62
7
  6
CONTINUOUS
 10
97.840694
 20
31.424310
 40
3.000000
 41
0.500000
  1
19
  7
KANJI
 50
90.000000
 51
30.000000
  0
ENDBLK
  0
BLOCK
  8
1
 62
7
  6
CONTINUOUS
  2
*D2
 70
    65
 10
0.0
 20
0.0
  0
LINE
  8
1
 62
7
  6
CONTINUOUS
 10
97.840694
 20
42.424310
 11
97.840694
 21
54.122111
  0
LINE
  8
1
 62
7
  6
CONTINUOUS
 10
95.840694
 20
42.424310
 11
112.979866
 21
42.424310
  0
LINE
  8
1
 62
7
  6
CONTINUOUS
 10
95.840694
 20
54.122111
 11
124.179866
 21
54.122111
  0
LINE
  8
1
 62
7
  6
CONTINUOUS
 10
97.840694
 20
42.424310
 11
97.064237
 21
45.322088
  0
LINE
  8
1
 62
7
  6
CONTINUOUS
 10
97.840694
 20
42.424310
 11
98.617151
 21
45.322088
  0
LINE
  8
1
 62
7
  6
CONTINUOUS
 10
97.840694
 20
54.122111
 11
98.617151
 21
51.224333
  0
LINE
  8
1
 62
7
  6
CONTINUOUS
 10
97.840694
 20
54.122111
 11
97.064237
 21
51.224333
  0
TEXT
  8
1
 62
7
  6
CONTINUOUS
 10
97.840694
 20
45.273211
 40
3.000000
 41
0.500000
  1
11.7
  7
KANJI
 50
90.000000
 51
30.000000
  0
ENDBLK
  0
BLOCK
  8
1
 62
7
  6
CONTINUOUS
  2
*D3
 70
    65
 10
0.0
 20
0.0
  0
LINE
  8
1
 62
7
  6
CONTINUOUS
 10
105.691551
 20
49.624310
 11
105.691551
 21
58.122111
  0
LINE
  8
1
 62
7
  6
CONTINUOUS
 10
103.691551
 20
53.624310
 11
124.179866
 21
53.624310
  0
LINE
  8
1
 62
7
  6
CONTINUOUS
 10
103.691551
 20
54.122111
 11
124.179866
 21
54.122111
  0
LINE
  8
1
 62
7
  6
CONTINUOUS
 10
105.691551
 20
53.624310
 11
106.468008
 21
50.726533
  0
LINE
  8
1
 62
7
  6
CONTINUOUS
 10
105.691551
 20
53.624310
 11
104.915094
 21
50.726533
  0
LINE
  8
1
 62
7
  6
CONTINUOUS
 10
105.691551
 20
54.122111
 11
104.915094
 21
57.019888
  0
LINE
  8
1
 62
7
  6
CONTINUOUS
 10
105.691551
 20
54.122111
 11
106.468008
 21
57.019888
  0
TEXT
  8
1
 62
7
  6
CONTINUOUS
 10
105.691551
 20
51.623211
 40
3.000000
 41
0.500000
  1
0.5
  7
KANJI
 50
90.000000
 51
30.000000
  0
ENDBLK
  0
BLOCK
  8
1
 62
7
  6
CONTINUOUS
  2
*D4
 70
    65
 10
0.0
 20
0.0
  0
LINE
  8
1
 62
7
  6
CONTINUOUS
 10
105.524512
 20
38.424310
 11
105.524512
 21
47.624310
  0
LINE
  8
1
 62
7
  6
CONTINUOUS
 10
103.524512
 20
42.424310
 11
112.979866
 21
42.424310
  0
LINE
  8
1
 62
7
  6
CONTINUOUS
 10
103.524512
 20
43.624310
 11
112.979866
 21
43.624310
  0
LINE
  8
1
 62
7
  6
CONTINUOUS
 10
105.524512
 20
42.424310
 11
106.300969
 21
39.526533
  0
LINE
  8
1
 62
7
  6
CONTINUOUS
 10
105.524512
 20
42.424310
 11
104.748055
 21
39.526533
  0
LINE
  8
1
 62
7
  6
CONTINUOUS
 10
105.524512
 20
43.624310
 11
104.748055
 21
46.522088
  0
LINE
  8
1
 62
7
  6
CONTINUOUS
 10
105.524512
 20
43.624310
 11
106.300969
 21
46.522088
  0
TEXT
  8
1
 62
7
  6
CONTINUOUS
 10
105.524512
 20
40.774310
 40
3.000000
 41
0.500000
  1
1.2
  7
KANJI
 50
90.000000
 51
30.000000
  0
ENDBLK
  0
BLOCK
  8
1
 62
7
  6
CONTINUOUS
  2
*D5
 70
    65
 10
0.0
 20
0.0
  0
LINE
  8
1
 62
7
  6
CONTINUOUS
 10
124.979866
 20
82.684564
 11
192.979866
 21
82.684564
  0
LINE
  8
1
 62
7
  6
CONTINUOUS
 10
124.979866
 20
80.684564
 11
124.979866
 21
96.392617
  0
LINE
  8
1
 62
7
  6
CONTINUOUS
 10
192.979866
 20
80.684564
 11
192.979866
 21
96.392617
  0
LINE
  8
1
 62
7
  6
CONTINUOUS
 10
124.979866
 20
82.684564
 11
127.877643
 21
83.461021
  0
LINE
  8
1
 62
7
  6
CONTINUOUS
 10
124.979866
 20
82.684564
 11
127.877643
 21
81.908107
  0
LINE
  8
1
 62
7
  6
CONTINUOUS
 10
192.979866
 20
82.684564
 11
190.082088
 21
81.908107
  0
LINE
  8
1
 62
7
  6
CONTINUOUS
 10
192.979866
 20
82.684564
 11
190.082088
 21
83.461021
  0
TEXT
  8
1
 62
7
  6
CONTINUOUS
 10
157.479866
 20
82.684564
 40
3.000000
 41
0.500000
  1
68
  7
KANJI
 50
0.000000
 51
30.000000
  0
ENDBLK
  0
BLOCK
  8
1
 62
7
  6
CONTINUOUS
  2
*D6
 70
    65
 10
0.0
 20
0.0
  0
LINE
  8
1
 62
7
  6
CONTINUOUS
 10
119.979866
 20
78.174497
 11
197.979866
 21
78.174497
  0
LINE
  8
1
 62
7
  6
CONTINUOUS
 10
119.979866
 20
76.174497
 11
119.979866
 21
110.240119
  0
LINE
  8
1
 62
7
  6
CONTINUOUS
 10
197.979866
 20
76.174497
 11
197.979866
 21
109.906040
  0
LINE
  8
1
 62
7
  6
CONTINUOUS
 10
119.979866
 20
78.174497
 11
122.877643
 21
78.950954
  0
LINE
  8
1
 62
7
  6
CONTINUOUS
 10
119.979866
 20
78.174497
 11
122.877643
 21
77.398040
  0
LINE
  8
1
 62
7
  6
CONTINUOUS
 10
197.979866
 20
78.174497
 11
195.082088
 21
77.398040
  0
LINE
  8
1
 62
7
  6
CONTINUOUS
 10
197.979866
 20
78.174497
 11
195.082088
 21
78.950954
  0
TEXT
  8
1
 62
7
  6
CONTINUOUS
 10
157.479866
 20
78.174497
 40
3.000000
 41
0.500000
  1
78
  7
KANJI
 50
0.000000
 51
30.000000
  0
ENDBLK
  0
BLOCK
  8
1
 62
7
  6
CONTINUOUS
  2
*D7
 70
    65
 10
0.0
 20
0.0
  0
LINE
  8
1
 62
7
  6
CONTINUOUS
 10
114.979866
 20
73.852349
 11
202.979866
 21
73.852349
  0
LINE
  8
1
 62
7
  6
CONTINUOUS
 10
114.979866
 20
71.852349
 11
114.979866
 21
99.392617
  0
LINE
  8
1
 62
7
  6
CONTINUOUS
 10
202.979866
 20
71.852349
 11
202.979866
 21
99.392617
  0
LINE
  8
1
 62
7
  6
CONTINUOUS
 10
114.979866
 20
73.852349
 11
117.877643
 21
74.628806
  0
LINE
  8
1
 62
7
  6
CONTINUOUS
 10
114.979866
 20
73.852349
 11
117.877643
 21
73.075892
  0
LINE
  8
1
 62
7
  6
CONTINUOUS
 10
202.979866
 20
73.852349
 11
200.082088
 21
73.075892
  0
LINE
  8
1
 62
7
  6
CONTINUOUS
 10
202.979866
 20
73.852349
 11
200.082088
 21
74.628806
  0
TEXT
  8
1
 62
7
  6
CONTINUOUS
 10
157.479866
 20
73.852349
 40
3.000000
 41
0.500000
  1
88
  7
KANJI
 50
0.000000
 51
30.000000
  0
ENDBLK
  0
BLOCK
  8
1
 62
7
  6
CONTINUOUS
  2
*D8
 70
    65
 10
0.0
 20
0.0
  0
LINE
  8
1
 62
7
  6
CONTINUOUS
 10
95.901566
 20
98.392617
 11
95.901566
 21
182.392617
  0
LINE
  8
1
 62
7
  6
CONTINUOUS
 10
93.901566
 20
98.392617
 11
115.979866
 21
98.392617
  0
LINE
  8
1
 62
7
  6
CONTINUOUS
 10
93.901566
 20
182.392617
 11
115.979866
 21
182.392617
  0
LINE
  8
1
 62
7
  6
CONTINUOUS
 10
95.901566
 20
98.392617
 11
95.125109
 21
101.290395
  0
LINE
  8
1
 62
7
  6
CONTINUOUS
 10
95.901566
 20
98.392617
 11
96.678023
 21
101.290395
  0
LINE
  8
1
 62
7
  6
CONTINUOUS
 10
95.901566
 20
182.392617
 11
96.678023
 21
179.494840
  0
LINE
  8
1
 62
7
  6
CONTINUOUS
 10
95.901566
 20
182.392617
 11
95.125109
 21
179.494840
  0
TEXT
  8
1
 62
7
  6
CONTINUOUS
 10
95.901566
 20
138.892617
 40
3.000000
 41
0.500000
  1
84
  7
KANJI
 50
90.000000
 51
30.000000
  0
ENDBLK
  0
BLOCK
  8
1
 62
7
  6
CONTINUOUS
  2
*D9
 70
    65
 10
0.0
 20
0.0
  0
LINE
  8
1
 62
7
  6
CONTINUOUS
 10
100.975391
 20
100.392617
 11
100.975391
 21
180.392617
  0
LINE
  8
1
 62
7
  6
CONTINUOUS
 10
98.975391
 20
100.392617
 11
124.979866
 21
100.392617
  0
LINE
  8
1
 62
7
  6
CONTINUOUS
 10
98.975391
 20
180.392617
 11
124.979866
 21
180.392617
  0
LINE
  8
1
 62
7
  6
CONTINUOUS
 10
100.975391
 20
100.392617
 11
100.198934
 21
103.290395
  0
LINE
  8
1
 62
7
  6
CONTINUOUS
 10
100.975391
 20
100.392617
 11
101.751849
 21
103.290395
  0
LINE
  8
1
 62
7
  6
CONTINUOUS
 10
100.975391
 20
180.392617
 11
101.751849
 21
177.494840
  0
LINE
  8
1
 62
7
  6
CONTINUOUS
 10
100.975391
 20
180.392617
 11
100.198934
 21
177.494840
  0
TEXT
  8
1
 62
7
  6
CONTINUOUS
 10
100.975391
 20
138.892617
 40
3.000000
 41
0.500000
  1
80
  7
KANJI
 50
90.000000
 51
30.000000
  0
ENDBLK
  0
BLOCK
  8
1
 62
7
  6
CONTINUOUS
  2
*D10
 70
    65
 10
0.0
 20
0.0
  0
LINE
  8
1
 62
7
  6
CONTINUOUS
 10
126.979866
 20
86.724832
 11
190.979866
 21
86.724832
  0
LINE
  8
1
 62
7
  6
CONTINUOUS
 10
126.979866
 20
84.724832
 11
126.979866
 21
98.392617
  0
LINE
  8
1
 62
7
  6
CONTINUOUS
 10
190.979866
 20
84.724832
 11
190.979866
 21
98.392617
  0
LINE
  8
1
 62
7
  6
CONTINUOUS
 10
126.979866
 20
86.724832
 11
129.877643
 21
87.501289
  0
LINE
  8
1
 62
7
  6
CONTINUOUS
 10
126.979866
 20
86.724832
 11
129.877643
 21
85.948375
  0
LINE
  8
1
 62
7
  6
CONTINUOUS
 10
190.979866
 20
86.724832
 11
188.082088
 21
85.948375
  0
LINE
  8
1
 62
7
  6
CONTINUOUS
 10
190.979866
 20
86.724832
 11
188.082088
 21
87.501289
  0
TEXT
  8
1
 62
7
  6
CONTINUOUS
 10
157.479866
 20
86.724832
 40
3.000000
 41
0.500000
  1
64
  7
KANJI
 50
0.000000
 51
30.000000
  0
ENDBLK
  0
BLOCK
  8
1
 62
7
  6
CONTINUOUS
  2
*D11
 70
    65
 10
0.0
 20
0.0
  0
LINE
  8
1
 62
7
  6
CONTINUOUS
 10
105.955257
 20
115.392617
 11
105.955257
 21
140.392617
  0
LINE
  8
1
 62
7
  6
CONTINUOUS
 10
103.955257
 20
115.392617
 11
114.587621
 21
115.392617
  0
LINE
  8
1
 62
7
  6
CONTINUOUS
 10
103.955257
 20
140.392617
 11
115.088740
 21
140.392617
  0
LINE
  8
1
 62
7
  6
CONTINUOUS
 10
105.955257
 20
115.392617
 11
105.178800
 21
118.290395
  0
LINE
  8
1
 62
7
  6
CONTINUOUS
 10
105.955257
 20
115.392617
 11
106.731714
 21
118.290395
  0
LINE
  8
1
 62
7
  6
CONTINUOUS
 10
105.955257
 20
140.392617
 11
106.731714
 21
137.494840
  0
LINE
  8
1
 62
7
  6
CONTINUOUS
 10
105.955257
 20
140.392617
 11
105.178800
 21
137.494840
  0
TEXT
  8
1
 62
7
  6
CONTINUOUS
 10
105.955257
 20
126.392617
 40
3.000000
 41
0.500000
  1
25
  7
KANJI
 50
90.000000
 51
30.000000
  0
ENDBLK
  0
BLOCK
  8
1
 62
7
  6
CONTINUOUS
  2
*D12
 70
    65
 10
0.0
 20
0.0
  0
LINE
  8
1
 62
7
  6
CONTINUOUS
 10
105.955257
 20
140.392617
 11
105.955257
 21
165.392617
  0
LINE
  8
1
 62
7
  6
CONTINUOUS
 10
103.955257
 20
140.392617
 11
115.979866
 21
140.392617
  0
LINE
  8
1
 62
7
  6
CONTINUOUS
 10
103.955257
 20
165.392617
 11
115.088740
 21
165.392617
  0
LINE
  8
1
 62
7
  6
CONTINUOUS
 10
105.955257
 20
140.392617
 11
105.178800
 21
143.290395
  0
LINE
  8
1
 62
7
  6
CONTINUOUS
 10
105.955257
 20
140.392617
 11
106.731714
 21
143.290395
  0
LINE
  8
1
 62
7
  6
CONTINUOUS
 10
105.955257
 20
165.392617
 11
106.731714
 21
162.494840
  0
LINE
  8
1
 62
7
  6
CONTINUOUS
 10
105.955257
 20
165.392617
 11
105.178800
 21
162.494840
  0
TEXT
  8
1
 62
7
  6
CONTINUOUS
 10
105.955257
 20
151.392617
 40
3.000000
 41
0.500000
  1
25
  7
KANJI
 50
90.000000
 51
30.000000
  0
ENDBLK
  0
BLOCK
  8
1
 62
7
  6
CONTINUOUS
  2
*D13
 70
    65
 10
0.0
 20
0.0
  0
LINE
  8
1
 62
7
  6
CONTINUOUS
 10
141.409396
 20
188.890380
 11
158.909396
 21
188.890380
  0
LINE
  8
1
 62
7
  6
CONTINUOUS
 10
141.409396
 20
190.890380
 11
141.409396
 21
179.897092
  0
LINE
  8
1
 62
7
  6
CONTINUOUS
 10
158.909396
 20
190.890380
 11
158.909396
 21
179.897092
  0
LINE
  8
1
 62
7
  6
CONTINUOUS
 10
141.409396
 20
188.890380
 11
144.307173
 21
189.666837
  0
LINE
  8
1
 62
7
  6
CONTINUOUS
 10
141.409396
 20
188.890380
 11
144.307173
 21
188.113923
  0
LINE
  8
1
 62
7
  6
CONTINUOUS
 10
158.909396
 20
188.890380
 11
156.011618
 21
188.113923
  0
LINE
  8
1
 62
7
  6
CONTINUOUS
 10
158.909396
 20
188.890380
 11
156.011618
 21
189.666837
  0
TEXT
  8
1
 62
7
  6
CONTINUOUS
 10
147.159396
 20
188.890380
 40
3.000000
 41
0.500000
  1
17.5
  7
KANJI
 50
0.000000
 51
30.000000
  0
ENDBLK
  0
BLOCK
  8
1
 62
7
  6
CONTINUOUS
  2
*D14
 70
    65
 10
0.0
 20
0.0
  0
LINE
  8
1
 62
7
  6
CONTINUOUS
 10
158.909396
 20
188.890380
 11
176.409396
 21
188.890380
  0
LINE
  8
1
 62
7
  6
CONTINUOUS
 10
158.909396
 20
190.890380
 11
158.909396
 21
179.897092
  0
LINE
  8
1
 62
7
  6
CONTINUOUS
 10
176.409396
 20
190.890380
 11
176.409396
 21
179.897092
  0
LINE
  8
1
 62
7
  6
CONTINUOUS
 10
158.909396
 20
188.890380
 11
161.807173
 21
189.666837
  0
LINE
  8
1
 62
7
  6
CONTINUOUS
 10
158.909396
 20
188.890380
 11
161.807173
 21
188.113923
  0
LINE
  8
1
 62
7
  6
CONTINUOUS
 10
176.409396
 20
188.890380
 11
173.511618
 21
188.113923
  0
LINE
  8
1
 62
7
  6
CONTINUOUS
 10
176.409396
 20
188.890380
 11
173.511618
 21
189.666837
  0
TEXT
  8
1
 62
7
  6
CONTINUOUS
 10
164.659396
 20
188.890380
 40
3.000000
 41
0.500000
  1
17.5
  7
KANJI
 50
0.000000
 51
30.000000
  0
ENDBLK
  0
ENDSEC
  0
SECTION
  2
ENTITIES
  0
LINE
  8
1
 62
7
  6
CONTINUOUS
 10
74.161074
 20
4904.785235
 11
30.161074
 21
4904.785235
  0
LINE
  8
1
 62
7
  6
CONTINUOUS
 10
186.771812
 20
4904.221477
 11
121.771812
 21
4904.221477
  0
LINE
  8
1
 62
7
  6
CONTINUOUS
 10
74.161074
 20
4953.285235
 11
30.161074
 21
4953.285235
  0
LINE
  8
1
 62
7
  6
CONTINUOUS
 10
186.771812
 20
4952.721477
 11
121.771812
 21
4952.721477
  0
LINE
  8
1
 62
7
  6
CONTINUOUS
 10
327.262342
 20
169.976137
 11
331.204474
 21
169.976137
  0
LINE
  8
1
 62
7
  6
CONTINUOUS
 10
329.352722
 20
171.627442
 11
329.352722
 21
168.487099
  0
ARC
  8
1
 62
7
  6
CONTINUOUS
 10
323.752722
 20
175.576137
 40
0.800000
 50
90.000000
 51
180.000000
  0
LINE
  8
1
 62
7
  6
CONTINUOUS
 10
323.752722
 20
176.376137
 11
334.952722
 21
176.376137
  0
ARC
  8
1
 62
7
  6
CONTINUOUS
 10
334.952722
 20
175.576137
 40
0.800000
 50
-0.000000
 51
90.000000
  0
LINE
  8
1
 62
7
  6
CONTINUOUS
 10
335.752722
 20
175.576137
 11
335.752722
 21
164.376137
  0
ARC
  8
1
 62
7
  6
CONTINUOUS
 10
334.952722
 20
164.376137
 40
0.800000
 50
-90.000000
 51
0.000000
  0
LINE
  8
1
 62
7
  6
CONTINUOUS
 10
334.952722
 20
163.576137
 11
323.752722
 21
163.576137
  0
LINE
  8
1
 62
7
  6
CONTINUOUS
 10
322.952722
 20
164.376137
 11
322.952722
 21
175.576137
  0
ARC
  8
1
 62
7
  6
CONTINUOUS
 10
323.752722
 20
164.376137
 40
0.800000
 50
180.000000
 51
-90.000000
  0
LINE
  8
1
 62
7
  6
CONTINUOUS
 10
344.762342
 20
169.976137
 11
348.704474
 21
169.976137
  0
LINE
  8
1
 62
7
  6
CONTINUOUS
 10
346.852722
 20
171.627442
 11
346.852722
 21
168.487099
  0
ARC
  8
1
 62
7
  6
CONTINUOUS
 10
341.252722
 20
175.576137
 40
0.800000
 50
90.000000
 51
180.000000
  0
LINE
  8
1
 62
7
  6
CONTINUOUS
 10
341.252722
 20
176.376137
 11
352.452722
 21
176.376137
  0
ARC
  8
1
 62
7
  6
CONTINUOUS
 10
352.452722
 20
175.576137
 40
0.800000
 50
-0.000000
 51
90.000000
  0
LINE
  8
1
 62
7
  6
CONTINUOUS
 10
353.252722
 20
175.576137
 11
353.252722
 21
164.376137
  0
ARC
  8
1
 62
7
  6
CONTINUOUS
 10
352.452722
 20
164.376137
 40
0.800000
 50
-90.000000
 51
0.000000
  0
LINE
  8
1
 62
7
  6
CONTINUOUS
 10
352.452722
 20
163.576137
 11
341.252722
 21
163.576137
  0
LINE
  8
1
 62
7
  6
CONTINUOUS
 10
340.452722
 20
164.376137
 11
340.452722
 21
175.576137
  0
ARC
  8
1
 62
7
  6
CONTINUOUS
 10
341.252722
 20
164.376137
 40
0.800000
 50
180.000000
 51
-90.000000
  0
LINE
  8
1
 62
7
  6
CONTINUOUS
 10
362.262342
 20
169.976137
 11
366.204474
 21
169.976137
  0
LINE
  8
1
 62
7
  6
CONTINUOUS
 10
364.352722
 20
171.627442
 11
364.352722
 21
168.487099
  0
ARC
  8
1
 62
7
  6
CONTINUOUS
 10
358.752722
 20
175.576137
 40
0.800000
 50
90.000000
 51
180.000000
  0
LINE
  8
1
 62
7
  6
CONTINUOUS
 10
358.752722
 20
176.376137
 11
369.952722
 21
176.376137
  0
ARC
  8
1
 62
7
  6
CONTINUOUS
 10
369.952722
 20
175.576137
 40
0.800000
 50
-0.000000
 51
90.000000
  0
LINE
  8
1
 62
7
  6
CONTINUOUS
 10
370.752722
 20
175.576137
 11
370.752722
 21
164.376137
  0
ARC
  8
1
 62
7
  6
CONTINUOUS
 10
369.952722
 20
164.376137
 40
0.800000
 50
-90.000000
 51
0.000000
  0
LINE
  8
1
 62
7
  6
CONTINUOUS
 10
369.952722
 20
163.576137
 11
358.752722
 21
163.576137
  0
LINE
  8
1
 62
7
  6
CONTINUOUS
 10
357.952722
 20
164.376137
 11
357.952722
 21
175.576137
  0
ARC
  8
1
 62
7
  6
CONTINUOUS
 10
358.752722
 20
164.376137
 40
0.800000
 50
180.000000
 51
-90.000000
  0
LINE
  8
1
 62
7
  6
CONTINUOUS
 10
327.262342
 20
152.476137
 11
331.204474
 21
152.476137
  0
LINE
  8
1
 62
7
  6
CONTINUOUS
 10
329.352722
 20
154.127442
 11
329.352722
 21
150.987099
  0
ARC
  8
1
 62
7
  6
CONTINUOUS
 10
323.752722
 20
158.076137
 40
0.800000
 50
90.000000
 51
180.000000
  0
LINE
  8
1
 62
7
  6
CONTINUOUS
 10
323.752722
 20
158.876137
 11
334.952722
 21
158.876137
  0
ARC
  8
1
 62
7
  6
CONTINUOUS
 10
334.952722
 20
158.076137
 40
0.800000
 50
-0.000000
 51
90.000000
  0
LINE
  8
1
 62
7
  6
CONTINUOUS
 10
335.752722
 20
158.076137
 11
335.752722
 21
146.876137
  0
ARC
  8
1
 62
7
  6
CONTINUOUS
 10
334.952722
 20
146.876137
 40
0.800000
 50
-90.000000
 51
0.000000
  0
LINE
  8
1
 62
7
  6
CONTINUOUS
 10
334.952722
 20
146.076137
 11
323.752722
 21
146.076137
  0
LINE
  8
1
 62
7
  6
CONTINUOUS
 10
322.952722
 20
146.876137
 11
322.952722
 21
158.076137
  0
ARC
  8
1
 62
7
  6
CONTINUOUS
 10
323.752722
 20
146.876137
 40
0.800000
 50
180.000000
 51
-90.000000
  0
LINE
  8
1
 62
7
  6
CONTINUOUS
 10
344.762342
 20
152.476137
 11
348.704474
 21
152.476137
  0
LINE
  8
1
 62
7
  6
CONTINUOUS
 10
346.852722
 20
154.127442
 11
346.852722
 21
150.987099
  0
ARC
  8
1
 62
7
  6
CONTINUOUS
 10
341.252722
 20
158.076137
 40
0.800000
 50
90.000000
 51
180.000000
  0
LINE
  8
1
 62
7
  6
CONTINUOUS
 10
341.252722
 20
158.876137
 11
352.452722
 21
158.876137
  0
ARC
  8
1
 62
7
  6
CONTINUOUS
 10
352.452722
 20
158.076137
 40
0.800000
 50
-0.000000
 51
90.000000
  0
LINE
  8
1
 62
7
  6
CONTINUOUS
 10
353.252722
 20
158.076137
 11
353.252722
 21
146.876137
  0
ARC
  8
1
 62
7
  6
CONTINUOUS
 10
352.452722
 20
146.876137
 40
0.800000
 50
-90.000000
 51
0.000000
  0
LINE
  8
1
 62
7
  6
CONTINUOUS
 10
352.452722
 20
146.076137
 11
341.252722
 21
146.076137
  0
LINE
  8
1
 62
7
  6
CONTINUOUS
 10
340.452722
 20
146.876137
 11
340.452722
 21
158.076137
  0
ARC
  8
1
 62
7
  6
CONTINUOUS
 10
341.252722
 20
146.876137
 40
0.800000
 50
180.000000
 51
-90.000000
  0
LINE
  8
1
 62
7
  6
CONTINUOUS
 10
362.262342
 20
152.476137
 11
366.204474
 21
152.476137
  0
LINE
  8
1
 62
7
  6
CONTINUOUS
 10
364.352722
 20
154.127442
 11
364.352722
 21
150.987099
  0
ARC
  8
1
 62
7
  6
CONTINUOUS
 10
358.752722
 20
158.076137
 40
0.800000
 50
90.000000
 51
180.000000
  0
LINE
  8
1
 62
7
  6
CONTINUOUS
 10
358.752722
 20
158.876137
 11
369.952722
 21
158.876137
  0
ARC
  8
1
 62
7
  6
CONTINUOUS
 10
369.952722
 20
158.076137
 40
0.800000
 50
-0.000000
 51
90.000000
  0
LINE
  8
1
 62
7
  6
CONTINUOUS
 10
370.752722
 20
158.076137
 11
370.752722
 21
146.876137
  0
ARC
  8
1
 62
7
  6
CONTINUOUS
 10
369.952722
 20
146.876137
 40
0.800000
 50
-90.000000
 51
0.000000
  0
LINE
  8
1
 62
7
  6
CONTINUOUS
 10
369.952722
 20
146.076137
 11
358.752722
 21
146.076137
  0
LINE
  8
1
 62
7
  6
CONTINUOUS
 10
357.952722
 20
146.876137
 11
357.952722
 21
158.076137
  0
ARC
  8
1
 62
7
  6
CONTINUOUS
 10
358.752722
 20
146.876137
 40
0.800000
 50
180.000000
 51
-90.000000
  0
LINE
  8
1
 62
7
  6
CONTINUOUS
 10
327.262342
 20
134.976137
 11
331.204474
 21
134.976137
  0
LINE
  8
1
 62
7
  6
CONTINUOUS
 10
329.352722
 20
136.627442
 11
329.352722
 21
133.487099
  0
ARC
  8
1
 62
7
  6
CONTINUOUS
 10
323.752722
 20
140.576137
 40
0.800000
 50
90.000000
 51
180.000000
  0
LINE
  8
1
 62
7
  6
CONTINUOUS
 10
323.752722
 20
141.376137
 11
334.952722
 21
141.376137
  0
ARC
  8
1
 62
7
  6
CONTINUOUS
 10
334.952722
 20
140.576137
 40
0.800000
 50
-0.000000
 51
90.000000
  0
LINE
  8
1
 62
7
  6
CONTINUOUS
 10
335.752722
 20
140.576137
 11
335.752722
 21
129.376137
  0
ARC
  8
1
 62
7
  6
CONTINUOUS
 10
334.952722
 20
129.376137
 40
0.800000
 50
-90.000000
 51
0.000000
  0
LINE
  8
1
 62
7
  6
CONTINUOUS
 10
334.952722
 20
128.576137
 11
323.752722
 21
128.576137
  0
LINE
  8
1
 62
7
  6
CONTINUOUS
 10
322.952722
 20
129.376137
 11
322.952722
 21
140.576137
  0
ARC
  8
1
 62
7
  6
CONTINUOUS
 10
323.752722
 20
129.376137
 40
0.800000
 50
180.000000
 51
-90.000000
  0
LINE
  8
1
 62
7
  6
CONTINUOUS
 10
344.762342
 20
134.976137
 11
348.704474
 21
134.976137
  0
LINE
  8
1
 62
7
  6
CONTINUOUS
 10
346.852722
 20
136.627442
 11
346.852722
 21
133.487099
  0
ARC
  8
1
 62
7
  6
CONTINUOUS
 10
341.252722
 20
140.576137
 40
0.800000
 50
90.000000
 51
180.000000
  0
LINE
  8
1
 62
7
  6
CONTINUOUS
 10
341.252722
 20
141.376137
 11
352.452722
 21
141.376137
  0
ARC
  8
1
 62
7
  6
CONTINUOUS
 10
352.452722
 20
140.576137
 40
0.800000
 50
-0.000000
 51
90.000000
  0
LINE
  8
1
 62
7
  6
CONTINUOUS
 10
353.252722
 20
140.576137
 11
353.252722
 21
129.376137
  0
ARC
  8
1
 62
7
  6
CONTINUOUS
 10
352.452722
 20
129.376137
 40
0.800000
 50
-90.000000
 51
0.000000
  0
LINE
  8
1
 62
7
  6
CONTINUOUS
 10
352.452722
 20
128.576137
 11
341.252722
 21
128.576137
  0
LINE
  8
1
 62
7
  6
CONTINUOUS
 10
340.452722
 20
129.376137
 11
340.452722
 21
140.576137
  0
ARC
  8
1
 62
7
  6
CONTINUOUS
 10
341.252722
 20
129.376137
 40
0.800000
 50
180.000000
 51
-90.000000
  0
LINE
  8
1
 62
7
  6
CONTINUOUS
 10
362.262342
 20
134.976137
 11
366.204474
 21
134.976137
  0
LINE
  8
1
 62
7
  6
CONTINUOUS
 10
364.352722
 20
136.627442
 11
364.352722
 21
133.487099
  0
ARC
  8
1
 62
7
  6
CONTINUOUS
 10
358.752722
 20
140.576137
 40
0.800000
 50
90.000000
 51
180.000000
  0
LINE
  8
1
 62
7
  6
CONTINUOUS
 10
358.752722
 20
141.376137
 11
369.952722
 21
141.376137
  0
ARC
  8
1
 62
7
  6
CONTINUOUS
 10
369.952722
 20
140.576137
 40
0.800000
 50
-0.000000
 51
90.000000
  0
LINE
  8
1
 62
7
  6
CONTINUOUS
 10
370.752722
 20
140.576137
 11
370.752722
 21
129.376137
  0
ARC
  8
1
 62
7
  6
CONTINUOUS
 10
369.952722
 20
129.376137
 40
0.800000
 50
-90.000000
 51
0.000000
  0
LINE
  8
1
 62
7
  6
CONTINUOUS
 10
369.952722
 20
128.576137
 11
358.752722
 21
128.576137
  0
LINE
  8
1
 62
7
  6
CONTINUOUS
 10
357.952722
 20
129.376137
 11
357.952722
 21
140.576137
  0
ARC
  8
1
 62
7
  6
CONTINUOUS
 10
358.752722
 20
129.376137
 40
0.800000
 50
180.000000
 51
-90.000000
  0
LINE
  8
1
 62
7
  6
CONTINUOUS
 10
327.262342
 20
117.476137
 11
331.204474
 21
117.476137
  0
LINE
  8
1
 62
7
  6
CONTINUOUS
 10
329.352722
 20
119.127442
 11
329.352722
 21
115.987099
  0
ARC
  8
1
 62
7
  6
CONTINUOUS
 10
323.752722
 20
123.076137
 40
0.800000
 50
90.000000
 51
180.000000
  0
LINE
  8
1
 62
7
  6
CONTINUOUS
 10
323.752722
 20
123.876137
 11
334.952722
 21
123.876137
  0
ARC
  8
1
 62
7
  6
CONTINUOUS
 10
334.952722
 20
123.076137
 40
0.800000
 50
-0.000000
 51
90.000000
  0
LINE
  8
1
 62
7
  6
CONTINUOUS
 10
335.752722
 20
123.076137
 11
335.752722
 21
111.876137
  0
ARC
  8
1
 62
7
  6
CONTINUOUS
 10
334.952722
 20
111.876137
 40
0.800000
 50
-90.000000
 51
0.000000
  0
LINE
  8
1
 62
7
  6
CONTINUOUS
 10
334.952722
 20
111.076137
 11
323.752722
 21
111.076137
  0
LINE
  8
1
 62
7
  6
CONTINUOUS
 10
322.952722
 20
111.876137
 11
322.952722
 21
123.076137
  0
ARC
  8
1
 62
7
  6
CONTINUOUS
 10
323.752722
 20
111.876137
 40
0.800000
 50
180.000000
 51
-90.000000
  0
LINE
  8
1
 62
7
  6
CONTINUOUS
 10
344.762342
 20
117.476137
 11
348.704474
 21
117.476137
  0
LINE
  8
1
 62
7
  6
CONTINUOUS
 10
346.852722
 20
119.127442
 11
346.852722
 21
115.987099
  0
ARC
  8
1
 62
7
  6
CONTINUOUS
 10
341.252722
 20
123.076137
 40
0.800000
 50
90.000000
 51
180.000000
  0
LINE
  8
1
 62
7
  6
CONTINUOUS
 10
341.252722
 20
123.876137
 11
352.452722
 21
123.876137
  0
ARC
  8
1
 62
7
  6
CONTINUOUS
 10
352.452722
 20
123.076137
 40
0.800000
 50
-0.000000
 51
90.000000
  0
LINE
  8
1
 62
7
  6
CONTINUOUS
 10
353.252722
 20
123.076137
 11
353.252722
 21
111.876137
  0
ARC
  8
1
 62
7
  6
CONTINUOUS
 10
352.452722
 20
111.876137
 40
0.800000
 50
-90.000000
 51
0.000000
  0
LINE
  8
1
 62
7
  6
CONTINUOUS
 10
352.452722
 20
111.076137
 11
341.252722
 21
111.076137
  0
LINE
  8
1
 62
7
  6
CONTINUOUS
 10
340.452722
 20
111.876137
 11
340.452722
 21
123.076137
  0
ARC
  8
1
 62
7
  6
CONTINUOUS
 10
341.252722
 20
111.876137
 40
0.800000
 50
180.000000
 51
-90.000000
  0
LINE
  8
1
 62
7
  6
CONTINUOUS
 10
362.262342
 20
117.476137
 11
366.204474
 21
117.476137
  0
LINE
  8
1
 62
7
  6
CONTINUOUS
 10
364.352722
 20
119.127442
 11
364.352722
 21
115.987099
  0
ARC
  8
1
 62
7
  6
CONTINUOUS
 10
358.752722
 20
123.076137
 40
0.800000
 50
90.000000
 51
180.000000
  0
LINE
  8
1
 62
7
  6
CONTINUOUS
 10
358.752722
 20
123.876137
 11
369.952722
 21
123.876137
  0
ARC
  8
1
 62
7
  6
CONTINUOUS
 10
369.952722
 20
123.076137
 40
0.800000
 50
-0.000000
 51
90.000000
  0
LINE
  8
1
 62
7
  6
CONTINUOUS
 10
370.752722
 20
123.076137
 11
370.752722
 21
111.876137
  0
ARC
  8
1
 62
7
  6
CONTINUOUS
 10
369.952722
 20
111.876137
 40
0.800000
 50
-90.000000
 51
0.000000
  0
LINE
  8
1
 62
7
  6
CONTINUOUS
 10
369.952722
 20
111.076137
 11
358.752722
 21
111.076137
  0
LINE
  8
1
 62
7
  6
CONTINUOUS
 10
357.952722
 20
111.876137
 11
357.952722
 21
123.076137
  0
ARC
  8
1
 62
7
  6
CONTINUOUS
 10
358.752722
 20
111.876137
 40
0.800000
 50
180.000000
 51
-90.000000
  0
LINE
  8
1
 62
7
  6
CONTINUOUS
 10
325.289187
 20
77.801641
 11
329.231320
 21
77.801641
  0
LINE
  8
1
 62
7
  6
CONTINUOUS
 10
327.379567
 20
79.452946
 11
327.379567
 21
76.312603
  0
ARC
  8
1
 62
7
  6
CONTINUOUS
 10
321.779567
 20
83.401641
 40
0.800000
 50
90.000000
 51
180.000000
  0
LINE
  8
1
 62
7
  6
CONTINUOUS
 10
321.779567
 20
84.201641
 11
332.979567
 21
84.201641
  0
ARC
  8
1
 62
7
  6
CONTINUOUS
 10
332.979567
 20
83.401641
 40
0.800000
 50
-0.000000
 51
90.000000
  0
LINE
  8
1
 62
7
  6
CONTINUOUS
 10
333.779567
 20
83.401641
 11
333.779567
 21
72.201641
  0
ARC
  8
1
 62
7
  6
CONTINUOUS
 10
332.979567
 20
72.201641
 40
0.800000
 50
-90.000000
 51
0.000000
  0
LINE
  8
1
 62
7
  6
CONTINUOUS
 10
332.979567
 20
71.401641
 11
321.779567
 21
71.401641
  0
LINE
  8
1
 62
7
  6
CONTINUOUS
 10
320.979567
 20
72.201641
 11
320.979567
 21
83.401641
  0
ARC
  8
1
 62
7
  6
CONTINUOUS
 10
321.779567
 20
72.201641
 40
0.800000
 50
180.000000
 51
-90.000000
  0
LINE
  8
1
 62
7
  6
CONTINUOUS
 10
325.289187
 20
60.301641
 11
329.231320
 21
60.301641
  0
LINE
  8
1
 62
7
  6
CONTINUOUS
 10
327.379567
 20
61.952946
 11
327.379567
 21
58.812603
  0
ARC
  8
1
 62
7
  6
CONTINUOUS
 10
321.779567
 20
65.901641
 40
0.800000
 50
90.000000
 51
180.000000
  0
LINE
  8
1
 62
7
  6
CONTINUOUS
 10
321.779567
 20
66.701641
 11
332.979567
 21
66.701641
  0
ARC
  8
1
 62
7
  6
CONTINUOUS
 10
332.979567
 20
65.901641
 40
0.800000
 50
-0.000000
 51
90.000000
  0
LINE
  8
1
 62
7
  6
CONTINUOUS
 10
333.779567
 20
65.901641
 11
333.779567
 21
54.701641
  0
ARC
  8
1
 62
7
  6
CONTINUOUS
 10
332.979567
 20
54.701641
 40
0.800000
 50
-90.000000
 51
0.000000
  0
LINE
  8
1
 62
7
  6
CONTINUOUS
 10
332.979567
 20
53.901641
 11
321.779567
 21
53.901641
  0
LINE
  8
1
 62
7
  6
CONTINUOUS
 10
320.979567
 20
54.701641
 11
320.979567
 21
65.901641
  0
ARC
  8
1
 62
7
  6
CONTINUOUS
 10
321.779567
 20
54.701641
 40
0.800000
 50
180.000000
 51
-90.000000
  0
LINE
  8
1
 62
7
  6
CONTINUOUS
 10
325.289187
 20
42.801641
 11
329.231320
 21
42.801641
  0
LINE
  8
1
 62
7
  6
CONTINUOUS
 10
327.379567
 20
44.452946
 11
327.379567
 21
41.312603
  0
ARC
  8
1
 62
7
  6
CONTINUOUS
 10
321.779567
 20
48.401641
 40
0.800000
 50
90.000000
 51
180.000000
  0
LINE
  8
1
 62
7
  6
CONTINUOUS
 10
321.779567
 20
49.201641
 11
332.979567
 21
49.201641
  0
ARC
  8
1
 62
7
  6
CONTINUOUS
 10
332.979567
 20
48.401641
 40
0.800000
 50
-0.000000
 51
90.000000
  0
LINE
  8
1
 62
7
  6
CONTINUOUS
 10
333.779567
 20
48.401641
 11
333.779567
 21
37.201641
  0
ARC
  8
1
 62
7
  6
CONTINUOUS
 10
332.979567
 20
37.201641
 40
0.800000
 50
-90.000000
 51
0.000000
  0
LINE
  8
1
 62
7
  6
CONTINUOUS
 10
332.979567
 20
36.401641
 11
321.779567
 21
36.401641
  0
LINE
  8
1
 62
7
  6
CONTINUOUS
 10
320.979567
 20
37.201641
 11
320.979567
 21
48.401641
  0
ARC
  8
1
 62
7
  6
CONTINUOUS
 10
321.779567
 20
37.201641
 40
0.800000
 50
180.000000
 51
-90.000000
  0
LINE
  8
1
 62
7
  6
CONTINUOUS
 10
325.289187
 20
25.301641
 11
329.231320
 21
25.301641
  0
LINE
  8
1
 62
7
  6
CONTINUOUS
 10
327.379567
 20
26.952946
 11
327.379567
 21
23.812603
  0
ARC
  8
1
 62
7
  6
CONTINUOUS
 10
321.779567
 20
30.901641
 40
0.800000
 50
90.000000
 51
180.000000
  0
LINE
  8
1
 62
7
  6
CONTINUOUS
 10
321.779567
 20
31.701641
 11
332.979567
 21
31.701641
  0
ARC
  8
1
 62
7
  6
CONTINUOUS
 10
332.979567
 20
30.901641
 40
0.800000
 50
-0.000000
 51
90.000000
  0
LINE
  8
1
 62
7
  6
CONTINUOUS
 10
333.779567
 20
30.901641
 11
333.779567
 21
19.701641
  0
ARC
  8
1
 62
7
  6
CONTINUOUS
 10
332.979567
 20
19.701641
 40
0.800000
 50
-90.000000
 51
0.000000
  0
LINE
  8
1
 62
7
  6
CONTINUOUS
 10
332.979567
 20
18.901641
 11
321.779567
 21
18.901641
  0
LINE
  8
1
 62
7
  6
CONTINUOUS
 10
320.979567
 20
19.701641
 11
320.979567
 21
30.901641
  0
ARC
  8
1
 62
7
  6
CONTINUOUS
 10
321.779567
 20
19.701641
 40
0.800000
 50
180.000000
 51
-90.000000
  0
LINE
  8
1
 62
7
  6
CONTINUOUS
 10
346.289187
 20
77.801641
 11
350.231320
 21
77.801641
  0
LINE
  8
1
 62
7
  6
CONTINUOUS
 10
348.379567
 20
79.452946
 11
348.379567
 21
76.312603
  0
ARC
  8
1
 62
7
  6
CONTINUOUS
 10
342.779567
 20
83.401641
 40
0.800000
 50
90.000000
 51
180.000000
  0
LINE
  8
1
 62
7
  6
CONTINUOUS
 10
342.779567
 20
84.201641
 11
353.979567
 21
84.201641
  0
ARC
  8
1
 62
7
  6
CONTINUOUS
 10
353.979567
 20
83.401641
 40
0.800000
 50
-0.000000
 51
90.000000
  0
LINE
  8
1
 62
7
  6
CONTINUOUS
 10
354.779567
 20
83.401641
 11
354.779567
 21
72.201641
  0
ARC
  8
1
 62
7
  6
CONTINUOUS
 10
353.979567
 20
72.201641
 40
0.800000
 50
-90.000000
 51
0.000000
  0
LINE
  8
1
 62
7
  6
CONTINUOUS
 10
353.979567
 20
71.401641
 11
342.779567
 21
71.401641
  0
LINE
  8
1
 62
7
  6
CONTINUOUS
 10
341.979567
 20
72.201641
 11
341.979567
 21
83.401641
  0
ARC
  8
1
 62
7
  6
CONTINUOUS
 10
342.779567
 20
72.201641
 40
0.800000
 50
180.000000
 51
-90.000000
  0
LINE
  8
1
 62
7
  6
CONTINUOUS
 10
346.289187
 20
60.301641
 11
350.231320
 21
60.301641
  0
LINE
  8
1
 62
7
  6
CONTINUOUS
 10
348.379567
 20
61.952946
 11
348.379567
 21
58.812603
  0
ARC
  8
1
 62
7
  6
CONTINUOUS
 10
342.779567
 20
65.901641
 40
0.800000
 50
90.000000
 51
180.000000
  0
LINE
  8
1
 62
7
  6
CONTINUOUS
 10
342.779567
 20
66.701641
 11
353.979567
 21
66.701641
  0
ARC
  8
1
 62
7
  6
CONTINUOUS
 10
353.979567
 20
65.901641
 40
0.800000
 50
-0.000000
 51
90.000000
  0
LINE
  8
1
 62
7
  6
CONTINUOUS
 10
354.779567
 20
65.901641
 11
354.779567
 21
54.701641
  0
ARC
  8
1
 62
7
  6
CONTINUOUS
 10
353.979567
 20
54.701641
 40
0.800000
 50
-90.000000
 51
0.000000
  0
LINE
  8
1
 62
7
  6
CONTINUOUS
 10
353.979567
 20
53.901641
 11
342.779567
 21
53.901641
  0
LINE
  8
1
 62
7
  6
CONTINUOUS
 10
341.979567
 20
54.701641
 11
341.979567
 21
65.901641
  0
ARC
  8
1
 62
7
  6
CONTINUOUS
 10
342.779567
 20
54.701641
 40
0.800000
 50
180.000000
 51
-90.000000
  0
LINE
  8
1
 62
7
  6
CONTINUOUS
 10
346.289187
 20
42.801641
 11
350.231320
 21
42.801641
  0
LINE
  8
1
 62
7
  6
CONTINUOUS
 10
348.379567
 20
44.452946
 11
348.379567
 21
41.312603
  0
ARC
  8
1
 62
7
  6
CONTINUOUS
 10
342.779567
 20
48.401641
 40
0.800000
 50
90.000000
 51
180.000000
  0
LINE
  8
1
 62
7
  6
CONTINUOUS
 10
342.779567
 20
49.201641
 11
353.979567
 21
49.201641
  0
ARC
  8
1
 62
7
  6
CONTINUOUS
 10
353.979567
 20
48.401641
 40
0.800000
 50
-0.000000
 51
90.000000
  0
LINE
  8
1
 62
7
  6
CONTINUOUS
 10
354.779567
 20
48.401641
 11
354.779567
 21
37.201641
  0
ARC
  8
1
 62
7
  6
CONTINUOUS
 10
353.979567
 20
37.201641
 40
0.800000
 50
-90.000000
 51
0.000000
  0
LINE
  8
1
 62
7
  6
CONTINUOUS
 10
353.979567
 20
36.401641
 11
342.779567
 21
36.401641
  0
LINE
  8
1
 62
7
  6
CONTINUOUS
 10
341.979567
 20
37.201641
 11
341.979567
 21
48.401641
  0
ARC
  8
1
 62
7
  6
CONTINUOUS
 10
342.779567
 20
37.201641
 40
0.800000
 50
180.000000
 51
-90.000000
  0
LINE
  8
1
 62
7
  6
CONTINUOUS
 10
346.289187
 20
25.301641
 11
350.231320
 21
25.301641
  0
LINE
  8
1
 62
7
  6
CONTINUOUS
 10
348.379567
 20
26.952946
 11
348.379567
 21
23.812603
  0
ARC
  8
1
 62
7
  6
CONTINUOUS
 10
342.779567
 20
30.901641
 40
0.800000
 50
90.000000
 51
180.000000
  0
LINE
  8
1
 62
7
  6
CONTINUOUS
 10
342.779567
 20
31.701641
 11
353.979567
 21
31.701641
  0
ARC
  8
1
 62
7
  6
CONTINUOUS
 10
353.979567
 20
30.901641
 40
0.800000
 50
-0.000000
 51
90.000000
  0
LINE
  8
1
 62
7
  6
CONTINUOUS
 10
354.779567
 20
30.901641
 11
354.779567
 21
19.701641
  0
ARC
  8
1
 62
7
  6
CONTINUOUS
 10
353.979567
 20
19.701641
 40
0.800000
 50
-90.000000
 51
0.000000
  0
LINE
  8
1
 62
7
  6
CONTINUOUS
 10
353.979567
 20
18.901641
 11
342.779567
 21
18.901641
  0
LINE
  8
1
 62
7
  6
CONTINUOUS
 10
341.979567
 20
19.701641
 11
341.979567
 21
30.901641
  0
ARC
  8
1
 62
7
  6
CONTINUOUS
 10
342.779567
 20
19.701641
 40
0.800000
 50
180.000000
 51
-90.000000
  0
LINE
  8
1
 62
7
  6
CONTINUOUS
 10
119.979866
 20
112.240119
 11
119.979866
 21
118.253542
  0
LINE
  8
1
 62
7
  6
CONTINUOUS
 10
119.979866
 20
162.268456
 11
119.979866
 21
168.469799
  0
LINE
  8
1
 62
7
  6
CONTINUOUS
 10
122.768084
 20
115.392617
 11
116.587621
 21
115.392617
  0
LINE
  8
1
 62
7
  6
CONTINUOUS
 10
122.684564
 20
165.392617
 11
117.088740
 21
165.392617
  0
LINE
  8
1
 62
7
  6
CONTINUOUS
 10
124.979866
 20
98.392617
 11
124.979866
 21
182.392617
  0
ARC
  8
1
 62
7
  6
CONTINUOUS
 10
117.979866
 20
101.392617
 40
3.000000
 50
180.000000
 51
-90.000000
  0
LINE
  8
1
 62
7
  6
CONTINUOUS
 10
114.979866
 20
101.392617
 11
114.979866
 21
179.392617
  0
ARC
  8
1
 62
7
  6
CONTINUOUS
 10
117.979866
 20
179.392617
 40
3.000000
 50
90.000000
 51
180.000000
  0
LINE
  8
1
 62
7
  6
CONTINUOUS
 10
114.979866
 20
43.624310
 11
124.979866
 21
43.624310
  0
LINE
  8
1
 62
7
  6
CONTINUOUS
 10
114.979866
 20
42.424310
 11
114.979866
 21
43.624310
  0
ARC
  8
1
 62
7
  6
CONTINUOUS
 10
126.179866
 20
52.424310
 40
1.200000
 50
90.000000
 51
180.000000
  0
LINE
  8
1
 62
7
  6
CONTINUOUS
 10
124.979866
 20
43.624310
 11
124.979866
 21
52.424310
  0
DIMENSION
  8
1
 62
7
  6
CONTINUOUS
  2
*D1
 10
97.840694
 20
23.424310
 11
97.840694
 21
32.924310
 70
     0
  1
19
 13
117.124921
 23
23.424310
 14
112.979866
 24
42.424310
 50
90.000000
  0
DIMENSION
  8
1
 62
7
  6
CONTINUOUS
  2
*D2
 10
97.840694
 20
42.424310
 11
97.840694
 21
48.273211
 70
     0
  1
11.7
 13
112.979866
 23
42.424310
 14
124.179866
 24
54.122111
 50
90.000000
  0
DIMENSION
  8
1
 62
7
  6
CONTINUOUS
  2
*D3
 10
105.691551
 20
53.624310
 11
105.691551
 21
53.873211
 70
     0
  1
0.5
 13
124.179866
 23
53.624310
 14
124.179866
 24
54.122111
 50
90.000000
  0
DIMENSION
  8
1
 62
7
  6
CONTINUOUS
  2
*D4
 10
105.524512
 20
42.424310
 11
105.524512
 21
43.024310
 70
     0
  1
1.2
 13
112.979866
 23
42.424310
 14
112.979866
 24
43.624310
 50
90.000000
  0
CIRCLE
  8
1
 62
7
  6
CONTINUOUS
 10
119.979866
 20
115.392617
 40
2.000000
  0
CIRCLE
  8
1
 62
7
  6
CONTINUOUS
 10
119.979866
 20
165.392617
 40
2.000000
  0
LINE
  8
1
 62
7
  6
CONTINUOUS
 10
197.979866
 20
168.657718
 11
197.979866
 21
162.602535
  0
LINE
  8
1
 62
7
  6
CONTINUOUS
 10
197.979866
 20
118.253542
 11
197.979866
 21
111.906040
  0
LINE
  8
1
 62
7
  6
CONTINUOUS
 10
201.178225
 20
115.392617
 11
194.914243
 21
115.392617
  0
LINE
  8
1
 62
7
  6
CONTINUOUS
 10
200.760626
 20
165.392617
 11
194.997763
 21
165.392617
  0
LINE
  8
1
 62
7
  6
CONTINUOUS
 10
192.979866
 20
182.392617
 11
192.979866
 21
98.392617
  0
LINE
  8
1
 62
7
  6
CONTINUOUS
 10
199.979866
 20
98.392617
 11
117.979866
 21
98.392617
  0
ARC
  8
1
 62
7
  6
CONTINUOUS
 10
199.979866
 20
101.392617
 40
3.000000
 50
-90.000000
 51
0.000000
  0
LINE
  8
1
 62
7
  6
CONTINUOUS
 10
202.979866
 20
179.392617
 11
202.979866
 21
101.392617
  0
ARC
  8
1
 62
7
  6
CONTINUOUS
 10
199.979866
 20
179.392617
 40
3.000000
 50
0.000000
 51
90.000000
  0
LINE
  8
1
 62
7
  6
CONTINUOUS
 10
117.979866
 20
182.392617
 11
199.979866
 21
182.392617
  0
LINE
  8
1
 62
7
  6
CONTINUOUS
 10
192.979866
 20
42.424310
 11
202.979866
 21
42.424310
  0
LINE
  8
1
 62
7
  6
CONTINUOUS
 10
192.979866
 20
43.624310
 11
202.979866
 21
43.624310
  0
LINE
  8
1
 62
7
  6
CONTINUOUS
 10
202.979866
 20
42.424310
 11
202.979866
 21
43.624310
  0
ARC
  8
1
 62
7
  6
CONTINUOUS
 10
191.779866
 20
52.424310
 40
1.200000
 50
0.000000
 51
90.000000
  0
LINE
  8
1
 62
7
  6
CONTINUOUS
 10
192.979866
 20
43.624310
 11
192.979866
 21
52.424310
  0
LINE
  8
1
 62
7
  6
CONTINUOUS
 10
126.179866
 20
53.624310
 11
191.779866
 21
53.624310
  0
LINE
  8
1
 62
7
  6
CONTINUOUS
 10
126.179866
 20
53.624310
 11
126.179866
 21
54.122111
  0
LINE
  8
1
 62
7
  6
CONTINUOUS
 10
126.179866
 20
54.122111
 11
191.912337
 21
54.122111
  0
LINE
  8
1
 62
7
  6
CONTINUOUS
 10
191.912337
 20
54.122111
 11
191.912337
 21
53.624310
  0
LINE
  8
1
 62
7
  6
CONTINUOUS
 10
191.912337
 20
53.624310
 11
126.179866
 21
53.624310
  0
DIMENSION
  8
1
 62
7
  6
CONTINUOUS
  2
*D5
 10
124.979866
 20
82.684564
 11
158.979866
 21
82.684564
 70
     0
  1
68
 13
124.979866
 23
96.392617
 14
192.979866
 24
96.392617
 50
0.000000
  0
DIMENSION
  8
1
 62
7
  6
CONTINUOUS
  2
*D6
 10
119.979866
 20
78.174497
 11
158.979866
 21
78.174497
 70
     0
  1
78
 13
119.979866
 23
110.240119
 14
197.979866
 24
109.906040
 50
0.000000
  0
DIMENSION
  8
1
 62
7
  6
CONTINUOUS
  2
*D7
 10
114.979866
 20
73.852349
 11
158.979866
 21
73.852349
 70
     0
  1
88
 13
114.979866
 23
99.392617
 14
202.979866
 24
99.392617
 50
0.000000
  0
CIRCLE
  8
1
 62
7
  6
CONTINUOUS
 10
197.979866
 20
165.392617
 40
2.000000
  0
CIRCLE
  8
1
 62
7
  6
CONTINUOUS
 10
197.979866
 20
115.392617
 40
2.000000
  0
LINE
  8
1
 62
7
  6
CONTINUOUS
 10
114.979866
 20
42.424310
 11
193.622173
 21
42.424310
  0
ARC
  8
1
 62
7
  6
CONTINUOUS
 10
135.851156
 20
172.179045
 40
0.800000
 50
90.000000
 51
180.000000
  0
LINE
  8
1
 62
7
  6
CONTINUOUS
 10
135.851156
 20
172.979045
 11
147.051156
 21
172.979045
  0
ARC
  8
1
 62
7
  6
CONTINUOUS
 10
147.051156
 20
172.179045
 40
0.800000
 50
0.000000
 51
90.000000
  0
LINE
  8
1
 62
7
  6
CONTINUOUS
 10
147.851156
 20
172.179045
 11
147.851156
 21
160.979045
  0
ARC
  8
1
 62
7
  6
CONTINUOUS
 10
147.051156
 20
160.979045
 40
0.800000
 50
-90.000000
 51
0.000000
  0
LINE
  8
1
 62
7
  6
CONTINUOUS
 10
147.051156
 20
160.179045
 11
135.851156
 21
160.179045
  0
LINE
  8
1
 62
7
  6
CONTINUOUS
 10
135.051156
 20
160.979045
 11
135.051156
 21
172.179045
  0
ARC
  8
1
 62
7
  6
CONTINUOUS
 10
135.851156
 20
160.979045
 40
0.800000
 50
180.000000
 51
-90.000000
  0
ARC
  8
1
 62
7
  6
CONTINUOUS
 10
135.851156
 20
154.679045
 40
0.800000
 50
90.000000
 51
180.000000
  0
LINE
  8
1
 62
7
  6
CONTINUOUS
 10
135.851156
 20
155.479045
 11
147.051156
 21
155.479045
  0
ARC
  8
1
 62
7
  6
CONTINUOUS
 10
147.051156
 20
154.679045
 40
0.800000
 50
0.000000
 51
90.000000
  0
LINE
  8
1
 62
7
  6
CONTINUOUS
 10
147.851156
 20
154.679045
 11
147.851156
 21
143.479045
  0
ARC
  8
1
 62
7
  6
CONTINUOUS
 10
147.051156
 20
143.479045
 40
0.800000
 50
-90.000000
 51
0.000000
  0
LINE
  8
1
 62
7
  6
CONTINUOUS
 10
147.051156
 20
142.679045
 11
135.851156
 21
142.679045
  0
LINE
  8
1
 62
7
  6
CONTINUOUS
 10
135.051156
 20
143.479045
 11
135.051156
 21
154.679045
  0
ARC
  8
1
 62
7
  6
CONTINUOUS
 10
135.851156
 20
143.479045
 40
0.800000
 50
180.000000
 51
-90.000000
  0
ARC
  8
1
 62
7
  6
CONTINUOUS
 10
135.851156
 20
137.179045
 40
0.800000
 50
90.000000
 51
180.000000
  0
LINE
  8
1
 62
7
  6
CONTINUOUS
 10
135.851156
 20
137.979045
 11
147.051156
 21
137.979045
  0
ARC
  8
1
 62
7
  6
CONTINUOUS
 10
147.051156
 20
137.179045
 40
0.800000
 50
0.000000
 51
90.000000
  0
LINE
  8
1
 62
7
  6
CONTINUOUS
 10
147.851156
 20
137.179045
 11
147.851156
 21
125.979045
  0
ARC
  8
1
 62
7
  6
CONTINUOUS
 10
147.051156
 20
125.979045
 40
0.800000
 50
-90.000000
 51
0.000000
  0
LINE
  8
1
 62
7
  6
CONTINUOUS
 10
147.051156
 20
125.179045
 11
135.851156
 21
125.179045
  0
LINE
  8
1
 62
7
  6
CONTINUOUS
 10
135.051156
 20
125.979045
 11
135.051156
 21
137.179045
  0
ARC
  8
1
 62
7
  6
CONTINUOUS
 10
135.851156
 20
125.979045
 40
0.800000
 50
180.000000
 51
-90.000000
  0
ARC
  8
1
 62
7
  6
CONTINUOUS
 10
135.851156
 20
119.679045
 40
0.800000
 50
90.000000
 51
180.000000
  0
LINE
  8
1
 62
7
  6
CONTINUOUS
 10
135.851156
 20
120.479045
 11
147.051156
 21
120.479045
  0
ARC
  8
1
 62
7
  6
CONTINUOUS
 10
147.051156
 20
119.679045
 40
0.800000
 50
-0.000000
 51
90.000000
  0
LINE
  8
1
 62
7
  6
CONTINUOUS
 10
147.851156
 20
119.679045
 11
147.851156
 21
108.479045
  0
ARC
  8
1
 62
7
  6
CONTINUOUS
 10
147.051156
 20
108.479045
 40
0.800000
 50
-90.000000
 51
0.000000
  0
LINE
  8
1
 62
7
  6
CONTINUOUS
 10
147.051156
 20
107.679045
 11
135.851156
 21
107.679045
  0
LINE
  8
1
 62
7
  6
CONTINUOUS
 10
135.051156
 20
108.479045
 11
135.051156
 21
119.679045
  0
ARC
  8
1
 62
7
  6
CONTINUOUS
 10
135.851156
 20
108.479045
 40
0.800000
 50
180.000000
 51
-90.000000
  0
TEXT
  8
1
 62
7
  6
CONTINUOUS
 10
143.686304
 20
109.581407
 40
6.000000
 41
0.500000
  1
1
  7
KANJI
 50
0.000000
 51
0.000000
  0
ARC
  8
1
 62
7
  6
CONTINUOUS
 10
153.351156
 20
172.179045
 40
0.800000
 50
90.000000
 51
180.000000
  0
LINE
  8
1
 62
7
  6
CONTINUOUS
 10
153.351156
 20
172.979045
 11
164.551156
 21
172.979045
  0
ARC
  8
1
 62
7
  6
CONTINUOUS
 10
164.551156
 20
172.179045
 40
0.800000
 50
0.000000
 51
90.000000
  0
LINE
  8
1
 62
7
  6
CONTINUOUS
 10
165.351156
 20
172.179045
 11
165.351156
 21
160.979045
  0
ARC
  8
1
 62
7
  6
CONTINUOUS
 10
164.551156
 20
160.979045
 40
0.800000
 50
-90.000000
 51
0.000000
  0
LINE
  8
1
 62
7
  6
CONTINUOUS
 10
164.551156
 20
160.179045
 11
153.351156
 21
160.179045
  0
LINE
  8
1
 62
7
  6
CONTINUOUS
 10
152.551156
 20
160.979045
 11
152.551156
 21
172.179045
  0
ARC
  8
1
 62
7
  6
CONTINUOUS
 10
153.351156
 20
160.979045
 40
0.800000
 50
180.000000
 51
-90.000000
  0
ARC
  8
1
 62
7
  6
CONTINUOUS
 10
153.351156
 20
154.679045
 40
0.800000
 50
90.000000
 51
180.000000
  0
LINE
  8
1
 62
7
  6
CONTINUOUS
 10
153.351156
 20
155.479045
 11
164.551156
 21
155.479045
  0
ARC
  8
1
 62
7
  6
CONTINUOUS
 10
164.551156
 20
154.679045
 40
0.800000
 50
0.000000
 51
90.000000
  0
LINE
  8
1
 62
7
  6
CONTINUOUS
 10
165.351156
 20
154.679045
 11
165.351156
 21
143.479045
  0
ARC
  8
1
 62
7
  6
CONTINUOUS
 10
164.551156
 20
143.479045
 40
0.800000
 50
-90.000000
 51
0.000000
  0
LINE
  8
1
 62
7
  6
CONTINUOUS
 10
164.551156
 20
142.679045
 11
153.351156
 21
142.679045
  0
LINE
  8
1
 62
7
  6
CONTINUOUS
 10
152.551156
 20
143.479045
 11
152.551156
 21
154.679045
  0
ARC
  8
1
 62
7
  6
CONTINUOUS
 10
153.351156
 20
143.479045
 40
0.800000
 50
180.000000
 51
-90.000000
  0
ARC
  8
1
 62
7
  6
CONTINUOUS
 10
153.351156
 20
137.179045
 40
0.800000
 50
90.000000
 51
180.000000
  0
LINE
  8
1
 62
7
  6
CONTINUOUS
 10
153.351156
 20
137.979045
 11
164.551156
 21
137.979045
  0
ARC
  8
1
 62
7
  6
CONTINUOUS
 10
164.551156
 20
137.179045
 40
0.800000
 50
0.000000
 51
90.000000
  0
LINE
  8
1
 62
7
  6
CONTINUOUS
 10
165.351156
 20
137.179045
 11
165.351156
 21
125.979045
  0
ARC
  8
1
 62
7
  6
CONTINUOUS
 10
164.551156
 20
125.979045
 40
0.800000
 50
-90.000000
 51
0.000000
  0
LINE
  8
1
 62
7
  6
CONTINUOUS
 10
164.551156
 20
125.179045
 11
153.351156
 21
125.179045
  0
LINE
  8
1
 62
7
  6
CONTINUOUS
 10
152.551156
 20
125.979045
 11
152.551156
 21
137.179045
  0
ARC
  8
1
 62
7
  6
CONTINUOUS
 10
153.351156
 20
125.979045
 40
0.800000
 50
180.000000
 51
-90.000000
  0
ARC
  8
1
 62
7
  6
CONTINUOUS
 10
153.351156
 20
119.679045
 40
0.800000
 50
90.000000
 51
180.000000
  0
LINE
  8
1
 62
7
  6
CONTINUOUS
 10
153.351156
 20
120.479045
 11
164.551156
 21
120.479045
  0
ARC
  8
1
 62
7
  6
CONTINUOUS
 10
164.551156
 20
119.679045
 40
0.800000
 50
-0.000000
 51
90.000000
  0
LINE
  8
1
 62
7
  6
CONTINUOUS
 10
165.351156
 20
119.679045
 11
165.351156
 21
108.479045
  0
ARC
  8
1
 62
7
  6
CONTINUOUS
 10
164.551156
 20
108.479045
 40
0.800000
 50
-90.000000
 51
0.000000
  0
LINE
  8
1
 62
7
  6
CONTINUOUS
 10
164.551156
 20
107.679045
 11
153.351156
 21
107.679045
  0
LINE
  8
1
 62
7
  6
CONTINUOUS
 10
152.551156
 20
108.479045
 11
152.551156
 21
119.679045
  0
ARC
  8
1
 62
7
  6
CONTINUOUS
 10
153.351156
 20
108.479045
 40
0.800000
 50
180.000000
 51
-90.000000
  0
ARC
  8
1
 62
7
  6
CONTINUOUS
 10
170.851156
 20
172.179045
 40
0.800000
 50
90.000000
 51
180.000000
  0
LINE
  8
1
 62
7
  6
CONTINUOUS
 10
170.851156
 20
172.979045
 11
182.051156
 21
172.979045
  0
ARC
  8
1
 62
7
  6
CONTINUOUS
 10
182.051156
 20
172.179045
 40
0.800000
 50
0.000000
 51
90.000000
  0
LINE
  8
1
 62
7
  6
CONTINUOUS
 10
182.851156
 20
172.179045
 11
182.851156
 21
160.979045
  0
ARC
  8
1
 62
7
  6
CONTINUOUS
 10
182.051156
 20
160.979045
 40
0.800000
 50
-90.000000
 51
0.000000
  0
LINE
  8
1
 62
7
  6
CONTINUOUS
 10
182.051156
 20
160.179045
 11
170.851156
 21
160.179045
  0
LINE
  8
1
 62
7
  6
CONTINUOUS
 10
170.051156
 20
160.979045
 11
170.051156
 21
172.179045
  0
ARC
  8
1
 62
7
  6
CONTINUOUS
 10
170.851156
 20
160.979045
 40
0.800000
 50
180.000000
 51
-90.000000
  0
ARC
  8
1
 62
7
  6
CONTINUOUS
 10
170.851156
 20
154.679045
 40
0.800000
 50
90.000000
 51
180.000000
  0
LINE
  8
1
 62
7
  6
CONTINUOUS
 10
170.851156
 20
155.479045
 11
182.051156
 21
155.479045
  0
ARC
  8
1
 62
7
  6
CONTINUOUS
 10
182.051156
 20
154.679045
 40
0.800000
 50
0.000000
 51
90.000000
  0
LINE
  8
1
 62
7
  6
CONTINUOUS
 10
182.851156
 20
154.679045
 11
182.851156
 21
143.479045
  0
ARC
  8
1
 62
7
  6
CONTINUOUS
 10
182.051156
 20
143.479045
 40
0.800000
 50
-90.000000
 51
0.000000
  0
LINE
  8
1
 62
7
  6
CONTINUOUS
 10
182.051156
 20
142.679045
 11
170.851156
 21
142.679045
  0
LINE
  8
1
 62
7
  6
CONTINUOUS
 10
170.051156
 20
143.479045
 11
170.051156
 21
154.679045
  0
ARC
  8
1
 62
7
  6
CONTINUOUS
 10
170.851156
 20
143.479045
 40
0.800000
 50
180.000000
 51
-90.000000
  0
ARC
  8
1
 62
7
  6
CONTINUOUS
 10
170.851156
 20
137.179045
 40
0.800000
 50
90.000000
 51
180.000000
  0
LINE
  8
1
 62
7
  6
CONTINUOUS
 10
170.851156
 20
137.979045
 11
182.051156
 21
137.979045
  0
ARC
  8
1
 62
7
  6
CONTINUOUS
 10
182.051156
 20
137.179045
 40
0.800000
 50
0.000000
 51
90.000000
  0
LINE
  8
1
 62
7
  6
CONTINUOUS
 10
182.851156
 20
137.179045
 11
182.851156
 21
125.979045
  0
ARC
  8
1
 62
7
  6
CONTINUOUS
 10
182.051156
 20
125.979045
 40
0.800000
 50
-90.000000
 51
0.000000
  0
LINE
  8
1
 62
7
  6
CONTINUOUS
 10
182.051156
 20
125.179045
 11
170.851156
 21
125.179045
  0
LINE
  8
1
 62
7
  6
CONTINUOUS
 10
170.051156
 20
125.979045
 11
170.051156
 21
137.179045
  0
ARC
  8
1
 62
7
  6
CONTINUOUS
 10
170.851156
 20
125.979045
 40
0.800000
 50
180.000000
 51
-90.000000
  0
ARC
  8
1
 62
7
  6
CONTINUOUS
 10
170.851156
 20
119.679045
 40
0.800000
 50
90.000000
 51
180.000000
  0
LINE
  8
1
 62
7
  6
CONTINUOUS
 10
170.851156
 20
120.479045
 11
182.051156
 21
120.479045
  0
ARC
  8
1
 62
7
  6
CONTINUOUS
 10
182.051156
 20
119.679045
 40
0.800000
 50
-0.000000
 51
90.000000
  0
LINE
  8
1
 62
7
  6
CONTINUOUS
 10
182.851156
 20
119.679045
 11
182.851156
 21
108.479045
  0
ARC
  8
1
 62
7
  6
CONTINUOUS
 10
182.051156
 20
108.479045
 40
0.800000
 50
-90.000000
 51
0.000000
  0
LINE
  8
1
 62
7
  6
CONTINUOUS
 10
182.051156
 20
107.679045
 11
170.851156
 21
107.679045
  0
LINE
  8
1
 62
7
  6
CONTINUOUS
 10
170.051156
 20
108.479045
 11
170.051156
 21
119.679045
  0
ARC
  8
1
 62
7
  6
CONTINUOUS
 10
170.851156
 20
108.479045
 40
0.800000
 50
180.000000
 51
-90.000000
  0
DIMENSION
  8
1
 62
7
  6
CONTINUOUS
  2
*D8
 10
95.901566
 20
98.392617
 11
95.901566
 21
140.392617
 70
     0
  1
84
 13
115.979866
 23
98.392617
 14
115.979866
 24
182.392617
 50
90.000000
  0
DIMENSION
  8
1
 62
7
  6
CONTINUOUS
  2
*D9
 10
100.975391
 20
100.392617
 11
100.975391
 21
140.392617
 70
     0
  1
80
 13
124.979866
 23
100.392617
 14
124.979866
 24
180.392617
 50
90.000000
  0
DIMENSION
  8
1
 62
7
  6
CONTINUOUS
  2
*D10
 10
126.979866
 20
86.724832
 11
158.979866
 21
86.724832
 70
     0
  1
64
 13
126.979866
 23
98.392617
 14
190.979866
 24
98.392617
 50
0.000000
  0
LINE
  8
1
 62
7
  6
CONTINUOUS
 10
126.979866
 20
100.392617
 11
126.979866
 21
180.392617
  0
LINE
  8
1
 62
7
  6
CONTINUOUS
 10
190.979866
 20
100.392617
 11
126.979866
 21
100.392617
  0
LINE
  8
1
 62
7
  6
CONTINUOUS
 10
190.979866
 20
100.392617
 11
190.979866
 21
180.392617
  0
LINE
  8
1
 62
7
  6
CONTINUOUS
 10
126.979866
 20
180.392617
 11
190.979866
 21
180.392617
  0
LINE
  8
1
 62
7
  6
CONTINUOUS
 10
119.979866
 20
137.268456
 11
119.979866
 21
143.469799
  0
LINE
  8
1
 62
7
  6
CONTINUOUS
 10
122.684564
 20
140.392617
 11
117.088740
 21
140.392617
  0
CIRCLE
  8
1
 62
7
  6
CONTINUOUS
 10
119.979866
 20
140.392617
 40
2.000000
  0
LINE
  8
1
 62
7
  6
CONTINUOUS
 10
197.979866
 20
143.657718
 11
197.979866
 21
137.602535
  0
LINE
  8
1
 62
7
  6
CONTINUOUS
 10
200.760626
 20
140.392617
 11
194.997763
 21
140.392617
  0
CIRCLE
  8
1
 62
7
  6
CONTINUOUS
 10
197.979866
 20
140.392617
 40
2.000000
  0
DIMENSION
  8
1
 62
7
  6
CONTINUOUS
  2
*D11
 10
105.955257
 20
115.392617
 11
105.955257
 21
127.892617
 70
     0
  1
25
 13
114.587621
 23
115.392617
 14
115.088740
 24
140.392617
 50
90.000000
  0
DIMENSION
  8
1
 62
7
  6
CONTINUOUS
  2
*D12
 10
105.955257
 20
140.392617
 11
105.955257
 21
152.892617
 70
     0
  1
25
 13
115.979866
 23
140.392617
 14
115.088740
 24
165.392617
 50
90.000000
  0
DIMENSION
  8
1
 62
7
  6
CONTINUOUS
  2
*D13
 10
141.409396
 20
188.890380
 11
150.159396
 21
188.890380
 70
     0
  1
17.5
 13
141.409396
 23
179.897092
 14
158.909396
 24
179.897092
 50
0.000000
  0
DIMENSION
  8
1
 62
7
  6
CONTINUOUS
  2
*D14
 10
158.909396
 20
188.890380
 11
167.659396
 21
188.890380
 70
     0
  1
17.5
 13
158.909396
 23
179.897092
 14
176.409396
 24
179.897092
 50
0.000000
  0
LINE
  8
1
 62
7
  6
CONTINUOUS
 10
145.355705
 20
42.424310
 11
145.355705
 21
37.803132
  0
LINE
  8
1
 62
7
  6
CONTINUOUS
 10
145.355705
 20
37.803132
 11
168.469799
 21
37.803132
  0
LINE
  8
1
 62
7
  6
CONTINUOUS
 10
168.469799
 20
37.803132
 11
168.469799
 21
42.424310
  0
LINE
  8
1
 62
7
  6
CONTINUOUS
 10
168.469799
 20
42.424310
 11
145.355705
 21
42.424310
  0
LINE
  8
1
 62
7
  6
CONTINUOUS
 10
143.664430
 20
42.424310
 11
143.664430
 21
34.577181
  0
LINE
  8
1
 62
7
  6
CONTINUOUS
 10
143.664430
 20
34.577181
 11
145.418345
 21
34.577181
  0
LINE
  8
1
 62
7
  6
CONTINUOUS
 10
145.418345
 20
34.577181
 11
145.418345
 21
42.424310
  0
LINE
  8
1
 62
7
  6
CONTINUOUS
 10
145.418345
 20
42.424310
 11
143.664430
 21
42.424310
  0
LINE
  8
1
 62
7
  6
CONTINUOUS
 10
168.469799
 20
42.424310
 11
168.469799
 21
34.577181
  0
LINE
  8
1
 62
7
  6
CONTINUOUS
 10
168.469799
 20
34.577181
 11
170.223714
 21
34.577181
  0
LINE
  8
1
 62
7
  6
CONTINUOUS
 10
170.223714
 20
34.577181
 11
170.223714
 21
42.424310
  0
LINE
  8
1
 62
7
  6
CONTINUOUS
 10
170.223714
 20
42.424310
 11
168.469799
 21
42.424310
  0
LINE
  8
1
 62
7
  6
CONTINUOUS
 10
147.422819
 20
37.803132
 11
147.422819
 21
32.948546
  0
LINE
  8
1
 62
7
  6
CONTINUOUS
 10
147.422819
 20
32.948546
 11
148.926174
 21
32.948546
  0
LINE
  8
1
 62
7
  6
CONTINUOUS
 10
148.926174
 20
32.948546
 11
148.926174
 21
37.803132
  0
LINE
  8
1
 62
7
  6
CONTINUOUS
 10
148.926174
 20
37.803132
 11
147.422819
 21
37.803132
  0
LINE
  8
1
 62
7
  6
CONTINUOUS
 10
149.922819
 20
37.803132
 11
149.922819
 21
32.948546
  0
LINE
  8
1
 62
7
  6
CONTINUOUS
 10
149.922819
 20
32.948546
 11
151.426174
 21
32.948546
  0
LINE
  8
1
 62
7
  6
CONTINUOUS
 10
151.426174
 20
32.948546
 11
151.426174
 21
37.803132
  0
LINE
  8
1
 62
7
  6
CONTINUOUS
 10
151.426174
 20
37.803132
 11
149.922819
 21
37.803132
  0
LINE
  8
1
 62
7
  6
CONTINUOUS
 10
152.422819
 20
37.803132
 11
152.422819
 21
32.948546
  0
LINE
  8
1
 62
7
  6
CONTINUOUS
 10
152.422819
 20
32.948546
 11
153.926174
 21
32.948546
  0
LINE
  8
1
 62
7
  6
CONTINUOUS
 10
153.926174
 20
32.948546
 11
153.926174
 21
37.803132
  0
LINE
  8
1
 62
7
  6
CONTINUOUS
 10
153.926174
 20
37.803132
 11
152.422819
 21
37.803132
  0
LINE
  8
1
 62
7
  6
CONTINUOUS
 10
154.922819
 20
37.803132
 11
154.922819
 21
32.948546
  0
LINE
  8
1
 62
7
  6
CONTINUOUS
 10
154.922819
 20
32.948546
 11
156.426174
 21
32.948546
  0
LINE
  8
1
 62
7
  6
CONTINUOUS
 10
156.426174
 20
32.948546
 11
156.426174
 21
37.803132
  0
LINE
  8
1
 62
7
  6
CONTINUOUS
 10
156.426174
 20
37.803132
 11
154.922819
 21
37.803132
  0
LINE
  8
1
 62
7
  6
CONTINUOUS
 10
157.422819
 20
37.803132
 11
157.422819
 21
32.948546
  0
LINE
  8
1
 62
7
  6
CONTINUOUS
 10
157.422819
 20
32.948546
 11
158.926174
 21
32.948546
  0
LINE
  8
1
 62
7
  6
CONTINUOUS
 10
158.926174
 20
32.948546
 11
158.926174
 21
37.803132
  0
LINE
  8
1
 62
7
  6
CONTINUOUS
 10
158.926174
 20
37.803132
 11
157.422819
 21
37.803132
  0
LINE
  8
1
 62
7
  6
CONTINUOUS
 10
159.922819
 20
37.803132
 11
159.922819
 21
32.948546
  0
LINE
  8
1
 62
7
  6
CONTINUOUS
 10
159.922819
 20
32.948546
 11
161.426174
 21
32.948546
  0
LINE
  8
1
 62
7
  6
CONTINUOUS
 10
161.426174
 20
32.948546
 11
161.426174
 21
37.803132
  0
LINE
  8
1
 62
7
  6
CONTINUOUS
 10
161.426174
 20
37.803132
 11
159.922819
 21
37.803132
  0
LINE
  8
1
 62
7
  6
CONTINUOUS
 10
162.422819
 20
37.803132
 11
162.422819
 21
32.948546
  0
LINE
  8
1
 62
7
  6
CONTINUOUS
 10
162.422819
 20
32.948546
 11
163.926174
 21
32.948546
  0
LINE
  8
1
 62
7
  6
CONTINUOUS
 10
163.926174
 20
32.948546
 11
163.926174
 21
37.803132
  0
LINE
  8
1
 62
7
  6
CONTINUOUS
 10
163.926174
 20
37.803132
 11
162.422819
 21
37.803132
  0
LINE
  8
1
 62
7
  6
CONTINUOUS
 10
164.922819
 20
37.803132
 11
164.922819
 21
32.948546
  0
LINE
  8
1
 62
7
  6
CONTINUOUS
 10
164.922819
 20
32.948546
 11
166.426174
 21
32.948546
  0
LINE
  8
1
 62
7
  6
CONTINUOUS
 10
166.426174
 20
32.948546
 11
166.426174
 21
37.803132
  0
LINE
  8
1
 62
7
  6
CONTINUOUS
 10
166.426174
 20
37.803132
 11
164.922819
 21
37.803132
  0
ARC
  8
1
 62
7
  6
DOT
 10
164.214765
 20
25.424310
 40
2.000000
 50
-90.000000
 51
-0.000000
  0
LINE
  8
1
 62
7
  6
DOT
 10
166.214765
 20
28.939597
 11
166.214765
 21
25.424310
  0
LINE
  8
1
 62
7
  6
DOT
 10
164.214765
 20
23.424310
 11
123.369128
 21
23.424310
  0
ARC
  8
1
 62
7
  6
DOT
 10
145.422819
 20
27.557047
 40
2.000000
 50
-90.000000
 51
-0.000000
  0
LINE
  8
1
 62
7
  6
DOT
 10
147.422819
 20
28.939597
 11
147.422819
 21
27.557047
  0
LINE
  8
1
 62
7
  6
DOT
 10
145.422819
 20
25.557047
 11
123.494407
 21
25.557047
  0
LINE
  8
1
 62
7
  6
DOT
 10
145.418345
 20
37.803132
 11
145.418345
 21
28.939597
  0
LINE
  8
1
 62
7
  6
DOT
 10
145.418345
 20
28.939597
 11
168.469799
 21
28.939597
  0
LINE
  8
1
 62
7
  6
DOT
 10
168.469799
 20
28.939597
 11
168.469799
 21
37.803132
  0
LINE
  8
1
 62
7
  6
DOT
 10
168.469799
 20
37.803132
 11
145.418345
 21
37.803132
  0
TEXT
  8
1
 62
7
  6
CONTINUOUS
 10
161.186304
 20
109.581407
 40
6.000000
 41
0.500000
  1
2
  7
KANJI
 50
0.000000
 51
0.000000
  0
TEXT
  8
1
 62
7
  6
CONTINUOUS
 10
178.686304
 20
109.581407
 40
6.000000
 41
0.500000
  1
3
  7
KANJI
 50
0.000000
 51
0.000000
  0
TEXT
  8
1
 62
7
  6
CONTINUOUS
 10
143.874223
 20
127.245836
 40
6.000000
 41
0.500000
  1
4
  7
KANJI
 50
0.000000
 51
0.000000
  0
TEXT
  8
1
 62
7
  6
CONTINUOUS
 10
161.374223
 20
127.245836
 40
6.000000
 41
0.500000
  1
5
  7
KANJI
 50
0.000000
 51
0.000000
  0
TEXT
  8
1
 62
7
  6
CONTINUOUS
 10
178.874223
 20
127.245836
 40
6.000000
 41
0.500000
  1
6
  7
KANJI
 50
0.000000
 51
0.000000
  0
TEXT
  8
1
 62
7
  6
CONTINUOUS
 10
143.874223
 20
144.910266
 40
6.000000
 41
0.500000
  1
7
  7
KANJI
 50
0.000000
 51
0.000000
  0
TEXT
  8
1
 62
7
  6
CONTINUOUS
 10
161.374223
 20
144.910266
 40
6.000000
 41
0.500000
  1
8
  7
KANJI
 50
0.000000
 51
0.000000
  0
TEXT
  8
1
 62
7
  6
CONTINUOUS
 10
178.874223
 20
144.910266
 40
6.000000
 41
0.500000
  1
9
  7
KANJI
 50
0.000000
 51
0.000000
  0
TEXT
  8
1
 62
7
  6
CONTINUOUS
 10
141.118071
 20
160.758141
 40
6.000000
 41
0.500000
  1
10
  7
KANJI
 50
0.000000
 51
0.000000
  0
TEXT
  8
1
 62
7
  6
CONTINUOUS
 10
158.618071
 20
160.758141
 40
6.000000
 41
0.500000
  1
11
  7
KANJI
 50
0.000000
 51
0.000000
  0
TEXT
  8
1
 62
7
  6
CONTINUOUS
 10
176.118071
 20
160.758141
 40
6.000000
 41
0.500000
  1
12
  7
KANJI
 50
0.000000
 51
0.000000
  0
LINE
  8
1
 62
7
  6
CONTINUOUS
 10
199.388409
 20
166.812478
 11
210.501119
 21
184.317673
  0
LINE
  8
1
 62
7
  6
CONTINUOUS
 10
210.501119
 20
184.317673
 11
218.001119
 21
184.317673
  0
TEXT
  8
1
 62
7
  6
CONTINUOUS
 10
210.501119
 20
184.317673
 40
3.000000
 41
0.625000
  1
6-φ4
  7
KANJI
 50
0.000000
 51
30.000000
  0
LINE
  8
1
 62
7
  6
CONTINUOUS
 10
199.388409
 20
166.812478
 11
200.285949
 21
169.675069
  0
LINE
  8
1
 62
7
  6
CONTINUOUS
 10
199.388409
 20
166.812478
 11
201.596996
 21
168.842785
  0
TEXT
  8
1
 62
7
  6
CONTINUOUS
 10
245.234899
 20
13.248322
 40
6.000000
 41
0.500000
  1
CFB-V12
  7
KANJI
 50
0.000000
 51
0.000000
  0
ENDSEC
  0
EOF
