  0
SECTION
  2
HEADER
  9
$ACADVER
  1
AC1009
  9
$INSBASE
 10
0.000000
 20
0.000000
  9
$EXTMIN
 10
0.000000
 20
0.000000
  9
$EXTMAX
 10
297.000000
 20
210.000000
  9
$LIMMIN
 10
0.000000
 20
0.000000
  9
$LIMMAX
 10
297.000000
 20
210.000000
  9
$VIEWCTR
 10
148.500000
 20
105.000000
  9
$VIEWSIZE
 40
210.000000
  9
$PEXTMIN
 10
0.000000
 20
0.000000
 30
0.000000
  9
$PEXTMAX
 10
297.000000
 20
210.000000
 30
0.000000
  9
$SNAPMODE
 70
     0
  9
$SNAPUNIT
 10
1.000000
 20
1.000000
  9
$SNAPBASE
 10
0.000000
 20
0.000000
  9
$SNAPANG
 50
0.000000
  9
$SNAPISOPAIR
 70
     0
  9
$SNAPSTYLE
 70
     0
  9
$GRIDMODE
 70
     0
  9
$GRIDUNIT
 10
0.000000
 20
0.000000
  9
$ORTHOMODE
 70
     0
  9
$REGENMODE
 70
     1
  9
$FILLMODE
 70
     1
  9
$QTEXTMODE
 70
     0
  9
$DRAGMODE
 70
     2
  9
$LTSCALE
 40
0.250000
  9
$OSMODE
 70
     0
  9
$ATTMODE
 70
     1
  9
$TEXTSIZE
 40
2.000000
  9
$TRACEWID
 40
0.050000
  9
$TEXTSTYLE
  7
STANDARD
  9
$CLAYER
  8
0
  9
$CELTYPE
  6
BYLAYER
  9
$CECOLOR
 62
   256
  9
$DIMSCALE
 40
1.000000
  9
$DIMASZ
 40
1.000000
  9
$DIMEXO
 40
0.000000
  9
$DIMDLI
 40
0.500000
  9
$DIMRND
 40
0.000000
  9
$DIMDLE
 40
0.000000
  9
$DIMEXE
 40
0.000000
  9
$DIMTP
 40
0.000000
  9
$DIMTM
 40
0.000000
  9
$DIMTXT
 40
3.000000
  9
$DIMCEN
 40
0.000000
  9
$DIMTSZ
 40
0.000000
  9
$DIMTOL
 70
     0
  9
$DIMLIM
 70
     0
  9
$DIMTIH
 70
     1
  9
$DIMTOH
 70
     1
  9
$DIMSE1
 70
     0
  9
$DIMSE2
 70
     0
  9
$DIMTAD
 70
     0
  9
$DIMZIN
 70
     0
  9
$DIMBLK
  1

  9
$DIMASO
 70
     0
  9
$DIMSHO
 70
     0
  9
$DIMPOST
  1

  9
$DIMAPOST
  1

  9
$DIMALT
 70
     0
  9
$DIMALTD
 70
     0
  9
$DIMALTF
 40
25.400000
  9
$DIMLFAC
 40
1.000000
  9
$DIMTOFL
 70
     0
  9
$DIMTVP
 40
0.000000
  9
$DIMTIX
 70
     0
  9
$DIMSOXD
 70
     0
  9
$DIMSAH
 70
     0
  9
$DIMBLKL
  1

  9
$DIMBLKR
  1

  9
$LUNITS
 70
     2
  9
$LUPREC
 70
     2
  9
$AXISMODE
 70
     0
  9
$AXISUNIT
 10
1.000000
 20
1.000000
  9
$SKETCHINC
 40
0.000000
  9
$FILLETRAD
 40
0.000000
  9
$AUNITS
 70
     1
  9
$AUPREC
 70
     2
  9
$MENU
  1
ACAD
  9
$ELEVATION
 40
0.000000
  9
$THICKNESS
 40
0.000000
  9
$VIEWDIR
 10
0.000000
 20
0.000000
 30
1.000000
  9
$LIMCHECK
 70
     1
  9
$BLIPMODE
 70
     1
  9
$CHAMFERA
 40
0.000000
  9
$CHAMFERB
 40
0.000000
  9
$FASTZOOM
 70
     1
  9
$SKPOLY
 70
     0
  9
$TDCREATE
 40
0.000000
  9
$TDUPDATE
 40
0.000000
  9
$TDINDWG
 40
0.000000
  9
$TDUSRTIMER
 40
0.000000
  9
$USRTIMER
 70
     1
  9
$ANGBASE
 50
0.000000
  9
$ANGDIR
 70
     0
  9
$PDMODE
 70
     0
  9
$PDSIZE
 40
0.000000
  9
$PLINEWID
 40
0.000000
  9
$COORDS
 70
     2
  9
$USERI1
 70
     0
  9
$USERI2
 70
     0
  9
$USERI3
 70
     0
  9
$USERI4
 70
     0
  9
$USERI5
 70
     0
  9
$USERR1
 40
0.000000
  9
$USERR2
 40
0.000000
  9
$USERR3
 40
0.000000
  9
$USERR4
 40
0.000000
  9
$USERR5
 40
0.000000
  0
ENDSEC
  0
SECTION
  2
TABLES
  0
TABLE
  2
LTYPE
 70
     5
  0
LTYPE
  2
CONTINUOUS
 70
    64
  3
Solid line
 72
    65
 73
     0
 40
0.0
  0
LTYPE
  2
HIDDEN
 70
    64
  3
------------------------
 72
    65
 73
     2
 40
12.6
 49
8.4
 49
-4.2
  0
LTYPE
  2
DOT
 70
    64
  3
････････････････････････
 72
    65
 73
     2
 40
8.0
 49
6.0
 49
-2.0
  0
LTYPE
  2
DASHDOT
 70
    64
  3
--･--･--･--･--･--･--･--
 72
    65
 73
     4
 40
50.5
 49
30.0
 49
-9.0
 49
2.5
 49
-9.0
  0
LTYPE
  2
DIVIDE
 70
    64
  3
--･･--･･--･･--･･--･･--
 72
    65
 73
     6
 40
58.0
 49
30.0
 49
-9.0
 49
2.5
 49
-5.0
 49
2.5
 49
-9.0
  0
LTYPE
  2
ACAD_ISO06W100
 70
    64
  3
____ ... ____ ... ____
 72
    65
 73
     8
 40
37.5
 49
24.0
 49
-3.0
 49
0.5
 49
-3.0
 49
0.5
 49
-3.0
 49
0.5
 49
-3.0
  0
LTYPE
  2
ACAD_ISO14W100
 70
    64
  3
__ . . . __ . . . __ . . . 
 72
    65
 73
     8
 40
25.5
 49
12.0
 49
-3.0
 49
0.5
 49
-3.0
 49
0.5
 49
-3.0
 49
0.5
 49
-3.0
  0
ENDTAB
  0
TABLE
  2
LAYER
 70
1
  0
LAYER
  2
1
 70
64
 62
7
  6
CONTINUOUS
  0
ENDTAB
  0
TABLE
  2
STYLE
 70
     2
  0
STYLE
  2
STANDARD
 70
    64
 40
0.0
 41
1.0
 50
0.0
 71
     0
 42
0.2
  3
TXT
  4

  0
STYLE
  2
KANJI
 70
    64
 40
0.0
 41
1.0
 50
0.0
 71
     0
 42
0.2
  3
TXT
  4
BIGFONT
  0
ENDTAB
  0
TABLE
  2
VIEW
 70
     0
  0
ENDTAB
  0
ENDSEC
  0
SECTION
  2
BLOCKS
  0
BLOCK
  8
1
 62
7
  6
CONTINUOUS
  2
*D1
 70
    65
 10
0.0
 20
0.0
  0
LINE
  8
1
 62
7
  6
CONTINUOUS
 10
89.948076
 20
23.706189
 11
89.948076
 21
42.706189
  0
LINE
  8
1
 62
7
  6
CONTINUOUS
 10
87.948076
 20
23.706189
 11
109.232303
 21
23.706189
  0
LINE
  8
1
 62
7
  6
CONTINUOUS
 10
87.948076
 20
42.706189
 11
105.087248
 21
42.706189
  0
LINE
  8
1
 62
7
  6
CONTINUOUS
 10
89.948076
 20
23.706189
 11
89.171619
 21
26.603967
  0
LINE
  8
1
 62
7
  6
CONTINUOUS
 10
89.948076
 20
23.706189
 11
90.724533
 21
26.603967
  0
LINE
  8
1
 62
7
  6
CONTINUOUS
 10
89.948076
 20
42.706189
 11
90.724533
 21
39.808412
  0
LINE
  8
1
 62
7
  6
CONTINUOUS
 10
89.948076
 20
42.706189
 11
89.171619
 21
39.808412
  0
TEXT
  8
1
 62
7
  6
CONTINUOUS
 10
89.948076
 20
31.706189
 40
3.000000
 41
0.500000
  1
19
  7
KANJI
 50
90.000000
 51
30.000000
  0
ENDBLK
  0
BLOCK
  8
1
 62
7
  6
CONTINUOUS
  2
*D2
 70
    65
 10
0.0
 20
0.0
  0
LINE
  8
1
 62
7
  6
CONTINUOUS
 10
89.948076
 20
42.706189
 11
89.948076
 21
54.403990
  0
LINE
  8
1
 62
7
  6
CONTINUOUS
 10
87.948076
 20
42.706189
 11
105.087248
 21
42.706189
  0
LINE
  8
1
 62
7
  6
CONTINUOUS
 10
87.948076
 20
54.403990
 11
116.287248
 21
54.403990
  0
LINE
  8
1
 62
7
  6
CONTINUOUS
 10
89.948076
 20
42.706189
 11
89.171619
 21
45.603967
  0
LINE
  8
1
 62
7
  6
CONTINUOUS
 10
89.948076
 20
42.706189
 11
90.724533
 21
45.603967
  0
LINE
  8
1
 62
7
  6
CONTINUOUS
 10
89.948076
 20
54.403990
 11
90.724533
 21
51.506213
  0
LINE
  8
1
 62
7
  6
CONTINUOUS
 10
89.948076
 20
54.403990
 11
89.171619
 21
51.506213
  0
TEXT
  8
1
 62
7
  6
CONTINUOUS
 10
89.948076
 20
45.555090
 40
3.000000
 41
0.500000
  1
11.7
  7
KANJI
 50
90.000000
 51
30.000000
  0
ENDBLK
  0
BLOCK
  8
1
 62
7
  6
CONTINUOUS
  2
*D3
 70
    65
 10
0.0
 20
0.0
  0
LINE
  8
1
 62
7
  6
CONTINUOUS
 10
97.798934
 20
49.906189
 11
97.798934
 21
58.403990
  0
LINE
  8
1
 62
7
  6
CONTINUOUS
 10
95.798934
 20
53.906189
 11
116.287248
 21
53.906189
  0
LINE
  8
1
 62
7
  6
CONTINUOUS
 10
95.798934
 20
54.403990
 11
116.287248
 21
54.403990
  0
LINE
  8
1
 62
7
  6
CONTINUOUS
 10
97.798934
 20
53.906189
 11
98.575391
 21
51.008412
  0
LINE
  8
1
 62
7
  6
CONTINUOUS
 10
97.798934
 20
53.906189
 11
97.022477
 21
51.008412
  0
LINE
  8
1
 62
7
  6
CONTINUOUS
 10
97.798934
 20
54.403990
 11
97.022477
 21
57.301768
  0
LINE
  8
1
 62
7
  6
CONTINUOUS
 10
97.798934
 20
54.403990
 11
98.575391
 21
57.301768
  0
TEXT
  8
1
 62
7
  6
CONTINUOUS
 10
97.798934
 20
51.905090
 40
3.000000
 41
0.500000
  1
0.5
  7
KANJI
 50
90.000000
 51
30.000000
  0
ENDBLK
  0
BLOCK
  8
1
 62
7
  6
CONTINUOUS
  2
*D4
 70
    65
 10
0.0
 20
0.0
  0
LINE
  8
1
 62
7
  6
CONTINUOUS
 10
97.631894
 20
38.706189
 11
97.631894
 21
47.906189
  0
LINE
  8
1
 62
7
  6
CONTINUOUS
 10
95.631894
 20
42.706189
 11
105.087248
 21
42.706189
  0
LINE
  8
1
 62
7
  6
CONTINUOUS
 10
95.631894
 20
43.906189
 11
105.087248
 21
43.906189
  0
LINE
  8
1
 62
7
  6
CONTINUOUS
 10
97.631894
 20
42.706189
 11
98.408352
 21
39.808412
  0
LINE
  8
1
 62
7
  6
CONTINUOUS
 10
97.631894
 20
42.706189
 11
96.855437
 21
39.808412
  0
LINE
  8
1
 62
7
  6
CONTINUOUS
 10
97.631894
 20
43.906189
 11
96.855437
 21
46.803967
  0
LINE
  8
1
 62
7
  6
CONTINUOUS
 10
97.631894
 20
43.906189
 11
98.408352
 21
46.803967
  0
TEXT
  8
1
 62
7
  6
CONTINUOUS
 10
97.631894
 20
41.056189
 40
3.000000
 41
0.500000
  1
1.2
  7
KANJI
 50
90.000000
 51
30.000000
  0
ENDBLK
  0
BLOCK
  8
1
 62
7
  6
CONTINUOUS
  2
*D5
 70
    65
 10
0.0
 20
0.0
  0
LINE
  8
1
 62
7
  6
CONTINUOUS
 10
88.008949
 20
98.674497
 11
88.008949
 21
182.674497
  0
LINE
  8
1
 62
7
  6
CONTINUOUS
 10
86.008949
 20
98.674497
 11
108.087248
 21
98.674497
  0
LINE
  8
1
 62
7
  6
CONTINUOUS
 10
86.008949
 20
182.674497
 11
108.087248
 21
182.674497
  0
LINE
  8
1
 62
7
  6
CONTINUOUS
 10
88.008949
 20
98.674497
 11
87.232491
 21
101.572274
  0
LINE
  8
1
 62
7
  6
CONTINUOUS
 10
88.008949
 20
98.674497
 11
88.785406
 21
101.572274
  0
LINE
  8
1
 62
7
  6
CONTINUOUS
 10
88.008949
 20
182.674497
 11
88.785406
 21
179.776719
  0
LINE
  8
1
 62
7
  6
CONTINUOUS
 10
88.008949
 20
182.674497
 11
87.232491
 21
179.776719
  0
TEXT
  8
1
 62
7
  6
CONTINUOUS
 10
88.008949
 20
139.174497
 40
3.000000
 41
0.500000
  1
84
  7
KANJI
 50
90.000000
 51
30.000000
  0
ENDBLK
  0
BLOCK
  8
1
 62
7
  6
CONTINUOUS
  2
*D6
 70
    65
 10
0.0
 20
0.0
  0
LINE
  8
1
 62
7
  6
CONTINUOUS
 10
93.082774
 20
100.674497
 11
93.082774
 21
180.674497
  0
LINE
  8
1
 62
7
  6
CONTINUOUS
 10
91.082774
 20
100.674497
 11
117.087248
 21
100.674497
  0
LINE
  8
1
 62
7
  6
CONTINUOUS
 10
91.082774
 20
180.674497
 11
117.087248
 21
180.674497
  0
LINE
  8
1
 62
7
  6
CONTINUOUS
 10
93.082774
 20
100.674497
 11
92.306317
 21
103.572274
  0
LINE
  8
1
 62
7
  6
CONTINUOUS
 10
93.082774
 20
100.674497
 11
93.859231
 21
103.572274
  0
LINE
  8
1
 62
7
  6
CONTINUOUS
 10
93.082774
 20
180.674497
 11
93.859231
 21
177.776719
  0
LINE
  8
1
 62
7
  6
CONTINUOUS
 10
93.082774
 20
180.674497
 11
92.306317
 21
177.776719
  0
TEXT
  8
1
 62
7
  6
CONTINUOUS
 10
93.082774
 20
139.174497
 40
3.000000
 41
0.500000
  1
80
  7
KANJI
 50
90.000000
 51
30.000000
  0
ENDBLK
  0
BLOCK
  8
1
 62
7
  6
CONTINUOUS
  2
*D7
 70
    65
 10
0.0
 20
0.0
  0
LINE
  8
1
 62
7
  6
CONTINUOUS
 10
98.062640
 20
115.674497
 11
98.062640
 21
140.674497
  0
LINE
  8
1
 62
7
  6
CONTINUOUS
 10
96.062640
 20
115.674497
 11
106.695004
 21
115.674497
  0
LINE
  8
1
 62
7
  6
CONTINUOUS
 10
96.062640
 20
140.674497
 11
107.196122
 21
140.674497
  0
LINE
  8
1
 62
7
  6
CONTINUOUS
 10
98.062640
 20
115.674497
 11
97.286183
 21
118.572274
  0
LINE
  8
1
 62
7
  6
CONTINUOUS
 10
98.062640
 20
115.674497
 11
98.839097
 21
118.572274
  0
LINE
  8
1
 62
7
  6
CONTINUOUS
 10
98.062640
 20
140.674497
 11
98.839097
 21
137.776719
  0
LINE
  8
1
 62
7
  6
CONTINUOUS
 10
98.062640
 20
140.674497
 11
97.286183
 21
137.776719
  0
TEXT
  8
1
 62
7
  6
CONTINUOUS
 10
98.062640
 20
126.674497
 40
3.000000
 41
0.500000
  1
25
  7
KANJI
 50
90.000000
 51
30.000000
  0
ENDBLK
  0
BLOCK
  8
1
 62
7
  6
CONTINUOUS
  2
*D8
 70
    65
 10
0.0
 20
0.0
  0
LINE
  8
1
 62
7
  6
CONTINUOUS
 10
98.062640
 20
140.674497
 11
98.062640
 21
165.674497
  0
LINE
  8
1
 62
7
  6
CONTINUOUS
 10
96.062640
 20
140.674497
 11
108.087248
 21
140.674497
  0
LINE
  8
1
 62
7
  6
CONTINUOUS
 10
96.062640
 20
165.674497
 11
107.196122
 21
165.674497
  0
LINE
  8
1
 62
7
  6
CONTINUOUS
 10
98.062640
 20
140.674497
 11
97.286183
 21
143.572274
  0
LINE
  8
1
 62
7
  6
CONTINUOUS
 10
98.062640
 20
140.674497
 11
98.839097
 21
143.572274
  0
LINE
  8
1
 62
7
  6
CONTINUOUS
 10
98.062640
 20
165.674497
 11
98.839097
 21
162.776719
  0
LINE
  8
1
 62
7
  6
CONTINUOUS
 10
98.062640
 20
165.674497
 11
97.286183
 21
162.776719
  0
TEXT
  8
1
 62
7
  6
CONTINUOUS
 10
98.062640
 20
151.674497
 40
3.000000
 41
0.500000
  1
25
  7
KANJI
 50
90.000000
 51
30.000000
  0
ENDBLK
  0
BLOCK
  8
1
 62
7
  6
CONTINUOUS
  2
*D9
 70
    65
 10
0.0
 20
0.0
  0
LINE
  8
1
 62
7
  6
CONTINUOUS
 10
117.087248
 20
82.966443
 11
201.087248
 21
82.966443
  0
LINE
  8
1
 62
7
  6
CONTINUOUS
 10
117.087248
 20
80.966443
 11
117.087248
 21
96.674497
  0
LINE
  8
1
 62
7
  6
CONTINUOUS
 10
201.087248
 20
80.966443
 11
201.087248
 21
96.674497
  0
LINE
  8
1
 62
7
  6
CONTINUOUS
 10
117.087248
 20
82.966443
 11
119.985026
 21
83.742900
  0
LINE
  8
1
 62
7
  6
CONTINUOUS
 10
117.087248
 20
82.966443
 11
119.985026
 21
82.189986
  0
LINE
  8
1
 62
7
  6
CONTINUOUS
 10
201.087248
 20
82.966443
 11
198.189471
 21
82.189986
  0
LINE
  8
1
 62
7
  6
CONTINUOUS
 10
201.087248
 20
82.966443
 11
198.189471
 21
83.742900
  0
TEXT
  8
1
 62
7
  6
CONTINUOUS
 10
157.587248
 20
82.966443
 40
3.000000
 41
0.500000
  1
84
  7
KANJI
 50
0.000000
 51
30.000000
  0
ENDBLK
  0
BLOCK
  8
1
 62
7
  6
CONTINUOUS
  2
*D10
 70
    65
 10
0.0
 20
0.0
  0
LINE
  8
1
 62
7
  6
CONTINUOUS
 10
112.087248
 20
78.456376
 11
206.087248
 21
78.456376
  0
LINE
  8
1
 62
7
  6
CONTINUOUS
 10
112.087248
 20
76.456376
 11
112.087248
 21
110.521999
  0
LINE
  8
1
 62
7
  6
CONTINUOUS
 10
206.087248
 20
76.456376
 11
206.087248
 21
110.187919
  0
LINE
  8
1
 62
7
  6
CONTINUOUS
 10
112.087248
 20
78.456376
 11
114.985026
 21
79.232833
  0
LINE
  8
1
 62
7
  6
CONTINUOUS
 10
112.087248
 20
78.456376
 11
114.985026
 21
77.679919
  0
LINE
  8
1
 62
7
  6
CONTINUOUS
 10
206.087248
 20
78.456376
 11
203.189471
 21
77.679919
  0
LINE
  8
1
 62
7
  6
CONTINUOUS
 10
206.087248
 20
78.456376
 11
203.189471
 21
79.232833
  0
TEXT
  8
1
 62
7
  6
CONTINUOUS
 10
157.587248
 20
78.456376
 40
3.000000
 41
0.500000
  1
94
  7
KANJI
 50
0.000000
 51
30.000000
  0
ENDBLK
  0
BLOCK
  8
1
 62
7
  6
CONTINUOUS
  2
*D11
 70
    65
 10
0.0
 20
0.0
  0
LINE
  8
1
 62
7
  6
CONTINUOUS
 10
107.087248
 20
74.134228
 11
211.087248
 21
74.134228
  0
LINE
  8
1
 62
7
  6
CONTINUOUS
 10
107.087248
 20
72.134228
 11
107.087248
 21
99.674497
  0
LINE
  8
1
 62
7
  6
CONTINUOUS
 10
211.087248
 20
72.134228
 11
211.087248
 21
99.674497
  0
LINE
  8
1
 62
7
  6
CONTINUOUS
 10
107.087248
 20
74.134228
 11
109.985026
 21
74.910685
  0
LINE
  8
1
 62
7
  6
CONTINUOUS
 10
107.087248
 20
74.134228
 11
109.985026
 21
73.357771
  0
LINE
  8
1
 62
7
  6
CONTINUOUS
 10
211.087248
 20
74.134228
 11
208.189471
 21
73.357771
  0
LINE
  8
1
 62
7
  6
CONTINUOUS
 10
211.087248
 20
74.134228
 11
208.189471
 21
74.910685
  0
TEXT
  8
1
 62
7
  6
CONTINUOUS
 10
156.837248
 20
74.134228
 40
3.000000
 41
0.500000
  1
104
  7
KANJI
 50
0.000000
 51
30.000000
  0
ENDBLK
  0
BLOCK
  8
1
 62
7
  6
CONTINUOUS
  2
*D12
 70
    65
 10
0.0
 20
0.0
  0
LINE
  8
1
 62
7
  6
CONTINUOUS
 10
119.087248
 20
87.006711
 11
199.087248
 21
87.006711
  0
LINE
  8
1
 62
7
  6
CONTINUOUS
 10
119.087248
 20
85.006711
 11
119.087248
 21
98.674497
  0
LINE
  8
1
 62
7
  6
CONTINUOUS
 10
199.087248
 20
85.006711
 11
199.087248
 21
98.674497
  0
LINE
  8
1
 62
7
  6
CONTINUOUS
 10
119.087248
 20
87.006711
 11
121.985026
 21
87.783169
  0
LINE
  8
1
 62
7
  6
CONTINUOUS
 10
119.087248
 20
87.006711
 11
121.985026
 21
86.230254
  0
LINE
  8
1
 62
7
  6
CONTINUOUS
 10
199.087248
 20
87.006711
 11
196.189471
 21
86.230254
  0
LINE
  8
1
 62
7
  6
CONTINUOUS
 10
199.087248
 20
87.006711
 11
196.189471
 21
87.783169
  0
TEXT
  8
1
 62
7
  6
CONTINUOUS
 10
157.587248
 20
87.006711
 40
3.000000
 41
0.500000
  1
80
  7
KANJI
 50
0.000000
 51
30.000000
  0
ENDBLK
  0
BLOCK
  8
1
 62
7
  6
CONTINUOUS
  2
*D13
 70
    65
 10
0.0
 20
0.0
  0
LINE
  8
1
 62
7
  6
CONTINUOUS
 10
132.516779
 20
189.172260
 11
150.016779
 21
189.172260
  0
LINE
  8
1
 62
7
  6
CONTINUOUS
 10
132.516779
 20
191.172260
 11
132.516779
 21
180.178971
  0
LINE
  8
1
 62
7
  6
CONTINUOUS
 10
150.016779
 20
191.172260
 11
150.016779
 21
180.178971
  0
LINE
  8
1
 62
7
  6
CONTINUOUS
 10
132.516779
 20
189.172260
 11
135.414556
 21
189.948717
  0
LINE
  8
1
 62
7
  6
CONTINUOUS
 10
132.516779
 20
189.172260
 11
135.414556
 21
188.395802
  0
LINE
  8
1
 62
7
  6
CONTINUOUS
 10
150.016779
 20
189.172260
 11
147.119001
 21
188.395802
  0
LINE
  8
1
 62
7
  6
CONTINUOUS
 10
150.016779
 20
189.172260
 11
147.119001
 21
189.948717
  0
TEXT
  8
1
 62
7
  6
CONTINUOUS
 10
138.266779
 20
189.172260
 40
3.000000
 41
0.500000
  1
17.5
  7
KANJI
 50
0.000000
 51
30.000000
  0
ENDBLK
  0
BLOCK
  8
1
 62
7
  6
CONTINUOUS
  2
*D14
 70
    65
 10
0.0
 20
0.0
  0
LINE
  8
1
 62
7
  6
CONTINUOUS
 10
150.016779
 20
189.172260
 11
167.516779
 21
189.172260
  0
LINE
  8
1
 62
7
  6
CONTINUOUS
 10
150.016779
 20
191.172260
 11
150.016779
 21
180.178971
  0
LINE
  8
1
 62
7
  6
CONTINUOUS
 10
167.516779
 20
191.172260
 11
167.516779
 21
180.178971
  0
LINE
  8
1
 62
7
  6
CONTINUOUS
 10
150.016779
 20
189.172260
 11
152.914556
 21
189.948717
  0
LINE
  8
1
 62
7
  6
CONTINUOUS
 10
150.016779
 20
189.172260
 11
152.914556
 21
188.395802
  0
LINE
  8
1
 62
7
  6
CONTINUOUS
 10
167.516779
 20
189.172260
 11
164.619001
 21
188.395802
  0
LINE
  8
1
 62
7
  6
CONTINUOUS
 10
167.516779
 20
189.172260
 11
164.619001
 21
189.948717
  0
TEXT
  8
1
 62
7
  6
CONTINUOUS
 10
155.766779
 20
189.172260
 40
3.000000
 41
0.500000
  1
17.5
  7
KANJI
 50
0.000000
 51
30.000000
  0
ENDBLK
  0
BLOCK
  8
1
 62
7
  6
CONTINUOUS
  2
*D15
 70
    65
 10
0.0
 20
0.0
  0
LINE
  8
1
 62
7
  6
CONTINUOUS
 10
167.516779
 20
189.172260
 11
185.016779
 21
189.172260
  0
LINE
  8
1
 62
7
  6
CONTINUOUS
 10
167.516779
 20
191.172260
 11
167.516779
 21
181.035048
  0
LINE
  8
1
 62
7
  6
CONTINUOUS
 10
185.016779
 20
191.172260
 11
185.016779
 21
181.035048
  0
LINE
  8
1
 62
7
  6
CONTINUOUS
 10
167.516779
 20
189.172260
 11
170.414556
 21
189.948717
  0
LINE
  8
1
 62
7
  6
CONTINUOUS
 10
167.516779
 20
189.172260
 11
170.414556
 21
188.395802
  0
LINE
  8
1
 62
7
  6
CONTINUOUS
 10
185.016779
 20
189.172260
 11
182.119001
 21
188.395802
  0
LINE
  8
1
 62
7
  6
CONTINUOUS
 10
185.016779
 20
189.172260
 11
182.119001
 21
189.948717
  0
TEXT
  8
1
 62
7
  6
CONTINUOUS
 10
173.266779
 20
189.172260
 40
3.000000
 41
0.500000
  1
17.5
  7
KANJI
 50
0.000000
 51
30.000000
  0
ENDBLK
  0
ENDSEC
  0
SECTION
  2
ENTITIES
  0
LINE
  8
1
 62
7
  6
CONTINUOUS
 10
74.161074
 20
4904.785235
 11
30.161074
 21
4904.785235
  0
LINE
  8
1
 62
7
  6
CONTINUOUS
 10
186.771812
 20
4904.221477
 11
121.771812
 21
4904.221477
  0
LINE
  8
1
 62
7
  6
CONTINUOUS
 10
74.161074
 20
4953.285235
 11
30.161074
 21
4953.285235
  0
LINE
  8
1
 62
7
  6
CONTINUOUS
 10
186.771812
 20
4952.721477
 11
121.771812
 21
4952.721477
  0
LINE
  8
1
 62
7
  6
CONTINUOUS
 10
327.262342
 20
169.976137
 11
331.204474
 21
169.976137
  0
LINE
  8
1
 62
7
  6
CONTINUOUS
 10
329.352722
 20
171.627442
 11
329.352722
 21
168.487099
  0
ARC
  8
1
 62
7
  6
CONTINUOUS
 10
323.752722
 20
175.576137
 40
0.800000
 50
90.000000
 51
180.000000
  0
LINE
  8
1
 62
7
  6
CONTINUOUS
 10
323.752722
 20
176.376137
 11
334.952722
 21
176.376137
  0
ARC
  8
1
 62
7
  6
CONTINUOUS
 10
334.952722
 20
175.576137
 40
0.800000
 50
-0.000000
 51
90.000000
  0
LINE
  8
1
 62
7
  6
CONTINUOUS
 10
335.752722
 20
175.576137
 11
335.752722
 21
164.376137
  0
ARC
  8
1
 62
7
  6
CONTINUOUS
 10
334.952722
 20
164.376137
 40
0.800000
 50
-90.000000
 51
0.000000
  0
LINE
  8
1
 62
7
  6
CONTINUOUS
 10
334.952722
 20
163.576137
 11
323.752722
 21
163.576137
  0
LINE
  8
1
 62
7
  6
CONTINUOUS
 10
322.952722
 20
164.376137
 11
322.952722
 21
175.576137
  0
ARC
  8
1
 62
7
  6
CONTINUOUS
 10
323.752722
 20
164.376137
 40
0.800000
 50
180.000000
 51
-90.000000
  0
LINE
  8
1
 62
7
  6
CONTINUOUS
 10
344.762342
 20
169.976137
 11
348.704474
 21
169.976137
  0
LINE
  8
1
 62
7
  6
CONTINUOUS
 10
346.852722
 20
171.627442
 11
346.852722
 21
168.487099
  0
ARC
  8
1
 62
7
  6
CONTINUOUS
 10
341.252722
 20
175.576137
 40
0.800000
 50
90.000000
 51
180.000000
  0
LINE
  8
1
 62
7
  6
CONTINUOUS
 10
341.252722
 20
176.376137
 11
352.452722
 21
176.376137
  0
ARC
  8
1
 62
7
  6
CONTINUOUS
 10
352.452722
 20
175.576137
 40
0.800000
 50
-0.000000
 51
90.000000
  0
LINE
  8
1
 62
7
  6
CONTINUOUS
 10
353.252722
 20
175.576137
 11
353.252722
 21
164.376137
  0
ARC
  8
1
 62
7
  6
CONTINUOUS
 10
352.452722
 20
164.376137
 40
0.800000
 50
-90.000000
 51
0.000000
  0
LINE
  8
1
 62
7
  6
CONTINUOUS
 10
352.452722
 20
163.576137
 11
341.252722
 21
163.576137
  0
LINE
  8
1
 62
7
  6
CONTINUOUS
 10
340.452722
 20
164.376137
 11
340.452722
 21
175.576137
  0
ARC
  8
1
 62
7
  6
CONTINUOUS
 10
341.252722
 20
164.376137
 40
0.800000
 50
180.000000
 51
-90.000000
  0
LINE
  8
1
 62
7
  6
CONTINUOUS
 10
362.262342
 20
169.976137
 11
366.204474
 21
169.976137
  0
LINE
  8
1
 62
7
  6
CONTINUOUS
 10
364.352722
 20
171.627442
 11
364.352722
 21
168.487099
  0
ARC
  8
1
 62
7
  6
CONTINUOUS
 10
358.752722
 20
175.576137
 40
0.800000
 50
90.000000
 51
180.000000
  0
LINE
  8
1
 62
7
  6
CONTINUOUS
 10
358.752722
 20
176.376137
 11
369.952722
 21
176.376137
  0
ARC
  8
1
 62
7
  6
CONTINUOUS
 10
369.952722
 20
175.576137
 40
0.800000
 50
-0.000000
 51
90.000000
  0
LINE
  8
1
 62
7
  6
CONTINUOUS
 10
370.752722
 20
175.576137
 11
370.752722
 21
164.376137
  0
ARC
  8
1
 62
7
  6
CONTINUOUS
 10
369.952722
 20
164.376137
 40
0.800000
 50
-90.000000
 51
0.000000
  0
LINE
  8
1
 62
7
  6
CONTINUOUS
 10
369.952722
 20
163.576137
 11
358.752722
 21
163.576137
  0
LINE
  8
1
 62
7
  6
CONTINUOUS
 10
357.952722
 20
164.376137
 11
357.952722
 21
175.576137
  0
ARC
  8
1
 62
7
  6
CONTINUOUS
 10
358.752722
 20
164.376137
 40
0.800000
 50
180.000000
 51
-90.000000
  0
LINE
  8
1
 62
7
  6
CONTINUOUS
 10
327.262342
 20
152.476137
 11
331.204474
 21
152.476137
  0
LINE
  8
1
 62
7
  6
CONTINUOUS
 10
329.352722
 20
154.127442
 11
329.352722
 21
150.987099
  0
ARC
  8
1
 62
7
  6
CONTINUOUS
 10
323.752722
 20
158.076137
 40
0.800000
 50
90.000000
 51
180.000000
  0
LINE
  8
1
 62
7
  6
CONTINUOUS
 10
323.752722
 20
158.876137
 11
334.952722
 21
158.876137
  0
ARC
  8
1
 62
7
  6
CONTINUOUS
 10
334.952722
 20
158.076137
 40
0.800000
 50
-0.000000
 51
90.000000
  0
LINE
  8
1
 62
7
  6
CONTINUOUS
 10
335.752722
 20
158.076137
 11
335.752722
 21
146.876137
  0
ARC
  8
1
 62
7
  6
CONTINUOUS
 10
334.952722
 20
146.876137
 40
0.800000
 50
-90.000000
 51
0.000000
  0
LINE
  8
1
 62
7
  6
CONTINUOUS
 10
334.952722
 20
146.076137
 11
323.752722
 21
146.076137
  0
LINE
  8
1
 62
7
  6
CONTINUOUS
 10
322.952722
 20
146.876137
 11
322.952722
 21
158.076137
  0
ARC
  8
1
 62
7
  6
CONTINUOUS
 10
323.752722
 20
146.876137
 40
0.800000
 50
180.000000
 51
-90.000000
  0
LINE
  8
1
 62
7
  6
CONTINUOUS
 10
344.762342
 20
152.476137
 11
348.704474
 21
152.476137
  0
LINE
  8
1
 62
7
  6
CONTINUOUS
 10
346.852722
 20
154.127442
 11
346.852722
 21
150.987099
  0
ARC
  8
1
 62
7
  6
CONTINUOUS
 10
341.252722
 20
158.076137
 40
0.800000
 50
90.000000
 51
180.000000
  0
LINE
  8
1
 62
7
  6
CONTINUOUS
 10
341.252722
 20
158.876137
 11
352.452722
 21
158.876137
  0
ARC
  8
1
 62
7
  6
CONTINUOUS
 10
352.452722
 20
158.076137
 40
0.800000
 50
-0.000000
 51
90.000000
  0
LINE
  8
1
 62
7
  6
CONTINUOUS
 10
353.252722
 20
158.076137
 11
353.252722
 21
146.876137
  0
ARC
  8
1
 62
7
  6
CONTINUOUS
 10
352.452722
 20
146.876137
 40
0.800000
 50
-90.000000
 51
0.000000
  0
LINE
  8
1
 62
7
  6
CONTINUOUS
 10
352.452722
 20
146.076137
 11
341.252722
 21
146.076137
  0
LINE
  8
1
 62
7
  6
CONTINUOUS
 10
340.452722
 20
146.876137
 11
340.452722
 21
158.076137
  0
ARC
  8
1
 62
7
  6
CONTINUOUS
 10
341.252722
 20
146.876137
 40
0.800000
 50
180.000000
 51
-90.000000
  0
LINE
  8
1
 62
7
  6
CONTINUOUS
 10
362.262342
 20
152.476137
 11
366.204474
 21
152.476137
  0
LINE
  8
1
 62
7
  6
CONTINUOUS
 10
364.352722
 20
154.127442
 11
364.352722
 21
150.987099
  0
ARC
  8
1
 62
7
  6
CONTINUOUS
 10
358.752722
 20
158.076137
 40
0.800000
 50
90.000000
 51
180.000000
  0
LINE
  8
1
 62
7
  6
CONTINUOUS
 10
358.752722
 20
158.876137
 11
369.952722
 21
158.876137
  0
ARC
  8
1
 62
7
  6
CONTINUOUS
 10
369.952722
 20
158.076137
 40
0.800000
 50
-0.000000
 51
90.000000
  0
LINE
  8
1
 62
7
  6
CONTINUOUS
 10
370.752722
 20
158.076137
 11
370.752722
 21
146.876137
  0
ARC
  8
1
 62
7
  6
CONTINUOUS
 10
369.952722
 20
146.876137
 40
0.800000
 50
-90.000000
 51
0.000000
  0
LINE
  8
1
 62
7
  6
CONTINUOUS
 10
369.952722
 20
146.076137
 11
358.752722
 21
146.076137
  0
LINE
  8
1
 62
7
  6
CONTINUOUS
 10
357.952722
 20
146.876137
 11
357.952722
 21
158.076137
  0
ARC
  8
1
 62
7
  6
CONTINUOUS
 10
358.752722
 20
146.876137
 40
0.800000
 50
180.000000
 51
-90.000000
  0
LINE
  8
1
 62
7
  6
CONTINUOUS
 10
327.262342
 20
134.976137
 11
331.204474
 21
134.976137
  0
LINE
  8
1
 62
7
  6
CONTINUOUS
 10
329.352722
 20
136.627442
 11
329.352722
 21
133.487099
  0
ARC
  8
1
 62
7
  6
CONTINUOUS
 10
323.752722
 20
140.576137
 40
0.800000
 50
90.000000
 51
180.000000
  0
LINE
  8
1
 62
7
  6
CONTINUOUS
 10
323.752722
 20
141.376137
 11
334.952722
 21
141.376137
  0
ARC
  8
1
 62
7
  6
CONTINUOUS
 10
334.952722
 20
140.576137
 40
0.800000
 50
-0.000000
 51
90.000000
  0
LINE
  8
1
 62
7
  6
CONTINUOUS
 10
335.752722
 20
140.576137
 11
335.752722
 21
129.376137
  0
ARC
  8
1
 62
7
  6
CONTINUOUS
 10
334.952722
 20
129.376137
 40
0.800000
 50
-90.000000
 51
0.000000
  0
LINE
  8
1
 62
7
  6
CONTINUOUS
 10
334.952722
 20
128.576137
 11
323.752722
 21
128.576137
  0
LINE
  8
1
 62
7
  6
CONTINUOUS
 10
322.952722
 20
129.376137
 11
322.952722
 21
140.576137
  0
ARC
  8
1
 62
7
  6
CONTINUOUS
 10
323.752722
 20
129.376137
 40
0.800000
 50
180.000000
 51
-90.000000
  0
LINE
  8
1
 62
7
  6
CONTINUOUS
 10
344.762342
 20
134.976137
 11
348.704474
 21
134.976137
  0
LINE
  8
1
 62
7
  6
CONTINUOUS
 10
346.852722
 20
136.627442
 11
346.852722
 21
133.487099
  0
ARC
  8
1
 62
7
  6
CONTINUOUS
 10
341.252722
 20
140.576137
 40
0.800000
 50
90.000000
 51
180.000000
  0
LINE
  8
1
 62
7
  6
CONTINUOUS
 10
341.252722
 20
141.376137
 11
352.452722
 21
141.376137
  0
ARC
  8
1
 62
7
  6
CONTINUOUS
 10
352.452722
 20
140.576137
 40
0.800000
 50
-0.000000
 51
90.000000
  0
LINE
  8
1
 62
7
  6
CONTINUOUS
 10
353.252722
 20
140.576137
 11
353.252722
 21
129.376137
  0
ARC
  8
1
 62
7
  6
CONTINUOUS
 10
352.452722
 20
129.376137
 40
0.800000
 50
-90.000000
 51
0.000000
  0
LINE
  8
1
 62
7
  6
CONTINUOUS
 10
352.452722
 20
128.576137
 11
341.252722
 21
128.576137
  0
LINE
  8
1
 62
7
  6
CONTINUOUS
 10
340.452722
 20
129.376137
 11
340.452722
 21
140.576137
  0
ARC
  8
1
 62
7
  6
CONTINUOUS
 10
341.252722
 20
129.376137
 40
0.800000
 50
180.000000
 51
-90.000000
  0
LINE
  8
1
 62
7
  6
CONTINUOUS
 10
362.262342
 20
134.976137
 11
366.204474
 21
134.976137
  0
LINE
  8
1
 62
7
  6
CONTINUOUS
 10
364.352722
 20
136.627442
 11
364.352722
 21
133.487099
  0
ARC
  8
1
 62
7
  6
CONTINUOUS
 10
358.752722
 20
140.576137
 40
0.800000
 50
90.000000
 51
180.000000
  0
LINE
  8
1
 62
7
  6
CONTINUOUS
 10
358.752722
 20
141.376137
 11
369.952722
 21
141.376137
  0
ARC
  8
1
 62
7
  6
CONTINUOUS
 10
369.952722
 20
140.576137
 40
0.800000
 50
-0.000000
 51
90.000000
  0
LINE
  8
1
 62
7
  6
CONTINUOUS
 10
370.752722
 20
140.576137
 11
370.752722
 21
129.376137
  0
ARC
  8
1
 62
7
  6
CONTINUOUS
 10
369.952722
 20
129.376137
 40
0.800000
 50
-90.000000
 51
0.000000
  0
LINE
  8
1
 62
7
  6
CONTINUOUS
 10
369.952722
 20
128.576137
 11
358.752722
 21
128.576137
  0
LINE
  8
1
 62
7
  6
CONTINUOUS
 10
357.952722
 20
129.376137
 11
357.952722
 21
140.576137
  0
ARC
  8
1
 62
7
  6
CONTINUOUS
 10
358.752722
 20
129.376137
 40
0.800000
 50
180.000000
 51
-90.000000
  0
LINE
  8
1
 62
7
  6
CONTINUOUS
 10
327.262342
 20
117.476137
 11
331.204474
 21
117.476137
  0
LINE
  8
1
 62
7
  6
CONTINUOUS
 10
329.352722
 20
119.127442
 11
329.352722
 21
115.987099
  0
ARC
  8
1
 62
7
  6
CONTINUOUS
 10
323.752722
 20
123.076137
 40
0.800000
 50
90.000000
 51
180.000000
  0
LINE
  8
1
 62
7
  6
CONTINUOUS
 10
323.752722
 20
123.876137
 11
334.952722
 21
123.876137
  0
ARC
  8
1
 62
7
  6
CONTINUOUS
 10
334.952722
 20
123.076137
 40
0.800000
 50
-0.000000
 51
90.000000
  0
LINE
  8
1
 62
7
  6
CONTINUOUS
 10
335.752722
 20
123.076137
 11
335.752722
 21
111.876137
  0
ARC
  8
1
 62
7
  6
CONTINUOUS
 10
334.952722
 20
111.876137
 40
0.800000
 50
-90.000000
 51
0.000000
  0
LINE
  8
1
 62
7
  6
CONTINUOUS
 10
334.952722
 20
111.076137
 11
323.752722
 21
111.076137
  0
LINE
  8
1
 62
7
  6
CONTINUOUS
 10
322.952722
 20
111.876137
 11
322.952722
 21
123.076137
  0
ARC
  8
1
 62
7
  6
CONTINUOUS
 10
323.752722
 20
111.876137
 40
0.800000
 50
180.000000
 51
-90.000000
  0
LINE
  8
1
 62
7
  6
CONTINUOUS
 10
344.762342
 20
117.476137
 11
348.704474
 21
117.476137
  0
LINE
  8
1
 62
7
  6
CONTINUOUS
 10
346.852722
 20
119.127442
 11
346.852722
 21
115.987099
  0
ARC
  8
1
 62
7
  6
CONTINUOUS
 10
341.252722
 20
123.076137
 40
0.800000
 50
90.000000
 51
180.000000
  0
LINE
  8
1
 62
7
  6
CONTINUOUS
 10
341.252722
 20
123.876137
 11
352.452722
 21
123.876137
  0
ARC
  8
1
 62
7
  6
CONTINUOUS
 10
352.452722
 20
123.076137
 40
0.800000
 50
-0.000000
 51
90.000000
  0
LINE
  8
1
 62
7
  6
CONTINUOUS
 10
353.252722
 20
123.076137
 11
353.252722
 21
111.876137
  0
ARC
  8
1
 62
7
  6
CONTINUOUS
 10
352.452722
 20
111.876137
 40
0.800000
 50
-90.000000
 51
0.000000
  0
LINE
  8
1
 62
7
  6
CONTINUOUS
 10
352.452722
 20
111.076137
 11
341.252722
 21
111.076137
  0
LINE
  8
1
 62
7
  6
CONTINUOUS
 10
340.452722
 20
111.876137
 11
340.452722
 21
123.076137
  0
ARC
  8
1
 62
7
  6
CONTINUOUS
 10
341.252722
 20
111.876137
 40
0.800000
 50
180.000000
 51
-90.000000
  0
LINE
  8
1
 62
7
  6
CONTINUOUS
 10
362.262342
 20
117.476137
 11
366.204474
 21
117.476137
  0
LINE
  8
1
 62
7
  6
CONTINUOUS
 10
364.352722
 20
119.127442
 11
364.352722
 21
115.987099
  0
ARC
  8
1
 62
7
  6
CONTINUOUS
 10
358.752722
 20
123.076137
 40
0.800000
 50
90.000000
 51
180.000000
  0
LINE
  8
1
 62
7
  6
CONTINUOUS
 10
358.752722
 20
123.876137
 11
369.952722
 21
123.876137
  0
ARC
  8
1
 62
7
  6
CONTINUOUS
 10
369.952722
 20
123.076137
 40
0.800000
 50
-0.000000
 51
90.000000
  0
LINE
  8
1
 62
7
  6
CONTINUOUS
 10
370.752722
 20
123.076137
 11
370.752722
 21
111.876137
  0
ARC
  8
1
 62
7
  6
CONTINUOUS
 10
369.952722
 20
111.876137
 40
0.800000
 50
-90.000000
 51
0.000000
  0
LINE
  8
1
 62
7
  6
CONTINUOUS
 10
369.952722
 20
111.076137
 11
358.752722
 21
111.076137
  0
LINE
  8
1
 62
7
  6
CONTINUOUS
 10
357.952722
 20
111.876137
 11
357.952722
 21
123.076137
  0
ARC
  8
1
 62
7
  6
CONTINUOUS
 10
358.752722
 20
111.876137
 40
0.800000
 50
180.000000
 51
-90.000000
  0
LINE
  8
1
 62
7
  6
CONTINUOUS
 10
325.289187
 20
77.801641
 11
329.231320
 21
77.801641
  0
LINE
  8
1
 62
7
  6
CONTINUOUS
 10
327.379567
 20
79.452946
 11
327.379567
 21
76.312603
  0
ARC
  8
1
 62
7
  6
CONTINUOUS
 10
321.779567
 20
83.401641
 40
0.800000
 50
90.000000
 51
180.000000
  0
LINE
  8
1
 62
7
  6
CONTINUOUS
 10
321.779567
 20
84.201641
 11
332.979567
 21
84.201641
  0
ARC
  8
1
 62
7
  6
CONTINUOUS
 10
332.979567
 20
83.401641
 40
0.800000
 50
-0.000000
 51
90.000000
  0
LINE
  8
1
 62
7
  6
CONTINUOUS
 10
333.779567
 20
83.401641
 11
333.779567
 21
72.201641
  0
ARC
  8
1
 62
7
  6
CONTINUOUS
 10
332.979567
 20
72.201641
 40
0.800000
 50
-90.000000
 51
0.000000
  0
LINE
  8
1
 62
7
  6
CONTINUOUS
 10
332.979567
 20
71.401641
 11
321.779567
 21
71.401641
  0
LINE
  8
1
 62
7
  6
CONTINUOUS
 10
320.979567
 20
72.201641
 11
320.979567
 21
83.401641
  0
ARC
  8
1
 62
7
  6
CONTINUOUS
 10
321.779567
 20
72.201641
 40
0.800000
 50
180.000000
 51
-90.000000
  0
LINE
  8
1
 62
7
  6
CONTINUOUS
 10
325.289187
 20
60.301641
 11
329.231320
 21
60.301641
  0
LINE
  8
1
 62
7
  6
CONTINUOUS
 10
327.379567
 20
61.952946
 11
327.379567
 21
58.812603
  0
ARC
  8
1
 62
7
  6
CONTINUOUS
 10
321.779567
 20
65.901641
 40
0.800000
 50
90.000000
 51
180.000000
  0
LINE
  8
1
 62
7
  6
CONTINUOUS
 10
321.779567
 20
66.701641
 11
332.979567
 21
66.701641
  0
ARC
  8
1
 62
7
  6
CONTINUOUS
 10
332.979567
 20
65.901641
 40
0.800000
 50
-0.000000
 51
90.000000
  0
LINE
  8
1
 62
7
  6
CONTINUOUS
 10
333.779567
 20
65.901641
 11
333.779567
 21
54.701641
  0
ARC
  8
1
 62
7
  6
CONTINUOUS
 10
332.979567
 20
54.701641
 40
0.800000
 50
-90.000000
 51
0.000000
  0
LINE
  8
1
 62
7
  6
CONTINUOUS
 10
332.979567
 20
53.901641
 11
321.779567
 21
53.901641
  0
LINE
  8
1
 62
7
  6
CONTINUOUS
 10
320.979567
 20
54.701641
 11
320.979567
 21
65.901641
  0
ARC
  8
1
 62
7
  6
CONTINUOUS
 10
321.779567
 20
54.701641
 40
0.800000
 50
180.000000
 51
-90.000000
  0
LINE
  8
1
 62
7
  6
CONTINUOUS
 10
325.289187
 20
42.801641
 11
329.231320
 21
42.801641
  0
LINE
  8
1
 62
7
  6
CONTINUOUS
 10
327.379567
 20
44.452946
 11
327.379567
 21
41.312603
  0
ARC
  8
1
 62
7
  6
CONTINUOUS
 10
321.779567
 20
48.401641
 40
0.800000
 50
90.000000
 51
180.000000
  0
LINE
  8
1
 62
7
  6
CONTINUOUS
 10
321.779567
 20
49.201641
 11
332.979567
 21
49.201641
  0
ARC
  8
1
 62
7
  6
CONTINUOUS
 10
332.979567
 20
48.401641
 40
0.800000
 50
-0.000000
 51
90.000000
  0
LINE
  8
1
 62
7
  6
CONTINUOUS
 10
333.779567
 20
48.401641
 11
333.779567
 21
37.201641
  0
ARC
  8
1
 62
7
  6
CONTINUOUS
 10
332.979567
 20
37.201641
 40
0.800000
 50
-90.000000
 51
0.000000
  0
LINE
  8
1
 62
7
  6
CONTINUOUS
 10
332.979567
 20
36.401641
 11
321.779567
 21
36.401641
  0
LINE
  8
1
 62
7
  6
CONTINUOUS
 10
320.979567
 20
37.201641
 11
320.979567
 21
48.401641
  0
ARC
  8
1
 62
7
  6
CONTINUOUS
 10
321.779567
 20
37.201641
 40
0.800000
 50
180.000000
 51
-90.000000
  0
LINE
  8
1
 62
7
  6
CONTINUOUS
 10
325.289187
 20
25.301641
 11
329.231320
 21
25.301641
  0
LINE
  8
1
 62
7
  6
CONTINUOUS
 10
327.379567
 20
26.952946
 11
327.379567
 21
23.812603
  0
ARC
  8
1
 62
7
  6
CONTINUOUS
 10
321.779567
 20
30.901641
 40
0.800000
 50
90.000000
 51
180.000000
  0
LINE
  8
1
 62
7
  6
CONTINUOUS
 10
321.779567
 20
31.701641
 11
332.979567
 21
31.701641
  0
ARC
  8
1
 62
7
  6
CONTINUOUS
 10
332.979567
 20
30.901641
 40
0.800000
 50
-0.000000
 51
90.000000
  0
LINE
  8
1
 62
7
  6
CONTINUOUS
 10
333.779567
 20
30.901641
 11
333.779567
 21
19.701641
  0
ARC
  8
1
 62
7
  6
CONTINUOUS
 10
332.979567
 20
19.701641
 40
0.800000
 50
-90.000000
 51
0.000000
  0
LINE
  8
1
 62
7
  6
CONTINUOUS
 10
332.979567
 20
18.901641
 11
321.779567
 21
18.901641
  0
LINE
  8
1
 62
7
  6
CONTINUOUS
 10
320.979567
 20
19.701641
 11
320.979567
 21
30.901641
  0
ARC
  8
1
 62
7
  6
CONTINUOUS
 10
321.779567
 20
19.701641
 40
0.800000
 50
180.000000
 51
-90.000000
  0
LINE
  8
1
 62
7
  6
CONTINUOUS
 10
346.289187
 20
77.801641
 11
350.231320
 21
77.801641
  0
LINE
  8
1
 62
7
  6
CONTINUOUS
 10
348.379567
 20
79.452946
 11
348.379567
 21
76.312603
  0
ARC
  8
1
 62
7
  6
CONTINUOUS
 10
342.779567
 20
83.401641
 40
0.800000
 50
90.000000
 51
180.000000
  0
LINE
  8
1
 62
7
  6
CONTINUOUS
 10
342.779567
 20
84.201641
 11
353.979567
 21
84.201641
  0
ARC
  8
1
 62
7
  6
CONTINUOUS
 10
353.979567
 20
83.401641
 40
0.800000
 50
-0.000000
 51
90.000000
  0
LINE
  8
1
 62
7
  6
CONTINUOUS
 10
354.779567
 20
83.401641
 11
354.779567
 21
72.201641
  0
ARC
  8
1
 62
7
  6
CONTINUOUS
 10
353.979567
 20
72.201641
 40
0.800000
 50
-90.000000
 51
0.000000
  0
LINE
  8
1
 62
7
  6
CONTINUOUS
 10
353.979567
 20
71.401641
 11
342.779567
 21
71.401641
  0
LINE
  8
1
 62
7
  6
CONTINUOUS
 10
341.979567
 20
72.201641
 11
341.979567
 21
83.401641
  0
ARC
  8
1
 62
7
  6
CONTINUOUS
 10
342.779567
 20
72.201641
 40
0.800000
 50
180.000000
 51
-90.000000
  0
LINE
  8
1
 62
7
  6
CONTINUOUS
 10
346.289187
 20
60.301641
 11
350.231320
 21
60.301641
  0
LINE
  8
1
 62
7
  6
CONTINUOUS
 10
348.379567
 20
61.952946
 11
348.379567
 21
58.812603
  0
ARC
  8
1
 62
7
  6
CONTINUOUS
 10
342.779567
 20
65.901641
 40
0.800000
 50
90.000000
 51
180.000000
  0
LINE
  8
1
 62
7
  6
CONTINUOUS
 10
342.779567
 20
66.701641
 11
353.979567
 21
66.701641
  0
ARC
  8
1
 62
7
  6
CONTINUOUS
 10
353.979567
 20
65.901641
 40
0.800000
 50
-0.000000
 51
90.000000
  0
LINE
  8
1
 62
7
  6
CONTINUOUS
 10
354.779567
 20
65.901641
 11
354.779567
 21
54.701641
  0
ARC
  8
1
 62
7
  6
CONTINUOUS
 10
353.979567
 20
54.701641
 40
0.800000
 50
-90.000000
 51
0.000000
  0
LINE
  8
1
 62
7
  6
CONTINUOUS
 10
353.979567
 20
53.901641
 11
342.779567
 21
53.901641
  0
LINE
  8
1
 62
7
  6
CONTINUOUS
 10
341.979567
 20
54.701641
 11
341.979567
 21
65.901641
  0
ARC
  8
1
 62
7
  6
CONTINUOUS
 10
342.779567
 20
54.701641
 40
0.800000
 50
180.000000
 51
-90.000000
  0
LINE
  8
1
 62
7
  6
CONTINUOUS
 10
346.289187
 20
42.801641
 11
350.231320
 21
42.801641
  0
LINE
  8
1
 62
7
  6
CONTINUOUS
 10
348.379567
 20
44.452946
 11
348.379567
 21
41.312603
  0
ARC
  8
1
 62
7
  6
CONTINUOUS
 10
342.779567
 20
48.401641
 40
0.800000
 50
90.000000
 51
180.000000
  0
LINE
  8
1
 62
7
  6
CONTINUOUS
 10
342.779567
 20
49.201641
 11
353.979567
 21
49.201641
  0
ARC
  8
1
 62
7
  6
CONTINUOUS
 10
353.979567
 20
48.401641
 40
0.800000
 50
-0.000000
 51
90.000000
  0
LINE
  8
1
 62
7
  6
CONTINUOUS
 10
354.779567
 20
48.401641
 11
354.779567
 21
37.201641
  0
ARC
  8
1
 62
7
  6
CONTINUOUS
 10
353.979567
 20
37.201641
 40
0.800000
 50
-90.000000
 51
0.000000
  0
LINE
  8
1
 62
7
  6
CONTINUOUS
 10
353.979567
 20
36.401641
 11
342.779567
 21
36.401641
  0
LINE
  8
1
 62
7
  6
CONTINUOUS
 10
341.979567
 20
37.201641
 11
341.979567
 21
48.401641
  0
ARC
  8
1
 62
7
  6
CONTINUOUS
 10
342.779567
 20
37.201641
 40
0.800000
 50
180.000000
 51
-90.000000
  0
LINE
  8
1
 62
7
  6
CONTINUOUS
 10
346.289187
 20
25.301641
 11
350.231320
 21
25.301641
  0
LINE
  8
1
 62
7
  6
CONTINUOUS
 10
348.379567
 20
26.952946
 11
348.379567
 21
23.812603
  0
ARC
  8
1
 62
7
  6
CONTINUOUS
 10
342.779567
 20
30.901641
 40
0.800000
 50
90.000000
 51
180.000000
  0
LINE
  8
1
 62
7
  6
CONTINUOUS
 10
342.779567
 20
31.701641
 11
353.979567
 21
31.701641
  0
ARC
  8
1
 62
7
  6
CONTINUOUS
 10
353.979567
 20
30.901641
 40
0.800000
 50
-0.000000
 51
90.000000
  0
LINE
  8
1
 62
7
  6
CONTINUOUS
 10
354.779567
 20
30.901641
 11
354.779567
 21
19.701641
  0
ARC
  8
1
 62
7
  6
CONTINUOUS
 10
353.979567
 20
19.701641
 40
0.800000
 50
-90.000000
 51
0.000000
  0
LINE
  8
1
 62
7
  6
CONTINUOUS
 10
353.979567
 20
18.901641
 11
342.779567
 21
18.901641
  0
LINE
  8
1
 62
7
  6
CONTINUOUS
 10
341.979567
 20
19.701641
 11
341.979567
 21
30.901641
  0
ARC
  8
1
 62
7
  6
CONTINUOUS
 10
342.779567
 20
19.701641
 40
0.800000
 50
180.000000
 51
-90.000000
  0
LINE
  8
1
 62
7
  6
CONTINUOUS
 10
112.087248
 20
112.521999
 11
112.087248
 21
118.535421
  0
LINE
  8
1
 62
7
  6
CONTINUOUS
 10
112.087248
 20
162.550336
 11
112.087248
 21
168.751678
  0
LINE
  8
1
 62
7
  6
CONTINUOUS
 10
114.875466
 20
115.674497
 11
108.695004
 21
115.674497
  0
LINE
  8
1
 62
7
  6
CONTINUOUS
 10
114.791946
 20
165.674497
 11
109.196122
 21
165.674497
  0
LINE
  8
1
 62
7
  6
CONTINUOUS
 10
117.087248
 20
98.674497
 11
117.087248
 21
182.674497
  0
ARC
  8
1
 62
7
  6
CONTINUOUS
 10
110.087248
 20
101.674497
 40
3.000000
 50
180.000000
 51
-90.000000
  0
LINE
  8
1
 62
7
  6
CONTINUOUS
 10
107.087248
 20
101.674497
 11
107.087248
 21
179.674497
  0
ARC
  8
1
 62
7
  6
CONTINUOUS
 10
110.087248
 20
179.674497
 40
3.000000
 50
90.000000
 51
180.000000
  0
LINE
  8
1
 62
7
  6
CONTINUOUS
 10
107.087248
 20
43.906189
 11
117.087248
 21
43.906189
  0
LINE
  8
1
 62
7
  6
CONTINUOUS
 10
107.087248
 20
42.706189
 11
107.087248
 21
43.906189
  0
ARC
  8
1
 62
7
  6
CONTINUOUS
 10
118.287248
 20
52.706189
 40
1.200000
 50
90.000000
 51
180.000000
  0
LINE
  8
1
 62
7
  6
CONTINUOUS
 10
117.087248
 20
43.906189
 11
117.087248
 21
52.706189
  0
DIMENSION
  8
1
 62
7
  6
CONTINUOUS
  2
*D1
 10
89.948076
 20
23.706189
 11
89.948076
 21
33.206189
 70
     0
  1
19
 13
109.232303
 23
23.706189
 14
105.087248
 24
42.706189
 50
90.000000
  0
DIMENSION
  8
1
 62
7
  6
CONTINUOUS
  2
*D2
 10
89.948076
 20
42.706189
 11
89.948076
 21
48.555090
 70
     0
  1
11.7
 13
105.087248
 23
42.706189
 14
116.287248
 24
54.403990
 50
90.000000
  0
DIMENSION
  8
1
 62
7
  6
CONTINUOUS
  2
*D3
 10
97.798934
 20
53.906189
 11
97.798934
 21
54.155090
 70
     0
  1
0.5
 13
116.287248
 23
53.906189
 14
116.287248
 24
54.403990
 50
90.000000
  0
DIMENSION
  8
1
 62
7
  6
CONTINUOUS
  2
*D4
 10
97.631894
 20
42.706189
 11
97.631894
 21
43.306189
 70
     0
  1
1.2
 13
105.087248
 23
42.706189
 14
105.087248
 24
43.906189
 50
90.000000
  0
CIRCLE
  8
1
 62
7
  6
CONTINUOUS
 10
112.087248
 20
115.674497
 40
2.000000
  0
CIRCLE
  8
1
 62
7
  6
CONTINUOUS
 10
112.087248
 20
165.674497
 40
2.000000
  0
DIMENSION
  8
1
 62
7
  6
CONTINUOUS
  2
*D5
 10
88.008949
 20
98.674497
 11
88.008949
 21
140.674497
 70
     0
  1
84
 13
108.087248
 23
98.674497
 14
108.087248
 24
182.674497
 50
90.000000
  0
DIMENSION
  8
1
 62
7
  6
CONTINUOUS
  2
*D6
 10
93.082774
 20
100.674497
 11
93.082774
 21
140.674497
 70
     0
  1
80
 13
117.087248
 23
100.674497
 14
117.087248
 24
180.674497
 50
90.000000
  0
LINE
  8
1
 62
7
  6
CONTINUOUS
 10
119.087248
 20
100.674497
 11
119.087248
 21
180.674497
  0
LINE
  8
1
 62
7
  6
CONTINUOUS
 10
112.087248
 20
137.550336
 11
112.087248
 21
143.751678
  0
LINE
  8
1
 62
7
  6
CONTINUOUS
 10
114.791946
 20
140.674497
 11
109.196122
 21
140.674497
  0
CIRCLE
  8
1
 62
7
  6
CONTINUOUS
 10
112.087248
 20
140.674497
 40
2.000000
  0
DIMENSION
  8
1
 62
7
  6
CONTINUOUS
  2
*D7
 10
98.062640
 20
115.674497
 11
98.062640
 21
128.174497
 70
     0
  1
25
 13
106.695004
 23
115.674497
 14
107.196122
 24
140.674497
 50
90.000000
  0
DIMENSION
  8
1
 62
7
  6
CONTINUOUS
  2
*D8
 10
98.062640
 20
140.674497
 11
98.062640
 21
153.174497
 70
     0
  1
25
 13
108.087248
 23
140.674497
 14
107.196122
 24
165.674497
 50
90.000000
  0
LINE
  8
1
 62
7
  6
CONTINUOUS
 10
206.087248
 20
168.939597
 11
206.087248
 21
162.884415
  0
LINE
  8
1
 62
7
  6
CONTINUOUS
 10
206.087248
 20
118.535421
 11
206.087248
 21
112.187919
  0
LINE
  8
1
 62
7
  6
CONTINUOUS
 10
209.285608
 20
115.674497
 11
203.021626
 21
115.674497
  0
LINE
  8
1
 62
7
  6
CONTINUOUS
 10
208.868009
 20
165.674497
 11
203.105145
 21
165.674497
  0
LINE
  8
1
 62
7
  6
CONTINUOUS
 10
201.087248
 20
182.674497
 11
201.087248
 21
98.674497
  0
LINE
  8
1
 62
7
  6
CONTINUOUS
 10
208.087248
 20
98.674497
 11
110.087248
 21
98.674497
  0
ARC
  8
1
 62
7
  6
CONTINUOUS
 10
208.087248
 20
101.674497
 40
3.000000
 50
-90.000000
 51
0.000000
  0
LINE
  8
1
 62
7
  6
CONTINUOUS
 10
211.087248
 20
179.674497
 11
211.087248
 21
101.674497
  0
ARC
  8
1
 62
7
  6
CONTINUOUS
 10
208.087248
 20
179.674497
 40
3.000000
 50
0.000000
 51
90.000000
  0
LINE
  8
1
 62
7
  6
CONTINUOUS
 10
110.087248
 20
182.674497
 11
208.087248
 21
182.674497
  0
LINE
  8
1
 62
7
  6
CONTINUOUS
 10
201.087248
 20
42.706189
 11
211.087248
 21
42.706189
  0
LINE
  8
1
 62
7
  6
CONTINUOUS
 10
201.087248
 20
43.906189
 11
211.087248
 21
43.906189
  0
LINE
  8
1
 62
7
  6
CONTINUOUS
 10
211.087248
 20
42.706189
 11
211.087248
 21
43.906189
  0
ARC
  8
1
 62
7
  6
CONTINUOUS
 10
199.887248
 20
52.706189
 40
1.200000
 50
0.000000
 51
90.000000
  0
LINE
  8
1
 62
7
  6
CONTINUOUS
 10
201.087248
 20
43.906189
 11
201.087248
 21
52.706189
  0
LINE
  8
1
 62
7
  6
CONTINUOUS
 10
118.287248
 20
53.906189
 11
199.887248
 21
53.906189
  0
LINE
  8
1
 62
7
  6
CONTINUOUS
 10
118.287248
 20
53.906189
 11
118.287248
 21
54.403990
  0
LINE
  8
1
 62
7
  6
CONTINUOUS
 10
118.287248
 20
54.403990
 11
200.019720
 21
54.403990
  0
LINE
  8
1
 62
7
  6
CONTINUOUS
 10
200.019720
 20
54.403990
 11
200.019720
 21
53.906189
  0
LINE
  8
1
 62
7
  6
CONTINUOUS
 10
200.019720
 20
53.906189
 11
118.287248
 21
53.906189
  0
DIMENSION
  8
1
 62
7
  6
CONTINUOUS
  2
*D9
 10
117.087248
 20
82.966443
 11
159.087248
 21
82.966443
 70
     0
  1
84
 13
117.087248
 23
96.674497
 14
201.087248
 24
96.674497
 50
0.000000
  0
DIMENSION
  8
1
 62
7
  6
CONTINUOUS
  2
*D10
 10
112.087248
 20
78.456376
 11
159.087248
 21
78.456376
 70
     0
  1
94
 13
112.087248
 23
110.521999
 14
206.087248
 24
110.187919
 50
0.000000
  0
DIMENSION
  8
1
 62
7
  6
CONTINUOUS
  2
*D11
 10
107.087248
 20
74.134228
 11
159.087248
 21
74.134228
 70
     0
  1
104
 13
107.087248
 23
99.674497
 14
211.087248
 24
99.674497
 50
0.000000
  0
CIRCLE
  8
1
 62
7
  6
CONTINUOUS
 10
206.087248
 20
165.674497
 40
2.000000
  0
CIRCLE
  8
1
 62
7
  6
CONTINUOUS
 10
206.087248
 20
115.674497
 40
2.000000
  0
LINE
  8
1
 62
7
  6
CONTINUOUS
 10
107.087248
 20
42.706189
 11
201.729555
 21
42.706189
  0
DIMENSION
  8
1
 62
7
  6
CONTINUOUS
  2
*D12
 10
119.087248
 20
87.006711
 11
159.087248
 21
87.006711
 70
     0
  1
80
 13
119.087248
 23
98.674497
 14
199.087248
 24
98.674497
 50
0.000000
  0
LINE
  8
1
 62
7
  6
CONTINUOUS
 10
199.087248
 20
100.674497
 11
119.087248
 21
100.674497
  0
LINE
  8
1
 62
7
  6
CONTINUOUS
 10
199.087248
 20
100.674497
 11
199.087248
 21
180.674497
  0
LINE
  8
1
 62
7
  6
CONTINUOUS
 10
119.087248
 20
180.674497
 11
199.087248
 21
180.674497
  0
LINE
  8
1
 62
7
  6
CONTINUOUS
 10
206.087248
 20
143.939597
 11
206.087248
 21
137.884415
  0
LINE
  8
1
 62
7
  6
CONTINUOUS
 10
208.868009
 20
140.674497
 11
203.105145
 21
140.674497
  0
CIRCLE
  8
1
 62
7
  6
CONTINUOUS
 10
206.087248
 20
140.674497
 40
2.000000
  0
LINE
  8
1
 62
7
  6
CONTINUOUS
 10
207.495792
 20
167.094357
 11
218.608501
 21
184.599553
  0
LINE
  8
1
 62
7
  6
CONTINUOUS
 10
218.608501
 20
184.599553
 11
226.108501
 21
184.599553
  0
TEXT
  8
1
 62
7
  6
CONTINUOUS
 10
218.608501
 20
184.599553
 40
3.000000
 41
0.625000
  1
6-φ4
  7
KANJI
 50
0.000000
 51
30.000000
  0
LINE
  8
1
 62
7
  6
CONTINUOUS
 10
207.495792
 20
167.094357
 11
208.393331
 21
169.956948
  0
LINE
  8
1
 62
7
  6
CONTINUOUS
 10
207.495792
 20
167.094357
 11
209.704379
 21
169.124664
  0
ARC
  8
1
 62
7
  6
CONTINUOUS
 10
126.958538
 20
172.460925
 40
0.800000
 50
90.000000
 51
180.000000
  0
LINE
  8
1
 62
7
  6
CONTINUOUS
 10
126.958538
 20
173.260925
 11
138.158538
 21
173.260925
  0
ARC
  8
1
 62
7
  6
CONTINUOUS
 10
138.158538
 20
172.460925
 40
0.800000
 50
0.000000
 51
90.000000
  0
LINE
  8
1
 62
7
  6
CONTINUOUS
 10
138.958538
 20
172.460925
 11
138.958538
 21
161.260925
  0
ARC
  8
1
 62
7
  6
CONTINUOUS
 10
138.158538
 20
161.260925
 40
0.800000
 50
-90.000000
 51
0.000000
  0
LINE
  8
1
 62
7
  6
CONTINUOUS
 10
138.158538
 20
160.460925
 11
126.958538
 21
160.460925
  0
LINE
  8
1
 62
7
  6
CONTINUOUS
 10
126.158538
 20
161.260925
 11
126.158538
 21
172.460925
  0
ARC
  8
1
 62
7
  6
CONTINUOUS
 10
126.958538
 20
161.260925
 40
0.800000
 50
180.000000
 51
-90.000000
  0
ARC
  8
1
 62
7
  6
CONTINUOUS
 10
126.958538
 20
154.960925
 40
0.800000
 50
90.000000
 51
180.000000
  0
LINE
  8
1
 62
7
  6
CONTINUOUS
 10
126.958538
 20
155.760925
 11
138.158538
 21
155.760925
  0
ARC
  8
1
 62
7
  6
CONTINUOUS
 10
138.158538
 20
154.960925
 40
0.800000
 50
0.000000
 51
90.000000
  0
LINE
  8
1
 62
7
  6
CONTINUOUS
 10
138.958538
 20
154.960925
 11
138.958538
 21
143.760925
  0
ARC
  8
1
 62
7
  6
CONTINUOUS
 10
138.158538
 20
143.760925
 40
0.800000
 50
-90.000000
 51
0.000000
  0
LINE
  8
1
 62
7
  6
CONTINUOUS
 10
138.158538
 20
142.960925
 11
126.958538
 21
142.960925
  0
LINE
  8
1
 62
7
  6
CONTINUOUS
 10
126.158538
 20
143.760925
 11
126.158538
 21
154.960925
  0
ARC
  8
1
 62
7
  6
CONTINUOUS
 10
126.958538
 20
143.760925
 40
0.800000
 50
180.000000
 51
-90.000000
  0
ARC
  8
1
 62
7
  6
CONTINUOUS
 10
126.958538
 20
137.460925
 40
0.800000
 50
90.000000
 51
180.000000
  0
LINE
  8
1
 62
7
  6
CONTINUOUS
 10
126.958538
 20
138.260925
 11
138.158538
 21
138.260925
  0
ARC
  8
1
 62
7
  6
CONTINUOUS
 10
138.158538
 20
137.460925
 40
0.800000
 50
0.000000
 51
90.000000
  0
LINE
  8
1
 62
7
  6
CONTINUOUS
 10
138.958538
 20
137.460925
 11
138.958538
 21
126.260925
  0
ARC
  8
1
 62
7
  6
CONTINUOUS
 10
138.158538
 20
126.260925
 40
0.800000
 50
-90.000000
 51
0.000000
  0
LINE
  8
1
 62
7
  6
CONTINUOUS
 10
138.158538
 20
125.460925
 11
126.958538
 21
125.460925
  0
LINE
  8
1
 62
7
  6
CONTINUOUS
 10
126.158538
 20
126.260925
 11
126.158538
 21
137.460925
  0
ARC
  8
1
 62
7
  6
CONTINUOUS
 10
126.958538
 20
126.260925
 40
0.800000
 50
180.000000
 51
-90.000000
  0
ARC
  8
1
 62
7
  6
CONTINUOUS
 10
126.958538
 20
119.960925
 40
0.800000
 50
90.000000
 51
180.000000
  0
LINE
  8
1
 62
7
  6
CONTINUOUS
 10
126.958538
 20
120.760925
 11
138.158538
 21
120.760925
  0
ARC
  8
1
 62
7
  6
CONTINUOUS
 10
138.158538
 20
119.960925
 40
0.800000
 50
-0.000000
 51
90.000000
  0
LINE
  8
1
 62
7
  6
CONTINUOUS
 10
138.958538
 20
119.960925
 11
138.958538
 21
108.760925
  0
ARC
  8
1
 62
7
  6
CONTINUOUS
 10
138.158538
 20
108.760925
 40
0.800000
 50
-90.000000
 51
0.000000
  0
LINE
  8
1
 62
7
  6
CONTINUOUS
 10
138.158538
 20
107.960925
 11
126.958538
 21
107.960925
  0
LINE
  8
1
 62
7
  6
CONTINUOUS
 10
126.158538
 20
108.760925
 11
126.158538
 21
119.960925
  0
ARC
  8
1
 62
7
  6
CONTINUOUS
 10
126.958538
 20
108.760925
 40
0.800000
 50
180.000000
 51
-90.000000
  0
TEXT
  8
1
 62
7
  6
CONTINUOUS
 10
134.793686
 20
109.863286
 40
6.000000
 41
0.500000
  1
1
  7
KANJI
 50
0.000000
 51
0.000000
  0
ARC
  8
1
 62
7
  6
CONTINUOUS
 10
144.458538
 20
172.460925
 40
0.800000
 50
90.000000
 51
180.000000
  0
LINE
  8
1
 62
7
  6
CONTINUOUS
 10
144.458538
 20
173.260925
 11
155.658538
 21
173.260925
  0
ARC
  8
1
 62
7
  6
CONTINUOUS
 10
155.658538
 20
172.460925
 40
0.800000
 50
0.000000
 51
90.000000
  0
LINE
  8
1
 62
7
  6
CONTINUOUS
 10
156.458538
 20
172.460925
 11
156.458538
 21
161.260925
  0
ARC
  8
1
 62
7
  6
CONTINUOUS
 10
155.658538
 20
161.260925
 40
0.800000
 50
-90.000000
 51
0.000000
  0
LINE
  8
1
 62
7
  6
CONTINUOUS
 10
155.658538
 20
160.460925
 11
144.458538
 21
160.460925
  0
LINE
  8
1
 62
7
  6
CONTINUOUS
 10
143.658538
 20
161.260925
 11
143.658538
 21
172.460925
  0
ARC
  8
1
 62
7
  6
CONTINUOUS
 10
144.458538
 20
161.260925
 40
0.800000
 50
180.000000
 51
-90.000000
  0
ARC
  8
1
 62
7
  6
CONTINUOUS
 10
144.458538
 20
154.960925
 40
0.800000
 50
90.000000
 51
180.000000
  0
LINE
  8
1
 62
7
  6
CONTINUOUS
 10
144.458538
 20
155.760925
 11
155.658538
 21
155.760925
  0
ARC
  8
1
 62
7
  6
CONTINUOUS
 10
155.658538
 20
154.960925
 40
0.800000
 50
0.000000
 51
90.000000
  0
LINE
  8
1
 62
7
  6
CONTINUOUS
 10
156.458538
 20
154.960925
 11
156.458538
 21
143.760925
  0
ARC
  8
1
 62
7
  6
CONTINUOUS
 10
155.658538
 20
143.760925
 40
0.800000
 50
-90.000000
 51
0.000000
  0
LINE
  8
1
 62
7
  6
CONTINUOUS
 10
155.658538
 20
142.960925
 11
144.458538
 21
142.960925
  0
LINE
  8
1
 62
7
  6
CONTINUOUS
 10
143.658538
 20
143.760925
 11
143.658538
 21
154.960925
  0
ARC
  8
1
 62
7
  6
CONTINUOUS
 10
144.458538
 20
143.760925
 40
0.800000
 50
180.000000
 51
-90.000000
  0
ARC
  8
1
 62
7
  6
CONTINUOUS
 10
144.458538
 20
137.460925
 40
0.800000
 50
90.000000
 51
180.000000
  0
LINE
  8
1
 62
7
  6
CONTINUOUS
 10
144.458538
 20
138.260925
 11
155.658538
 21
138.260925
  0
ARC
  8
1
 62
7
  6
CONTINUOUS
 10
155.658538
 20
137.460925
 40
0.800000
 50
0.000000
 51
90.000000
  0
LINE
  8
1
 62
7
  6
CONTINUOUS
 10
156.458538
 20
137.460925
 11
156.458538
 21
126.260925
  0
ARC
  8
1
 62
7
  6
CONTINUOUS
 10
155.658538
 20
126.260925
 40
0.800000
 50
-90.000000
 51
0.000000
  0
LINE
  8
1
 62
7
  6
CONTINUOUS
 10
155.658538
 20
125.460925
 11
144.458538
 21
125.460925
  0
LINE
  8
1
 62
7
  6
CONTINUOUS
 10
143.658538
 20
126.260925
 11
143.658538
 21
137.460925
  0
ARC
  8
1
 62
7
  6
CONTINUOUS
 10
144.458538
 20
126.260925
 40
0.800000
 50
180.000000
 51
-90.000000
  0
ARC
  8
1
 62
7
  6
CONTINUOUS
 10
144.458538
 20
119.960925
 40
0.800000
 50
90.000000
 51
180.000000
  0
LINE
  8
1
 62
7
  6
CONTINUOUS
 10
144.458538
 20
120.760925
 11
155.658538
 21
120.760925
  0
ARC
  8
1
 62
7
  6
CONTINUOUS
 10
155.658538
 20
119.960925
 40
0.800000
 50
-0.000000
 51
90.000000
  0
LINE
  8
1
 62
7
  6
CONTINUOUS
 10
156.458538
 20
119.960925
 11
156.458538
 21
108.760925
  0
ARC
  8
1
 62
7
  6
CONTINUOUS
 10
155.658538
 20
108.760925
 40
0.800000
 50
-90.000000
 51
0.000000
  0
LINE
  8
1
 62
7
  6
CONTINUOUS
 10
155.658538
 20
107.960925
 11
144.458538
 21
107.960925
  0
LINE
  8
1
 62
7
  6
CONTINUOUS
 10
143.658538
 20
108.760925
 11
143.658538
 21
119.960925
  0
ARC
  8
1
 62
7
  6
CONTINUOUS
 10
144.458538
 20
108.760925
 40
0.800000
 50
180.000000
 51
-90.000000
  0
ARC
  8
1
 62
7
  6
CONTINUOUS
 10
161.958538
 20
172.460925
 40
0.800000
 50
90.000000
 51
180.000000
  0
LINE
  8
1
 62
7
  6
CONTINUOUS
 10
161.958538
 20
173.260925
 11
173.158538
 21
173.260925
  0
ARC
  8
1
 62
7
  6
CONTINUOUS
 10
173.158538
 20
172.460925
 40
0.800000
 50
0.000000
 51
90.000000
  0
LINE
  8
1
 62
7
  6
CONTINUOUS
 10
173.958538
 20
172.460925
 11
173.958538
 21
161.260925
  0
ARC
  8
1
 62
7
  6
CONTINUOUS
 10
173.158538
 20
161.260925
 40
0.800000
 50
-90.000000
 51
0.000000
  0
LINE
  8
1
 62
7
  6
CONTINUOUS
 10
173.158538
 20
160.460925
 11
161.958538
 21
160.460925
  0
LINE
  8
1
 62
7
  6
CONTINUOUS
 10
161.158538
 20
161.260925
 11
161.158538
 21
172.460925
  0
ARC
  8
1
 62
7
  6
CONTINUOUS
 10
161.958538
 20
161.260925
 40
0.800000
 50
180.000000
 51
-90.000000
  0
ARC
  8
1
 62
7
  6
CONTINUOUS
 10
161.958538
 20
154.960925
 40
0.800000
 50
90.000000
 51
180.000000
  0
LINE
  8
1
 62
7
  6
CONTINUOUS
 10
161.958538
 20
155.760925
 11
173.158538
 21
155.760925
  0
ARC
  8
1
 62
7
  6
CONTINUOUS
 10
173.158538
 20
154.960925
 40
0.800000
 50
0.000000
 51
90.000000
  0
LINE
  8
1
 62
7
  6
CONTINUOUS
 10
173.958538
 20
154.960925
 11
173.958538
 21
143.760925
  0
ARC
  8
1
 62
7
  6
CONTINUOUS
 10
173.158538
 20
143.760925
 40
0.800000
 50
-90.000000
 51
0.000000
  0
LINE
  8
1
 62
7
  6
CONTINUOUS
 10
173.158538
 20
142.960925
 11
161.958538
 21
142.960925
  0
LINE
  8
1
 62
7
  6
CONTINUOUS
 10
161.158538
 20
143.760925
 11
161.158538
 21
154.960925
  0
ARC
  8
1
 62
7
  6
CONTINUOUS
 10
161.958538
 20
143.760925
 40
0.800000
 50
180.000000
 51
-90.000000
  0
ARC
  8
1
 62
7
  6
CONTINUOUS
 10
161.958538
 20
137.460925
 40
0.800000
 50
90.000000
 51
180.000000
  0
LINE
  8
1
 62
7
  6
CONTINUOUS
 10
161.958538
 20
138.260925
 11
173.158538
 21
138.260925
  0
ARC
  8
1
 62
7
  6
CONTINUOUS
 10
173.158538
 20
137.460925
 40
0.800000
 50
0.000000
 51
90.000000
  0
LINE
  8
1
 62
7
  6
CONTINUOUS
 10
173.958538
 20
137.460925
 11
173.958538
 21
126.260925
  0
ARC
  8
1
 62
7
  6
CONTINUOUS
 10
173.158538
 20
126.260925
 40
0.800000
 50
-90.000000
 51
0.000000
  0
LINE
  8
1
 62
7
  6
CONTINUOUS
 10
173.158538
 20
125.460925
 11
161.958538
 21
125.460925
  0
LINE
  8
1
 62
7
  6
CONTINUOUS
 10
161.158538
 20
126.260925
 11
161.158538
 21
137.460925
  0
ARC
  8
1
 62
7
  6
CONTINUOUS
 10
161.958538
 20
126.260925
 40
0.800000
 50
180.000000
 51
-90.000000
  0
ARC
  8
1
 62
7
  6
CONTINUOUS
 10
161.958538
 20
119.960925
 40
0.800000
 50
90.000000
 51
180.000000
  0
LINE
  8
1
 62
7
  6
CONTINUOUS
 10
161.958538
 20
120.760925
 11
173.158538
 21
120.760925
  0
ARC
  8
1
 62
7
  6
CONTINUOUS
 10
173.158538
 20
119.960925
 40
0.800000
 50
-0.000000
 51
90.000000
  0
LINE
  8
1
 62
7
  6
CONTINUOUS
 10
173.958538
 20
119.960925
 11
173.958538
 21
108.760925
  0
ARC
  8
1
 62
7
  6
CONTINUOUS
 10
173.158538
 20
108.760925
 40
0.800000
 50
-90.000000
 51
0.000000
  0
LINE
  8
1
 62
7
  6
CONTINUOUS
 10
173.158538
 20
107.960925
 11
161.958538
 21
107.960925
  0
LINE
  8
1
 62
7
  6
CONTINUOUS
 10
161.158538
 20
108.760925
 11
161.158538
 21
119.960925
  0
ARC
  8
1
 62
7
  6
CONTINUOUS
 10
161.958538
 20
108.760925
 40
0.800000
 50
180.000000
 51
-90.000000
  0
DIMENSION
  8
1
 62
7
  6
CONTINUOUS
  2
*D13
 10
132.516779
 20
189.172260
 11
141.266779
 21
189.172260
 70
     0
  1
17.5
 13
132.516779
 23
180.178971
 14
150.016779
 24
180.178971
 50
0.000000
  0
DIMENSION
  8
1
 62
7
  6
CONTINUOUS
  2
*D14
 10
150.016779
 20
189.172260
 11
158.766779
 21
189.172260
 70
     0
  1
17.5
 13
150.016779
 23
180.178971
 14
167.516779
 24
180.178971
 50
0.000000
  0
TEXT
  8
1
 62
7
  6
CONTINUOUS
 10
152.293686
 20
109.863286
 40
6.000000
 41
0.500000
  1
2
  7
KANJI
 50
0.000000
 51
0.000000
  0
TEXT
  8
1
 62
7
  6
CONTINUOUS
 10
169.793686
 20
109.863286
 40
6.000000
 41
0.500000
  1
3
  7
KANJI
 50
0.000000
 51
0.000000
  0
ARC
  8
1
 62
7
  6
CONTINUOUS
 10
179.458538
 20
172.460925
 40
0.800000
 50
90.000000
 51
180.000000
  0
LINE
  8
1
 62
7
  6
CONTINUOUS
 10
179.458538
 20
173.260925
 11
190.658538
 21
173.260925
  0
ARC
  8
1
 62
7
  6
CONTINUOUS
 10
190.658538
 20
172.460925
 40
0.800000
 50
0.000000
 51
90.000000
  0
LINE
  8
1
 62
7
  6
CONTINUOUS
 10
191.458538
 20
172.460925
 11
191.458538
 21
161.260925
  0
ARC
  8
1
 62
7
  6
CONTINUOUS
 10
190.658538
 20
161.260925
 40
0.800000
 50
-90.000000
 51
0.000000
  0
LINE
  8
1
 62
7
  6
CONTINUOUS
 10
190.658538
 20
160.460925
 11
179.458538
 21
160.460925
  0
LINE
  8
1
 62
7
  6
CONTINUOUS
 10
178.658538
 20
161.260925
 11
178.658538
 21
172.460925
  0
ARC
  8
1
 62
7
  6
CONTINUOUS
 10
179.458538
 20
161.260925
 40
0.800000
 50
180.000000
 51
-90.000000
  0
ARC
  8
1
 62
7
  6
CONTINUOUS
 10
179.458538
 20
154.960925
 40
0.800000
 50
90.000000
 51
180.000000
  0
LINE
  8
1
 62
7
  6
CONTINUOUS
 10
179.458538
 20
155.760925
 11
190.658538
 21
155.760925
  0
ARC
  8
1
 62
7
  6
CONTINUOUS
 10
190.658538
 20
154.960925
 40
0.800000
 50
0.000000
 51
90.000000
  0
LINE
  8
1
 62
7
  6
CONTINUOUS
 10
191.458538
 20
154.960925
 11
191.458538
 21
143.760925
  0
ARC
  8
1
 62
7
  6
CONTINUOUS
 10
190.658538
 20
143.760925
 40
0.800000
 50
-90.000000
 51
0.000000
  0
LINE
  8
1
 62
7
  6
CONTINUOUS
 10
190.658538
 20
142.960925
 11
179.458538
 21
142.960925
  0
LINE
  8
1
 62
7
  6
CONTINUOUS
 10
178.658538
 20
143.760925
 11
178.658538
 21
154.960925
  0
ARC
  8
1
 62
7
  6
CONTINUOUS
 10
179.458538
 20
143.760925
 40
0.800000
 50
180.000000
 51
-90.000000
  0
ARC
  8
1
 62
7
  6
CONTINUOUS
 10
179.458538
 20
137.460925
 40
0.800000
 50
90.000000
 51
180.000000
  0
LINE
  8
1
 62
7
  6
CONTINUOUS
 10
179.458538
 20
138.260925
 11
190.658538
 21
138.260925
  0
ARC
  8
1
 62
7
  6
CONTINUOUS
 10
190.658538
 20
137.460925
 40
0.800000
 50
0.000000
 51
90.000000
  0
LINE
  8
1
 62
7
  6
CONTINUOUS
 10
191.458538
 20
137.460925
 11
191.458538
 21
126.260925
  0
ARC
  8
1
 62
7
  6
CONTINUOUS
 10
190.658538
 20
126.260925
 40
0.800000
 50
-90.000000
 51
0.000000
  0
LINE
  8
1
 62
7
  6
CONTINUOUS
 10
190.658538
 20
125.460925
 11
179.458538
 21
125.460925
  0
LINE
  8
1
 62
7
  6
CONTINUOUS
 10
178.658538
 20
126.260925
 11
178.658538
 21
137.460925
  0
ARC
  8
1
 62
7
  6
CONTINUOUS
 10
179.458538
 20
126.260925
 40
0.800000
 50
180.000000
 51
-90.000000
  0
ARC
  8
1
 62
7
  6
CONTINUOUS
 10
179.458538
 20
119.960925
 40
0.800000
 50
90.000000
 51
180.000000
  0
LINE
  8
1
 62
7
  6
CONTINUOUS
 10
179.458538
 20
120.760925
 11
190.658538
 21
120.760925
  0
ARC
  8
1
 62
7
  6
CONTINUOUS
 10
190.658538
 20
119.960925
 40
0.800000
 50
-0.000000
 51
90.000000
  0
LINE
  8
1
 62
7
  6
CONTINUOUS
 10
191.458538
 20
119.960925
 11
191.458538
 21
108.760925
  0
ARC
  8
1
 62
7
  6
CONTINUOUS
 10
190.658538
 20
108.760925
 40
0.800000
 50
-90.000000
 51
0.000000
  0
LINE
  8
1
 62
7
  6
CONTINUOUS
 10
190.658538
 20
107.960925
 11
179.458538
 21
107.960925
  0
LINE
  8
1
 62
7
  6
CONTINUOUS
 10
178.658538
 20
108.760925
 11
178.658538
 21
119.960925
  0
ARC
  8
1
 62
7
  6
CONTINUOUS
 10
179.458538
 20
108.760925
 40
0.800000
 50
180.000000
 51
-90.000000
  0
DIMENSION
  8
1
 62
7
  6
CONTINUOUS
  2
*D15
 10
167.516779
 20
189.172260
 11
176.266779
 21
189.172260
 70
     0
  1
17.5
 13
167.516779
 23
181.035048
 14
185.016779
 24
181.035048
 50
0.000000
  0
TEXT
  8
1
 62
7
  6
CONTINUOUS
 10
187.293686
 20
109.863286
 40
6.000000
 41
0.500000
  1
4
  7
KANJI
 50
0.000000
 51
0.000000
  0
TEXT
  8
1
 62
7
  6
CONTINUOUS
 10
134.981606
 20
127.527716
 40
6.000000
 41
0.500000
  1
5
  7
KANJI
 50
0.000000
 51
0.000000
  0
TEXT
  8
1
 62
7
  6
CONTINUOUS
 10
152.481606
 20
127.527716
 40
6.000000
 41
0.500000
  1
6
  7
KANJI
 50
0.000000
 51
0.000000
  0
TEXT
  8
1
 62
7
  6
CONTINUOUS
 10
169.981606
 20
127.527716
 40
6.000000
 41
0.500000
  1
7
  7
KANJI
 50
0.000000
 51
0.000000
  0
TEXT
  8
1
 62
7
  6
CONTINUOUS
 10
187.481606
 20
127.527716
 40
6.000000
 41
0.500000
  1
8
  7
KANJI
 50
0.000000
 51
0.000000
  0
TEXT
  8
1
 62
7
  6
CONTINUOUS
 10
134.981606
 20
145.192145
 40
6.000000
 41
0.500000
  1
9
  7
KANJI
 50
0.000000
 51
0.000000
  0
TEXT
  8
1
 62
7
  6
CONTINUOUS
 10
132.225454
 20
161.040020
 40
6.000000
 41
0.500000
  1
13
  7
KANJI
 50
0.000000
 51
0.000000
  0
TEXT
  8
1
 62
7
  6
CONTINUOUS
 10
149.725454
 20
161.040020
 40
6.000000
 41
0.500000
  1
14
  7
KANJI
 50
0.000000
 51
0.000000
  0
TEXT
  8
1
 62
7
  6
CONTINUOUS
 10
167.225454
 20
161.040020
 40
6.000000
 41
0.500000
  1
15
  7
KANJI
 50
0.000000
 51
0.000000
  0
TEXT
  8
1
 62
7
  6
CONTINUOUS
 10
184.725454
 20
161.040020
 40
6.000000
 41
0.500000
  1
16
  7
KANJI
 50
0.000000
 51
0.000000
  0
TEXT
  8
1
 62
7
  6
CONTINUOUS
 10
149.976013
 20
145.066866
 40
6.000000
 41
0.500000
  1
10
  7
KANJI
 50
0.000000
 51
0.000000
  0
TEXT
  8
1
 62
7
  6
CONTINUOUS
 10
167.476013
 20
145.066866
 40
6.000000
 41
0.500000
  1
11
  7
KANJI
 50
0.000000
 51
0.000000
  0
TEXT
  8
1
 62
7
  6
CONTINUOUS
 10
184.976013
 20
145.066866
 40
6.000000
 41
0.500000
  1
12
  7
KANJI
 50
0.000000
 51
0.000000
  0
LINE
  8
1
 62
7
  6
CONTINUOUS
 10
147.422819
 20
42.706189
 11
147.422819
 21
38.085011
  0
LINE
  8
1
 62
7
  6
CONTINUOUS
 10
147.422819
 20
38.085011
 11
170.536913
 21
38.085011
  0
LINE
  8
1
 62
7
  6
CONTINUOUS
 10
170.536913
 20
38.085011
 11
170.536913
 21
42.706189
  0
LINE
  8
1
 62
7
  6
CONTINUOUS
 10
170.536913
 20
42.706189
 11
147.422819
 21
42.706189
  0
LINE
  8
1
 62
7
  6
CONTINUOUS
 10
145.731544
 20
42.706189
 11
145.731544
 21
34.859060
  0
LINE
  8
1
 62
7
  6
CONTINUOUS
 10
145.731544
 20
34.859060
 11
147.485459
 21
34.859060
  0
LINE
  8
1
 62
7
  6
CONTINUOUS
 10
147.485459
 20
34.859060
 11
147.485459
 21
42.706189
  0
LINE
  8
1
 62
7
  6
CONTINUOUS
 10
147.485459
 20
42.706189
 11
145.731544
 21
42.706189
  0
LINE
  8
1
 62
7
  6
CONTINUOUS
 10
170.536913
 20
42.706189
 11
170.536913
 21
34.859060
  0
LINE
  8
1
 62
7
  6
CONTINUOUS
 10
170.536913
 20
34.859060
 11
172.290828
 21
34.859060
  0
LINE
  8
1
 62
7
  6
CONTINUOUS
 10
172.290828
 20
34.859060
 11
172.290828
 21
42.706189
  0
LINE
  8
1
 62
7
  6
CONTINUOUS
 10
172.290828
 20
42.706189
 11
170.536913
 21
42.706189
  0
LINE
  8
1
 62
7
  6
CONTINUOUS
 10
149.489933
 20
38.085011
 11
149.489933
 21
33.230425
  0
LINE
  8
1
 62
7
  6
CONTINUOUS
 10
149.489933
 20
33.230425
 11
150.993289
 21
33.230425
  0
LINE
  8
1
 62
7
  6
CONTINUOUS
 10
150.993289
 20
33.230425
 11
150.993289
 21
38.085011
  0
LINE
  8
1
 62
7
  6
CONTINUOUS
 10
150.993289
 20
38.085011
 11
149.489933
 21
38.085011
  0
LINE
  8
1
 62
7
  6
CONTINUOUS
 10
151.989933
 20
38.085011
 11
151.989933
 21
33.230425
  0
LINE
  8
1
 62
7
  6
CONTINUOUS
 10
151.989933
 20
33.230425
 11
153.493289
 21
33.230425
  0
LINE
  8
1
 62
7
  6
CONTINUOUS
 10
153.493289
 20
33.230425
 11
153.493289
 21
38.085011
  0
LINE
  8
1
 62
7
  6
CONTINUOUS
 10
153.493289
 20
38.085011
 11
151.989933
 21
38.085011
  0
LINE
  8
1
 62
7
  6
CONTINUOUS
 10
154.489933
 20
38.085011
 11
154.489933
 21
33.230425
  0
LINE
  8
1
 62
7
  6
CONTINUOUS
 10
154.489933
 20
33.230425
 11
155.993289
 21
33.230425
  0
LINE
  8
1
 62
7
  6
CONTINUOUS
 10
155.993289
 20
33.230425
 11
155.993289
 21
38.085011
  0
LINE
  8
1
 62
7
  6
CONTINUOUS
 10
155.993289
 20
38.085011
 11
154.489933
 21
38.085011
  0
LINE
  8
1
 62
7
  6
CONTINUOUS
 10
156.989933
 20
38.085011
 11
156.989933
 21
33.230425
  0
LINE
  8
1
 62
7
  6
CONTINUOUS
 10
156.989933
 20
33.230425
 11
158.493289
 21
33.230425
  0
LINE
  8
1
 62
7
  6
CONTINUOUS
 10
158.493289
 20
33.230425
 11
158.493289
 21
38.085011
  0
LINE
  8
1
 62
7
  6
CONTINUOUS
 10
158.493289
 20
38.085011
 11
156.989933
 21
38.085011
  0
LINE
  8
1
 62
7
  6
CONTINUOUS
 10
159.489933
 20
38.085011
 11
159.489933
 21
33.230425
  0
LINE
  8
1
 62
7
  6
CONTINUOUS
 10
159.489933
 20
33.230425
 11
160.993289
 21
33.230425
  0
LINE
  8
1
 62
7
  6
CONTINUOUS
 10
160.993289
 20
33.230425
 11
160.993289
 21
38.085011
  0
LINE
  8
1
 62
7
  6
CONTINUOUS
 10
160.993289
 20
38.085011
 11
159.489933
 21
38.085011
  0
LINE
  8
1
 62
7
  6
CONTINUOUS
 10
161.989933
 20
38.085011
 11
161.989933
 21
33.230425
  0
LINE
  8
1
 62
7
  6
CONTINUOUS
 10
161.989933
 20
33.230425
 11
163.493289
 21
33.230425
  0
LINE
  8
1
 62
7
  6
CONTINUOUS
 10
163.493289
 20
33.230425
 11
163.493289
 21
38.085011
  0
LINE
  8
1
 62
7
  6
CONTINUOUS
 10
163.493289
 20
38.085011
 11
161.989933
 21
38.085011
  0
LINE
  8
1
 62
7
  6
CONTINUOUS
 10
164.489933
 20
38.085011
 11
164.489933
 21
33.230425
  0
LINE
  8
1
 62
7
  6
CONTINUOUS
 10
164.489933
 20
33.230425
 11
165.993289
 21
33.230425
  0
LINE
  8
1
 62
7
  6
CONTINUOUS
 10
165.993289
 20
33.230425
 11
165.993289
 21
38.085011
  0
LINE
  8
1
 62
7
  6
CONTINUOUS
 10
165.993289
 20
38.085011
 11
164.489933
 21
38.085011
  0
LINE
  8
1
 62
7
  6
CONTINUOUS
 10
166.989933
 20
38.085011
 11
166.989933
 21
33.230425
  0
LINE
  8
1
 62
7
  6
CONTINUOUS
 10
166.989933
 20
33.230425
 11
168.493289
 21
33.230425
  0
LINE
  8
1
 62
7
  6
CONTINUOUS
 10
168.493289
 20
33.230425
 11
168.493289
 21
38.085011
  0
LINE
  8
1
 62
7
  6
CONTINUOUS
 10
168.493289
 20
38.085011
 11
166.989933
 21
38.085011
  0
ARC
  8
1
 62
7
  6
DOT
 10
166.281879
 20
25.706189
 40
2.000000
 50
-90.000000
 51
-0.000000
  0
LINE
  8
1
 62
7
  6
DOT
 10
168.281879
 20
29.221477
 11
168.281879
 21
25.706189
  0
LINE
  8
1
 62
7
  6
DOT
 10
166.281879
 20
23.706189
 11
115.476510
 21
23.706189
  0
ARC
  8
1
 62
7
  6
DOT
 10
147.489933
 20
27.838926
 40
2.000000
 50
-90.000000
 51
-0.000000
  0
LINE
  8
1
 62
7
  6
DOT
 10
149.489933
 20
29.221477
 11
149.489933
 21
27.838926
  0
LINE
  8
1
 62
7
  6
DOT
 10
147.489933
 20
25.838926
 11
115.601790
 21
25.838926
  0
LINE
  8
1
 62
7
  6
DOT
 10
147.485459
 20
38.085011
 11
147.485459
 21
29.221477
  0
LINE
  8
1
 62
7
  6
DOT
 10
147.485459
 20
29.221477
 11
170.536913
 21
29.221477
  0
LINE
  8
1
 62
7
  6
DOT
 10
170.536913
 20
29.221477
 11
170.536913
 21
38.085011
  0
LINE
  8
1
 62
7
  6
DOT
 10
170.536913
 20
38.085011
 11
147.485459
 21
38.085011
  0
LINE
  8
1
 62
7
  6
DASHDOT
 10
159.087248
 20
29.221477
 11
159.087248
 21
58.630872
  0
TEXT
  8
1
 62
7
  6
CONTINUOUS
 10
245.234899
 20
13.248322
 40
6.000000
 41
0.500000
  1
CFB-V16
  7
KANJI
 50
0.000000
 51
0.000000
  0
ENDSEC
  0
EOF
