  0
SECTION
  2
HEADER
  9
$ACADVER
  1
AC1009
  9
$INSBASE
 10
0.000000
 20
0.000000
  9
$EXTMIN
 10
0.000000
 20
0.000000
  9
$EXTMAX
 10
297.000000
 20
210.000000
  9
$LIMMIN
 10
0.000000
 20
0.000000
  9
$LIMMAX
 10
297.000000
 20
210.000000
  9
$VIEWCTR
 10
148.500000
 20
105.000000
  9
$VIEWSIZE
 40
210.000000
  9
$PEXTMIN
 10
0.000000
 20
0.000000
 30
0.000000
  9
$PEXTMAX
 10
297.000000
 20
210.000000
 30
0.000000
  9
$SNAPMODE
 70
     0
  9
$SNAPUNIT
 10
1.000000
 20
1.000000
  9
$SNAPBASE
 10
0.000000
 20
0.000000
  9
$SNAPANG
 50
0.000000
  9
$SNAPISOPAIR
 70
     0
  9
$SNAPSTYLE
 70
     0
  9
$GRIDMODE
 70
     0
  9
$GRIDUNIT
 10
0.000000
 20
0.000000
  9
$ORTHOMODE
 70
     0
  9
$REGENMODE
 70
     1
  9
$FILLMODE
 70
     1
  9
$QTEXTMODE
 70
     0
  9
$DRAGMODE
 70
     2
  9
$LTSCALE
 40
0.250000
  9
$OSMODE
 70
     0
  9
$ATTMODE
 70
     1
  9
$TEXTSIZE
 40
2.000000
  9
$TRACEWID
 40
0.050000
  9
$TEXTSTYLE
  7
STANDARD
  9
$CLAYER
  8
0
  9
$CELTYPE
  6
BYLAYER
  9
$CECOLOR
 62
   256
  9
$DIMSCALE
 40
1.000000
  9
$DIMASZ
 40
1.000000
  9
$DIMEXO
 40
0.000000
  9
$DIMDLI
 40
0.500000
  9
$DIMRND
 40
0.000000
  9
$DIMDLE
 40
0.000000
  9
$DIMEXE
 40
0.000000
  9
$DIMTP
 40
0.000000
  9
$DIMTM
 40
0.000000
  9
$DIMTXT
 40
3.000000
  9
$DIMCEN
 40
0.000000
  9
$DIMTSZ
 40
0.000000
  9
$DIMTOL
 70
     0
  9
$DIMLIM
 70
     0
  9
$DIMTIH
 70
     1
  9
$DIMTOH
 70
     1
  9
$DIMSE1
 70
     0
  9
$DIMSE2
 70
     0
  9
$DIMTAD
 70
     0
  9
$DIMZIN
 70
     0
  9
$DIMBLK
  1

  9
$DIMASO
 70
     0
  9
$DIMSHO
 70
     0
  9
$DIMPOST
  1

  9
$DIMAPOST
  1

  9
$DIMALT
 70
     0
  9
$DIMALTD
 70
     0
  9
$DIMALTF
 40
25.400000
  9
$DIMLFAC
 40
1.000000
  9
$DIMTOFL
 70
     0
  9
$DIMTVP
 40
0.000000
  9
$DIMTIX
 70
     0
  9
$DIMSOXD
 70
     0
  9
$DIMSAH
 70
     0
  9
$DIMBLKL
  1

  9
$DIMBLKR
  1

  9
$LUNITS
 70
     2
  9
$LUPREC
 70
     2
  9
$AXISMODE
 70
     0
  9
$AXISUNIT
 10
1.000000
 20
1.000000
  9
$SKETCHINC
 40
0.000000
  9
$FILLETRAD
 40
0.000000
  9
$AUNITS
 70
     1
  9
$AUPREC
 70
     2
  9
$MENU
  1
ACAD
  9
$ELEVATION
 40
0.000000
  9
$THICKNESS
 40
0.000000
  9
$VIEWDIR
 10
0.000000
 20
0.000000
 30
1.000000
  9
$LIMCHECK
 70
     1
  9
$BLIPMODE
 70
     1
  9
$CHAMFERA
 40
0.000000
  9
$CHAMFERB
 40
0.000000
  9
$FASTZOOM
 70
     1
  9
$SKPOLY
 70
     0
  9
$TDCREATE
 40
0.000000
  9
$TDUPDATE
 40
0.000000
  9
$TDINDWG
 40
0.000000
  9
$TDUSRTIMER
 40
0.000000
  9
$USRTIMER
 70
     1
  9
$ANGBASE
 50
0.000000
  9
$ANGDIR
 70
     0
  9
$PDMODE
 70
     0
  9
$PDSIZE
 40
0.000000
  9
$PLINEWID
 40
0.000000
  9
$COORDS
 70
     2
  9
$USERI1
 70
     0
  9
$USERI2
 70
     0
  9
$USERI3
 70
     0
  9
$USERI4
 70
     0
  9
$USERI5
 70
     0
  9
$USERR1
 40
0.000000
  9
$USERR2
 40
0.000000
  9
$USERR3
 40
0.000000
  9
$USERR4
 40
0.000000
  9
$USERR5
 40
0.000000
  0
ENDSEC
  0
SECTION
  2
TABLES
  0
TABLE
  2
LTYPE
 70
     5
  0
LTYPE
  2
CONTINUOUS
 70
    64
  3
Solid line
 72
    65
 73
     0
 40
0.0
  0
LTYPE
  2
HIDDEN
 70
    64
  3
------------------------
 72
    65
 73
     2
 40
12.6
 49
8.4
 49
-4.2
  0
LTYPE
  2
DOT
 70
    64
  3
････････････････････････
 72
    65
 73
     2
 40
8.0
 49
6.0
 49
-2.0
  0
LTYPE
  2
DASHDOT
 70
    64
  3
--･--･--･--･--･--･--･--
 72
    65
 73
     4
 40
50.5
 49
30.0
 49
-9.0
 49
2.5
 49
-9.0
  0
LTYPE
  2
DIVIDE
 70
    64
  3
--･･--･･--･･--･･--･･--
 72
    65
 73
     6
 40
58.0
 49
30.0
 49
-9.0
 49
2.5
 49
-5.0
 49
2.5
 49
-9.0
  0
LTYPE
  2
ACAD_ISO06W100
 70
    64
  3
____ ... ____ ... ____
 72
    65
 73
     8
 40
37.5
 49
24.0
 49
-3.0
 49
0.5
 49
-3.0
 49
0.5
 49
-3.0
 49
0.5
 49
-3.0
  0
LTYPE
  2
ACAD_ISO14W100
 70
    64
  3
__ . . . __ . . . __ . . . 
 72
    65
 73
     8
 40
25.5
 49
12.0
 49
-3.0
 49
0.5
 49
-3.0
 49
0.5
 49
-3.0
 49
0.5
 49
-3.0
  0
ENDTAB
  0
TABLE
  2
LAYER
 70
1
  0
LAYER
  2
1
 70
64
 62
7
  6
CONTINUOUS
  0
ENDTAB
  0
TABLE
  2
STYLE
 70
     2
  0
STYLE
  2
STANDARD
 70
    64
 40
0.0
 41
1.0
 50
0.0
 71
     0
 42
0.2
  3
TXT
  4

  0
STYLE
  2
KANJI
 70
    64
 40
0.0
 41
1.0
 50
0.0
 71
     0
 42
0.2
  3
TXT
  4
BIGFONT
  0
ENDTAB
  0
TABLE
  2
VIEW
 70
     0
  0
ENDTAB
  0
ENDSEC
  0
SECTION
  2
BLOCKS
  0
BLOCK
  8
1
 62
7
  6
CONTINUOUS
  2
*D1
 70
    65
 10
0.0
 20
0.0
  0
LINE
  8
1
 62
7
  6
CONTINUOUS
 10
157.369128
 20
72.304251
 11
127.369128
 21
72.304251
  0
LINE
  8
1
 62
7
  6
CONTINUOUS
 10
157.369128
 20
70.304251
 11
157.369128
 21
82.328859
  0
LINE
  8
1
 62
7
  6
CONTINUOUS
 10
127.369128
 20
70.304251
 11
127.369128
 21
81.437733
  0
LINE
  8
1
 62
7
  6
CONTINUOUS
 10
157.369128
 20
72.304251
 11
154.471350
 21
71.527793
  0
LINE
  8
1
 62
7
  6
CONTINUOUS
 10
157.369128
 20
72.304251
 11
154.471350
 21
73.080708
  0
LINE
  8
1
 62
7
  6
CONTINUOUS
 10
127.369128
 20
72.304251
 11
130.266905
 21
73.080708
  0
LINE
  8
1
 62
7
  6
CONTINUOUS
 10
127.369128
 20
72.304251
 11
130.266905
 21
71.527793
  0
TEXT
  8
1
 62
7
  6
CONTINUOUS
 10
140.869128
 20
72.304251
 40
3.000000
 41
0.500000
  1
30
  7
KANJI
 50
0.000000
 51
30.000000
  0
ENDBLK
  0
BLOCK
  8
1
 62
7
  6
CONTINUOUS
  2
*D2
 70
    65
 10
0.0
 20
0.0
  0
LINE
  8
1
 62
7
  6
CONTINUOUS
 10
187.369128
 20
72.304251
 11
157.369128
 21
72.304251
  0
LINE
  8
1
 62
7
  6
CONTINUOUS
 10
187.369128
 20
70.304251
 11
187.369128
 21
80.936614
  0
LINE
  8
1
 62
7
  6
CONTINUOUS
 10
157.369128
 20
70.304251
 11
157.369128
 21
81.437733
  0
LINE
  8
1
 62
7
  6
CONTINUOUS
 10
187.369128
 20
72.304251
 11
184.471350
 21
71.527793
  0
LINE
  8
1
 62
7
  6
CONTINUOUS
 10
187.369128
 20
72.304251
 11
184.471350
 21
73.080708
  0
LINE
  8
1
 62
7
  6
CONTINUOUS
 10
157.369128
 20
72.304251
 11
160.266905
 21
73.080708
  0
LINE
  8
1
 62
7
  6
CONTINUOUS
 10
157.369128
 20
72.304251
 11
160.266905
 21
71.527793
  0
TEXT
  8
1
 62
7
  6
CONTINUOUS
 10
170.869128
 20
72.304251
 40
3.000000
 41
0.500000
  1
30
  7
KANJI
 50
0.000000
 51
30.000000
  0
ENDBLK
  0
BLOCK
  8
1
 62
7
  6
CONTINUOUS
  2
*D3
 70
    65
 10
0.0
 20
0.0
  0
LINE
  8
1
 62
7
  6
CONTINUOUS
 10
209.369128
 20
62.250559
 11
105.369128
 21
62.250559
  0
LINE
  8
1
 62
7
  6
CONTINUOUS
 10
209.369128
 20
60.250559
 11
209.369128
 21
82.328859
  0
LINE
  8
1
 62
7
  6
CONTINUOUS
 10
105.369128
 20
60.250559
 11
105.369128
 21
82.328859
  0
LINE
  8
1
 62
7
  6
CONTINUOUS
 10
209.369128
 20
62.250559
 11
206.471350
 21
61.474102
  0
LINE
  8
1
 62
7
  6
CONTINUOUS
 10
209.369128
 20
62.250559
 11
206.471350
 21
63.027016
  0
LINE
  8
1
 62
7
  6
CONTINUOUS
 10
105.369128
 20
62.250559
 11
108.266905
 21
63.027016
  0
LINE
  8
1
 62
7
  6
CONTINUOUS
 10
105.369128
 20
62.250559
 11
108.266905
 21
61.474102
  0
TEXT
  8
1
 62
7
  6
CONTINUOUS
 10
155.119128
 20
62.250559
 40
3.000000
 41
0.500000
  1
104
  7
KANJI
 50
0.000000
 51
30.000000
  0
ENDBLK
  0
BLOCK
  8
1
 62
7
  6
CONTINUOUS
  2
*D4
 70
    65
 10
0.0
 20
0.0
  0
LINE
  8
1
 62
7
  6
CONTINUOUS
 10
107.439597
 20
67.369128
 11
207.439597
 21
67.369128
  0
LINE
  8
1
 62
7
  6
CONTINUOUS
 10
107.439597
 20
65.369128
 11
107.439597
 21
91.345638
  0
LINE
  8
1
 62
7
  6
CONTINUOUS
 10
207.439597
 20
65.369128
 11
207.439597
 21
91.345638
  0
LINE
  8
1
 62
7
  6
CONTINUOUS
 10
107.439597
 20
67.369128
 11
110.337375
 21
68.145585
  0
LINE
  8
1
 62
7
  6
CONTINUOUS
 10
107.439597
 20
67.369128
 11
110.337375
 21
66.592670
  0
LINE
  8
1
 62
7
  6
CONTINUOUS
 10
207.439597
 20
67.369128
 11
204.541820
 21
66.592670
  0
LINE
  8
1
 62
7
  6
CONTINUOUS
 10
207.439597
 20
67.369128
 11
204.541820
 21
68.145585
  0
TEXT
  8
1
 62
7
  6
CONTINUOUS
 10
155.189597
 20
67.369128
 40
3.000000
 41
0.500000
  1
100
  7
KANJI
 50
0.000000
 51
30.000000
  0
ENDBLK
  0
BLOCK
  8
1
 62
7
  6
CONTINUOUS
  2
*D5
 70
    65
 10
0.0
 20
0.0
  0
LINE
  8
1
 62
7
  6
CONTINUOUS
 10
85.738255
 20
81.328859
 11
85.738255
 21
185.328859
  0
LINE
  8
1
 62
7
  6
CONTINUOUS
 10
83.738255
 20
81.328859
 11
106.369128
 21
81.328859
  0
LINE
  8
1
 62
7
  6
CONTINUOUS
 10
83.738255
 20
185.328859
 11
106.369128
 21
185.328859
  0
LINE
  8
1
 62
7
  6
CONTINUOUS
 10
85.738255
 20
81.328859
 11
84.961798
 21
84.226637
  0
LINE
  8
1
 62
7
  6
CONTINUOUS
 10
85.738255
 20
81.328859
 11
86.514712
 21
84.226637
  0
LINE
  8
1
 62
7
  6
CONTINUOUS
 10
85.738255
 20
185.328859
 11
86.514712
 21
182.431082
  0
LINE
  8
1
 62
7
  6
CONTINUOUS
 10
85.738255
 20
185.328859
 11
84.961798
 21
182.431082
  0
TEXT
  8
1
 62
7
  6
CONTINUOUS
 10
85.738255
 20
131.078859
 40
3.000000
 41
0.500000
  1
104
  7
KANJI
 50
90.000000
 51
30.000000
  0
ENDBLK
  0
BLOCK
  8
1
 62
7
  6
CONTINUOUS
  2
*D6
 70
    65
 10
0.0
 20
0.0
  0
LINE
  8
1
 62
7
  6
CONTINUOUS
 10
90.545861
 20
86.328859
 11
90.545861
 21
180.328859
  0
LINE
  8
1
 62
7
  6
CONTINUOUS
 10
88.545861
 20
86.328859
 11
123.369128
 21
86.328859
  0
LINE
  8
1
 62
7
  6
CONTINUOUS
 10
88.545861
 20
180.328859
 11
122.104027
 21
180.328859
  0
LINE
  8
1
 62
7
  6
CONTINUOUS
 10
90.545861
 20
86.328859
 11
89.769404
 21
89.226637
  0
LINE
  8
1
 62
7
  6
CONTINUOUS
 10
90.545861
 20
86.328859
 11
91.322318
 21
89.226637
  0
LINE
  8
1
 62
7
  6
CONTINUOUS
 10
90.545861
 20
180.328859
 11
91.322318
 21
177.431082
  0
LINE
  8
1
 62
7
  6
CONTINUOUS
 10
90.545861
 20
180.328859
 11
89.769404
 21
177.431082
  0
TEXT
  8
1
 62
7
  6
CONTINUOUS
 10
90.545861
 20
131.828859
 40
3.000000
 41
0.500000
  1
94
  7
KANJI
 50
90.000000
 51
30.000000
  0
ENDBLK
  0
BLOCK
  8
1
 62
7
  6
CONTINUOUS
  2
*D7
 70
    65
 10
0.0
 20
0.0
  0
LINE
  8
1
 62
7
  6
CONTINUOUS
 10
95.337808
 20
91.328859
 11
95.337808
 21
175.328859
  0
LINE
  8
1
 62
7
  6
CONTINUOUS
 10
93.337808
 20
91.328859
 11
103.369128
 21
91.328859
  0
LINE
  8
1
 62
7
  6
CONTINUOUS
 10
93.337808
 20
175.328859
 11
103.369128
 21
175.328859
  0
LINE
  8
1
 62
7
  6
CONTINUOUS
 10
95.337808
 20
91.328859
 11
94.561350
 21
94.226637
  0
LINE
  8
1
 62
7
  6
CONTINUOUS
 10
95.337808
 20
91.328859
 11
96.114265
 21
94.226637
  0
LINE
  8
1
 62
7
  6
CONTINUOUS
 10
95.337808
 20
175.328859
 11
96.114265
 21
172.431082
  0
LINE
  8
1
 62
7
  6
CONTINUOUS
 10
95.337808
 20
175.328859
 11
94.561350
 21
172.431082
  0
TEXT
  8
1
 62
7
  6
CONTINUOUS
 10
95.337808
 20
131.828859
 40
3.000000
 41
0.500000
  1
84
  7
KANJI
 50
90.000000
 51
30.000000
  0
ENDBLK
  0
BLOCK
  8
1
 62
7
  6
CONTINUOUS
  2
*D8
 70
    65
 10
0.0
 20
0.0
  0
LINE
  8
1
 62
7
  6
CONTINUOUS
 10
217.673378
 20
93.345638
 11
217.673378
 21
173.345638
  0
LINE
  8
1
 62
7
  6
CONTINUOUS
 10
219.673378
 20
93.345638
 11
209.439597
 21
93.345638
  0
LINE
  8
1
 62
7
  6
CONTINUOUS
 10
219.673378
 20
173.345638
 11
209.439597
 21
173.345638
  0
LINE
  8
1
 62
7
  6
CONTINUOUS
 10
217.673378
 20
93.345638
 11
216.896921
 21
96.243415
  0
LINE
  8
1
 62
7
  6
CONTINUOUS
 10
217.673378
 20
93.345638
 11
218.449835
 21
96.243415
  0
LINE
  8
1
 62
7
  6
CONTINUOUS
 10
217.673378
 20
173.345638
 11
218.449835
 21
170.447860
  0
LINE
  8
1
 62
7
  6
CONTINUOUS
 10
217.673378
 20
173.345638
 11
216.896921
 21
170.447860
  0
TEXT
  8
1
 62
7
  6
CONTINUOUS
 10
217.673378
 20
131.845638
 40
3.000000
 41
0.500000
  1
80
  7
KANJI
 50
90.000000
 51
30.000000
  0
ENDBLK
  0
BLOCK
  8
1
 62
7
  6
CONTINUOUS
  2
*D9
 70
    65
 10
0.0
 20
0.0
  0
LINE
  8
1
 62
7
  6
CONTINUOUS
 10
95.275168
 20
47.577330
 11
95.275168
 21
56.075131
  0
LINE
  8
1
 62
7
  6
CONTINUOUS
 10
93.275168
 20
51.577330
 11
106.139597
 21
51.577330
  0
LINE
  8
1
 62
7
  6
CONTINUOUS
 10
93.275168
 20
52.075131
 11
106.139597
 21
52.075131
  0
LINE
  8
1
 62
7
  6
CONTINUOUS
 10
95.275168
 20
51.577330
 11
96.051625
 21
48.679553
  0
LINE
  8
1
 62
7
  6
CONTINUOUS
 10
95.275168
 20
51.577330
 11
94.498711
 21
48.679553
  0
LINE
  8
1
 62
7
  6
CONTINUOUS
 10
95.275168
 20
52.075131
 11
94.498711
 21
54.972909
  0
LINE
  8
1
 62
7
  6
CONTINUOUS
 10
95.275168
 20
52.075131
 11
96.051625
 21
54.972909
  0
TEXT
  8
1
 62
7
  6
CONTINUOUS
 10
95.275168
 20
49.576231
 40
3.000000
 41
0.500000
  1
0.5
  7
KANJI
 50
90.000000
 51
30.000000
  0
ENDBLK
  0
BLOCK
  8
1
 62
7
  6
CONTINUOUS
  2
*D10
 70
    65
 10
0.0
 20
0.0
  0
LINE
  8
1
 62
7
  6
CONTINUOUS
 10
95.087248
 20
36.377330
 11
95.087248
 21
45.577330
  0
LINE
  8
1
 62
7
  6
CONTINUOUS
 10
93.087248
 20
40.377330
 11
94.939597
 21
40.377330
  0
LINE
  8
1
 62
7
  6
CONTINUOUS
 10
93.087248
 20
41.577330
 11
94.939597
 21
41.577330
  0
LINE
  8
1
 62
7
  6
CONTINUOUS
 10
95.087248
 20
40.377330
 11
95.863705
 21
37.479553
  0
LINE
  8
1
 62
7
  6
CONTINUOUS
 10
95.087248
 20
40.377330
 11
94.310791
 21
37.479553
  0
LINE
  8
1
 62
7
  6
CONTINUOUS
 10
95.087248
 20
41.577330
 11
94.310791
 21
44.475108
  0
LINE
  8
1
 62
7
  6
CONTINUOUS
 10
95.087248
 20
41.577330
 11
95.863705
 21
44.475108
  0
TEXT
  8
1
 62
7
  6
CONTINUOUS
 10
95.087248
 20
38.727330
 40
3.000000
 41
0.500000
  1
1.2
  7
KANJI
 50
90.000000
 51
30.000000
  0
ENDBLK
  0
BLOCK
  8
1
 62
7
  6
CONTINUOUS
  2
*D11
 70
    65
 10
0.0
 20
0.0
  0
LINE
  8
1
 62
7
  6
CONTINUOUS
 10
87.946309
 20
40.377330
 11
87.946309
 21
52.075131
  0
LINE
  8
1
 62
7
  6
CONTINUOUS
 10
85.946309
 20
40.377330
 11
94.939597
 21
40.377330
  0
LINE
  8
1
 62
7
  6
CONTINUOUS
 10
85.946309
 20
52.075131
 11
106.139597
 21
52.075131
  0
LINE
  8
1
 62
7
  6
CONTINUOUS
 10
87.946309
 20
40.377330
 11
87.169852
 21
43.275108
  0
LINE
  8
1
 62
7
  6
CONTINUOUS
 10
87.946309
 20
40.377330
 11
88.722766
 21
43.275108
  0
LINE
  8
1
 62
7
  6
CONTINUOUS
 10
87.946309
 20
52.075131
 11
88.722766
 21
49.177354
  0
LINE
  8
1
 62
7
  6
CONTINUOUS
 10
87.946309
 20
52.075131
 11
87.169852
 21
49.177354
  0
TEXT
  8
1
 62
7
  6
CONTINUOUS
 10
87.946309
 20
43.226231
 40
3.000000
 41
0.500000
  1
11.7
  7
KANJI
 50
90.000000
 51
30.000000
  0
ENDBLK
  0
BLOCK
  8
1
 62
7
  6
CONTINUOUS
  2
*D12
 70
    65
 10
0.0
 20
0.0
  0
LINE
  8
1
 62
7
  6
CONTINUOUS
 10
87.946309
 20
21.377330
 11
87.946309
 21
40.377330
  0
LINE
  8
1
 62
7
  6
CONTINUOUS
 10
85.946309
 20
21.377330
 11
99.084652
 21
21.377330
  0
LINE
  8
1
 62
7
  6
CONTINUOUS
 10
85.946309
 20
40.377330
 11
94.939597
 21
40.377330
  0
LINE
  8
1
 62
7
  6
CONTINUOUS
 10
87.946309
 20
21.377330
 11
87.169852
 21
24.275108
  0
LINE
  8
1
 62
7
  6
CONTINUOUS
 10
87.946309
 20
21.377330
 11
88.722766
 21
24.275108
  0
LINE
  8
1
 62
7
  6
CONTINUOUS
 10
87.946309
 20
40.377330
 11
88.722766
 21
37.479553
  0
LINE
  8
1
 62
7
  6
CONTINUOUS
 10
87.946309
 20
40.377330
 11
87.169852
 21
37.479553
  0
TEXT
  8
1
 62
7
  6
CONTINUOUS
 10
87.946309
 20
29.377330
 40
3.000000
 41
0.500000
  1
19
  7
KANJI
 50
90.000000
 51
30.000000
  0
ENDBLK
  0
BLOCK
  8
1
 62
7
  6
CONTINUOUS
  2
*D13
 70
    65
 10
0.0
 20
0.0
  0
LINE
  8
1
 62
7
  6
CONTINUOUS
 10
122.617450
 20
191.677852
 11
140.117450
 21
191.677852
  0
LINE
  8
1
 62
7
  6
CONTINUOUS
 10
122.617450
 20
193.677852
 11
122.617450
 21
171.168456
  0
LINE
  8
1
 62
7
  6
CONTINUOUS
 10
140.117450
 20
193.677852
 11
140.117450
 21
171.168456
  0
LINE
  8
1
 62
7
  6
CONTINUOUS
 10
122.617450
 20
191.677852
 11
125.515227
 21
192.454309
  0
LINE
  8
1
 62
7
  6
CONTINUOUS
 10
122.617450
 20
191.677852
 11
125.515227
 21
190.901395
  0
LINE
  8
1
 62
7
  6
CONTINUOUS
 10
140.117450
 20
191.677852
 11
137.219672
 21
190.901395
  0
LINE
  8
1
 62
7
  6
CONTINUOUS
 10
140.117450
 20
191.677852
 11
137.219672
 21
192.454309
  0
TEXT
  8
1
 62
7
  6
CONTINUOUS
 10
128.367450
 20
191.677852
 40
3.000000
 41
0.500000
  1
17.5
  7
KANJI
 50
0.000000
 51
30.000000
  0
ENDBLK
  0
ENDSEC
  0
SECTION
  2
ENTITIES
  0
LINE
  8
1
 62
7
  6
CONTINUOUS
 10
74.161074
 20
4904.785235
 11
30.161074
 21
4904.785235
  0
LINE
  8
1
 62
7
  6
CONTINUOUS
 10
186.771812
 20
4904.221477
 11
121.771812
 21
4904.221477
  0
LINE
  8
1
 62
7
  6
CONTINUOUS
 10
74.161074
 20
4953.285235
 11
30.161074
 21
4953.285235
  0
LINE
  8
1
 62
7
  6
CONTINUOUS
 10
186.771812
 20
4952.721477
 11
121.771812
 21
4952.721477
  0
LINE
  8
1
 62
7
  6
CONTINUOUS
 10
327.262342
 20
169.976137
 11
331.204474
 21
169.976137
  0
LINE
  8
1
 62
7
  6
CONTINUOUS
 10
329.352722
 20
171.627442
 11
329.352722
 21
168.487099
  0
ARC
  8
1
 62
7
  6
CONTINUOUS
 10
323.752722
 20
175.576137
 40
0.800000
 50
90.000000
 51
180.000000
  0
LINE
  8
1
 62
7
  6
CONTINUOUS
 10
323.752722
 20
176.376137
 11
334.952722
 21
176.376137
  0
ARC
  8
1
 62
7
  6
CONTINUOUS
 10
334.952722
 20
175.576137
 40
0.800000
 50
-0.000000
 51
90.000000
  0
LINE
  8
1
 62
7
  6
CONTINUOUS
 10
335.752722
 20
175.576137
 11
335.752722
 21
164.376137
  0
ARC
  8
1
 62
7
  6
CONTINUOUS
 10
334.952722
 20
164.376137
 40
0.800000
 50
-90.000000
 51
0.000000
  0
LINE
  8
1
 62
7
  6
CONTINUOUS
 10
334.952722
 20
163.576137
 11
323.752722
 21
163.576137
  0
LINE
  8
1
 62
7
  6
CONTINUOUS
 10
322.952722
 20
164.376137
 11
322.952722
 21
175.576137
  0
ARC
  8
1
 62
7
  6
CONTINUOUS
 10
323.752722
 20
164.376137
 40
0.800000
 50
180.000000
 51
-90.000000
  0
LINE
  8
1
 62
7
  6
CONTINUOUS
 10
344.762342
 20
169.976137
 11
348.704474
 21
169.976137
  0
LINE
  8
1
 62
7
  6
CONTINUOUS
 10
346.852722
 20
171.627442
 11
346.852722
 21
168.487099
  0
ARC
  8
1
 62
7
  6
CONTINUOUS
 10
341.252722
 20
175.576137
 40
0.800000
 50
90.000000
 51
180.000000
  0
LINE
  8
1
 62
7
  6
CONTINUOUS
 10
341.252722
 20
176.376137
 11
352.452722
 21
176.376137
  0
ARC
  8
1
 62
7
  6
CONTINUOUS
 10
352.452722
 20
175.576137
 40
0.800000
 50
-0.000000
 51
90.000000
  0
LINE
  8
1
 62
7
  6
CONTINUOUS
 10
353.252722
 20
175.576137
 11
353.252722
 21
164.376137
  0
ARC
  8
1
 62
7
  6
CONTINUOUS
 10
352.452722
 20
164.376137
 40
0.800000
 50
-90.000000
 51
0.000000
  0
LINE
  8
1
 62
7
  6
CONTINUOUS
 10
352.452722
 20
163.576137
 11
341.252722
 21
163.576137
  0
LINE
  8
1
 62
7
  6
CONTINUOUS
 10
340.452722
 20
164.376137
 11
340.452722
 21
175.576137
  0
ARC
  8
1
 62
7
  6
CONTINUOUS
 10
341.252722
 20
164.376137
 40
0.800000
 50
180.000000
 51
-90.000000
  0
LINE
  8
1
 62
7
  6
CONTINUOUS
 10
362.262342
 20
169.976137
 11
366.204474
 21
169.976137
  0
LINE
  8
1
 62
7
  6
CONTINUOUS
 10
364.352722
 20
171.627442
 11
364.352722
 21
168.487099
  0
ARC
  8
1
 62
7
  6
CONTINUOUS
 10
358.752722
 20
175.576137
 40
0.800000
 50
90.000000
 51
180.000000
  0
LINE
  8
1
 62
7
  6
CONTINUOUS
 10
358.752722
 20
176.376137
 11
369.952722
 21
176.376137
  0
ARC
  8
1
 62
7
  6
CONTINUOUS
 10
369.952722
 20
175.576137
 40
0.800000
 50
-0.000000
 51
90.000000
  0
LINE
  8
1
 62
7
  6
CONTINUOUS
 10
370.752722
 20
175.576137
 11
370.752722
 21
164.376137
  0
ARC
  8
1
 62
7
  6
CONTINUOUS
 10
369.952722
 20
164.376137
 40
0.800000
 50
-90.000000
 51
0.000000
  0
LINE
  8
1
 62
7
  6
CONTINUOUS
 10
369.952722
 20
163.576137
 11
358.752722
 21
163.576137
  0
LINE
  8
1
 62
7
  6
CONTINUOUS
 10
357.952722
 20
164.376137
 11
357.952722
 21
175.576137
  0
ARC
  8
1
 62
7
  6
CONTINUOUS
 10
358.752722
 20
164.376137
 40
0.800000
 50
180.000000
 51
-90.000000
  0
LINE
  8
1
 62
7
  6
CONTINUOUS
 10
327.262342
 20
152.476137
 11
331.204474
 21
152.476137
  0
LINE
  8
1
 62
7
  6
CONTINUOUS
 10
329.352722
 20
154.127442
 11
329.352722
 21
150.987099
  0
ARC
  8
1
 62
7
  6
CONTINUOUS
 10
323.752722
 20
158.076137
 40
0.800000
 50
90.000000
 51
180.000000
  0
LINE
  8
1
 62
7
  6
CONTINUOUS
 10
323.752722
 20
158.876137
 11
334.952722
 21
158.876137
  0
ARC
  8
1
 62
7
  6
CONTINUOUS
 10
334.952722
 20
158.076137
 40
0.800000
 50
-0.000000
 51
90.000000
  0
LINE
  8
1
 62
7
  6
CONTINUOUS
 10
335.752722
 20
158.076137
 11
335.752722
 21
146.876137
  0
ARC
  8
1
 62
7
  6
CONTINUOUS
 10
334.952722
 20
146.876137
 40
0.800000
 50
-90.000000
 51
0.000000
  0
LINE
  8
1
 62
7
  6
CONTINUOUS
 10
334.952722
 20
146.076137
 11
323.752722
 21
146.076137
  0
LINE
  8
1
 62
7
  6
CONTINUOUS
 10
322.952722
 20
146.876137
 11
322.952722
 21
158.076137
  0
ARC
  8
1
 62
7
  6
CONTINUOUS
 10
323.752722
 20
146.876137
 40
0.800000
 50
180.000000
 51
-90.000000
  0
LINE
  8
1
 62
7
  6
CONTINUOUS
 10
344.762342
 20
152.476137
 11
348.704474
 21
152.476137
  0
LINE
  8
1
 62
7
  6
CONTINUOUS
 10
346.852722
 20
154.127442
 11
346.852722
 21
150.987099
  0
ARC
  8
1
 62
7
  6
CONTINUOUS
 10
341.252722
 20
158.076137
 40
0.800000
 50
90.000000
 51
180.000000
  0
LINE
  8
1
 62
7
  6
CONTINUOUS
 10
341.252722
 20
158.876137
 11
352.452722
 21
158.876137
  0
ARC
  8
1
 62
7
  6
CONTINUOUS
 10
352.452722
 20
158.076137
 40
0.800000
 50
-0.000000
 51
90.000000
  0
LINE
  8
1
 62
7
  6
CONTINUOUS
 10
353.252722
 20
158.076137
 11
353.252722
 21
146.876137
  0
ARC
  8
1
 62
7
  6
CONTINUOUS
 10
352.452722
 20
146.876137
 40
0.800000
 50
-90.000000
 51
0.000000
  0
LINE
  8
1
 62
7
  6
CONTINUOUS
 10
352.452722
 20
146.076137
 11
341.252722
 21
146.076137
  0
LINE
  8
1
 62
7
  6
CONTINUOUS
 10
340.452722
 20
146.876137
 11
340.452722
 21
158.076137
  0
ARC
  8
1
 62
7
  6
CONTINUOUS
 10
341.252722
 20
146.876137
 40
0.800000
 50
180.000000
 51
-90.000000
  0
LINE
  8
1
 62
7
  6
CONTINUOUS
 10
362.262342
 20
152.476137
 11
366.204474
 21
152.476137
  0
LINE
  8
1
 62
7
  6
CONTINUOUS
 10
364.352722
 20
154.127442
 11
364.352722
 21
150.987099
  0
ARC
  8
1
 62
7
  6
CONTINUOUS
 10
358.752722
 20
158.076137
 40
0.800000
 50
90.000000
 51
180.000000
  0
LINE
  8
1
 62
7
  6
CONTINUOUS
 10
358.752722
 20
158.876137
 11
369.952722
 21
158.876137
  0
ARC
  8
1
 62
7
  6
CONTINUOUS
 10
369.952722
 20
158.076137
 40
0.800000
 50
-0.000000
 51
90.000000
  0
LINE
  8
1
 62
7
  6
CONTINUOUS
 10
370.752722
 20
158.076137
 11
370.752722
 21
146.876137
  0
ARC
  8
1
 62
7
  6
CONTINUOUS
 10
369.952722
 20
146.876137
 40
0.800000
 50
-90.000000
 51
0.000000
  0
LINE
  8
1
 62
7
  6
CONTINUOUS
 10
369.952722
 20
146.076137
 11
358.752722
 21
146.076137
  0
LINE
  8
1
 62
7
  6
CONTINUOUS
 10
357.952722
 20
146.876137
 11
357.952722
 21
158.076137
  0
ARC
  8
1
 62
7
  6
CONTINUOUS
 10
358.752722
 20
146.876137
 40
0.800000
 50
180.000000
 51
-90.000000
  0
LINE
  8
1
 62
7
  6
CONTINUOUS
 10
327.262342
 20
134.976137
 11
331.204474
 21
134.976137
  0
LINE
  8
1
 62
7
  6
CONTINUOUS
 10
329.352722
 20
136.627442
 11
329.352722
 21
133.487099
  0
ARC
  8
1
 62
7
  6
CONTINUOUS
 10
323.752722
 20
140.576137
 40
0.800000
 50
90.000000
 51
180.000000
  0
LINE
  8
1
 62
7
  6
CONTINUOUS
 10
323.752722
 20
141.376137
 11
334.952722
 21
141.376137
  0
ARC
  8
1
 62
7
  6
CONTINUOUS
 10
334.952722
 20
140.576137
 40
0.800000
 50
-0.000000
 51
90.000000
  0
LINE
  8
1
 62
7
  6
CONTINUOUS
 10
335.752722
 20
140.576137
 11
335.752722
 21
129.376137
  0
ARC
  8
1
 62
7
  6
CONTINUOUS
 10
334.952722
 20
129.376137
 40
0.800000
 50
-90.000000
 51
0.000000
  0
LINE
  8
1
 62
7
  6
CONTINUOUS
 10
334.952722
 20
128.576137
 11
323.752722
 21
128.576137
  0
LINE
  8
1
 62
7
  6
CONTINUOUS
 10
322.952722
 20
129.376137
 11
322.952722
 21
140.576137
  0
ARC
  8
1
 62
7
  6
CONTINUOUS
 10
323.752722
 20
129.376137
 40
0.800000
 50
180.000000
 51
-90.000000
  0
LINE
  8
1
 62
7
  6
CONTINUOUS
 10
344.762342
 20
134.976137
 11
348.704474
 21
134.976137
  0
LINE
  8
1
 62
7
  6
CONTINUOUS
 10
346.852722
 20
136.627442
 11
346.852722
 21
133.487099
  0
ARC
  8
1
 62
7
  6
CONTINUOUS
 10
341.252722
 20
140.576137
 40
0.800000
 50
90.000000
 51
180.000000
  0
LINE
  8
1
 62
7
  6
CONTINUOUS
 10
341.252722
 20
141.376137
 11
352.452722
 21
141.376137
  0
ARC
  8
1
 62
7
  6
CONTINUOUS
 10
352.452722
 20
140.576137
 40
0.800000
 50
-0.000000
 51
90.000000
  0
LINE
  8
1
 62
7
  6
CONTINUOUS
 10
353.252722
 20
140.576137
 11
353.252722
 21
129.376137
  0
ARC
  8
1
 62
7
  6
CONTINUOUS
 10
352.452722
 20
129.376137
 40
0.800000
 50
-90.000000
 51
0.000000
  0
LINE
  8
1
 62
7
  6
CONTINUOUS
 10
352.452722
 20
128.576137
 11
341.252722
 21
128.576137
  0
LINE
  8
1
 62
7
  6
CONTINUOUS
 10
340.452722
 20
129.376137
 11
340.452722
 21
140.576137
  0
ARC
  8
1
 62
7
  6
CONTINUOUS
 10
341.252722
 20
129.376137
 40
0.800000
 50
180.000000
 51
-90.000000
  0
LINE
  8
1
 62
7
  6
CONTINUOUS
 10
362.262342
 20
134.976137
 11
366.204474
 21
134.976137
  0
LINE
  8
1
 62
7
  6
CONTINUOUS
 10
364.352722
 20
136.627442
 11
364.352722
 21
133.487099
  0
ARC
  8
1
 62
7
  6
CONTINUOUS
 10
358.752722
 20
140.576137
 40
0.800000
 50
90.000000
 51
180.000000
  0
LINE
  8
1
 62
7
  6
CONTINUOUS
 10
358.752722
 20
141.376137
 11
369.952722
 21
141.376137
  0
ARC
  8
1
 62
7
  6
CONTINUOUS
 10
369.952722
 20
140.576137
 40
0.800000
 50
-0.000000
 51
90.000000
  0
LINE
  8
1
 62
7
  6
CONTINUOUS
 10
370.752722
 20
140.576137
 11
370.752722
 21
129.376137
  0
ARC
  8
1
 62
7
  6
CONTINUOUS
 10
369.952722
 20
129.376137
 40
0.800000
 50
-90.000000
 51
0.000000
  0
LINE
  8
1
 62
7
  6
CONTINUOUS
 10
369.952722
 20
128.576137
 11
358.752722
 21
128.576137
  0
LINE
  8
1
 62
7
  6
CONTINUOUS
 10
357.952722
 20
129.376137
 11
357.952722
 21
140.576137
  0
ARC
  8
1
 62
7
  6
CONTINUOUS
 10
358.752722
 20
129.376137
 40
0.800000
 50
180.000000
 51
-90.000000
  0
LINE
  8
1
 62
7
  6
CONTINUOUS
 10
327.262342
 20
117.476137
 11
331.204474
 21
117.476137
  0
LINE
  8
1
 62
7
  6
CONTINUOUS
 10
329.352722
 20
119.127442
 11
329.352722
 21
115.987099
  0
ARC
  8
1
 62
7
  6
CONTINUOUS
 10
323.752722
 20
123.076137
 40
0.800000
 50
90.000000
 51
180.000000
  0
LINE
  8
1
 62
7
  6
CONTINUOUS
 10
323.752722
 20
123.876137
 11
334.952722
 21
123.876137
  0
ARC
  8
1
 62
7
  6
CONTINUOUS
 10
334.952722
 20
123.076137
 40
0.800000
 50
-0.000000
 51
90.000000
  0
LINE
  8
1
 62
7
  6
CONTINUOUS
 10
335.752722
 20
123.076137
 11
335.752722
 21
111.876137
  0
ARC
  8
1
 62
7
  6
CONTINUOUS
 10
334.952722
 20
111.876137
 40
0.800000
 50
-90.000000
 51
0.000000
  0
LINE
  8
1
 62
7
  6
CONTINUOUS
 10
334.952722
 20
111.076137
 11
323.752722
 21
111.076137
  0
LINE
  8
1
 62
7
  6
CONTINUOUS
 10
322.952722
 20
111.876137
 11
322.952722
 21
123.076137
  0
ARC
  8
1
 62
7
  6
CONTINUOUS
 10
323.752722
 20
111.876137
 40
0.800000
 50
180.000000
 51
-90.000000
  0
LINE
  8
1
 62
7
  6
CONTINUOUS
 10
344.762342
 20
117.476137
 11
348.704474
 21
117.476137
  0
LINE
  8
1
 62
7
  6
CONTINUOUS
 10
346.852722
 20
119.127442
 11
346.852722
 21
115.987099
  0
ARC
  8
1
 62
7
  6
CONTINUOUS
 10
341.252722
 20
123.076137
 40
0.800000
 50
90.000000
 51
180.000000
  0
LINE
  8
1
 62
7
  6
CONTINUOUS
 10
341.252722
 20
123.876137
 11
352.452722
 21
123.876137
  0
ARC
  8
1
 62
7
  6
CONTINUOUS
 10
352.452722
 20
123.076137
 40
0.800000
 50
-0.000000
 51
90.000000
  0
LINE
  8
1
 62
7
  6
CONTINUOUS
 10
353.252722
 20
123.076137
 11
353.252722
 21
111.876137
  0
ARC
  8
1
 62
7
  6
CONTINUOUS
 10
352.452722
 20
111.876137
 40
0.800000
 50
-90.000000
 51
0.000000
  0
LINE
  8
1
 62
7
  6
CONTINUOUS
 10
352.452722
 20
111.076137
 11
341.252722
 21
111.076137
  0
LINE
  8
1
 62
7
  6
CONTINUOUS
 10
340.452722
 20
111.876137
 11
340.452722
 21
123.076137
  0
ARC
  8
1
 62
7
  6
CONTINUOUS
 10
341.252722
 20
111.876137
 40
0.800000
 50
180.000000
 51
-90.000000
  0
LINE
  8
1
 62
7
  6
CONTINUOUS
 10
362.262342
 20
117.476137
 11
366.204474
 21
117.476137
  0
LINE
  8
1
 62
7
  6
CONTINUOUS
 10
364.352722
 20
119.127442
 11
364.352722
 21
115.987099
  0
ARC
  8
1
 62
7
  6
CONTINUOUS
 10
358.752722
 20
123.076137
 40
0.800000
 50
90.000000
 51
180.000000
  0
LINE
  8
1
 62
7
  6
CONTINUOUS
 10
358.752722
 20
123.876137
 11
369.952722
 21
123.876137
  0
ARC
  8
1
 62
7
  6
CONTINUOUS
 10
369.952722
 20
123.076137
 40
0.800000
 50
-0.000000
 51
90.000000
  0
LINE
  8
1
 62
7
  6
CONTINUOUS
 10
370.752722
 20
123.076137
 11
370.752722
 21
111.876137
  0
ARC
  8
1
 62
7
  6
CONTINUOUS
 10
369.952722
 20
111.876137
 40
0.800000
 50
-90.000000
 51
0.000000
  0
LINE
  8
1
 62
7
  6
CONTINUOUS
 10
369.952722
 20
111.076137
 11
358.752722
 21
111.076137
  0
LINE
  8
1
 62
7
  6
CONTINUOUS
 10
357.952722
 20
111.876137
 11
357.952722
 21
123.076137
  0
ARC
  8
1
 62
7
  6
CONTINUOUS
 10
358.752722
 20
111.876137
 40
0.800000
 50
180.000000
 51
-90.000000
  0
LINE
  8
1
 62
7
  6
CONTINUOUS
 10
325.289187
 20
77.801641
 11
329.231320
 21
77.801641
  0
LINE
  8
1
 62
7
  6
CONTINUOUS
 10
327.379567
 20
79.452946
 11
327.379567
 21
76.312603
  0
ARC
  8
1
 62
7
  6
CONTINUOUS
 10
321.779567
 20
83.401641
 40
0.800000
 50
90.000000
 51
180.000000
  0
LINE
  8
1
 62
7
  6
CONTINUOUS
 10
321.779567
 20
84.201641
 11
332.979567
 21
84.201641
  0
ARC
  8
1
 62
7
  6
CONTINUOUS
 10
332.979567
 20
83.401641
 40
0.800000
 50
-0.000000
 51
90.000000
  0
LINE
  8
1
 62
7
  6
CONTINUOUS
 10
333.779567
 20
83.401641
 11
333.779567
 21
72.201641
  0
ARC
  8
1
 62
7
  6
CONTINUOUS
 10
332.979567
 20
72.201641
 40
0.800000
 50
-90.000000
 51
0.000000
  0
LINE
  8
1
 62
7
  6
CONTINUOUS
 10
332.979567
 20
71.401641
 11
321.779567
 21
71.401641
  0
LINE
  8
1
 62
7
  6
CONTINUOUS
 10
320.979567
 20
72.201641
 11
320.979567
 21
83.401641
  0
ARC
  8
1
 62
7
  6
CONTINUOUS
 10
321.779567
 20
72.201641
 40
0.800000
 50
180.000000
 51
-90.000000
  0
LINE
  8
1
 62
7
  6
CONTINUOUS
 10
325.289187
 20
60.301641
 11
329.231320
 21
60.301641
  0
LINE
  8
1
 62
7
  6
CONTINUOUS
 10
327.379567
 20
61.952946
 11
327.379567
 21
58.812603
  0
ARC
  8
1
 62
7
  6
CONTINUOUS
 10
321.779567
 20
65.901641
 40
0.800000
 50
90.000000
 51
180.000000
  0
LINE
  8
1
 62
7
  6
CONTINUOUS
 10
321.779567
 20
66.701641
 11
332.979567
 21
66.701641
  0
ARC
  8
1
 62
7
  6
CONTINUOUS
 10
332.979567
 20
65.901641
 40
0.800000
 50
-0.000000
 51
90.000000
  0
LINE
  8
1
 62
7
  6
CONTINUOUS
 10
333.779567
 20
65.901641
 11
333.779567
 21
54.701641
  0
ARC
  8
1
 62
7
  6
CONTINUOUS
 10
332.979567
 20
54.701641
 40
0.800000
 50
-90.000000
 51
0.000000
  0
LINE
  8
1
 62
7
  6
CONTINUOUS
 10
332.979567
 20
53.901641
 11
321.779567
 21
53.901641
  0
LINE
  8
1
 62
7
  6
CONTINUOUS
 10
320.979567
 20
54.701641
 11
320.979567
 21
65.901641
  0
ARC
  8
1
 62
7
  6
CONTINUOUS
 10
321.779567
 20
54.701641
 40
0.800000
 50
180.000000
 51
-90.000000
  0
LINE
  8
1
 62
7
  6
CONTINUOUS
 10
325.289187
 20
42.801641
 11
329.231320
 21
42.801641
  0
LINE
  8
1
 62
7
  6
CONTINUOUS
 10
327.379567
 20
44.452946
 11
327.379567
 21
41.312603
  0
ARC
  8
1
 62
7
  6
CONTINUOUS
 10
321.779567
 20
48.401641
 40
0.800000
 50
90.000000
 51
180.000000
  0
LINE
  8
1
 62
7
  6
CONTINUOUS
 10
321.779567
 20
49.201641
 11
332.979567
 21
49.201641
  0
ARC
  8
1
 62
7
  6
CONTINUOUS
 10
332.979567
 20
48.401641
 40
0.800000
 50
-0.000000
 51
90.000000
  0
LINE
  8
1
 62
7
  6
CONTINUOUS
 10
333.779567
 20
48.401641
 11
333.779567
 21
37.201641
  0
ARC
  8
1
 62
7
  6
CONTINUOUS
 10
332.979567
 20
37.201641
 40
0.800000
 50
-90.000000
 51
0.000000
  0
LINE
  8
1
 62
7
  6
CONTINUOUS
 10
332.979567
 20
36.401641
 11
321.779567
 21
36.401641
  0
LINE
  8
1
 62
7
  6
CONTINUOUS
 10
320.979567
 20
37.201641
 11
320.979567
 21
48.401641
  0
ARC
  8
1
 62
7
  6
CONTINUOUS
 10
321.779567
 20
37.201641
 40
0.800000
 50
180.000000
 51
-90.000000
  0
LINE
  8
1
 62
7
  6
CONTINUOUS
 10
325.289187
 20
25.301641
 11
329.231320
 21
25.301641
  0
LINE
  8
1
 62
7
  6
CONTINUOUS
 10
327.379567
 20
26.952946
 11
327.379567
 21
23.812603
  0
ARC
  8
1
 62
7
  6
CONTINUOUS
 10
321.779567
 20
30.901641
 40
0.800000
 50
90.000000
 51
180.000000
  0
LINE
  8
1
 62
7
  6
CONTINUOUS
 10
321.779567
 20
31.701641
 11
332.979567
 21
31.701641
  0
ARC
  8
1
 62
7
  6
CONTINUOUS
 10
332.979567
 20
30.901641
 40
0.800000
 50
-0.000000
 51
90.000000
  0
LINE
  8
1
 62
7
  6
CONTINUOUS
 10
333.779567
 20
30.901641
 11
333.779567
 21
19.701641
  0
ARC
  8
1
 62
7
  6
CONTINUOUS
 10
332.979567
 20
19.701641
 40
0.800000
 50
-90.000000
 51
0.000000
  0
LINE
  8
1
 62
7
  6
CONTINUOUS
 10
332.979567
 20
18.901641
 11
321.779567
 21
18.901641
  0
LINE
  8
1
 62
7
  6
CONTINUOUS
 10
320.979567
 20
19.701641
 11
320.979567
 21
30.901641
  0
ARC
  8
1
 62
7
  6
CONTINUOUS
 10
321.779567
 20
19.701641
 40
0.800000
 50
180.000000
 51
-90.000000
  0
LINE
  8
1
 62
7
  6
CONTINUOUS
 10
346.289187
 20
77.801641
 11
350.231320
 21
77.801641
  0
LINE
  8
1
 62
7
  6
CONTINUOUS
 10
348.379567
 20
79.452946
 11
348.379567
 21
76.312603
  0
ARC
  8
1
 62
7
  6
CONTINUOUS
 10
342.779567
 20
83.401641
 40
0.800000
 50
90.000000
 51
180.000000
  0
LINE
  8
1
 62
7
  6
CONTINUOUS
 10
342.779567
 20
84.201641
 11
353.979567
 21
84.201641
  0
ARC
  8
1
 62
7
  6
CONTINUOUS
 10
353.979567
 20
83.401641
 40
0.800000
 50
-0.000000
 51
90.000000
  0
LINE
  8
1
 62
7
  6
CONTINUOUS
 10
354.779567
 20
83.401641
 11
354.779567
 21
72.201641
  0
ARC
  8
1
 62
7
  6
CONTINUOUS
 10
353.979567
 20
72.201641
 40
0.800000
 50
-90.000000
 51
0.000000
  0
LINE
  8
1
 62
7
  6
CONTINUOUS
 10
353.979567
 20
71.401641
 11
342.779567
 21
71.401641
  0
LINE
  8
1
 62
7
  6
CONTINUOUS
 10
341.979567
 20
72.201641
 11
341.979567
 21
83.401641
  0
ARC
  8
1
 62
7
  6
CONTINUOUS
 10
342.779567
 20
72.201641
 40
0.800000
 50
180.000000
 51
-90.000000
  0
LINE
  8
1
 62
7
  6
CONTINUOUS
 10
346.289187
 20
60.301641
 11
350.231320
 21
60.301641
  0
LINE
  8
1
 62
7
  6
CONTINUOUS
 10
348.379567
 20
61.952946
 11
348.379567
 21
58.812603
  0
ARC
  8
1
 62
7
  6
CONTINUOUS
 10
342.779567
 20
65.901641
 40
0.800000
 50
90.000000
 51
180.000000
  0
LINE
  8
1
 62
7
  6
CONTINUOUS
 10
342.779567
 20
66.701641
 11
353.979567
 21
66.701641
  0
ARC
  8
1
 62
7
  6
CONTINUOUS
 10
353.979567
 20
65.901641
 40
0.800000
 50
-0.000000
 51
90.000000
  0
LINE
  8
1
 62
7
  6
CONTINUOUS
 10
354.779567
 20
65.901641
 11
354.779567
 21
54.701641
  0
ARC
  8
1
 62
7
  6
CONTINUOUS
 10
353.979567
 20
54.701641
 40
0.800000
 50
-90.000000
 51
0.000000
  0
LINE
  8
1
 62
7
  6
CONTINUOUS
 10
353.979567
 20
53.901641
 11
342.779567
 21
53.901641
  0
LINE
  8
1
 62
7
  6
CONTINUOUS
 10
341.979567
 20
54.701641
 11
341.979567
 21
65.901641
  0
ARC
  8
1
 62
7
  6
CONTINUOUS
 10
342.779567
 20
54.701641
 40
0.800000
 50
180.000000
 51
-90.000000
  0
LINE
  8
1
 62
7
  6
CONTINUOUS
 10
346.289187
 20
42.801641
 11
350.231320
 21
42.801641
  0
LINE
  8
1
 62
7
  6
CONTINUOUS
 10
348.379567
 20
44.452946
 11
348.379567
 21
41.312603
  0
ARC
  8
1
 62
7
  6
CONTINUOUS
 10
342.779567
 20
48.401641
 40
0.800000
 50
90.000000
 51
180.000000
  0
LINE
  8
1
 62
7
  6
CONTINUOUS
 10
342.779567
 20
49.201641
 11
353.979567
 21
49.201641
  0
ARC
  8
1
 62
7
  6
CONTINUOUS
 10
353.979567
 20
48.401641
 40
0.800000
 50
-0.000000
 51
90.000000
  0
LINE
  8
1
 62
7
  6
CONTINUOUS
 10
354.779567
 20
48.401641
 11
354.779567
 21
37.201641
  0
ARC
  8
1
 62
7
  6
CONTINUOUS
 10
353.979567
 20
37.201641
 40
0.800000
 50
-90.000000
 51
0.000000
  0
LINE
  8
1
 62
7
  6
CONTINUOUS
 10
353.979567
 20
36.401641
 11
342.779567
 21
36.401641
  0
LINE
  8
1
 62
7
  6
CONTINUOUS
 10
341.979567
 20
37.201641
 11
341.979567
 21
48.401641
  0
ARC
  8
1
 62
7
  6
CONTINUOUS
 10
342.779567
 20
37.201641
 40
0.800000
 50
180.000000
 51
-90.000000
  0
LINE
  8
1
 62
7
  6
CONTINUOUS
 10
346.289187
 20
25.301641
 11
350.231320
 21
25.301641
  0
LINE
  8
1
 62
7
  6
CONTINUOUS
 10
348.379567
 20
26.952946
 11
348.379567
 21
23.812603
  0
ARC
  8
1
 62
7
  6
CONTINUOUS
 10
342.779567
 20
30.901641
 40
0.800000
 50
90.000000
 51
180.000000
  0
LINE
  8
1
 62
7
  6
CONTINUOUS
 10
342.779567
 20
31.701641
 11
353.979567
 21
31.701641
  0
ARC
  8
1
 62
7
  6
CONTINUOUS
 10
353.979567
 20
30.901641
 40
0.800000
 50
-0.000000
 51
90.000000
  0
LINE
  8
1
 62
7
  6
CONTINUOUS
 10
354.779567
 20
30.901641
 11
354.779567
 21
19.701641
  0
ARC
  8
1
 62
7
  6
CONTINUOUS
 10
353.979567
 20
19.701641
 40
0.800000
 50
-90.000000
 51
0.000000
  0
LINE
  8
1
 62
7
  6
CONTINUOUS
 10
353.979567
 20
18.901641
 11
342.779567
 21
18.901641
  0
LINE
  8
1
 62
7
  6
CONTINUOUS
 10
341.979567
 20
19.701641
 11
341.979567
 21
30.901641
  0
ARC
  8
1
 62
7
  6
CONTINUOUS
 10
342.779567
 20
19.701641
 40
0.800000
 50
180.000000
 51
-90.000000
  0
ARC
  8
1
 62
7
  6
CONTINUOUS
 10
116.810887
 20
165.132066
 40
0.800000
 50
90.000000
 51
180.000000
  0
LINE
  8
1
 62
7
  6
CONTINUOUS
 10
116.810887
 20
165.932066
 11
128.010887
 21
165.932066
  0
ARC
  8
1
 62
7
  6
CONTINUOUS
 10
128.010887
 20
165.132066
 40
0.800000
 50
0.000000
 51
90.000000
  0
LINE
  8
1
 62
7
  6
CONTINUOUS
 10
128.810887
 20
165.132066
 11
128.810887
 21
153.932066
  0
ARC
  8
1
 62
7
  6
CONTINUOUS
 10
128.010887
 20
153.932066
 40
0.800000
 50
-90.000000
 51
0.000000
  0
LINE
  8
1
 62
7
  6
CONTINUOUS
 10
128.010887
 20
153.132066
 11
116.810887
 21
153.132066
  0
LINE
  8
1
 62
7
  6
CONTINUOUS
 10
116.010887
 20
153.932066
 11
116.010887
 21
165.132066
  0
ARC
  8
1
 62
7
  6
CONTINUOUS
 10
116.810887
 20
153.932066
 40
0.800000
 50
180.000000
 51
-90.000000
  0
ARC
  8
1
 62
7
  6
CONTINUOUS
 10
116.810887
 20
147.632066
 40
0.800000
 50
90.000000
 51
180.000000
  0
LINE
  8
1
 62
7
  6
CONTINUOUS
 10
116.810887
 20
148.432066
 11
128.010887
 21
148.432066
  0
ARC
  8
1
 62
7
  6
CONTINUOUS
 10
128.010887
 20
147.632066
 40
0.800000
 50
0.000000
 51
90.000000
  0
LINE
  8
1
 62
7
  6
CONTINUOUS
 10
128.810887
 20
147.632066
 11
128.810887
 21
136.432066
  0
ARC
  8
1
 62
7
  6
CONTINUOUS
 10
128.010887
 20
136.432066
 40
0.800000
 50
-90.000000
 51
0.000000
  0
LINE
  8
1
 62
7
  6
CONTINUOUS
 10
128.010887
 20
135.632066
 11
116.810887
 21
135.632066
  0
LINE
  8
1
 62
7
  6
CONTINUOUS
 10
116.010887
 20
136.432066
 11
116.010887
 21
147.632066
  0
ARC
  8
1
 62
7
  6
CONTINUOUS
 10
116.810887
 20
136.432066
 40
0.800000
 50
180.000000
 51
-90.000000
  0
ARC
  8
1
 62
7
  6
CONTINUOUS
 10
116.810887
 20
130.132066
 40
0.800000
 50
90.000000
 51
180.000000
  0
LINE
  8
1
 62
7
  6
CONTINUOUS
 10
116.810887
 20
130.932066
 11
128.010887
 21
130.932066
  0
ARC
  8
1
 62
7
  6
CONTINUOUS
 10
128.010887
 20
130.132066
 40
0.800000
 50
0.000000
 51
90.000000
  0
LINE
  8
1
 62
7
  6
CONTINUOUS
 10
128.810887
 20
130.132066
 11
128.810887
 21
118.932066
  0
ARC
  8
1
 62
7
  6
CONTINUOUS
 10
128.010887
 20
118.932066
 40
0.800000
 50
-90.000000
 51
0.000000
  0
LINE
  8
1
 62
7
  6
CONTINUOUS
 10
128.010887
 20
118.132066
 11
116.810887
 21
118.132066
  0
LINE
  8
1
 62
7
  6
CONTINUOUS
 10
116.010887
 20
118.932066
 11
116.010887
 21
130.132066
  0
ARC
  8
1
 62
7
  6
CONTINUOUS
 10
116.810887
 20
118.932066
 40
0.800000
 50
180.000000
 51
-90.000000
  0
ARC
  8
1
 62
7
  6
CONTINUOUS
 10
116.810887
 20
112.632066
 40
0.800000
 50
90.000000
 51
180.000000
  0
LINE
  8
1
 62
7
  6
CONTINUOUS
 10
116.810887
 20
113.432066
 11
128.010887
 21
113.432066
  0
ARC
  8
1
 62
7
  6
CONTINUOUS
 10
128.010887
 20
112.632066
 40
0.800000
 50
-0.000000
 51
90.000000
  0
LINE
  8
1
 62
7
  6
CONTINUOUS
 10
128.810887
 20
112.632066
 11
128.810887
 21
101.432066
  0
ARC
  8
1
 62
7
  6
CONTINUOUS
 10
128.010887
 20
101.432066
 40
0.800000
 50
-90.000000
 51
0.000000
  0
LINE
  8
1
 62
7
  6
CONTINUOUS
 10
128.010887
 20
100.632066
 11
116.810887
 21
100.632066
  0
LINE
  8
1
 62
7
  6
CONTINUOUS
 10
116.010887
 20
101.432066
 11
116.010887
 21
112.632066
  0
ARC
  8
1
 62
7
  6
CONTINUOUS
 10
116.810887
 20
101.432066
 40
0.800000
 50
180.000000
 51
-90.000000
  0
TEXT
  8
1
 62
7
  6
CONTINUOUS
 10
124.646035
 20
102.534427
 40
6.000000
 41
0.500000
  1
1
  7
KANJI
 50
0.000000
 51
0.000000
  0
ARC
  8
1
 62
7
  6
CONTINUOUS
 10
134.310887
 20
165.132066
 40
0.800000
 50
90.000000
 51
180.000000
  0
LINE
  8
1
 62
7
  6
CONTINUOUS
 10
134.310887
 20
165.932066
 11
145.510887
 21
165.932066
  0
ARC
  8
1
 62
7
  6
CONTINUOUS
 10
145.510887
 20
165.132066
 40
0.800000
 50
0.000000
 51
90.000000
  0
LINE
  8
1
 62
7
  6
CONTINUOUS
 10
146.310887
 20
165.132066
 11
146.310887
 21
153.932066
  0
ARC
  8
1
 62
7
  6
CONTINUOUS
 10
145.510887
 20
153.932066
 40
0.800000
 50
-90.000000
 51
0.000000
  0
LINE
  8
1
 62
7
  6
CONTINUOUS
 10
145.510887
 20
153.132066
 11
134.310887
 21
153.132066
  0
LINE
  8
1
 62
7
  6
CONTINUOUS
 10
133.510887
 20
153.932066
 11
133.510887
 21
165.132066
  0
ARC
  8
1
 62
7
  6
CONTINUOUS
 10
134.310887
 20
153.932066
 40
0.800000
 50
180.000000
 51
-90.000000
  0
ARC
  8
1
 62
7
  6
CONTINUOUS
 10
134.310887
 20
147.632066
 40
0.800000
 50
90.000000
 51
180.000000
  0
LINE
  8
1
 62
7
  6
CONTINUOUS
 10
134.310887
 20
148.432066
 11
145.510887
 21
148.432066
  0
ARC
  8
1
 62
7
  6
CONTINUOUS
 10
145.510887
 20
147.632066
 40
0.800000
 50
0.000000
 51
90.000000
  0
LINE
  8
1
 62
7
  6
CONTINUOUS
 10
146.310887
 20
147.632066
 11
146.310887
 21
136.432066
  0
ARC
  8
1
 62
7
  6
CONTINUOUS
 10
145.510887
 20
136.432066
 40
0.800000
 50
-90.000000
 51
0.000000
  0
LINE
  8
1
 62
7
  6
CONTINUOUS
 10
145.510887
 20
135.632066
 11
134.310887
 21
135.632066
  0
LINE
  8
1
 62
7
  6
CONTINUOUS
 10
133.510887
 20
136.432066
 11
133.510887
 21
147.632066
  0
ARC
  8
1
 62
7
  6
CONTINUOUS
 10
134.310887
 20
136.432066
 40
0.800000
 50
180.000000
 51
-90.000000
  0
ARC
  8
1
 62
7
  6
CONTINUOUS
 10
134.310887
 20
130.132066
 40
0.800000
 50
90.000000
 51
180.000000
  0
LINE
  8
1
 62
7
  6
CONTINUOUS
 10
134.310887
 20
130.932066
 11
145.510887
 21
130.932066
  0
ARC
  8
1
 62
7
  6
CONTINUOUS
 10
145.510887
 20
130.132066
 40
0.800000
 50
0.000000
 51
90.000000
  0
LINE
  8
1
 62
7
  6
CONTINUOUS
 10
146.310887
 20
130.132066
 11
146.310887
 21
118.932066
  0
ARC
  8
1
 62
7
  6
CONTINUOUS
 10
145.510887
 20
118.932066
 40
0.800000
 50
-90.000000
 51
0.000000
  0
LINE
  8
1
 62
7
  6
CONTINUOUS
 10
145.510887
 20
118.132066
 11
134.310887
 21
118.132066
  0
LINE
  8
1
 62
7
  6
CONTINUOUS
 10
133.510887
 20
118.932066
 11
133.510887
 21
130.132066
  0
ARC
  8
1
 62
7
  6
CONTINUOUS
 10
134.310887
 20
118.932066
 40
0.800000
 50
180.000000
 51
-90.000000
  0
ARC
  8
1
 62
7
  6
CONTINUOUS
 10
134.310887
 20
112.632066
 40
0.800000
 50
90.000000
 51
180.000000
  0
LINE
  8
1
 62
7
  6
CONTINUOUS
 10
134.310887
 20
113.432066
 11
145.510887
 21
113.432066
  0
ARC
  8
1
 62
7
  6
CONTINUOUS
 10
145.510887
 20
112.632066
 40
0.800000
 50
-0.000000
 51
90.000000
  0
LINE
  8
1
 62
7
  6
CONTINUOUS
 10
146.310887
 20
112.632066
 11
146.310887
 21
101.432066
  0
ARC
  8
1
 62
7
  6
CONTINUOUS
 10
145.510887
 20
101.432066
 40
0.800000
 50
-90.000000
 51
0.000000
  0
LINE
  8
1
 62
7
  6
CONTINUOUS
 10
145.510887
 20
100.632066
 11
134.310887
 21
100.632066
  0
LINE
  8
1
 62
7
  6
CONTINUOUS
 10
133.510887
 20
101.432066
 11
133.510887
 21
112.632066
  0
ARC
  8
1
 62
7
  6
CONTINUOUS
 10
134.310887
 20
101.432066
 40
0.800000
 50
180.000000
 51
-90.000000
  0
ARC
  8
1
 62
7
  6
CONTINUOUS
 10
151.810887
 20
165.132066
 40
0.800000
 50
90.000000
 51
180.000000
  0
LINE
  8
1
 62
7
  6
CONTINUOUS
 10
151.810887
 20
165.932066
 11
163.010887
 21
165.932066
  0
ARC
  8
1
 62
7
  6
CONTINUOUS
 10
163.010887
 20
165.132066
 40
0.800000
 50
0.000000
 51
90.000000
  0
LINE
  8
1
 62
7
  6
CONTINUOUS
 10
163.810887
 20
165.132066
 11
163.810887
 21
153.932066
  0
ARC
  8
1
 62
7
  6
CONTINUOUS
 10
163.010887
 20
153.932066
 40
0.800000
 50
-90.000000
 51
0.000000
  0
LINE
  8
1
 62
7
  6
CONTINUOUS
 10
163.010887
 20
153.132066
 11
151.810887
 21
153.132066
  0
LINE
  8
1
 62
7
  6
CONTINUOUS
 10
151.010887
 20
153.932066
 11
151.010887
 21
165.132066
  0
ARC
  8
1
 62
7
  6
CONTINUOUS
 10
151.810887
 20
153.932066
 40
0.800000
 50
180.000000
 51
-90.000000
  0
ARC
  8
1
 62
7
  6
CONTINUOUS
 10
151.810887
 20
147.632066
 40
0.800000
 50
90.000000
 51
180.000000
  0
LINE
  8
1
 62
7
  6
CONTINUOUS
 10
151.810887
 20
148.432066
 11
163.010887
 21
148.432066
  0
ARC
  8
1
 62
7
  6
CONTINUOUS
 10
163.010887
 20
147.632066
 40
0.800000
 50
0.000000
 51
90.000000
  0
LINE
  8
1
 62
7
  6
CONTINUOUS
 10
163.810887
 20
147.632066
 11
163.810887
 21
136.432066
  0
ARC
  8
1
 62
7
  6
CONTINUOUS
 10
163.010887
 20
136.432066
 40
0.800000
 50
-90.000000
 51
0.000000
  0
LINE
  8
1
 62
7
  6
CONTINUOUS
 10
163.010887
 20
135.632066
 11
151.810887
 21
135.632066
  0
LINE
  8
1
 62
7
  6
CONTINUOUS
 10
151.010887
 20
136.432066
 11
151.010887
 21
147.632066
  0
ARC
  8
1
 62
7
  6
CONTINUOUS
 10
151.810887
 20
136.432066
 40
0.800000
 50
180.000000
 51
-90.000000
  0
ARC
  8
1
 62
7
  6
CONTINUOUS
 10
151.810887
 20
130.132066
 40
0.800000
 50
90.000000
 51
180.000000
  0
LINE
  8
1
 62
7
  6
CONTINUOUS
 10
151.810887
 20
130.932066
 11
163.010887
 21
130.932066
  0
ARC
  8
1
 62
7
  6
CONTINUOUS
 10
163.010887
 20
130.132066
 40
0.800000
 50
0.000000
 51
90.000000
  0
LINE
  8
1
 62
7
  6
CONTINUOUS
 10
163.810887
 20
130.132066
 11
163.810887
 21
118.932066
  0
ARC
  8
1
 62
7
  6
CONTINUOUS
 10
163.010887
 20
118.932066
 40
0.800000
 50
-90.000000
 51
0.000000
  0
LINE
  8
1
 62
7
  6
CONTINUOUS
 10
163.010887
 20
118.132066
 11
151.810887
 21
118.132066
  0
LINE
  8
1
 62
7
  6
CONTINUOUS
 10
151.010887
 20
118.932066
 11
151.010887
 21
130.132066
  0
ARC
  8
1
 62
7
  6
CONTINUOUS
 10
151.810887
 20
118.932066
 40
0.800000
 50
180.000000
 51
-90.000000
  0
TEXT
  8
1
 62
7
  6
CONTINUOUS
 10
142.146035
 20
102.534427
 40
6.000000
 41
0.500000
  1
2
  7
KANJI
 50
0.000000
 51
0.000000
  0
TEXT
  8
1
 62
7
  6
CONTINUOUS
 10
159.646035
 20
102.534427
 40
6.000000
 41
0.500000
  1
3
  7
KANJI
 50
0.000000
 51
0.000000
  0
ARC
  8
1
 62
7
  6
CONTINUOUS
 10
169.310887
 20
165.132066
 40
0.800000
 50
90.000000
 51
180.000000
  0
LINE
  8
1
 62
7
  6
CONTINUOUS
 10
169.310887
 20
165.932066
 11
180.510887
 21
165.932066
  0
ARC
  8
1
 62
7
  6
CONTINUOUS
 10
180.510887
 20
165.132066
 40
0.800000
 50
0.000000
 51
90.000000
  0
LINE
  8
1
 62
7
  6
CONTINUOUS
 10
181.310887
 20
165.132066
 11
181.310887
 21
153.932066
  0
ARC
  8
1
 62
7
  6
CONTINUOUS
 10
180.510887
 20
153.932066
 40
0.800000
 50
-90.000000
 51
0.000000
  0
LINE
  8
1
 62
7
  6
CONTINUOUS
 10
180.510887
 20
153.132066
 11
169.310887
 21
153.132066
  0
LINE
  8
1
 62
7
  6
CONTINUOUS
 10
168.510887
 20
153.932066
 11
168.510887
 21
165.132066
  0
ARC
  8
1
 62
7
  6
CONTINUOUS
 10
169.310887
 20
153.932066
 40
0.800000
 50
180.000000
 51
-90.000000
  0
ARC
  8
1
 62
7
  6
CONTINUOUS
 10
169.310887
 20
147.632066
 40
0.800000
 50
90.000000
 51
180.000000
  0
LINE
  8
1
 62
7
  6
CONTINUOUS
 10
169.310887
 20
148.432066
 11
180.510887
 21
148.432066
  0
ARC
  8
1
 62
7
  6
CONTINUOUS
 10
180.510887
 20
147.632066
 40
0.800000
 50
0.000000
 51
90.000000
  0
LINE
  8
1
 62
7
  6
CONTINUOUS
 10
181.310887
 20
147.632066
 11
181.310887
 21
136.432066
  0
ARC
  8
1
 62
7
  6
CONTINUOUS
 10
180.510887
 20
136.432066
 40
0.800000
 50
-90.000000
 51
0.000000
  0
LINE
  8
1
 62
7
  6
CONTINUOUS
 10
180.510887
 20
135.632066
 11
169.310887
 21
135.632066
  0
LINE
  8
1
 62
7
  6
CONTINUOUS
 10
168.510887
 20
136.432066
 11
168.510887
 21
147.632066
  0
ARC
  8
1
 62
7
  6
CONTINUOUS
 10
169.310887
 20
136.432066
 40
0.800000
 50
180.000000
 51
-90.000000
  0
ARC
  8
1
 62
7
  6
CONTINUOUS
 10
169.310887
 20
130.132066
 40
0.800000
 50
90.000000
 51
180.000000
  0
LINE
  8
1
 62
7
  6
CONTINUOUS
 10
169.310887
 20
130.932066
 11
180.510887
 21
130.932066
  0
ARC
  8
1
 62
7
  6
CONTINUOUS
 10
180.510887
 20
130.132066
 40
0.800000
 50
0.000000
 51
90.000000
  0
LINE
  8
1
 62
7
  6
CONTINUOUS
 10
181.310887
 20
130.132066
 11
181.310887
 21
118.932066
  0
ARC
  8
1
 62
7
  6
CONTINUOUS
 10
180.510887
 20
118.932066
 40
0.800000
 50
-90.000000
 51
0.000000
  0
LINE
  8
1
 62
7
  6
CONTINUOUS
 10
180.510887
 20
118.132066
 11
169.310887
 21
118.132066
  0
LINE
  8
1
 62
7
  6
CONTINUOUS
 10
168.510887
 20
118.932066
 11
168.510887
 21
130.132066
  0
ARC
  8
1
 62
7
  6
CONTINUOUS
 10
169.310887
 20
118.932066
 40
0.800000
 50
180.000000
 51
-90.000000
  0
ARC
  8
1
 62
7
  6
CONTINUOUS
 10
169.310887
 20
112.632066
 40
0.800000
 50
90.000000
 51
180.000000
  0
LINE
  8
1
 62
7
  6
CONTINUOUS
 10
169.310887
 20
113.432066
 11
180.510887
 21
113.432066
  0
ARC
  8
1
 62
7
  6
CONTINUOUS
 10
180.510887
 20
112.632066
 40
0.800000
 50
-0.000000
 51
90.000000
  0
LINE
  8
1
 62
7
  6
CONTINUOUS
 10
181.310887
 20
112.632066
 11
181.310887
 21
101.432066
  0
ARC
  8
1
 62
7
  6
CONTINUOUS
 10
180.510887
 20
101.432066
 40
0.800000
 50
-90.000000
 51
0.000000
  0
LINE
  8
1
 62
7
  6
CONTINUOUS
 10
180.510887
 20
100.632066
 11
169.310887
 21
100.632066
  0
LINE
  8
1
 62
7
  6
CONTINUOUS
 10
168.510887
 20
101.432066
 11
168.510887
 21
112.632066
  0
ARC
  8
1
 62
7
  6
CONTINUOUS
 10
169.310887
 20
101.432066
 40
0.800000
 50
180.000000
 51
-90.000000
  0
ARC
  8
1
 62
7
  6
CONTINUOUS
 10
186.810887
 20
165.132066
 40
0.800000
 50
90.000000
 51
180.000000
  0
LINE
  8
1
 62
7
  6
CONTINUOUS
 10
186.810887
 20
165.932066
 11
198.010887
 21
165.932066
  0
ARC
  8
1
 62
7
  6
CONTINUOUS
 10
198.010887
 20
165.132066
 40
0.800000
 50
0.000000
 51
90.000000
  0
LINE
  8
1
 62
7
  6
CONTINUOUS
 10
198.810887
 20
165.132066
 11
198.810887
 21
153.932066
  0
ARC
  8
1
 62
7
  6
CONTINUOUS
 10
198.010887
 20
153.932066
 40
0.800000
 50
-90.000000
 51
0.000000
  0
LINE
  8
1
 62
7
  6
CONTINUOUS
 10
198.010887
 20
153.132066
 11
186.810887
 21
153.132066
  0
LINE
  8
1
 62
7
  6
CONTINUOUS
 10
186.010887
 20
153.932066
 11
186.010887
 21
165.132066
  0
ARC
  8
1
 62
7
  6
CONTINUOUS
 10
186.810887
 20
153.932066
 40
0.800000
 50
180.000000
 51
-90.000000
  0
ARC
  8
1
 62
7
  6
CONTINUOUS
 10
186.810887
 20
147.632066
 40
0.800000
 50
90.000000
 51
180.000000
  0
LINE
  8
1
 62
7
  6
CONTINUOUS
 10
186.810887
 20
148.432066
 11
198.010887
 21
148.432066
  0
ARC
  8
1
 62
7
  6
CONTINUOUS
 10
198.010887
 20
147.632066
 40
0.800000
 50
0.000000
 51
90.000000
  0
LINE
  8
1
 62
7
  6
CONTINUOUS
 10
198.810887
 20
147.632066
 11
198.810887
 21
136.432066
  0
ARC
  8
1
 62
7
  6
CONTINUOUS
 10
198.010887
 20
136.432066
 40
0.800000
 50
-90.000000
 51
0.000000
  0
LINE
  8
1
 62
7
  6
CONTINUOUS
 10
198.010887
 20
135.632066
 11
186.810887
 21
135.632066
  0
LINE
  8
1
 62
7
  6
CONTINUOUS
 10
186.010887
 20
136.432066
 11
186.010887
 21
147.632066
  0
ARC
  8
1
 62
7
  6
CONTINUOUS
 10
186.810887
 20
136.432066
 40
0.800000
 50
180.000000
 51
-90.000000
  0
ARC
  8
1
 62
7
  6
CONTINUOUS
 10
186.810887
 20
130.132066
 40
0.800000
 50
90.000000
 51
180.000000
  0
LINE
  8
1
 62
7
  6
CONTINUOUS
 10
186.810887
 20
130.932066
 11
198.010887
 21
130.932066
  0
ARC
  8
1
 62
7
  6
CONTINUOUS
 10
198.010887
 20
130.132066
 40
0.800000
 50
0.000000
 51
90.000000
  0
LINE
  8
1
 62
7
  6
CONTINUOUS
 10
198.810887
 20
130.132066
 11
198.810887
 21
118.932066
  0
ARC
  8
1
 62
7
  6
CONTINUOUS
 10
198.010887
 20
118.932066
 40
0.800000
 50
-90.000000
 51
0.000000
  0
LINE
  8
1
 62
7
  6
CONTINUOUS
 10
198.010887
 20
118.132066
 11
186.810887
 21
118.132066
  0
LINE
  8
1
 62
7
  6
CONTINUOUS
 10
186.010887
 20
118.932066
 11
186.010887
 21
130.132066
  0
ARC
  8
1
 62
7
  6
CONTINUOUS
 10
186.810887
 20
118.932066
 40
0.800000
 50
180.000000
 51
-90.000000
  0
ARC
  8
1
 62
7
  6
CONTINUOUS
 10
186.810887
 20
112.632066
 40
0.800000
 50
90.000000
 51
180.000000
  0
LINE
  8
1
 62
7
  6
CONTINUOUS
 10
186.810887
 20
113.432066
 11
198.010887
 21
113.432066
  0
ARC
  8
1
 62
7
  6
CONTINUOUS
 10
198.010887
 20
112.632066
 40
0.800000
 50
-0.000000
 51
90.000000
  0
LINE
  8
1
 62
7
  6
CONTINUOUS
 10
198.810887
 20
112.632066
 11
198.810887
 21
101.432066
  0
ARC
  8
1
 62
7
  6
CONTINUOUS
 10
198.010887
 20
101.432066
 40
0.800000
 50
-90.000000
 51
0.000000
  0
LINE
  8
1
 62
7
  6
CONTINUOUS
 10
198.010887
 20
100.632066
 11
186.810887
 21
100.632066
  0
LINE
  8
1
 62
7
  6
CONTINUOUS
 10
186.010887
 20
101.432066
 11
186.010887
 21
112.632066
  0
ARC
  8
1
 62
7
  6
CONTINUOUS
 10
186.810887
 20
101.432066
 40
0.800000
 50
180.000000
 51
-90.000000
  0
LINE
  8
1
 62
7
  6
CONTINUOUS
 10
160.493289
 20
86.328859
 11
154.291946
 21
86.328859
  0
LINE
  8
1
 62
7
  6
CONTINUOUS
 10
157.369128
 20
89.033557
 11
157.369128
 21
83.437733
  0
CIRCLE
  8
1
 62
7
  6
CONTINUOUS
 10
157.369128
 20
86.328859
 40
2.000000
  0
LINE
  8
1
 62
7
  6
CONTINUOUS
 10
154.104027
 20
180.328859
 11
160.159210
 21
180.328859
  0
LINE
  8
1
 62
7
  6
CONTINUOUS
 10
157.369128
 20
183.109620
 11
157.369128
 21
177.346756
  0
CIRCLE
  8
1
 62
7
  6
CONTINUOUS
 10
157.369128
 20
180.328859
 40
2.000000
  0
LINE
  8
1
 62
7
  6
CONTINUOUS
 10
130.493289
 20
86.328859
 11
124.291946
 21
86.328859
  0
LINE
  8
1
 62
7
  6
CONTINUOUS
 10
127.369128
 20
89.033557
 11
127.369128
 21
83.437733
  0
DIMENSION
  8
1
 62
7
  6
CONTINUOUS
  2
*D1
 10
157.369128
 20
72.304251
 11
142.369128
 21
72.304251
 70
     0
  1
30
 13
157.369128
 23
82.328859
 14
127.369128
 24
81.437733
 50
180.000000
  0
LINE
  8
1
 62
7
  6
CONTINUOUS
 10
124.104027
 20
180.328859
 11
130.159210
 21
180.328859
  0
LINE
  8
1
 62
7
  6
CONTINUOUS
 10
127.369128
 20
183.109620
 11
127.369128
 21
177.346756
  0
LINE
  8
1
 62
7
  6
CONTINUOUS
 10
125.369128
 20
86.328859
 11
125.369128
 21
81.328859
  0
LINE
  8
1
 62
7
  6
CONTINUOUS
 10
129.369128
 20
86.328859
 11
129.369128
 21
81.328859
  0
LINE
  8
1
 62
7
  6
CONTINUOUS
 10
129.369128
 20
180.328859
 11
129.369128
 21
185.328859
  0
LINE
  8
1
 62
7
  6
CONTINUOUS
 10
125.369128
 20
180.328859
 11
125.369128
 21
185.328859
  0
ARC
  8
1
 62
7
  6
CONTINUOUS
 10
127.369128
 20
180.328859
 40
2.000000
 50
180.000000
 51
0.000000
  0
ARC
  8
1
 62
7
  6
CONTINUOUS
 10
127.369128
 20
86.328859
 40
2.000000
 50
0.000000
 51
180.000000
  0
LINE
  8
1
 62
7
  6
CONTINUOUS
 10
190.521626
 20
86.328859
 11
184.508203
 21
86.328859
  0
LINE
  8
1
 62
7
  6
CONTINUOUS
 10
187.369128
 20
89.117077
 11
187.369128
 21
82.936614
  0
DIMENSION
  8
1
 62
7
  6
CONTINUOUS
  2
*D2
 10
187.369128
 20
72.304251
 11
172.369128
 21
72.304251
 70
     0
  1
30
 13
187.369128
 23
80.936614
 14
157.369128
 24
81.437733
 50
180.000000
  0
LINE
  8
1
 62
7
  6
CONTINUOUS
 10
184.508203
 20
180.328859
 11
190.855705
 21
180.328859
  0
LINE
  8
1
 62
7
  6
CONTINUOUS
 10
187.369128
 20
183.527218
 11
187.369128
 21
177.263236
  0
LINE
  8
1
 62
7
  6
CONTINUOUS
 10
185.369128
 20
86.328859
 11
185.369128
 21
81.328859
  0
LINE
  8
1
 62
7
  6
CONTINUOUS
 10
189.369128
 20
86.328859
 11
189.369128
 21
81.328859
  0
LINE
  8
1
 62
7
  6
CONTINUOUS
 10
189.369128
 20
180.328859
 11
189.369128
 21
185.328859
  0
LINE
  8
1
 62
7
  6
CONTINUOUS
 10
185.369128
 20
180.328859
 11
185.369128
 21
185.328859
  0
ARC
  8
1
 62
7
  6
CONTINUOUS
 10
187.369128
 20
180.328859
 40
2.000000
 50
180.000000
 51
0.000000
  0
ARC
  8
1
 62
7
  6
CONTINUOUS
 10
187.369128
 20
86.328859
 40
2.000000
 50
0.000000
 51
180.000000
  0
LINE
  8
1
 62
7
  6
CONTINUOUS
 10
129.369128
 20
185.328859
 11
185.369128
 21
185.328859
  0
LINE
  8
1
 62
7
  6
CONTINUOUS
 10
185.369128
 20
81.328859
 11
129.369128
 21
81.328859
  0
ARC
  8
1
 62
7
  6
CONTINUOUS
 10
108.369128
 20
84.328859
 40
3.000000
 50
180.000000
 51
-90.000000
  0
LINE
  8
1
 62
7
  6
CONTINUOUS
 10
105.369128
 20
84.328859
 11
105.369128
 21
182.328859
  0
ARC
  8
1
 62
7
  6
CONTINUOUS
 10
108.369128
 20
182.328859
 40
3.000000
 50
90.000000
 51
180.000000
  0
LINE
  8
1
 62
7
  6
CONTINUOUS
 10
108.369128
 20
185.328859
 11
125.369128
 21
185.328859
  0
LINE
  8
1
 62
7
  6
CONTINUOUS
 10
125.369128
 20
81.328859
 11
108.369128
 21
81.328859
  0
ARC
  8
1
 62
7
  6
CONTINUOUS
 10
206.369128
 20
84.328859
 40
3.000000
 50
-90.000000
 51
0.000000
  0
LINE
  8
1
 62
7
  6
CONTINUOUS
 10
209.369128
 20
182.328859
 11
209.369128
 21
84.328859
  0
ARC
  8
1
 62
7
  6
CONTINUOUS
 10
206.369128
 20
182.328859
 40
3.000000
 50
0.000000
 51
90.000000
  0
LINE
  8
1
 62
7
  6
CONTINUOUS
 10
189.369128
 20
185.328859
 11
206.369128
 21
185.328859
  0
LINE
  8
1
 62
7
  6
CONTINUOUS
 10
206.369128
 20
81.328859
 11
189.369128
 21
81.328859
  0
DIMENSION
  8
1
 62
7
  6
CONTINUOUS
  2
*D3
 10
209.369128
 20
62.250559
 11
157.369128
 21
62.250559
 70
     0
  1
104
 13
209.369128
 23
82.328859
 14
105.369128
 24
82.328859
 50
180.000000
  0
LINE
  8
1
 62
7
  6
CONTINUOUS
 10
107.439597
 20
93.345638
 11
107.439597
 21
173.345638
  0
LINE
  8
1
 62
7
  6
CONTINUOUS
 10
207.439597
 20
93.345638
 11
107.439597
 21
93.345638
  0
LINE
  8
1
 62
7
  6
CONTINUOUS
 10
207.439597
 20
93.345638
 11
207.439597
 21
173.345638
  0
LINE
  8
1
 62
7
  6
CONTINUOUS
 10
107.439597
 20
173.345638
 11
207.439597
 21
173.345638
  0
DIMENSION
  8
1
 62
7
  6
CONTINUOUS
  2
*D4
 10
107.439597
 20
67.369128
 11
157.439597
 21
67.369128
 70
     0
  1
100
 13
107.439597
 23
91.345638
 14
207.439597
 24
91.345638
 50
0.000000
  0
DIMENSION
  8
1
 62
7
  6
CONTINUOUS
  2
*D5
 10
85.738255
 20
81.328859
 11
85.738255
 21
133.328859
 70
     0
  1
104
 13
106.369128
 23
81.328859
 14
106.369128
 24
185.328859
 50
90.000000
  0
LINE
  8
1
 62
7
  6
CONTINUOUS
 10
105.369128
 20
175.328859
 11
209.369128
 21
175.328859
  0
LINE
  8
1
 62
7
  6
CONTINUOUS
 10
209.369128
 20
91.328859
 11
105.369128
 21
91.328859
  0
DIMENSION
  8
1
 62
7
  6
CONTINUOUS
  2
*D6
 10
90.545861
 20
86.328859
 11
90.545861
 21
133.328859
 70
     0
  1
94
 13
123.369128
 23
86.328859
 14
122.104027
 24
180.328859
 50
90.000000
  0
DIMENSION
  8
1
 62
7
  6
CONTINUOUS
  2
*D7
 10
95.337808
 20
91.328859
 11
95.337808
 21
133.328859
 70
     0
  1
84
 13
103.369128
 23
91.328859
 14
103.369128
 24
175.328859
 50
90.000000
  0
DIMENSION
  8
1
 62
7
  6
CONTINUOUS
  2
*D8
 10
217.673378
 20
93.345638
 11
217.673378
 21
133.345638
 70
     0
  1
80
 13
209.439597
 23
93.345638
 14
209.439597
 24
173.345638
 50
90.000000
  0
ARC
  8
1
 62
7
  6
CONTINUOUS
 10
108.139597
 20
50.377330
 40
1.200000
 50
90.000000
 51
180.000000
  0
ARC
  8
1
 62
7
  6
CONTINUOUS
 10
209.739597
 20
50.377330
 40
1.200000
 50
0.000000
 51
90.000000
  0
LINE
  8
1
 62
7
  6
CONTINUOUS
 10
108.139597
 20
51.577330
 11
209.739597
 21
51.577330
  0
LINE
  8
1
 62
7
  6
CONTINUOUS
 10
108.139597
 20
51.577330
 11
108.139597
 21
52.075131
  0
LINE
  8
1
 62
7
  6
CONTINUOUS
 10
108.139597
 20
52.075131
 11
209.872069
 21
52.075131
  0
LINE
  8
1
 62
7
  6
CONTINUOUS
 10
209.872069
 20
52.075131
 11
209.872069
 21
51.577330
  0
LINE
  8
1
 62
7
  6
CONTINUOUS
 10
209.872069
 20
51.577330
 11
108.139597
 21
51.577330
  0
LINE
  8
1
 62
7
  6
CONTINUOUS
 10
106.939597
 20
40.377330
 11
106.939597
 21
50.377330
  0
LINE
  8
1
 62
7
  6
CONTINUOUS
 10
106.939597
 20
40.377330
 11
210.939597
 21
40.377330
  0
LINE
  8
1
 62
7
  6
CONTINUOUS
 10
210.939597
 20
40.377330
 11
210.939597
 21
50.377330
  0
LINE
  8
1
 62
7
  6
CONTINUOUS
 10
145.060403
 20
40.377330
 11
145.060403
 21
35.756152
  0
LINE
  8
1
 62
7
  6
CONTINUOUS
 10
145.060403
 20
35.756152
 11
168.174497
 21
35.756152
  0
LINE
  8
1
 62
7
  6
CONTINUOUS
 10
168.174497
 20
35.756152
 11
168.174497
 21
40.377330
  0
LINE
  8
1
 62
7
  6
CONTINUOUS
 10
168.174497
 20
40.377330
 11
145.060403
 21
40.377330
  0
LINE
  8
1
 62
7
  6
CONTINUOUS
 10
143.369128
 20
40.377330
 11
143.369128
 21
32.530201
  0
LINE
  8
1
 62
7
  6
CONTINUOUS
 10
143.369128
 20
32.530201
 11
145.123043
 21
32.530201
  0
LINE
  8
1
 62
7
  6
CONTINUOUS
 10
145.123043
 20
32.530201
 11
145.123043
 21
40.377330
  0
LINE
  8
1
 62
7
  6
CONTINUOUS
 10
145.123043
 20
40.377330
 11
143.369128
 21
40.377330
  0
LINE
  8
1
 62
7
  6
CONTINUOUS
 10
168.174497
 20
40.377330
 11
168.174497
 21
32.530201
  0
LINE
  8
1
 62
7
  6
CONTINUOUS
 10
168.174497
 20
32.530201
 11
169.928412
 21
32.530201
  0
LINE
  8
1
 62
7
  6
CONTINUOUS
 10
169.928412
 20
32.530201
 11
169.928412
 21
40.377330
  0
LINE
  8
1
 62
7
  6
CONTINUOUS
 10
169.928412
 20
40.377330
 11
168.174497
 21
40.377330
  0
LINE
  8
1
 62
7
  6
CONTINUOUS
 10
147.127517
 20
35.756152
 11
147.127517
 21
30.901566
  0
LINE
  8
1
 62
7
  6
CONTINUOUS
 10
147.127517
 20
30.901566
 11
148.630872
 21
30.901566
  0
LINE
  8
1
 62
7
  6
CONTINUOUS
 10
148.630872
 20
30.901566
 11
148.630872
 21
35.756152
  0
LINE
  8
1
 62
7
  6
CONTINUOUS
 10
148.630872
 20
35.756152
 11
147.127517
 21
35.756152
  0
LINE
  8
1
 62
7
  6
CONTINUOUS
 10
149.627517
 20
35.756152
 11
149.627517
 21
30.901566
  0
LINE
  8
1
 62
7
  6
CONTINUOUS
 10
149.627517
 20
30.901566
 11
151.130872
 21
30.901566
  0
LINE
  8
1
 62
7
  6
CONTINUOUS
 10
151.130872
 20
30.901566
 11
151.130872
 21
35.756152
  0
LINE
  8
1
 62
7
  6
CONTINUOUS
 10
151.130872
 20
35.756152
 11
149.627517
 21
35.756152
  0
LINE
  8
1
 62
7
  6
CONTINUOUS
 10
152.127517
 20
35.756152
 11
152.127517
 21
30.901566
  0
LINE
  8
1
 62
7
  6
CONTINUOUS
 10
152.127517
 20
30.901566
 11
153.630872
 21
30.901566
  0
LINE
  8
1
 62
7
  6
CONTINUOUS
 10
153.630872
 20
30.901566
 11
153.630872
 21
35.756152
  0
LINE
  8
1
 62
7
  6
CONTINUOUS
 10
153.630872
 20
35.756152
 11
152.127517
 21
35.756152
  0
LINE
  8
1
 62
7
  6
CONTINUOUS
 10
154.627517
 20
35.756152
 11
154.627517
 21
30.901566
  0
LINE
  8
1
 62
7
  6
CONTINUOUS
 10
154.627517
 20
30.901566
 11
156.130872
 21
30.901566
  0
LINE
  8
1
 62
7
  6
CONTINUOUS
 10
156.130872
 20
30.901566
 11
156.130872
 21
35.756152
  0
LINE
  8
1
 62
7
  6
CONTINUOUS
 10
156.130872
 20
35.756152
 11
154.627517
 21
35.756152
  0
LINE
  8
1
 62
7
  6
CONTINUOUS
 10
157.127517
 20
35.756152
 11
157.127517
 21
30.901566
  0
LINE
  8
1
 62
7
  6
CONTINUOUS
 10
157.127517
 20
30.901566
 11
158.630872
 21
30.901566
  0
LINE
  8
1
 62
7
  6
CONTINUOUS
 10
158.630872
 20
30.901566
 11
158.630872
 21
35.756152
  0
LINE
  8
1
 62
7
  6
CONTINUOUS
 10
158.630872
 20
35.756152
 11
157.127517
 21
35.756152
  0
LINE
  8
1
 62
7
  6
CONTINUOUS
 10
159.627517
 20
35.756152
 11
159.627517
 21
30.901566
  0
LINE
  8
1
 62
7
  6
CONTINUOUS
 10
159.627517
 20
30.901566
 11
161.130872
 21
30.901566
  0
LINE
  8
1
 62
7
  6
CONTINUOUS
 10
161.130872
 20
30.901566
 11
161.130872
 21
35.756152
  0
LINE
  8
1
 62
7
  6
CONTINUOUS
 10
161.130872
 20
35.756152
 11
159.627517
 21
35.756152
  0
LINE
  8
1
 62
7
  6
CONTINUOUS
 10
162.127517
 20
35.756152
 11
162.127517
 21
30.901566
  0
LINE
  8
1
 62
7
  6
CONTINUOUS
 10
162.127517
 20
30.901566
 11
163.630872
 21
30.901566
  0
LINE
  8
1
 62
7
  6
CONTINUOUS
 10
163.630872
 20
30.901566
 11
163.630872
 21
35.756152
  0
LINE
  8
1
 62
7
  6
CONTINUOUS
 10
163.630872
 20
35.756152
 11
162.127517
 21
35.756152
  0
LINE
  8
1
 62
7
  6
CONTINUOUS
 10
164.627517
 20
35.756152
 11
164.627517
 21
30.901566
  0
LINE
  8
1
 62
7
  6
CONTINUOUS
 10
164.627517
 20
30.901566
 11
166.130872
 21
30.901566
  0
LINE
  8
1
 62
7
  6
CONTINUOUS
 10
166.130872
 20
30.901566
 11
166.130872
 21
35.756152
  0
LINE
  8
1
 62
7
  6
CONTINUOUS
 10
166.130872
 20
35.756152
 11
164.627517
 21
35.756152
  0
ARC
  8
1
 62
7
  6
DOT
 10
163.919463
 20
23.377330
 40
2.000000
 50
-90.000000
 51
-0.000000
  0
LINE
  8
1
 62
7
  6
DOT
 10
165.919463
 20
26.892617
 11
165.919463
 21
23.377330
  0
LINE
  8
1
 62
7
  6
DOT
 10
163.919463
 20
21.377330
 11
123.073826
 21
21.377330
  0
ARC
  8
1
 62
7
  6
DOT
 10
145.127517
 20
25.510067
 40
2.000000
 50
-90.000000
 51
-0.000000
  0
LINE
  8
1
 62
7
  6
DOT
 10
147.127517
 20
26.892617
 11
147.127517
 21
25.510067
  0
LINE
  8
1
 62
7
  6
DOT
 10
145.127517
 20
23.510067
 11
123.199105
 21
23.510067
  0
LINE
  8
1
 62
7
  6
DOT
 10
145.123043
 20
35.756152
 11
145.123043
 21
26.892617
  0
LINE
  8
1
 62
7
  6
DOT
 10
145.123043
 20
26.892617
 11
168.174497
 21
26.892617
  0
LINE
  8
1
 62
7
  6
DOT
 10
168.174497
 20
26.892617
 11
168.174497
 21
35.756152
  0
LINE
  8
1
 62
7
  6
DOT
 10
168.174497
 20
35.756152
 11
145.123043
 21
35.756152
  0
LINE
  8
1
 62
7
  6
CONTINUOUS
 10
106.939597
 20
41.577330
 11
210.939597
 21
41.577330
  0
DIMENSION
  8
1
 62
7
  6
CONTINUOUS
  2
*D9
 10
95.275168
 20
51.577330
 11
95.275168
 21
51.826231
 70
     0
  1
0.5
 13
106.139597
 23
51.577330
 14
106.139597
 24
52.075131
 50
90.000000
  0
DIMENSION
  8
1
 62
7
  6
CONTINUOUS
  2
*D10
 10
95.087248
 20
40.377330
 11
95.087248
 21
40.977330
 70
     0
  1
1.2
 13
94.939597
 23
40.377330
 14
94.939597
 24
41.577330
 50
90.000000
  0
DIMENSION
  8
1
 62
7
  6
CONTINUOUS
  2
*D11
 10
87.946309
 20
40.377330
 11
87.946309
 21
46.226231
 70
     0
  1
11.7
 13
94.939597
 23
40.377330
 14
106.139597
 24
52.075131
 50
90.000000
  0
DIMENSION
  8
1
 62
7
  6
CONTINUOUS
  2
*D12
 10
87.946309
 20
21.377330
 11
87.946309
 21
30.877330
 70
     0
  1
19
 13
99.084652
 23
21.377330
 14
94.939597
 24
40.377330
 50
90.000000
  0
LINE
  8
1
 62
7
  6
CONTINUOUS
 10
95.087248
 20
41.577330
 11
105.861298
 21
41.577330
  0
LINE
  8
1
 62
7
  6
CONTINUOUS
 10
95.087248
 20
40.377330
 11
105.861298
 21
40.377330
  0
LINE
  8
1
 62
7
  6
CONTINUOUS
 10
99.084652
 20
21.377330
 11
120.644295
 21
21.377330
  0
DIMENSION
  8
1
 62
7
  6
CONTINUOUS
  2
*D13
 10
122.617450
 20
191.677852
 11
131.367450
 21
191.677852
 70
     0
  1
17.5
 13
122.617450
 23
171.168456
 14
140.117450
 24
171.168456
 50
0.000000
  0
LINE
  8
1
 62
7
  6
CONTINUOUS
 10
158.576966
 20
181.922950
 11
163.646532
 21
190.393736
  0
LINE
  8
1
 62
7
  6
CONTINUOUS
 10
163.646532
 20
190.393736
 11
168.146532
 21
190.393736
  0
TEXT
  8
1
 62
7
  6
CONTINUOUS
 10
163.646532
 20
190.393736
 40
3.000000
 41
0.750000
  1
φ4
  7
KANJI
 50
0.000000
 51
30.000000
  0
LINE
  8
1
 62
7
  6
CONTINUOUS
 10
158.576966
 20
181.922950
 11
159.398820
 21
184.808181
  0
LINE
  8
1
 62
7
  6
CONTINUOUS
 10
158.576966
 20
181.922950
 11
160.731328
 21
184.010706
  0
LINE
  8
1
 62
7
  6
CONTINUOUS
 10
185.369128
 20
185.328859
 11
185.369128
 21
191.208054
  0
LINE
  8
1
 62
7
  6
CONTINUOUS
 10
189.369128
 20
185.328859
 11
189.369128
 21
191.771812
  0
LINE
  8
1
 62
7
  6
CONTINUOUS
 10
185.369128
 20
189.516779
 11
181.505424
 21
188.481502
  0
LINE
  8
1
 62
7
  6
CONTINUOUS
 10
185.369128
 20
189.516779
 11
181.505424
 21
190.552055
  0
LINE
  8
1
 62
7
  6
CONTINUOUS
 10
185.369128
 20
189.516779
 11
183.148397
 21
189.516779
  0
LINE
  8
1
 62
7
  6
CONTINUOUS
 10
189.369128
 20
189.516779
 11
193.232831
 21
190.552055
  0
LINE
  8
1
 62
7
  6
CONTINUOUS
 10
189.369128
 20
189.516779
 11
193.232831
 21
188.481502
  0
LINE
  8
1
 62
7
  6
CONTINUOUS
 10
189.369128
 20
189.516779
 11
194.173005
 21
189.516779
  0
LINE
  8
1
 62
7
  6
CONTINUOUS
 10
179.891126
 20
189.516779
 11
199.163311
 21
189.516779
  0
TEXT
  8
1
 62
7
  6
CONTINUOUS
 10
195.592841
 20
189.516779
 40
3.000000
 41
0.500000
  1
2R
  7
KANJI
 50
0.000000
 51
0.000000
  0
LINE
  8
1
 62
7
  6
CONTINUOUS
 10
127.369128
 20
43.691275
 11
127.369128
 21
37.489933
  0
LINE
  8
1
 62
7
  6
CONTINUOUS
 10
187.369128
 20
43.315436
 11
187.369128
 21
38.617450
  0
LINE
  8
1
 62
7
  6
CONTINUOUS
 10
189.369128
 20
41.577330
 11
189.369128
 21
40.377330
  0
LINE
  8
1
 62
7
  6
CONTINUOUS
 10
185.369128
 20
41.577330
 11
185.369128
 21
40.377330
  0
LINE
  8
1
 62
7
  6
CONTINUOUS
 10
129.369128
 20
41.577330
 11
129.369128
 21
40.377330
  0
LINE
  8
1
 62
7
  6
CONTINUOUS
 10
125.369128
 20
41.577330
 11
125.369128
 21
40.377330
  0
LINE
  8
1
 62
7
  6
DASHDOT
 10
157.369128
 20
26.892617
 11
157.369128
 21
54.402685
  0
ARC
  8
1
 62
7
  6
CONTINUOUS
 10
151.810887
 20
112.632066
 40
0.800000
 50
90.000000
 51
180.000000
  0
LINE
  8
1
 62
7
  6
CONTINUOUS
 10
151.810887
 20
113.432066
 11
163.010887
 21
113.432066
  0
ARC
  8
1
 62
7
  6
CONTINUOUS
 10
163.010887
 20
112.632066
 40
0.800000
 50
-0.000000
 51
90.000000
  0
LINE
  8
1
 62
7
  6
CONTINUOUS
 10
163.810887
 20
112.632066
 11
163.810887
 21
101.432066
  0
ARC
  8
1
 62
7
  6
CONTINUOUS
 10
163.010887
 20
101.432066
 40
0.800000
 50
-90.000000
 51
0.000000
  0
LINE
  8
1
 62
7
  6
CONTINUOUS
 10
151.010887
 20
101.432066
 11
151.010887
 21
112.632066
  0
ARC
  8
1
 62
7
  6
CONTINUOUS
 10
151.810887
 20
101.432066
 40
0.800000
 50
180.000000
 51
-90.000000
  0
LINE
  8
1
 62
7
  6
CONTINUOUS
 10
163.010887
 20
100.632066
 11
151.810887
 21
100.632066
  0
TEXT
  8
1
 62
7
  6
CONTINUOUS
 10
177.146035
 20
102.534427
 40
6.000000
 41
0.500000
  1
4
  7
KANJI
 50
0.000000
 51
0.000000
  0
TEXT
  8
1
 62
7
  6
CONTINUOUS
 10
194.646035
 20
102.534427
 40
6.000000
 41
0.500000
  1
5
  7
KANJI
 50
0.000000
 51
0.000000
  0
TEXT
  8
1
 62
7
  6
CONTINUOUS
 10
124.833955
 20
120.198857
 40
6.000000
 41
0.500000
  1
6
  7
KANJI
 50
0.000000
 51
0.000000
  0
TEXT
  8
1
 62
7
  6
CONTINUOUS
 10
142.333955
 20
120.198857
 40
6.000000
 41
0.500000
  1
7
  7
KANJI
 50
0.000000
 51
0.000000
  0
TEXT
  8
1
 62
7
  6
CONTINUOUS
 10
159.833955
 20
120.198857
 40
6.000000
 41
0.500000
  1
8
  7
KANJI
 50
0.000000
 51
0.000000
  0
TEXT
  8
1
 62
7
  6
CONTINUOUS
 10
177.333955
 20
120.198857
 40
6.000000
 41
0.500000
  1
9
  7
KANJI
 50
0.000000
 51
0.000000
  0
TEXT
  8
1
 62
7
  6
CONTINUOUS
 10
139.828362
 20
137.738006
 40
6.000000
 41
0.500000
  1
12
  7
KANJI
 50
0.000000
 51
0.000000
  0
TEXT
  8
1
 62
7
  6
CONTINUOUS
 10
157.328362
 20
137.738006
 40
6.000000
 41
0.500000
  1
13
  7
KANJI
 50
0.000000
 51
0.000000
  0
TEXT
  8
1
 62
7
  6
CONTINUOUS
 10
174.828362
 20
137.738006
 40
6.000000
 41
0.500000
  1
14
  7
KANJI
 50
0.000000
 51
0.000000
  0
TEXT
  8
1
 62
7
  6
CONTINUOUS
 10
192.328362
 20
137.738006
 40
6.000000
 41
0.500000
  1
15
  7
KANJI
 50
0.000000
 51
0.000000
  0
TEXT
  8
1
 62
7
  6
CONTINUOUS
 10
122.077803
 20
153.711161
 40
6.000000
 41
0.500000
  1
16
  7
KANJI
 50
0.000000
 51
0.000000
  0
TEXT
  8
1
 62
7
  6
CONTINUOUS
 10
139.577803
 20
153.711161
 40
6.000000
 41
0.500000
  1
17
  7
KANJI
 50
0.000000
 51
0.000000
  0
TEXT
  8
1
 62
7
  6
CONTINUOUS
 10
157.077803
 20
153.711161
 40
6.000000
 41
0.500000
  1
18
  7
KANJI
 50
0.000000
 51
0.000000
  0
TEXT
  8
1
 62
7
  6
CONTINUOUS
 10
174.577803
 20
153.711161
 40
6.000000
 41
0.500000
  1
19
  7
KANJI
 50
0.000000
 51
0.000000
  0
TEXT
  8
1
 62
7
  6
CONTINUOUS
 10
192.077803
 20
153.711161
 40
6.000000
 41
0.500000
  1
20
  7
KANJI
 50
0.000000
 51
0.000000
  0
TEXT
  8
1
 62
7
  6
CONTINUOUS
 10
192.015163
 20
120.386776
 40
6.000000
 41
0.500000
  1
10
  7
KANJI
 50
0.000000
 51
0.000000
  0
TEXT
  8
1
 62
7
  6
CONTINUOUS
 10
122.578921
 20
138.051206
 40
6.000000
 41
0.500000
  1
11
  7
KANJI
 50
0.000000
 51
0.000000
  0
TEXT
  8
1
 62
7
  6
CONTINUOUS
 10
245.234899
 20
13.248322
 40
6.000000
 41
0.500000
  1
CFB-V20
  7
KANJI
 50
0.000000
 51
0.000000
  0
ENDSEC
  0
EOF
