  0
SECTION
  2
HEADER
  9
$ACADVER
  1
AC1009
  9
$INSBASE
 10
0.000000
 20
0.000000
  9
$EXTMIN
 10
0.000000
 20
0.000000
  9
$EXTMAX
 10
297.000000
 20
210.000000
  9
$LIMMIN
 10
0.000000
 20
0.000000
  9
$LIMMAX
 10
297.000000
 20
210.000000
  9
$VIEWCTR
 10
148.500000
 20
105.000000
  9
$VIEWSIZE
 40
210.000000
  9
$PEXTMIN
 10
0.000000
 20
0.000000
 30
0.000000
  9
$PEXTMAX
 10
297.000000
 20
210.000000
 30
0.000000
  9
$SNAPMODE
 70
     0
  9
$SNAPUNIT
 10
1.000000
 20
1.000000
  9
$SNAPBASE
 10
0.000000
 20
0.000000
  9
$SNAPANG
 50
0.000000
  9
$SNAPISOPAIR
 70
     0
  9
$SNAPSTYLE
 70
     0
  9
$GRIDMODE
 70
     0
  9
$GRIDUNIT
 10
0.000000
 20
0.000000
  9
$ORTHOMODE
 70
     0
  9
$REGENMODE
 70
     1
  9
$FILLMODE
 70
     1
  9
$QTEXTMODE
 70
     0
  9
$DRAGMODE
 70
     2
  9
$LTSCALE
 40
0.250000
  9
$OSMODE
 70
     0
  9
$ATTMODE
 70
     1
  9
$TEXTSIZE
 40
3.000000
  9
$TRACEWID
 40
0.050000
  9
$TEXTSTYLE
  7
STANDARD
  9
$CLAYER
  8
0
  9
$CELTYPE
  6
BYLAYER
  9
$CECOLOR
 62
   256
  9
$DIMSCALE
 40
1.000000
  9
$DIMASZ
 40
1.000000
  9
$DIMEXO
 40
0.000000
  9
$DIMDLI
 40
0.500000
  9
$DIMRND
 40
0.000000
  9
$DIMDLE
 40
0.000000
  9
$DIMEXE
 40
0.000000
  9
$DIMTP
 40
0.000000
  9
$DIMTM
 40
0.000000
  9
$DIMTXT
 40
3.000000
  9
$DIMCEN
 40
0.000000
  9
$DIMTSZ
 40
0.000000
  9
$DIMTOL
 70
     0
  9
$DIMLIM
 70
     0
  9
$DIMTIH
 70
     1
  9
$DIMTOH
 70
     1
  9
$DIMSE1
 70
     0
  9
$DIMSE2
 70
     0
  9
$DIMTAD
 70
     0
  9
$DIMZIN
 70
     0
  9
$DIMBLK
  1

  9
$DIMASO
 70
     0
  9
$DIMSHO
 70
     0
  9
$DIMPOST
  1

  9
$DIMAPOST
  1

  9
$DIMALT
 70
     0
  9
$DIMALTD
 70
     0
  9
$DIMALTF
 40
25.400000
  9
$DIMLFAC
 40
1.000000
  9
$DIMTOFL
 70
     0
  9
$DIMTVP
 40
0.000000
  9
$DIMTIX
 70
     0
  9
$DIMSOXD
 70
     0
  9
$DIMSAH
 70
     0
  9
$DIMBLKL
  1

  9
$DIMBLKR
  1

  9
$LUNITS
 70
     2
  9
$LUPREC
 70
     2
  9
$AXISMODE
 70
     0
  9
$AXISUNIT
 10
1.000000
 20
1.000000
  9
$SKETCHINC
 40
0.000000
  9
$FILLETRAD
 40
0.000000
  9
$AUNITS
 70
     1
  9
$AUPREC
 70
     2
  9
$MENU
  1
ACAD
  9
$ELEVATION
 40
0.000000
  9
$THICKNESS
 40
0.000000
  9
$VIEWDIR
 10
0.000000
 20
0.000000
 30
1.000000
  9
$LIMCHECK
 70
     1
  9
$BLIPMODE
 70
     1
  9
$CHAMFERA
 40
0.000000
  9
$CHAMFERB
 40
0.000000
  9
$FASTZOOM
 70
     1
  9
$SKPOLY
 70
     0
  9
$TDCREATE
 40
0.000000
  9
$TDUPDATE
 40
0.000000
  9
$TDINDWG
 40
0.000000
  9
$TDUSRTIMER
 40
0.000000
  9
$USRTIMER
 70
     1
  9
$ANGBASE
 50
0.000000
  9
$ANGDIR
 70
     0
  9
$PDMODE
 70
     0
  9
$PDSIZE
 40
0.000000
  9
$PLINEWID
 40
0.000000
  9
$COORDS
 70
     2
  9
$USERI1
 70
     0
  9
$USERI2
 70
     0
  9
$USERI3
 70
     0
  9
$USERI4
 70
     0
  9
$USERI5
 70
     0
  9
$USERR1
 40
0.000000
  9
$USERR2
 40
0.000000
  9
$USERR3
 40
0.000000
  9
$USERR4
 40
0.000000
  9
$USERR5
 40
0.000000
  0
ENDSEC
  0
SECTION
  2
TABLES
  0
TABLE
  2
LTYPE
 70
     5
  0
LTYPE
  2
CONTINUOUS
 70
    64
  3
Solid line
 72
    65
 73
     0
 40
0.0
  0
LTYPE
  2
HIDDEN
 70
    64
  3
------------------------
 72
    65
 73
     2
 40
12.6
 49
8.4
 49
-4.2
  0
LTYPE
  2
DOT
 70
    64
  3
････････････････････････
 72
    65
 73
     2
 40
8.0
 49
6.0
 49
-2.0
  0
LTYPE
  2
DASHDOT
 70
    64
  3
--･--･--･--･--･--･--･--
 72
    65
 73
     4
 40
50.5
 49
30.0
 49
-9.0
 49
2.5
 49
-9.0
  0
LTYPE
  2
DIVIDE
 70
    64
  3
--･･--･･--･･--･･--･･--
 72
    65
 73
     6
 40
58.0
 49
30.0
 49
-9.0
 49
2.5
 49
-5.0
 49
2.5
 49
-9.0
  0
LTYPE
  2
ACAD_ISO06W100
 70
    64
  3
____ ... ____ ... ____
 72
    65
 73
     8
 40
37.5
 49
24.0
 49
-3.0
 49
0.5
 49
-3.0
 49
0.5
 49
-3.0
 49
0.5
 49
-3.0
  0
LTYPE
  2
ACAD_ISO14W100
 70
    64
  3
__ . . . __ . . . __ . . . 
 72
    65
 73
     8
 40
25.5
 49
12.0
 49
-3.0
 49
0.5
 49
-3.0
 49
0.5
 49
-3.0
 49
0.5
 49
-3.0
  0
ENDTAB
  0
TABLE
  2
LAYER
 70
1
  0
LAYER
  2
1
 70
64
 62
7
  6
CONTINUOUS
  0
ENDTAB
  0
TABLE
  2
STYLE
 70
     2
  0
STYLE
  2
STANDARD
 70
    64
 40
0.0
 41
1.0
 50
0.0
 71
     0
 42
0.2
  3
TXT
  4

  0
STYLE
  2
KANJI
 70
    64
 40
0.0
 41
1.0
 50
0.0
 71
     0
 42
0.2
  3
TXT
  4
BIGFONT
  0
ENDTAB
  0
TABLE
  2
VIEW
 70
     0
  0
ENDTAB
  0
ENDSEC
  0
SECTION
  2
BLOCKS
  0
BLOCK
  8
1
 62
7
  6
CONTINUOUS
  2
*D1
 70
    65
 10
0.0
 20
0.0
  0
LINE
  8
1
 62
7
  6
CONTINUOUS
 10
118.006711
 20
118.177852
 11
118.006711
 21
168.177852
  0
LINE
  8
1
 62
7
  6
CONTINUOUS
 10
116.006711
 20
118.177852
 11
128.671887
 21
118.177852
  0
LINE
  8
1
 62
7
  6
CONTINUOUS
 10
116.006711
 20
168.177852
 11
130.077852
 21
168.177852
  0
LINE
  8
1
 62
7
  6
CONTINUOUS
 10
118.006711
 20
118.177852
 11
117.230254
 21
121.075630
  0
LINE
  8
1
 62
7
  6
CONTINUOUS
 10
118.006711
 20
118.177852
 11
118.783169
 21
121.075630
  0
LINE
  8
1
 62
7
  6
CONTINUOUS
 10
118.006711
 20
168.177852
 11
118.783169
 21
165.280075
  0
LINE
  8
1
 62
7
  6
CONTINUOUS
 10
118.006711
 20
168.177852
 11
117.230254
 21
165.280075
  0
TEXT
  8
1
 62
7
  6
CONTINUOUS
 10
118.006711
 20
141.677852
 40
3.000000
 41
0.500000
  1
50
  7
KANJI
 50
90.000000
 51
30.000000
  0
ENDBLK
  0
BLOCK
  8
1
 62
7
  6
CONTINUOUS
  2
*D2
 70
    65
 10
0.0
 20
0.0
  0
LINE
  8
1
 62
7
  6
CONTINUOUS
 10
113.214765
 20
101.177852
 11
113.214765
 21
185.177852
  0
LINE
  8
1
 62
7
  6
CONTINUOUS
 10
111.214765
 20
101.177852
 11
131.677852
 21
101.177852
  0
LINE
  8
1
 62
7
  6
CONTINUOUS
 10
111.214765
 20
185.177852
 11
129.677852
 21
185.177852
  0
LINE
  8
1
 62
7
  6
CONTINUOUS
 10
113.214765
 20
101.177852
 11
112.438308
 21
104.075630
  0
LINE
  8
1
 62
7
  6
CONTINUOUS
 10
113.214765
 20
101.177852
 11
113.991222
 21
104.075630
  0
LINE
  8
1
 62
7
  6
CONTINUOUS
 10
113.214765
 20
185.177852
 11
113.991222
 21
182.280075
  0
LINE
  8
1
 62
7
  6
CONTINUOUS
 10
113.214765
 20
185.177852
 11
112.438308
 21
182.280075
  0
TEXT
  8
1
 62
7
  6
CONTINUOUS
 10
113.214765
 20
141.677852
 40
3.000000
 41
0.500000
  1
84
  7
KANJI
 50
90.000000
 51
30.000000
  0
ENDBLK
  0
BLOCK
  8
1
 62
7
  6
CONTINUOUS
  2
*D3
 70
    65
 10
0.0
 20
0.0
  0
LINE
  8
1
 62
7
  6
CONTINUOUS
 10
107.577181
 20
94.677852
 11
107.577181
 21
191.677852
  0
LINE
  8
1
 62
7
  6
CONTINUOUS
 10
105.577181
 20
94.677852
 11
139.143177
 21
94.677852
  0
LINE
  8
1
 62
7
  6
CONTINUOUS
 10
105.577181
 20
191.677852
 11
139.425056
 21
191.677852
  0
LINE
  8
1
 62
7
  6
CONTINUOUS
 10
107.577181
 20
94.677852
 11
106.800724
 21
97.575630
  0
LINE
  8
1
 62
7
  6
CONTINUOUS
 10
107.577181
 20
94.677852
 11
108.353638
 21
97.575630
  0
LINE
  8
1
 62
7
  6
CONTINUOUS
 10
107.577181
 20
191.677852
 11
108.353638
 21
188.780075
  0
LINE
  8
1
 62
7
  6
CONTINUOUS
 10
107.577181
 20
191.677852
 11
106.800724
 21
188.780075
  0
TEXT
  8
1
 62
7
  6
CONTINUOUS
 10
107.577181
 20
141.677852
 40
3.000000
 41
0.500000
  1
97
  7
KANJI
 50
90.000000
 51
30.000000
  0
ENDBLK
  0
BLOCK
  8
1
 62
7
  6
CONTINUOUS
  2
*D4
 70
    65
 10
0.0
 20
0.0
  0
LINE
  8
1
 62
7
  6
CONTINUOUS
 10
109.338830
 20
26.773304
 11
109.338830
 21
45.773304
  0
LINE
  8
1
 62
7
  6
CONTINUOUS
 10
107.338830
 20
26.773304
 11
130.824067
 21
26.773304
  0
LINE
  8
1
 62
7
  6
CONTINUOUS
 10
107.338830
 20
45.773304
 11
126.677852
 21
45.773304
  0
LINE
  8
1
 62
7
  6
CONTINUOUS
 10
109.338830
 20
26.773304
 11
108.562372
 21
29.671081
  0
LINE
  8
1
 62
7
  6
CONTINUOUS
 10
109.338830
 20
26.773304
 11
110.115287
 21
29.671081
  0
LINE
  8
1
 62
7
  6
CONTINUOUS
 10
109.338830
 20
45.773304
 11
110.115287
 21
42.875526
  0
LINE
  8
1
 62
7
  6
CONTINUOUS
 10
109.338830
 20
45.773304
 11
108.562372
 21
42.875526
  0
TEXT
  8
1
 62
7
  6
CONTINUOUS
 10
109.338830
 20
34.773304
 40
3.000000
 41
0.500000
  1
19
  7
KANJI
 50
90.000000
 51
30.000000
  0
ENDBLK
  0
BLOCK
  8
1
 62
7
  6
CONTINUOUS
  2
*D5
 70
    65
 10
0.0
 20
0.0
  0
LINE
  8
1
 62
7
  6
CONTINUOUS
 10
109.338830
 20
45.773304
 11
109.338830
 21
57.470010
  0
LINE
  8
1
 62
7
  6
CONTINUOUS
 10
107.338830
 20
45.773304
 11
126.677852
 21
45.773304
  0
LINE
  8
1
 62
7
  6
CONTINUOUS
 10
107.338830
 20
57.470010
 11
137.877852
 21
57.470010
  0
LINE
  8
1
 62
7
  6
CONTINUOUS
 10
109.338830
 20
45.773304
 11
108.562372
 21
48.671081
  0
LINE
  8
1
 62
7
  6
CONTINUOUS
 10
109.338830
 20
45.773304
 11
110.115287
 21
48.671081
  0
LINE
  8
1
 62
7
  6
CONTINUOUS
 10
109.338830
 20
57.470010
 11
110.115287
 21
54.572233
  0
LINE
  8
1
 62
7
  6
CONTINUOUS
 10
109.338830
 20
57.470010
 11
108.562372
 21
54.572233
  0
TEXT
  8
1
 62
7
  6
CONTINUOUS
 10
109.338830
 20
48.621657
 40
3.000000
 41
0.500000
  1
11.7
  7
KANJI
 50
90.000000
 51
30.000000
  0
ENDBLK
  0
BLOCK
  8
1
 62
7
  6
CONTINUOUS
  2
*D6
 70
    65
 10
0.0
 20
0.0
  0
LINE
  8
1
 62
7
  6
CONTINUOUS
 10
116.563289
 20
52.973304
 11
116.563289
 21
61.470010
  0
LINE
  8
1
 62
7
  6
CONTINUOUS
 10
114.563289
 20
56.973304
 11
137.877852
 21
56.973304
  0
LINE
  8
1
 62
7
  6
CONTINUOUS
 10
114.563289
 20
57.470010
 11
137.877852
 21
57.470010
  0
LINE
  8
1
 62
7
  6
CONTINUOUS
 10
116.563289
 20
56.973304
 11
117.339746
 21
54.075526
  0
LINE
  8
1
 62
7
  6
CONTINUOUS
 10
116.563289
 20
56.973304
 11
115.786832
 21
54.075526
  0
LINE
  8
1
 62
7
  6
CONTINUOUS
 10
116.563289
 20
57.470010
 11
115.786832
 21
60.367788
  0
LINE
  8
1
 62
7
  6
CONTINUOUS
 10
116.563289
 20
57.470010
 11
117.339746
 21
60.367788
  0
TEXT
  8
1
 62
7
  6
CONTINUOUS
 10
116.563289
 20
54.971657
 40
3.000000
 41
0.500000
  1
0.5
  7
KANJI
 50
90.000000
 51
30.000000
  0
ENDBLK
  0
BLOCK
  8
1
 62
7
  6
CONTINUOUS
  2
*D7
 70
    65
 10
0.0
 20
0.0
  0
LINE
  8
1
 62
7
  6
CONTINUOUS
 10
116.563289
 20
41.773304
 11
116.563289
 21
50.973304
  0
LINE
  8
1
 62
7
  6
CONTINUOUS
 10
114.563289
 20
45.773304
 11
126.677852
 21
45.773304
  0
LINE
  8
1
 62
7
  6
CONTINUOUS
 10
114.563289
 20
46.973304
 11
126.677852
 21
46.973304
  0
LINE
  8
1
 62
7
  6
CONTINUOUS
 10
116.563289
 20
45.773304
 11
117.339746
 21
42.875526
  0
LINE
  8
1
 62
7
  6
CONTINUOUS
 10
116.563289
 20
45.773304
 11
115.786832
 21
42.875526
  0
LINE
  8
1
 62
7
  6
CONTINUOUS
 10
116.563289
 20
46.973304
 11
115.786832
 21
49.871081
  0
LINE
  8
1
 62
7
  6
CONTINUOUS
 10
116.563289
 20
46.973304
 11
117.339746
 21
49.871081
  0
TEXT
  8
1
 62
7
  6
CONTINUOUS
 10
116.563289
 20
44.123304
 40
3.000000
 41
0.500000
  1
1.2
  7
KANJI
 50
90.000000
 51
30.000000
  0
ENDBLK
  0
BLOCK
  8
1
 62
7
  6
CONTINUOUS
  2
*D8
 70
    65
 10
0.0
 20
0.0
  0
LINE
  8
1
 62
7
  6
CONTINUOUS
 10
138.677852
 20
85.093960
 11
183.677852
 21
85.093960
  0
LINE
  8
1
 62
7
  6
CONTINUOUS
 10
138.677852
 20
83.093960
 11
138.677852
 21
99.177852
  0
LINE
  8
1
 62
7
  6
CONTINUOUS
 10
183.677852
 20
83.093960
 11
183.677852
 21
99.177852
  0
LINE
  8
1
 62
7
  6
CONTINUOUS
 10
138.677852
 20
85.093960
 11
141.575630
 21
85.870417
  0
LINE
  8
1
 62
7
  6
CONTINUOUS
 10
138.677852
 20
85.093960
 11
141.575630
 21
84.317503
  0
LINE
  8
1
 62
7
  6
CONTINUOUS
 10
183.677852
 20
85.093960
 11
180.780075
 21
84.317503
  0
LINE
  8
1
 62
7
  6
CONTINUOUS
 10
183.677852
 20
85.093960
 11
180.780075
 21
85.870417
  0
TEXT
  8
1
 62
7
  6
CONTINUOUS
 10
159.677852
 20
85.093960
 40
3.000000
 41
0.500000
  1
45
  7
KANJI
 50
0.000000
 51
30.000000
  0
ENDBLK
  0
BLOCK
  8
1
 62
7
  6
CONTINUOUS
  2
*D9
 70
    65
 10
0.0
 20
0.0
  0
LINE
  8
1
 62
7
  6
CONTINUOUS
 10
133.677852
 20
80.959732
 11
188.677852
 21
80.959732
  0
LINE
  8
1
 62
7
  6
CONTINUOUS
 10
133.677852
 20
78.959732
 11
133.677852
 21
112.691275
  0
LINE
  8
1
 62
7
  6
CONTINUOUS
 10
188.677852
 20
78.959732
 11
188.677852
 21
112.879195
  0
LINE
  8
1
 62
7
  6
CONTINUOUS
 10
133.677852
 20
80.959732
 11
136.575630
 21
81.736189
  0
LINE
  8
1
 62
7
  6
CONTINUOUS
 10
133.677852
 20
80.959732
 11
136.575630
 21
80.183274
  0
LINE
  8
1
 62
7
  6
CONTINUOUS
 10
188.677852
 20
80.959732
 11
185.780075
 21
80.183274
  0
LINE
  8
1
 62
7
  6
CONTINUOUS
 10
188.677852
 20
80.959732
 11
185.780075
 21
81.736189
  0
TEXT
  8
1
 62
7
  6
CONTINUOUS
 10
159.677852
 20
80.959732
 40
3.000000
 41
0.500000
  1
55
  7
KANJI
 50
0.000000
 51
30.000000
  0
ENDBLK
  0
BLOCK
  8
1
 62
7
  6
CONTINUOUS
  2
*D10
 70
    65
 10
0.0
 20
0.0
  0
LINE
  8
1
 62
7
  6
CONTINUOUS
 10
128.677852
 20
75.885906
 11
193.677852
 21
75.885906
  0
LINE
  8
1
 62
7
  6
CONTINUOUS
 10
128.677852
 20
73.885906
 11
128.677852
 21
102.177852
  0
LINE
  8
1
 62
7
  6
CONTINUOUS
 10
193.677852
 20
73.885906
 11
193.677852
 21
102.177852
  0
LINE
  8
1
 62
7
  6
CONTINUOUS
 10
128.677852
 20
75.885906
 11
131.575630
 21
76.662363
  0
LINE
  8
1
 62
7
  6
CONTINUOUS
 10
128.677852
 20
75.885906
 11
131.575630
 21
75.109449
  0
LINE
  8
1
 62
7
  6
CONTINUOUS
 10
193.677852
 20
75.885906
 11
190.780075
 21
75.109449
  0
LINE
  8
1
 62
7
  6
CONTINUOUS
 10
193.677852
 20
75.885906
 11
190.780075
 21
76.662363
  0
TEXT
  8
1
 62
7
  6
CONTINUOUS
 10
159.677852
 20
75.885906
 40
3.000000
 41
0.500000
  1
65
  7
KANJI
 50
0.000000
 51
30.000000
  0
ENDBLK
  0
BLOCK
  8
1
 62
7
  6
CONTINUOUS
  2
*D11
 70
    65
 10
0.0
 20
0.0
  0
LINE
  8
1
 62
7
  6
CONTINUOUS
 10
151.300418
 20
88.486950
 11
172.304996
 21
88.486950
  0
LINE
  8
1
 62
7
  6
CONTINUOUS
 10
151.300418
 20
86.486950
 11
151.300418
 21
107.450410
  0
LINE
  8
1
 62
7
  6
CONTINUOUS
 10
172.304996
 20
86.486950
 11
172.304996
 21
107.617450
  0
LINE
  8
1
 62
7
  6
CONTINUOUS
 10
151.300418
 20
88.486950
 11
154.198195
 21
89.263407
  0
LINE
  8
1
 62
7
  6
CONTINUOUS
 10
151.300418
 20
88.486950
 11
154.198195
 21
87.710493
  0
LINE
  8
1
 62
7
  6
CONTINUOUS
 10
172.304996
 20
88.486950
 11
169.407219
 21
87.710493
  0
LINE
  8
1
 62
7
  6
CONTINUOUS
 10
172.304996
 20
88.486950
 11
169.407219
 21
89.263407
  0
TEXT
  8
1
 62
7
  6
CONTINUOUS
 10
160.302707
 20
88.486950
 40
3.000000
 41
0.500000
  1
21
  7
KANJI
 50
0.000000
 51
30.000000
  0
ENDBLK
  0
ENDSEC
  0
SECTION
  2
ENTITIES
  0
LINE
  8
1
 62
7
  6
CONTINUOUS
 10
188.677852
 20
171.630872
 11
188.677852
 21
165.325130
  0
LINE
  8
1
 62
7
  6
CONTINUOUS
 10
188.677852
 20
120.976137
 11
188.677852
 21
114.879195
  0
LINE
  8
1
 62
7
  6
CONTINUOUS
 10
133.677852
 20
114.691275
 11
133.677852
 21
121.059657
  0
LINE
  8
1
 62
7
  6
CONTINUOUS
 10
133.677852
 20
165.158091
 11
133.677852
 21
171.818792
  0
LINE
  8
1
 62
7
  6
CONTINUOUS
 10
136.935869
 20
168.177852
 11
130.588367
 21
168.177852
  0
LINE
  8
1
 62
7
  6
CONTINUOUS
 10
136.601790
 20
118.177852
 11
130.671887
 21
118.177852
  0
LINE
  8
1
 62
7
  6
CONTINUOUS
 10
191.891872
 20
118.177852
 11
185.544370
 21
118.177852
  0
LINE
  8
1
 62
7
  6
CONTINUOUS
 10
191.808352
 20
168.177852
 11
185.293811
 21
168.177852
  0
LINE
  8
1
 62
7
  6
CONTINUOUS
 10
138.677852
 20
101.177852
 11
138.677852
 21
185.177852
  0
LINE
  8
1
 62
7
  6
CONTINUOUS
 10
183.677852
 20
185.177852
 11
183.677852
 21
101.177852
  0
ARC
  8
1
 62
7
  6
CONTINUOUS
 10
131.677852
 20
104.177852
 40
3.000000
 50
180.000000
 51
-90.000000
  0
LINE
  8
1
 62
7
  6
CONTINUOUS
 10
128.677852
 20
104.177852
 11
128.677852
 21
182.177852
  0
LINE
  8
1
 62
7
  6
CONTINUOUS
 10
190.677852
 20
101.177852
 11
131.677852
 21
101.177852
  0
ARC
  8
1
 62
7
  6
CONTINUOUS
 10
190.677852
 20
104.177852
 40
3.000000
 50
-90.000000
 51
0.000000
  0
LINE
  8
1
 62
7
  6
CONTINUOUS
 10
193.677852
 20
182.177852
 11
193.677852
 21
104.177852
  0
ARC
  8
1
 62
7
  6
CONTINUOUS
 10
190.677852
 20
182.177852
 40
3.000000
 50
0.000000
 51
90.000000
  0
LINE
  8
1
 62
7
  6
CONTINUOUS
 10
131.677852
 20
185.177852
 11
190.677852
 21
185.177852
  0
ARC
  8
1
 62
7
  6
CONTINUOUS
 10
131.677852
 20
182.177852
 40
3.000000
 50
90.000000
 51
180.000000
  0
ARC
  8
1
 62
7
  6
CONTINUOUS
 10
145.485384
 20
174.964280
 40
0.800000
 50
90.000000
 51
180.000000
  0
LINE
  8
1
 62
7
  6
CONTINUOUS
 10
145.485384
 20
175.764280
 11
156.685384
 21
175.764280
  0
ARC
  8
1
 62
7
  6
CONTINUOUS
 10
156.685384
 20
174.964280
 40
0.800000
 50
-0.000000
 51
90.000000
  0
LINE
  8
1
 62
7
  6
CONTINUOUS
 10
157.485384
 20
174.964280
 11
157.485384
 21
163.764280
  0
ARC
  8
1
 62
7
  6
CONTINUOUS
 10
156.685384
 20
163.764280
 40
0.800000
 50
-90.000000
 51
0.000000
  0
LINE
  8
1
 62
7
  6
CONTINUOUS
 10
156.685384
 20
162.964280
 11
145.485384
 21
162.964280
  0
LINE
  8
1
 62
7
  6
CONTINUOUS
 10
144.685384
 20
163.764280
 11
144.685384
 21
174.964280
  0
ARC
  8
1
 62
7
  6
CONTINUOUS
 10
145.485384
 20
163.764280
 40
0.800000
 50
180.000000
 51
-90.000000
  0
ARC
  8
1
 62
7
  6
CONTINUOUS
 10
145.485384
 20
157.464280
 40
0.800000
 50
90.000000
 51
180.000000
  0
LINE
  8
1
 62
7
  6
CONTINUOUS
 10
145.485384
 20
158.264280
 11
156.685384
 21
158.264280
  0
ARC
  8
1
 62
7
  6
CONTINUOUS
 10
156.685384
 20
157.464280
 40
0.800000
 50
-0.000000
 51
90.000000
  0
LINE
  8
1
 62
7
  6
CONTINUOUS
 10
157.485384
 20
157.464280
 11
157.485384
 21
146.264280
  0
ARC
  8
1
 62
7
  6
CONTINUOUS
 10
156.685384
 20
146.264280
 40
0.800000
 50
-90.000000
 51
0.000000
  0
LINE
  8
1
 62
7
  6
CONTINUOUS
 10
156.685384
 20
145.464280
 11
145.485384
 21
145.464280
  0
LINE
  8
1
 62
7
  6
CONTINUOUS
 10
144.685384
 20
146.264280
 11
144.685384
 21
157.464280
  0
ARC
  8
1
 62
7
  6
CONTINUOUS
 10
145.485384
 20
146.264280
 40
0.800000
 50
180.000000
 51
-90.000000
  0
ARC
  8
1
 62
7
  6
CONTINUOUS
 10
145.485384
 20
139.964280
 40
0.800000
 50
90.000000
 51
180.000000
  0
LINE
  8
1
 62
7
  6
CONTINUOUS
 10
145.485384
 20
140.764280
 11
156.685384
 21
140.764280
  0
ARC
  8
1
 62
7
  6
CONTINUOUS
 10
156.685384
 20
139.964280
 40
0.800000
 50
-0.000000
 51
90.000000
  0
LINE
  8
1
 62
7
  6
CONTINUOUS
 10
157.485384
 20
139.964280
 11
157.485384
 21
128.764280
  0
ARC
  8
1
 62
7
  6
CONTINUOUS
 10
156.685384
 20
128.764280
 40
0.800000
 50
-90.000000
 51
0.000000
  0
LINE
  8
1
 62
7
  6
CONTINUOUS
 10
156.685384
 20
127.964280
 11
145.485384
 21
127.964280
  0
LINE
  8
1
 62
7
  6
CONTINUOUS
 10
144.685384
 20
128.764280
 11
144.685384
 21
139.964280
  0
ARC
  8
1
 62
7
  6
CONTINUOUS
 10
145.485384
 20
128.764280
 40
0.800000
 50
180.000000
 51
-90.000000
  0
ARC
  8
1
 62
7
  6
CONTINUOUS
 10
145.485384
 20
122.464280
 40
0.800000
 50
90.000000
 51
180.000000
  0
LINE
  8
1
 62
7
  6
CONTINUOUS
 10
145.485384
 20
123.264280
 11
156.685384
 21
123.264280
  0
ARC
  8
1
 62
7
  6
CONTINUOUS
 10
156.685384
 20
122.464280
 40
0.800000
 50
-0.000000
 51
90.000000
  0
LINE
  8
1
 62
7
  6
CONTINUOUS
 10
157.485384
 20
122.464280
 11
157.485384
 21
111.264280
  0
ARC
  8
1
 62
7
  6
CONTINUOUS
 10
156.685384
 20
111.264280
 40
0.800000
 50
-90.000000
 51
0.000000
  0
LINE
  8
1
 62
7
  6
CONTINUOUS
 10
156.685384
 20
110.464280
 11
145.485384
 21
110.464280
  0
LINE
  8
1
 62
7
  6
CONTINUOUS
 10
144.685384
 20
111.264280
 11
144.685384
 21
122.464280
  0
ARC
  8
1
 62
7
  6
CONTINUOUS
 10
145.485384
 20
111.264280
 40
0.800000
 50
180.000000
 51
-90.000000
  0
ARC
  8
1
 62
7
  6
CONTINUOUS
 10
166.485384
 20
174.964280
 40
0.800000
 50
90.000000
 51
180.000000
  0
LINE
  8
1
 62
7
  6
CONTINUOUS
 10
166.485384
 20
175.764280
 11
177.685384
 21
175.764280
  0
ARC
  8
1
 62
7
  6
CONTINUOUS
 10
177.685384
 20
174.964280
 40
0.800000
 50
-0.000000
 51
90.000000
  0
LINE
  8
1
 62
7
  6
CONTINUOUS
 10
178.485384
 20
174.964280
 11
178.485384
 21
163.764280
  0
ARC
  8
1
 62
7
  6
CONTINUOUS
 10
177.685384
 20
163.764280
 40
0.800000
 50
-90.000000
 51
0.000000
  0
LINE
  8
1
 62
7
  6
CONTINUOUS
 10
177.685384
 20
162.964280
 11
166.485384
 21
162.964280
  0
LINE
  8
1
 62
7
  6
CONTINUOUS
 10
165.685384
 20
163.764280
 11
165.685384
 21
174.964280
  0
ARC
  8
1
 62
7
  6
CONTINUOUS
 10
166.485384
 20
163.764280
 40
0.800000
 50
180.000000
 51
-90.000000
  0
ARC
  8
1
 62
7
  6
CONTINUOUS
 10
166.485384
 20
157.464280
 40
0.800000
 50
90.000000
 51
180.000000
  0
LINE
  8
1
 62
7
  6
CONTINUOUS
 10
166.485384
 20
158.264280
 11
177.685384
 21
158.264280
  0
ARC
  8
1
 62
7
  6
CONTINUOUS
 10
177.685384
 20
157.464280
 40
0.800000
 50
-0.000000
 51
90.000000
  0
LINE
  8
1
 62
7
  6
CONTINUOUS
 10
178.485384
 20
157.464280
 11
178.485384
 21
146.264280
  0
ARC
  8
1
 62
7
  6
CONTINUOUS
 10
177.685384
 20
146.264280
 40
0.800000
 50
-90.000000
 51
0.000000
  0
LINE
  8
1
 62
7
  6
CONTINUOUS
 10
177.685384
 20
145.464280
 11
166.485384
 21
145.464280
  0
LINE
  8
1
 62
7
  6
CONTINUOUS
 10
165.685384
 20
146.264280
 11
165.685384
 21
157.464280
  0
ARC
  8
1
 62
7
  6
CONTINUOUS
 10
166.485384
 20
146.264280
 40
0.800000
 50
180.000000
 51
-90.000000
  0
ARC
  8
1
 62
7
  6
CONTINUOUS
 10
166.485384
 20
139.964280
 40
0.800000
 50
90.000000
 51
180.000000
  0
LINE
  8
1
 62
7
  6
CONTINUOUS
 10
166.485384
 20
140.764280
 11
177.685384
 21
140.764280
  0
ARC
  8
1
 62
7
  6
CONTINUOUS
 10
177.685384
 20
139.964280
 40
0.800000
 50
-0.000000
 51
90.000000
  0
LINE
  8
1
 62
7
  6
CONTINUOUS
 10
178.485384
 20
139.964280
 11
178.485384
 21
128.764280
  0
ARC
  8
1
 62
7
  6
CONTINUOUS
 10
177.685384
 20
128.764280
 40
0.800000
 50
-90.000000
 51
0.000000
  0
LINE
  8
1
 62
7
  6
CONTINUOUS
 10
177.685384
 20
127.964280
 11
166.485384
 21
127.964280
  0
LINE
  8
1
 62
7
  6
CONTINUOUS
 10
165.685384
 20
128.764280
 11
165.685384
 21
139.964280
  0
ARC
  8
1
 62
7
  6
CONTINUOUS
 10
166.485384
 20
128.764280
 40
0.800000
 50
180.000000
 51
-90.000000
  0
ARC
  8
1
 62
7
  6
CONTINUOUS
 10
166.485384
 20
122.464280
 40
0.800000
 50
90.000000
 51
180.000000
  0
LINE
  8
1
 62
7
  6
CONTINUOUS
 10
166.485384
 20
123.264280
 11
177.685384
 21
123.264280
  0
ARC
  8
1
 62
7
  6
CONTINUOUS
 10
177.685384
 20
122.464280
 40
0.800000
 50
-0.000000
 51
90.000000
  0
LINE
  8
1
 62
7
  6
CONTINUOUS
 10
178.485384
 20
122.464280
 11
178.485384
 21
111.264280
  0
ARC
  8
1
 62
7
  6
CONTINUOUS
 10
177.685384
 20
111.264280
 40
0.800000
 50
-90.000000
 51
0.000000
  0
LINE
  8
1
 62
7
  6
CONTINUOUS
 10
177.685384
 20
110.464280
 11
166.485384
 21
110.464280
  0
LINE
  8
1
 62
7
  6
CONTINUOUS
 10
165.685384
 20
111.264280
 11
165.685384
 21
122.464280
  0
ARC
  8
1
 62
7
  6
CONTINUOUS
 10
166.485384
 20
111.264280
 40
0.800000
 50
180.000000
 51
-90.000000
  0
LINE
  8
1
 62
7
  6
CONTINUOUS
 10
180.888143
 20
101.177852
 11
180.888143
 21
94.677852
  0
LINE
  8
1
 62
7
  6
CONTINUOUS
 10
180.888143
 20
94.677852
 11
141.143177
 21
94.677852
  0
LINE
  8
1
 62
7
  6
CONTINUOUS
 10
141.143177
 20
101.177852
 11
141.143177
 21
94.677852
  0
LINE
  8
1
 62
7
  6
CONTINUOUS
 10
180.606264
 20
185.177852
 11
180.606264
 21
191.677852
  0
LINE
  8
1
 62
7
  6
CONTINUOUS
 10
141.425056
 20
191.677852
 11
180.606264
 21
191.677852
  0
LINE
  8
1
 62
7
  6
CONTINUOUS
 10
141.425056
 20
185.177852
 11
141.425056
 21
191.677852
  0
LINE
  8
1
 62
7
  6
DOT
 10
142.458613
 20
101.177852
 11
142.458613
 21
95.941089
  0
LINE
  8
1
 62
7
  6
DOT
 10
142.458613
 20
95.941089
 11
146.467562
 21
95.941089
  0
LINE
  8
1
 62
7
  6
DOT
 10
146.467562
 20
95.941089
 11
146.467562
 21
101.177852
  0
LINE
  8
1
 62
7
  6
DOT
 10
146.467562
 20
101.177852
 11
142.458613
 21
101.177852
  0
LINE
  8
1
 62
7
  6
CONTINUOUS
 10
160.927293
 20
101.177852
 11
160.927293
 21
94.677852
  0
LINE
  8
1
 62
7
  6
DOT
 10
162.660328
 20
101.177852
 11
162.660328
 21
95.941089
  0
LINE
  8
1
 62
7
  6
DOT
 10
162.660328
 20
95.941089
 11
166.669277
 21
95.941089
  0
LINE
  8
1
 62
7
  6
DOT
 10
166.669277
 20
95.941089
 11
166.669277
 21
101.177852
  0
LINE
  8
1
 62
7
  6
DOT
 10
166.669277
 20
101.177852
 11
162.660328
 21
101.177852
  0
LINE
  8
1
 62
7
  6
CONTINUOUS
 10
161.344892
 20
101.177852
 11
161.344892
 21
94.677852
  0
LINE
  8
1
 62
7
  6
DOT
 10
142.458613
 20
185.177852
 11
142.458613
 21
190.414616
  0
LINE
  8
1
 62
7
  6
DOT
 10
142.458613
 20
190.414616
 11
146.467562
 21
190.414616
  0
LINE
  8
1
 62
7
  6
DOT
 10
146.467562
 20
190.414616
 11
146.467562
 21
185.177852
  0
LINE
  8
1
 62
7
  6
DOT
 10
146.467562
 20
185.177852
 11
142.458613
 21
185.177852
  0
LINE
  8
1
 62
7
  6
CONTINUOUS
 10
160.927293
 20
185.177852
 11
160.927293
 21
191.677852
  0
LINE
  8
1
 62
7
  6
DOT
 10
162.660328
 20
185.177852
 11
162.660328
 21
190.414616
  0
LINE
  8
1
 62
7
  6
DOT
 10
162.660328
 20
190.414616
 11
166.669277
 21
190.414616
  0
LINE
  8
1
 62
7
  6
DOT
 10
166.669277
 20
190.414616
 11
166.669277
 21
185.177852
  0
LINE
  8
1
 62
7
  6
DOT
 10
166.669277
 20
185.177852
 11
162.660328
 21
185.177852
  0
LINE
  8
1
 62
7
  6
CONTINUOUS
 10
161.344892
 20
185.177852
 11
161.344892
 21
191.677852
  0
TEXT
  8
1
 62
7
  6
CONTINUOUS
 10
152.668780
 20
112.366642
 40
6.000000
 41
0.500000
  1
1
  7
KANJI
 50
0.000000
 51
0.000000
  0
TEXT
  8
1
 62
7
  6
CONTINUOUS
 10
152.856699
 20
130.031071
 40
6.000000
 41
0.500000
  1
2
  7
KANJI
 50
0.000000
 51
0.000000
  0
TEXT
  8
1
 62
7
  6
CONTINUOUS
 10
152.856699
 20
147.695501
 40
6.000000
 41
0.500000
  1
3
  7
KANJI
 50
0.000000
 51
0.000000
  0
TEXT
  8
1
 62
7
  6
CONTINUOUS
 10
152.856699
 20
163.668655
 40
6.000000
 41
0.500000
  1
4
  7
KANJI
 50
0.000000
 51
0.000000
  0
TEXT
  8
1
 62
7
  6
CONTINUOUS
 10
173.686304
 20
112.366642
 40
6.000000
 41
0.500000
  1
5
  7
KANJI
 50
0.000000
 51
0.000000
  0
TEXT
  8
1
 62
7
  6
CONTINUOUS
 10
173.874223
 20
130.031071
 40
6.000000
 41
0.500000
  1
6
  7
KANJI
 50
0.000000
 51
0.000000
  0
TEXT
  8
1
 62
7
  6
CONTINUOUS
 10
173.874223
 20
147.695501
 40
6.000000
 41
0.500000
  1
7
  7
KANJI
 50
0.000000
 51
0.000000
  0
TEXT
  8
1
 62
7
  6
CONTINUOUS
 10
173.874223
 20
163.668655
 40
6.000000
 41
0.500000
  1
8
  7
KANJI
 50
0.000000
 51
0.000000
  0
DIMENSION
  8
1
 62
7
  6
CONTINUOUS
  2
*D1
 10
118.006711
 20
118.177852
 11
118.006711
 21
143.177852
 70
     0
  1
50
 13
128.671887
 23
118.177852
 14
130.077852
 24
168.177852
 50
90.000000
  0
DIMENSION
  8
1
 62
7
  6
CONTINUOUS
  2
*D2
 10
113.214765
 20
101.177852
 11
113.214765
 21
143.177852
 70
     0
  1
84
 13
131.677852
 23
101.177852
 14
129.677852
 24
185.177852
 50
90.000000
  0
DIMENSION
  8
1
 62
7
  6
CONTINUOUS
  2
*D3
 10
107.577181
 20
94.677852
 11
107.577181
 21
143.177852
 70
     0
  1
97
 13
139.143177
 23
94.677852
 14
139.425056
 24
191.677852
 50
90.000000
  0
LINE
  8
1
 62
7
  6
CONTINUOUS
 10
140.224459
 20
46.973304
 11
140.224459
 21
45.773304
  0
LINE
  8
1
 62
7
  6
CONTINUOUS
 10
140.224459
 20
45.773304
 11
160.927293
 21
45.773304
  0
LINE
  8
1
 62
7
  6
CONTINUOUS
 10
160.927293
 20
45.773304
 11
160.927293
 21
46.973304
  0
LINE
  8
1
 62
7
  6
CONTINUOUS
 10
160.927293
 20
46.973304
 11
140.224459
 21
46.973304
  0
LINE
  8
1
 62
7
  6
CONTINUOUS
 10
161.344892
 20
46.973304
 11
161.344892
 21
45.773304
  0
LINE
  8
1
 62
7
  6
CONTINUOUS
 10
161.344892
 20
45.773304
 11
182.244179
 21
45.773304
  0
LINE
  8
1
 62
7
  6
CONTINUOUS
 10
182.244179
 20
45.773304
 11
182.244179
 21
46.973304
  0
LINE
  8
1
 62
7
  6
CONTINUOUS
 10
182.244179
 20
46.973304
 11
161.344892
 21
46.973304
  0
LINE
  8
1
 62
7
  6
CONTINUOUS
 10
183.522553
 20
45.773304
 11
193.677852
 21
45.773304
  0
LINE
  8
1
 62
7
  6
CONTINUOUS
 10
183.677852
 20
46.973304
 11
184.877852
 21
46.973304
  0
LINE
  8
1
 62
7
  6
CONTINUOUS
 10
128.677852
 20
46.973304
 11
138.677852
 21
46.973304
  0
ARC
  8
1
 62
7
  6
CONTINUOUS
 10
138.677852
 20
46.973304
 40
1.200000
 50
-90.000000
 51
0.000000
  0
LINE
  8
1
 62
7
  6
CONTINUOUS
 10
128.677852
 20
45.773304
 11
138.677852
 21
45.773304
  0
ARC
  8
1
 62
7
  6
CONTINUOUS
 10
183.677852
 20
46.973304
 40
1.200000
 50
180.000000
 51
-90.000000
  0
LINE
  8
1
 62
7
  6
CONTINUOUS
 10
128.677852
 20
46.973304
 11
137.477852
 21
46.973304
  0
LINE
  8
1
 62
7
  6
CONTINUOUS
 10
184.877852
 20
46.973304
 11
193.677852
 21
46.973304
  0
LINE
  8
1
 62
7
  6
CONTINUOUS
 10
193.677852
 20
45.773304
 11
193.677852
 21
46.973304
  0
LINE
  8
1
 62
7
  6
CONTINUOUS
 10
128.677852
 20
45.773304
 11
128.677852
 21
46.973304
  0
LINE
  8
1
 62
7
  6
CONTINUOUS
 10
141.614135
 20
45.773304
 11
141.614135
 21
41.410887
  0
LINE
  8
1
 62
7
  6
CONTINUOUS
 10
141.614135
 20
41.410887
 11
145.623084
 21
41.410887
  0
LINE
  8
1
 62
7
  6
CONTINUOUS
 10
145.623084
 20
41.410887
 11
145.623084
 21
45.773304
  0
LINE
  8
1
 62
7
  6
CONTINUOUS
 10
145.623084
 20
45.773304
 11
141.614135
 21
45.773304
  0
LINE
  8
1
 62
7
  6
CONTINUOUS
 10
141.614135
 20
45.773304
 11
141.614135
 21
38.014417
  0
LINE
  8
1
 62
7
  6
CONTINUOUS
 10
141.614135
 20
38.014417
 11
140.872898
 21
38.014417
  0
LINE
  8
1
 62
7
  6
CONTINUOUS
 10
140.872898
 20
38.014417
 11
140.872898
 21
45.773304
  0
LINE
  8
1
 62
7
  6
CONTINUOUS
 10
140.872898
 20
45.773304
 11
141.614135
 21
45.773304
  0
LINE
  8
1
 62
7
  6
CONTINUOUS
 10
143.044411
 20
41.410887
 11
143.044411
 21
35.508824
  0
LINE
  8
1
 62
7
  6
CONTINUOUS
 10
143.044411
 20
35.508824
 11
143.768249
 21
35.508824
  0
LINE
  8
1
 62
7
  6
CONTINUOUS
 10
143.768249
 20
35.508824
 11
143.768249
 21
41.410887
  0
LINE
  8
1
 62
7
  6
CONTINUOUS
 10
143.768249
 20
41.410887
 11
143.044411
 21
41.410887
  0
LINE
  8
1
 62
7
  6
DOT
 10
140.872898
 20
41.410887
 11
140.872898
 21
30.052200
  0
LINE
  8
1
 62
7
  6
DOT
 10
140.872898
 20
30.052200
 11
145.623084
 21
30.052200
  0
LINE
  8
1
 62
7
  6
DOT
 10
145.623084
 20
30.052200
 11
145.623084
 21
41.410887
  0
LINE
  8
1
 62
7
  6
DOT
 10
145.623084
 20
41.410887
 11
140.872898
 21
41.410887
  0
LINE
  8
1
 62
7
  6
CONTINUOUS
 10
143.044411
 20
30.052200
 11
143.044411
 21
29.769326
  0
LINE
  8
1
 62
7
  6
CONTINUOUS
 10
144.102328
 20
30.052200
 11
144.102328
 21
29.773304
  0
ARC
  8
1
 62
7
  6
DOT
 10
141.102328
 20
29.773304
 40
3.000000
 50
-90.000000
 51
0.000000
  0
LINE
  8
1
 62
7
  6
DOT
 10
141.102328
 20
26.773304
 11
132.824067
 21
26.773304
  0
ARC
  8
1
 62
7
  6
DOT
 10
141.044411
 20
29.769326
 40
2.000000
 50
-90.000000
 51
0.000000
  0
LINE
  8
1
 62
7
  6
DOT
 10
141.044411
 20
27.769326
 11
132.855000
 21
27.769326
  0
LINE
  8
1
 62
7
  6
CONTINUOUS
 10
162.911675
 20
45.773304
 11
162.911675
 21
41.410887
  0
LINE
  8
1
 62
7
  6
CONTINUOUS
 10
162.911675
 20
41.410887
 11
166.920623
 21
41.410887
  0
LINE
  8
1
 62
7
  6
CONTINUOUS
 10
166.920623
 20
41.410887
 11
166.920623
 21
45.773304
  0
LINE
  8
1
 62
7
  6
CONTINUOUS
 10
166.920623
 20
45.773304
 11
162.911675
 21
45.773304
  0
LINE
  8
1
 62
7
  6
CONTINUOUS
 10
162.911675
 20
45.773304
 11
162.911675
 21
38.014417
  0
LINE
  8
1
 62
7
  6
CONTINUOUS
 10
162.911675
 20
38.014417
 11
162.170437
 21
38.014417
  0
LINE
  8
1
 62
7
  6
CONTINUOUS
 10
162.170437
 20
38.014417
 11
162.170437
 21
45.773304
  0
LINE
  8
1
 62
7
  6
CONTINUOUS
 10
162.170437
 20
45.773304
 11
162.911675
 21
45.773304
  0
LINE
  8
1
 62
7
  6
CONTINUOUS
 10
164.341950
 20
41.410887
 11
164.341950
 21
35.508824
  0
LINE
  8
1
 62
7
  6
CONTINUOUS
 10
164.341950
 20
35.508824
 11
165.065788
 21
35.508824
  0
LINE
  8
1
 62
7
  6
CONTINUOUS
 10
165.065788
 20
35.508824
 11
165.065788
 21
41.410887
  0
LINE
  8
1
 62
7
  6
CONTINUOUS
 10
165.065788
 20
41.410887
 11
164.341950
 21
41.410887
  0
LINE
  8
1
 62
7
  6
DOT
 10
162.170437
 20
41.410887
 11
162.170437
 21
30.052200
  0
LINE
  8
1
 62
7
  6
DOT
 10
162.170437
 20
30.052200
 11
166.920623
 21
30.052200
  0
LINE
  8
1
 62
7
  6
DOT
 10
166.920623
 20
30.052200
 11
166.920623
 21
41.410887
  0
LINE
  8
1
 62
7
  6
DOT
 10
166.920623
 20
41.410887
 11
162.170437
 21
41.410887
  0
LINE
  8
1
 62
7
  6
CONTINUOUS
 10
164.341950
 20
30.052200
 11
164.341950
 21
29.769326
  0
LINE
  8
1
 62
7
  6
CONTINUOUS
 10
165.399867
 20
30.052200
 11
165.399867
 21
29.773304
  0
ARC
  8
1
 62
7
  6
DOT
 10
162.399867
 20
29.773304
 40
3.000000
 50
-90.000000
 51
0.000000
  0
LINE
  8
1
 62
7
  6
DOT
 10
162.399867
 20
26.773304
 11
154.121606
 21
26.773304
  0
ARC
  8
1
 62
7
  6
DOT
 10
162.341950
 20
29.769326
 40
2.000000
 50
-90.000000
 51
0.000000
  0
LINE
  8
1
 62
7
  6
DOT
 10
162.341950
 20
27.769326
 11
154.152540
 21
27.769326
  0
DIMENSION
  8
1
 62
7
  6
CONTINUOUS
  2
*D4
 10
109.338830
 20
26.773304
 11
109.338830
 21
36.273304
 70
     0
  1
19
 13
130.824067
 23
26.773304
 14
126.677852
 24
45.773304
 50
90.000000
  0
LINE
  8
1
 62
7
  6
CONTINUOUS
 10
183.677852
 20
46.973304
 11
183.677852
 21
55.773304
  0
LINE
  8
1
 62
7
  6
CONTINUOUS
 10
138.677852
 20
46.973304
 11
138.677852
 21
55.773304
  0
LINE
  8
1
 62
7
  6
CONTINUOUS
 10
139.877852
 20
46.973304
 11
139.877852
 21
55.773304
  0
LINE
  8
1
 62
7
  6
CONTINUOUS
 10
182.477852
 20
46.973304
 11
182.477852
 21
55.773304
  0
ARC
  8
1
 62
7
  6
CONTINUOUS
 10
182.477852
 20
55.773304
 40
1.200000
 50
-0.000000
 51
90.000000
  0
LINE
  8
1
 62
7
  6
CONTINUOUS
 10
139.877852
 20
56.973304
 11
182.477852
 21
56.973304
  0
ARC
  8
1
 62
7
  6
CONTINUOUS
 10
139.877852
 20
55.773304
 40
1.200000
 50
90.000000
 51
-180.000000
  0
LINE
  8
1
 62
7
  6
CONTINUOUS
 10
139.877852
 20
55.773304
 11
182.477852
 21
55.773304
  0
LINE
  8
1
 62
7
  6
CONTINUOUS
 10
139.877852
 20
56.973304
 11
139.877852
 21
57.470010
  0
LINE
  8
1
 62
7
  6
CONTINUOUS
 10
139.877852
 20
57.470010
 11
182.641340
 21
57.470010
  0
LINE
  8
1
 62
7
  6
CONTINUOUS
 10
182.641340
 20
57.470010
 11
182.641340
 21
56.973304
  0
LINE
  8
1
 62
7
  6
CONTINUOUS
 10
182.641340
 20
56.973304
 11
139.877852
 21
56.973304
  0
DIMENSION
  8
1
 62
7
  6
CONTINUOUS
  2
*D5
 10
109.338830
 20
45.773304
 11
109.338830
 21
51.621657
 70
     0
  1
11.7
 13
126.677852
 23
45.773304
 14
137.877852
 24
57.470010
 50
90.000000
  0
DIMENSION
  8
1
 62
7
  6
CONTINUOUS
  2
*D6
 10
116.563289
 20
56.973304
 11
116.563289
 21
57.221657
 70
     0
  1
0.5
 13
137.877852
 23
56.973304
 14
137.877852
 24
57.470010
 50
90.000000
  0
DIMENSION
  8
1
 62
7
  6
CONTINUOUS
  2
*D7
 10
116.563289
 20
45.773304
 11
116.563289
 21
46.373304
 70
     0
  1
1.2
 13
126.677852
 23
45.773304
 14
126.677852
 24
46.973304
 50
90.000000
  0
DIMENSION
  8
1
 62
7
  6
CONTINUOUS
  2
*D8
 10
138.677852
 20
85.093960
 11
161.177852
 21
85.093960
 70
     0
  1
45
 13
138.677852
 23
99.177852
 14
183.677852
 24
99.177852
 50
0.000000
  0
DIMENSION
  8
1
 62
7
  6
CONTINUOUS
  2
*D9
 10
133.677852
 20
80.959732
 11
161.177852
 21
80.959732
 70
     0
  1
55
 13
133.677852
 23
112.691275
 14
188.677852
 24
112.879195
 50
0.000000
  0
DIMENSION
  8
1
 62
7
  6
CONTINUOUS
  2
*D10
 10
128.677852
 20
75.885906
 11
161.177852
 21
75.885906
 70
     0
  1
65
 13
128.677852
 23
102.177852
 14
193.677852
 24
102.177852
 50
0.000000
  0
CIRCLE
  8
1
 62
7
  6
CONTINUOUS
 10
188.677852
 20
168.177852
 40
2.000000
  0
CIRCLE
  8
1
 62
7
  6
CONTINUOUS
 10
188.677852
 20
118.177852
 40
2.000000
  0
CIRCLE
  8
1
 62
7
  6
CONTINUOUS
 10
133.677852
 20
118.177852
 40
2.000000
  0
CIRCLE
  8
1
 62
7
  6
CONTINUOUS
 10
133.677852
 20
168.177852
 40
2.000000
  0
LINE
  8
1
 62
7
  6
CONTINUOUS
 10
189.984716
 20
169.691823
 11
198.467758
 21
188.354837
  0
LINE
  8
1
 62
7
  6
CONTINUOUS
 10
198.467758
 20
188.354837
 11
189.149774
 21
188.354837
  0
TEXT
  8
1
 62
7
  6
CONTINUOUS
 10
189.149774
 20
188.354837
 40
3.000000
 41
0.625000
  1
4-φ4
  7
KANJI
 50
0.000000
 51
30.000000
  0
LINE
  8
1
 62
7
  6
CONTINUOUS
 10
189.984716
 20
169.691823
 11
190.476945
 21
172.651166
  0
LINE
  8
1
 62
7
  6
CONTINUOUS
 10
189.984716
 20
169.691823
 11
191.890671
 21
172.008574
  0
DIMENSION
  8
1
 62
7
  6
CONTINUOUS
  2
*D11
 10
151.300418
 20
88.486950
 11
161.802707
 21
88.486950
 70
     0
  1
21
 13
151.300418
 23
107.450410
 14
172.304996
 24
107.617450
 50
0.000000
  0
TEXT
  8
1
 62
7
  6
CONTINUOUS
 10
243.161074
 20
11.241611
 40
6.000000
 41
0.500000
  1
FB-8S
  7
KANJI
 50
0.000000
 51
0.000000
  0
ENDSEC
  0
EOF
