  0
SECTION
  2
HEADER
  9
$ACADVER
  1
AC1009
  9
$INSBASE
 10
0.000000
 20
0.000000
  9
$EXTMIN
 10
0.000000
 20
0.000000
  9
$EXTMAX
 10
297.000000
 20
210.000000
  9
$LIMMIN
 10
0.000000
 20
0.000000
  9
$LIMMAX
 10
297.000000
 20
210.000000
  9
$VIEWCTR
 10
148.500000
 20
105.000000
  9
$VIEWSIZE
 40
210.000000
  9
$PEXTMIN
 10
0.000000
 20
0.000000
 30
0.000000
  9
$PEXTMAX
 10
297.000000
 20
210.000000
 30
0.000000
  9
$SNAPMODE
 70
     0
  9
$SNAPUNIT
 10
1.000000
 20
1.000000
  9
$SNAPBASE
 10
0.000000
 20
0.000000
  9
$SNAPANG
 50
0.000000
  9
$SNAPISOPAIR
 70
     0
  9
$SNAPSTYLE
 70
     0
  9
$GRIDMODE
 70
     0
  9
$GRIDUNIT
 10
0.000000
 20
0.000000
  9
$ORTHOMODE
 70
     0
  9
$REGENMODE
 70
     1
  9
$FILLMODE
 70
     1
  9
$QTEXTMODE
 70
     0
  9
$DRAGMODE
 70
     2
  9
$LTSCALE
 40
0.250000
  9
$OSMODE
 70
     0
  9
$ATTMODE
 70
     1
  9
$TEXTSIZE
 40
2.000000
  9
$TRACEWID
 40
0.050000
  9
$TEXTSTYLE
  7
STANDARD
  9
$CLAYER
  8
0
  9
$CELTYPE
  6
BYLAYER
  9
$CECOLOR
 62
   256
  9
$DIMSCALE
 40
1.000000
  9
$DIMASZ
 40
1.000000
  9
$DIMEXO
 40
0.000000
  9
$DIMDLI
 40
0.500000
  9
$DIMRND
 40
0.000000
  9
$DIMDLE
 40
0.000000
  9
$DIMEXE
 40
0.000000
  9
$DIMTP
 40
0.000000
  9
$DIMTM
 40
0.000000
  9
$DIMTXT
 40
3.000000
  9
$DIMCEN
 40
0.000000
  9
$DIMTSZ
 40
0.000000
  9
$DIMTOL
 70
     0
  9
$DIMLIM
 70
     0
  9
$DIMTIH
 70
     1
  9
$DIMTOH
 70
     1
  9
$DIMSE1
 70
     0
  9
$DIMSE2
 70
     0
  9
$DIMTAD
 70
     0
  9
$DIMZIN
 70
     0
  9
$DIMBLK
  1

  9
$DIMASO
 70
     0
  9
$DIMSHO
 70
     0
  9
$DIMPOST
  1

  9
$DIMAPOST
  1

  9
$DIMALT
 70
     0
  9
$DIMALTD
 70
     0
  9
$DIMALTF
 40
25.400000
  9
$DIMLFAC
 40
1.000000
  9
$DIMTOFL
 70
     0
  9
$DIMTVP
 40
0.000000
  9
$DIMTIX
 70
     0
  9
$DIMSOXD
 70
     0
  9
$DIMSAH
 70
     0
  9
$DIMBLKL
  1

  9
$DIMBLKR
  1

  9
$LUNITS
 70
     2
  9
$LUPREC
 70
     2
  9
$AXISMODE
 70
     0
  9
$AXISUNIT
 10
1.000000
 20
1.000000
  9
$SKETCHINC
 40
0.000000
  9
$FILLETRAD
 40
0.000000
  9
$AUNITS
 70
     1
  9
$AUPREC
 70
     2
  9
$MENU
  1
ACAD
  9
$ELEVATION
 40
0.000000
  9
$THICKNESS
 40
0.000000
  9
$VIEWDIR
 10
0.000000
 20
0.000000
 30
1.000000
  9
$LIMCHECK
 70
     1
  9
$BLIPMODE
 70
     1
  9
$CHAMFERA
 40
0.000000
  9
$CHAMFERB
 40
0.000000
  9
$FASTZOOM
 70
     1
  9
$SKPOLY
 70
     0
  9
$TDCREATE
 40
0.000000
  9
$TDUPDATE
 40
0.000000
  9
$TDINDWG
 40
0.000000
  9
$TDUSRTIMER
 40
0.000000
  9
$USRTIMER
 70
     1
  9
$ANGBASE
 50
0.000000
  9
$ANGDIR
 70
     0
  9
$PDMODE
 70
     0
  9
$PDSIZE
 40
0.000000
  9
$PLINEWID
 40
0.000000
  9
$COORDS
 70
     2
  9
$USERI1
 70
     0
  9
$USERI2
 70
     0
  9
$USERI3
 70
     0
  9
$USERI4
 70
     0
  9
$USERI5
 70
     0
  9
$USERR1
 40
0.000000
  9
$USERR2
 40
0.000000
  9
$USERR3
 40
0.000000
  9
$USERR4
 40
0.000000
  9
$USERR5
 40
0.000000
  0
ENDSEC
  0
SECTION
  2
TABLES
  0
TABLE
  2
LTYPE
 70
     5
  0
LTYPE
  2
CONTINUOUS
 70
    64
  3
Solid line
 72
    65
 73
     0
 40
0.0
  0
LTYPE
  2
HIDDEN
 70
    64
  3
------------------------
 72
    65
 73
     2
 40
12.6
 49
8.4
 49
-4.2
  0
LTYPE
  2
DOT
 70
    64
  3
････････････････････････
 72
    65
 73
     2
 40
8.0
 49
6.0
 49
-2.0
  0
LTYPE
  2
DASHDOT
 70
    64
  3
--･--･--･--･--･--･--･--
 72
    65
 73
     4
 40
50.5
 49
30.0
 49
-9.0
 49
2.5
 49
-9.0
  0
LTYPE
  2
DIVIDE
 70
    64
  3
--･･--･･--･･--･･--･･--
 72
    65
 73
     6
 40
58.0
 49
30.0
 49
-9.0
 49
2.5
 49
-5.0
 49
2.5
 49
-9.0
  0
LTYPE
  2
ACAD_ISO06W100
 70
    64
  3
____ ... ____ ... ____
 72
    65
 73
     8
 40
37.5
 49
24.0
 49
-3.0
 49
0.5
 49
-3.0
 49
0.5
 49
-3.0
 49
0.5
 49
-3.0
  0
LTYPE
  2
ACAD_ISO14W100
 70
    64
  3
__ . . . __ . . . __ . . . 
 72
    65
 73
     8
 40
25.5
 49
12.0
 49
-3.0
 49
0.5
 49
-3.0
 49
0.5
 49
-3.0
 49
0.5
 49
-3.0
  0
ENDTAB
  0
TABLE
  2
LAYER
 70
1
  0
LAYER
  2
1
 70
64
 62
7
  6
CONTINUOUS
  0
ENDTAB
  0
TABLE
  2
STYLE
 70
     2
  0
STYLE
  2
STANDARD
 70
    64
 40
0.0
 41
1.0
 50
0.0
 71
     0
 42
0.2
  3
TXT
  4

  0
STYLE
  2
KANJI
 70
    64
 40
0.0
 41
1.0
 50
0.0
 71
     0
 42
0.2
  3
TXT
  4
BIGFONT
  0
ENDTAB
  0
TABLE
  2
VIEW
 70
     0
  0
ENDTAB
  0
ENDSEC
  0
SECTION
  2
BLOCKS
  0
BLOCK
  8
1
 62
7
  6
CONTINUOUS
  2
*D1
 70
    65
 10
0.0
 20
0.0
  0
LINE
  8
1
 62
7
  6
CONTINUOUS
 10
166.756725
 20
169.407713
 11
171.756725
 21
169.407713
  0
LINE
  8
1
 62
7
  6
CONTINUOUS
 10
166.756725
 20
171.407713
 11
166.756725
 21
162.012452
  0
LINE
  8
1
 62
7
  6
CONTINUOUS
 10
171.756725
 20
171.407713
 11
171.756725
 21
150.012452
  0
LINE
  8
1
 62
7
  6
CONTINUOUS
 10
166.756725
 20
169.407713
 11
169.654503
 21
170.184171
  0
LINE
  8
1
 62
7
  6
CONTINUOUS
 10
166.756725
 20
169.407713
 11
169.654503
 21
168.631256
  0
LINE
  8
1
 62
7
  6
CONTINUOUS
 10
171.756725
 20
169.407713
 11
168.858948
 21
168.631256
  0
LINE
  8
1
 62
7
  6
CONTINUOUS
 10
171.756725
 20
169.407713
 11
168.858948
 21
170.184171
  0
TEXT
  8
1
 62
7
  6
CONTINUOUS
 10
168.506725
 20
169.407713
 40
3.000000
 41
0.500000
  1
5
  7
KANJI
 50
0.000000
 51
30.000000
  0
ENDBLK
  0
BLOCK
  8
1
 62
7
  6
CONTINUOUS
  2
*D2
 70
    65
 10
0.0
 20
0.0
  0
LINE
  8
1
 62
7
  6
CONTINUOUS
 10
171.756725
 20
169.407713
 11
176.756725
 21
169.407713
  0
LINE
  8
1
 62
7
  6
CONTINUOUS
 10
171.756725
 20
171.407713
 11
171.756725
 21
151.089633
  0
LINE
  8
1
 62
7
  6
CONTINUOUS
 10
176.756725
 20
171.407713
 11
176.756725
 21
165.012452
  0
LINE
  8
1
 62
7
  6
CONTINUOUS
 10
171.756725
 20
169.407713
 11
174.654503
 21
170.184171
  0
LINE
  8
1
 62
7
  6
CONTINUOUS
 10
171.756725
 20
169.407713
 11
174.654503
 21
168.631256
  0
LINE
  8
1
 62
7
  6
CONTINUOUS
 10
176.756725
 20
169.407713
 11
173.858948
 21
168.631256
  0
LINE
  8
1
 62
7
  6
CONTINUOUS
 10
176.756725
 20
169.407713
 11
173.858948
 21
170.184171
  0
TEXT
  8
1
 62
7
  6
CONTINUOUS
 10
173.506725
 20
169.407713
 40
3.000000
 41
0.500000
  1
5
  7
KANJI
 50
0.000000
 51
30.000000
  0
ENDBLK
  0
BLOCK
  8
1
 62
7
  6
CONTINUOUS
  2
*D3
 70
    65
 10
0.0
 20
0.0
  0
LINE
  8
1
 62
7
  6
CONTINUOUS
 10
176.756725
 20
169.407713
 11
244.756725
 21
169.407713
  0
LINE
  8
1
 62
7
  6
CONTINUOUS
 10
176.756725
 20
171.407713
 11
176.756725
 21
165.012452
  0
LINE
  8
1
 62
7
  6
CONTINUOUS
 10
244.756725
 20
171.407713
 11
244.756725
 21
165.012452
  0
LINE
  8
1
 62
7
  6
CONTINUOUS
 10
176.756725
 20
169.407713
 11
179.654503
 21
170.184171
  0
LINE
  8
1
 62
7
  6
CONTINUOUS
 10
176.756725
 20
169.407713
 11
179.654503
 21
168.631256
  0
LINE
  8
1
 62
7
  6
CONTINUOUS
 10
244.756725
 20
169.407713
 11
241.858948
 21
168.631256
  0
LINE
  8
1
 62
7
  6
CONTINUOUS
 10
244.756725
 20
169.407713
 11
241.858948
 21
170.184171
  0
TEXT
  8
1
 62
7
  6
CONTINUOUS
 10
209.256725
 20
169.407713
 40
3.000000
 41
0.500000
  1
68
  7
KANJI
 50
0.000000
 51
30.000000
  0
ENDBLK
  0
BLOCK
  8
1
 62
7
  6
CONTINUOUS
  2
*D4
 70
    65
 10
0.0
 20
0.0
  0
LINE
  8
1
 62
7
  6
CONTINUOUS
 10
244.756725
 20
169.407713
 11
249.756725
 21
169.407713
  0
LINE
  8
1
 62
7
  6
CONTINUOUS
 10
244.756725
 20
171.407713
 11
244.756725
 21
165.012452
  0
LINE
  8
1
 62
7
  6
CONTINUOUS
 10
249.756725
 20
171.407713
 11
249.756725
 21
151.277553
  0
LINE
  8
1
 62
7
  6
CONTINUOUS
 10
244.756725
 20
169.407713
 11
247.654503
 21
170.184171
  0
LINE
  8
1
 62
7
  6
CONTINUOUS
 10
244.756725
 20
169.407713
 11
247.654503
 21
168.631256
  0
LINE
  8
1
 62
7
  6
CONTINUOUS
 10
249.756725
 20
169.407713
 11
246.858948
 21
168.631256
  0
LINE
  8
1
 62
7
  6
CONTINUOUS
 10
249.756725
 20
169.407713
 11
246.858948
 21
170.184171
  0
TEXT
  8
1
 62
7
  6
CONTINUOUS
 10
246.506725
 20
169.407713
 40
3.000000
 41
0.500000
  1
5
  7
KANJI
 50
0.000000
 51
30.000000
  0
ENDBLK
  0
BLOCK
  8
1
 62
7
  6
CONTINUOUS
  2
*D5
 70
    65
 10
0.0
 20
0.0
  0
LINE
  8
1
 62
7
  6
CONTINUOUS
 10
249.756725
 20
169.407713
 11
254.756725
 21
169.407713
  0
LINE
  8
1
 62
7
  6
CONTINUOUS
 10
249.756725
 20
171.407713
 11
249.756725
 21
151.277553
  0
LINE
  8
1
 62
7
  6
CONTINUOUS
 10
254.756725
 20
171.407713
 11
254.756725
 21
162.012452
  0
LINE
  8
1
 62
7
  6
CONTINUOUS
 10
249.756725
 20
169.407713
 11
252.654503
 21
170.184171
  0
LINE
  8
1
 62
7
  6
CONTINUOUS
 10
249.756725
 20
169.407713
 11
252.654503
 21
168.631256
  0
LINE
  8
1
 62
7
  6
CONTINUOUS
 10
254.756725
 20
169.407713
 11
251.858948
 21
168.631256
  0
LINE
  8
1
 62
7
  6
CONTINUOUS
 10
254.756725
 20
169.407713
 11
251.858948
 21
170.184171
  0
TEXT
  8
1
 62
7
  6
CONTINUOUS
 10
251.506725
 20
169.407713
 40
3.000000
 41
0.500000
  1
5
  7
KANJI
 50
0.000000
 51
30.000000
  0
ENDBLK
  0
BLOCK
  8
1
 62
7
  6
CONTINUOUS
  2
*D6
 70
    65
 10
0.0
 20
0.0
  0
LINE
  8
1
 62
7
  6
CONTINUOUS
 10
166.756725
 20
173.757270
 11
254.756725
 21
173.757270
  0
LINE
  8
1
 62
7
  6
CONTINUOUS
 10
166.756725
 20
175.757270
 11
166.756725
 21
162.012452
  0
LINE
  8
1
 62
7
  6
CONTINUOUS
 10
254.756725
 20
175.757270
 11
254.756725
 21
162.012452
  0
LINE
  8
1
 62
7
  6
CONTINUOUS
 10
166.756725
 20
173.757270
 11
169.654503
 21
174.533727
  0
LINE
  8
1
 62
7
  6
CONTINUOUS
 10
166.756725
 20
173.757270
 11
169.654503
 21
172.980813
  0
LINE
  8
1
 62
7
  6
CONTINUOUS
 10
254.756725
 20
173.757270
 11
251.858948
 21
172.980813
  0
LINE
  8
1
 62
7
  6
CONTINUOUS
 10
254.756725
 20
173.757270
 11
251.858948
 21
174.533727
  0
TEXT
  8
1
 62
7
  6
CONTINUOUS
 10
209.256725
 20
173.757270
 40
3.000000
 41
0.500000
  1
88
  7
KANJI
 50
0.000000
 51
30.000000
  0
ENDBLK
  0
BLOCK
  8
1
 62
7
  6
CONTINUOUS
  2
*D7
 70
    65
 10
0.0
 20
0.0
  0
LINE
  8
1
 62
7
  6
CONTINUOUS
 10
159.862259
 20
121.012452
 11
159.862259
 21
146.012452
  0
LINE
  8
1
 62
7
  6
CONTINUOUS
 10
157.862259
 20
121.012452
 11
167.756725
 21
121.012452
  0
LINE
  8
1
 62
7
  6
CONTINUOUS
 10
157.862259
 20
146.012452
 11
166.865599
 21
146.012452
  0
LINE
  8
1
 62
7
  6
CONTINUOUS
 10
159.862259
 20
121.012452
 11
159.085802
 21
123.910230
  0
LINE
  8
1
 62
7
  6
CONTINUOUS
 10
159.862259
 20
121.012452
 11
160.638716
 21
123.910230
  0
LINE
  8
1
 62
7
  6
CONTINUOUS
 10
159.862259
 20
146.012452
 11
160.638716
 21
143.114675
  0
LINE
  8
1
 62
7
  6
CONTINUOUS
 10
159.862259
 20
146.012452
 11
159.085802
 21
143.114675
  0
TEXT
  8
1
 62
7
  6
CONTINUOUS
 10
159.862259
 20
132.012452
 40
3.000000
 41
0.500000
  1
25
  7
KANJI
 50
90.000000
 51
30.000000
  0
ENDBLK
  0
BLOCK
  8
1
 62
7
  6
CONTINUOUS
  2
*D8
 70
    65
 10
0.0
 20
0.0
  0
LINE
  8
1
 62
7
  6
CONTINUOUS
 10
159.862259
 20
96.012452
 11
159.862259
 21
121.012452
  0
LINE
  8
1
 62
7
  6
CONTINUOUS
 10
157.862259
 20
96.012452
 11
166.364481
 21
96.012452
  0
LINE
  8
1
 62
7
  6
CONTINUOUS
 10
157.862259
 20
121.012452
 11
166.865599
 21
121.012452
  0
LINE
  8
1
 62
7
  6
CONTINUOUS
 10
159.862259
 20
96.012452
 11
159.085802
 21
98.910230
  0
LINE
  8
1
 62
7
  6
CONTINUOUS
 10
159.862259
 20
96.012452
 11
160.638716
 21
98.910230
  0
LINE
  8
1
 62
7
  6
CONTINUOUS
 10
159.862259
 20
121.012452
 11
160.638716
 21
118.114675
  0
LINE
  8
1
 62
7
  6
CONTINUOUS
 10
159.862259
 20
121.012452
 11
159.085802
 21
118.114675
  0
TEXT
  8
1
 62
7
  6
CONTINUOUS
 10
159.862259
 20
107.012452
 40
3.000000
 41
0.500000
  1
25
  7
KANJI
 50
90.000000
 51
30.000000
  0
ENDBLK
  0
BLOCK
  8
1
 62
7
  6
CONTINUOUS
  2
*D9
 70
    65
 10
0.0
 20
0.0
  0
LINE
  8
1
 62
7
  6
CONTINUOUS
 10
154.462810
 20
79.012452
 11
154.462810
 21
163.012452
  0
LINE
  8
1
 62
7
  6
CONTINUOUS
 10
152.462810
 20
79.012452
 11
167.756725
 21
79.012452
  0
LINE
  8
1
 62
7
  6
CONTINUOUS
 10
152.462810
 20
163.012452
 11
167.756725
 21
163.012452
  0
LINE
  8
1
 62
7
  6
CONTINUOUS
 10
154.462810
 20
79.012452
 11
153.686353
 21
81.910230
  0
LINE
  8
1
 62
7
  6
CONTINUOUS
 10
154.462810
 20
79.012452
 11
155.239267
 21
81.910230
  0
LINE
  8
1
 62
7
  6
CONTINUOUS
 10
154.462810
 20
163.012452
 11
155.239267
 21
160.114675
  0
LINE
  8
1
 62
7
  6
CONTINUOUS
 10
154.462810
 20
163.012452
 11
153.686353
 21
160.114675
  0
TEXT
  8
1
 62
7
  6
CONTINUOUS
 10
154.462810
 20
119.512452
 40
3.000000
 41
0.500000
  1
84
  7
KANJI
 50
90.000000
 51
30.000000
  0
ENDBLK
  0
BLOCK
  8
1
 62
7
  6
CONTINUOUS
  2
*D10
 70
    65
 10
0.0
 20
0.0
  0
LINE
  8
1
 62
7
  6
CONTINUOUS
 10
159.862259
 20
146.012452
 11
159.862259
 21
163.012452
  0
LINE
  8
1
 62
7
  6
CONTINUOUS
 10
157.862259
 20
146.012452
 11
166.865599
 21
146.012452
  0
LINE
  8
1
 62
7
  6
CONTINUOUS
 10
157.862259
 20
163.012452
 11
167.756725
 21
163.012452
  0
LINE
  8
1
 62
7
  6
CONTINUOUS
 10
159.862259
 20
146.012452
 11
159.085802
 21
148.910230
  0
LINE
  8
1
 62
7
  6
CONTINUOUS
 10
159.862259
 20
146.012452
 11
160.638716
 21
148.910230
  0
LINE
  8
1
 62
7
  6
CONTINUOUS
 10
159.862259
 20
163.012452
 11
160.638716
 21
160.114675
  0
LINE
  8
1
 62
7
  6
CONTINUOUS
 10
159.862259
 20
163.012452
 11
159.085802
 21
160.114675
  0
TEXT
  8
1
 62
7
  6
CONTINUOUS
 10
159.862259
 20
153.012452
 40
3.000000
 41
0.500000
  1
17
  7
KANJI
 50
90.000000
 51
30.000000
  0
ENDBLK
  0
BLOCK
  8
1
 62
7
  6
CONTINUOUS
  2
*D11
 70
    65
 10
0.0
 20
0.0
  0
LINE
  8
1
 62
7
  6
CONTINUOUS
 10
159.862259
 20
79.012452
 11
159.862259
 21
96.012452
  0
LINE
  8
1
 62
7
  6
CONTINUOUS
 10
157.862259
 20
79.012452
 11
167.756725
 21
79.012452
  0
LINE
  8
1
 62
7
  6
CONTINUOUS
 10
157.862259
 20
96.012452
 11
167.756725
 21
96.012452
  0
LINE
  8
1
 62
7
  6
CONTINUOUS
 10
159.862259
 20
79.012452
 11
159.085802
 21
81.910230
  0
LINE
  8
1
 62
7
  6
CONTINUOUS
 10
159.862259
 20
79.012452
 11
160.638716
 21
81.910230
  0
LINE
  8
1
 62
7
  6
CONTINUOUS
 10
159.862259
 20
96.012452
 11
160.638716
 21
93.114675
  0
LINE
  8
1
 62
7
  6
CONTINUOUS
 10
159.862259
 20
96.012452
 11
159.085802
 21
93.114675
  0
TEXT
  8
1
 62
7
  6
CONTINUOUS
 10
159.862259
 20
86.012452
 40
3.000000
 41
0.500000
  1
17
  7
KANJI
 50
90.000000
 51
30.000000
  0
ENDBLK
  0
BLOCK
  8
1
 62
7
  6
CONTINUOUS
  2
*D12
 70
    65
 10
0.0
 20
0.0
  0
LINE
  8
1
 62
7
  6
CONTINUOUS
 10
251.756725
 20
82.012452
 11
263.073042
 21
70.696135
  0
LINE
  8
1
 62
7
  6
CONTINUOUS
 10
253.878046
 20
79.891132
 11
256.476122
 21
78.391132
  0
LINE
  8
1
 62
7
  6
CONTINUOUS
 10
253.878046
 20
79.891132
 11
255.378046
 21
77.293056
  0
TEXT
  8
1
 62
7
  6
CONTINUOUS
 10
258.830401
 20
74.938776
 40
3.000000
 41
0.500000
  1
4-R3
  7
KANJI
 50
-45.000000
 51
30.000000
  0
ENDBLK
  0
ENDSEC
  0
SECTION
  2
ENTITIES
  0
LINE
  8
1
 62
7
  6
CONTINUOUS
 10
74.161074
 20
4904.785235
 11
30.161074
 21
4904.785235
  0
LINE
  8
1
 62
7
  6
CONTINUOUS
 10
186.771812
 20
4904.221477
 11
121.771812
 21
4904.221477
  0
LINE
  8
1
 62
7
  6
CONTINUOUS
 10
74.161074
 20
4953.285235
 11
30.161074
 21
4953.285235
  0
LINE
  8
1
 62
7
  6
CONTINUOUS
 10
186.771812
 20
4952.721477
 11
121.771812
 21
4952.721477
  0
LINE
  8
1
 62
7
  6
CONTINUOUS
 10
327.262342
 20
169.976137
 11
331.204474
 21
169.976137
  0
LINE
  8
1
 62
7
  6
CONTINUOUS
 10
329.352722
 20
171.627442
 11
329.352722
 21
168.487099
  0
ARC
  8
1
 62
7
  6
CONTINUOUS
 10
323.752722
 20
175.576137
 40
0.800000
 50
90.000000
 51
180.000000
  0
LINE
  8
1
 62
7
  6
CONTINUOUS
 10
323.752722
 20
176.376137
 11
334.952722
 21
176.376137
  0
ARC
  8
1
 62
7
  6
CONTINUOUS
 10
334.952722
 20
175.576137
 40
0.800000
 50
-0.000000
 51
90.000000
  0
LINE
  8
1
 62
7
  6
CONTINUOUS
 10
335.752722
 20
175.576137
 11
335.752722
 21
164.376137
  0
ARC
  8
1
 62
7
  6
CONTINUOUS
 10
334.952722
 20
164.376137
 40
0.800000
 50
-90.000000
 51
0.000000
  0
LINE
  8
1
 62
7
  6
CONTINUOUS
 10
334.952722
 20
163.576137
 11
323.752722
 21
163.576137
  0
LINE
  8
1
 62
7
  6
CONTINUOUS
 10
322.952722
 20
164.376137
 11
322.952722
 21
175.576137
  0
ARC
  8
1
 62
7
  6
CONTINUOUS
 10
323.752722
 20
164.376137
 40
0.800000
 50
180.000000
 51
-90.000000
  0
LINE
  8
1
 62
7
  6
CONTINUOUS
 10
344.762342
 20
169.976137
 11
348.704474
 21
169.976137
  0
LINE
  8
1
 62
7
  6
CONTINUOUS
 10
346.852722
 20
171.627442
 11
346.852722
 21
168.487099
  0
ARC
  8
1
 62
7
  6
CONTINUOUS
 10
341.252722
 20
175.576137
 40
0.800000
 50
90.000000
 51
180.000000
  0
LINE
  8
1
 62
7
  6
CONTINUOUS
 10
341.252722
 20
176.376137
 11
352.452722
 21
176.376137
  0
ARC
  8
1
 62
7
  6
CONTINUOUS
 10
352.452722
 20
175.576137
 40
0.800000
 50
-0.000000
 51
90.000000
  0
LINE
  8
1
 62
7
  6
CONTINUOUS
 10
353.252722
 20
175.576137
 11
353.252722
 21
164.376137
  0
ARC
  8
1
 62
7
  6
CONTINUOUS
 10
352.452722
 20
164.376137
 40
0.800000
 50
-90.000000
 51
0.000000
  0
LINE
  8
1
 62
7
  6
CONTINUOUS
 10
352.452722
 20
163.576137
 11
341.252722
 21
163.576137
  0
LINE
  8
1
 62
7
  6
CONTINUOUS
 10
340.452722
 20
164.376137
 11
340.452722
 21
175.576137
  0
ARC
  8
1
 62
7
  6
CONTINUOUS
 10
341.252722
 20
164.376137
 40
0.800000
 50
180.000000
 51
-90.000000
  0
LINE
  8
1
 62
7
  6
CONTINUOUS
 10
362.262342
 20
169.976137
 11
366.204474
 21
169.976137
  0
LINE
  8
1
 62
7
  6
CONTINUOUS
 10
364.352722
 20
171.627442
 11
364.352722
 21
168.487099
  0
ARC
  8
1
 62
7
  6
CONTINUOUS
 10
358.752722
 20
175.576137
 40
0.800000
 50
90.000000
 51
180.000000
  0
LINE
  8
1
 62
7
  6
CONTINUOUS
 10
358.752722
 20
176.376137
 11
369.952722
 21
176.376137
  0
ARC
  8
1
 62
7
  6
CONTINUOUS
 10
369.952722
 20
175.576137
 40
0.800000
 50
-0.000000
 51
90.000000
  0
LINE
  8
1
 62
7
  6
CONTINUOUS
 10
370.752722
 20
175.576137
 11
370.752722
 21
164.376137
  0
ARC
  8
1
 62
7
  6
CONTINUOUS
 10
369.952722
 20
164.376137
 40
0.800000
 50
-90.000000
 51
0.000000
  0
LINE
  8
1
 62
7
  6
CONTINUOUS
 10
369.952722
 20
163.576137
 11
358.752722
 21
163.576137
  0
LINE
  8
1
 62
7
  6
CONTINUOUS
 10
357.952722
 20
164.376137
 11
357.952722
 21
175.576137
  0
ARC
  8
1
 62
7
  6
CONTINUOUS
 10
358.752722
 20
164.376137
 40
0.800000
 50
180.000000
 51
-90.000000
  0
LINE
  8
1
 62
7
  6
CONTINUOUS
 10
327.262342
 20
152.476137
 11
331.204474
 21
152.476137
  0
LINE
  8
1
 62
7
  6
CONTINUOUS
 10
329.352722
 20
154.127442
 11
329.352722
 21
150.987099
  0
ARC
  8
1
 62
7
  6
CONTINUOUS
 10
323.752722
 20
158.076137
 40
0.800000
 50
90.000000
 51
180.000000
  0
LINE
  8
1
 62
7
  6
CONTINUOUS
 10
323.752722
 20
158.876137
 11
334.952722
 21
158.876137
  0
ARC
  8
1
 62
7
  6
CONTINUOUS
 10
334.952722
 20
158.076137
 40
0.800000
 50
-0.000000
 51
90.000000
  0
LINE
  8
1
 62
7
  6
CONTINUOUS
 10
335.752722
 20
158.076137
 11
335.752722
 21
146.876137
  0
ARC
  8
1
 62
7
  6
CONTINUOUS
 10
334.952722
 20
146.876137
 40
0.800000
 50
-90.000000
 51
0.000000
  0
LINE
  8
1
 62
7
  6
CONTINUOUS
 10
334.952722
 20
146.076137
 11
323.752722
 21
146.076137
  0
LINE
  8
1
 62
7
  6
CONTINUOUS
 10
322.952722
 20
146.876137
 11
322.952722
 21
158.076137
  0
ARC
  8
1
 62
7
  6
CONTINUOUS
 10
323.752722
 20
146.876137
 40
0.800000
 50
180.000000
 51
-90.000000
  0
LINE
  8
1
 62
7
  6
CONTINUOUS
 10
344.762342
 20
152.476137
 11
348.704474
 21
152.476137
  0
LINE
  8
1
 62
7
  6
CONTINUOUS
 10
346.852722
 20
154.127442
 11
346.852722
 21
150.987099
  0
ARC
  8
1
 62
7
  6
CONTINUOUS
 10
341.252722
 20
158.076137
 40
0.800000
 50
90.000000
 51
180.000000
  0
LINE
  8
1
 62
7
  6
CONTINUOUS
 10
341.252722
 20
158.876137
 11
352.452722
 21
158.876137
  0
ARC
  8
1
 62
7
  6
CONTINUOUS
 10
352.452722
 20
158.076137
 40
0.800000
 50
-0.000000
 51
90.000000
  0
LINE
  8
1
 62
7
  6
CONTINUOUS
 10
353.252722
 20
158.076137
 11
353.252722
 21
146.876137
  0
ARC
  8
1
 62
7
  6
CONTINUOUS
 10
352.452722
 20
146.876137
 40
0.800000
 50
-90.000000
 51
0.000000
  0
LINE
  8
1
 62
7
  6
CONTINUOUS
 10
352.452722
 20
146.076137
 11
341.252722
 21
146.076137
  0
LINE
  8
1
 62
7
  6
CONTINUOUS
 10
340.452722
 20
146.876137
 11
340.452722
 21
158.076137
  0
ARC
  8
1
 62
7
  6
CONTINUOUS
 10
341.252722
 20
146.876137
 40
0.800000
 50
180.000000
 51
-90.000000
  0
LINE
  8
1
 62
7
  6
CONTINUOUS
 10
362.262342
 20
152.476137
 11
366.204474
 21
152.476137
  0
LINE
  8
1
 62
7
  6
CONTINUOUS
 10
364.352722
 20
154.127442
 11
364.352722
 21
150.987099
  0
ARC
  8
1
 62
7
  6
CONTINUOUS
 10
358.752722
 20
158.076137
 40
0.800000
 50
90.000000
 51
180.000000
  0
LINE
  8
1
 62
7
  6
CONTINUOUS
 10
358.752722
 20
158.876137
 11
369.952722
 21
158.876137
  0
ARC
  8
1
 62
7
  6
CONTINUOUS
 10
369.952722
 20
158.076137
 40
0.800000
 50
-0.000000
 51
90.000000
  0
LINE
  8
1
 62
7
  6
CONTINUOUS
 10
370.752722
 20
158.076137
 11
370.752722
 21
146.876137
  0
ARC
  8
1
 62
7
  6
CONTINUOUS
 10
369.952722
 20
146.876137
 40
0.800000
 50
-90.000000
 51
0.000000
  0
LINE
  8
1
 62
7
  6
CONTINUOUS
 10
369.952722
 20
146.076137
 11
358.752722
 21
146.076137
  0
LINE
  8
1
 62
7
  6
CONTINUOUS
 10
357.952722
 20
146.876137
 11
357.952722
 21
158.076137
  0
ARC
  8
1
 62
7
  6
CONTINUOUS
 10
358.752722
 20
146.876137
 40
0.800000
 50
180.000000
 51
-90.000000
  0
LINE
  8
1
 62
7
  6
CONTINUOUS
 10
327.262342
 20
134.976137
 11
331.204474
 21
134.976137
  0
LINE
  8
1
 62
7
  6
CONTINUOUS
 10
329.352722
 20
136.627442
 11
329.352722
 21
133.487099
  0
ARC
  8
1
 62
7
  6
CONTINUOUS
 10
323.752722
 20
140.576137
 40
0.800000
 50
90.000000
 51
180.000000
  0
LINE
  8
1
 62
7
  6
CONTINUOUS
 10
323.752722
 20
141.376137
 11
334.952722
 21
141.376137
  0
ARC
  8
1
 62
7
  6
CONTINUOUS
 10
334.952722
 20
140.576137
 40
0.800000
 50
-0.000000
 51
90.000000
  0
LINE
  8
1
 62
7
  6
CONTINUOUS
 10
335.752722
 20
140.576137
 11
335.752722
 21
129.376137
  0
ARC
  8
1
 62
7
  6
CONTINUOUS
 10
334.952722
 20
129.376137
 40
0.800000
 50
-90.000000
 51
0.000000
  0
LINE
  8
1
 62
7
  6
CONTINUOUS
 10
334.952722
 20
128.576137
 11
323.752722
 21
128.576137
  0
LINE
  8
1
 62
7
  6
CONTINUOUS
 10
322.952722
 20
129.376137
 11
322.952722
 21
140.576137
  0
ARC
  8
1
 62
7
  6
CONTINUOUS
 10
323.752722
 20
129.376137
 40
0.800000
 50
180.000000
 51
-90.000000
  0
LINE
  8
1
 62
7
  6
CONTINUOUS
 10
344.762342
 20
134.976137
 11
348.704474
 21
134.976137
  0
LINE
  8
1
 62
7
  6
CONTINUOUS
 10
346.852722
 20
136.627442
 11
346.852722
 21
133.487099
  0
ARC
  8
1
 62
7
  6
CONTINUOUS
 10
341.252722
 20
140.576137
 40
0.800000
 50
90.000000
 51
180.000000
  0
LINE
  8
1
 62
7
  6
CONTINUOUS
 10
341.252722
 20
141.376137
 11
352.452722
 21
141.376137
  0
ARC
  8
1
 62
7
  6
CONTINUOUS
 10
352.452722
 20
140.576137
 40
0.800000
 50
-0.000000
 51
90.000000
  0
LINE
  8
1
 62
7
  6
CONTINUOUS
 10
353.252722
 20
140.576137
 11
353.252722
 21
129.376137
  0
ARC
  8
1
 62
7
  6
CONTINUOUS
 10
352.452722
 20
129.376137
 40
0.800000
 50
-90.000000
 51
0.000000
  0
LINE
  8
1
 62
7
  6
CONTINUOUS
 10
352.452722
 20
128.576137
 11
341.252722
 21
128.576137
  0
LINE
  8
1
 62
7
  6
CONTINUOUS
 10
340.452722
 20
129.376137
 11
340.452722
 21
140.576137
  0
ARC
  8
1
 62
7
  6
CONTINUOUS
 10
341.252722
 20
129.376137
 40
0.800000
 50
180.000000
 51
-90.000000
  0
LINE
  8
1
 62
7
  6
CONTINUOUS
 10
362.262342
 20
134.976137
 11
366.204474
 21
134.976137
  0
LINE
  8
1
 62
7
  6
CONTINUOUS
 10
364.352722
 20
136.627442
 11
364.352722
 21
133.487099
  0
ARC
  8
1
 62
7
  6
CONTINUOUS
 10
358.752722
 20
140.576137
 40
0.800000
 50
90.000000
 51
180.000000
  0
LINE
  8
1
 62
7
  6
CONTINUOUS
 10
358.752722
 20
141.376137
 11
369.952722
 21
141.376137
  0
ARC
  8
1
 62
7
  6
CONTINUOUS
 10
369.952722
 20
140.576137
 40
0.800000
 50
-0.000000
 51
90.000000
  0
LINE
  8
1
 62
7
  6
CONTINUOUS
 10
370.752722
 20
140.576137
 11
370.752722
 21
129.376137
  0
ARC
  8
1
 62
7
  6
CONTINUOUS
 10
369.952722
 20
129.376137
 40
0.800000
 50
-90.000000
 51
0.000000
  0
LINE
  8
1
 62
7
  6
CONTINUOUS
 10
369.952722
 20
128.576137
 11
358.752722
 21
128.576137
  0
LINE
  8
1
 62
7
  6
CONTINUOUS
 10
357.952722
 20
129.376137
 11
357.952722
 21
140.576137
  0
ARC
  8
1
 62
7
  6
CONTINUOUS
 10
358.752722
 20
129.376137
 40
0.800000
 50
180.000000
 51
-90.000000
  0
LINE
  8
1
 62
7
  6
CONTINUOUS
 10
327.262342
 20
117.476137
 11
331.204474
 21
117.476137
  0
LINE
  8
1
 62
7
  6
CONTINUOUS
 10
329.352722
 20
119.127442
 11
329.352722
 21
115.987099
  0
ARC
  8
1
 62
7
  6
CONTINUOUS
 10
323.752722
 20
123.076137
 40
0.800000
 50
90.000000
 51
180.000000
  0
LINE
  8
1
 62
7
  6
CONTINUOUS
 10
323.752722
 20
123.876137
 11
334.952722
 21
123.876137
  0
ARC
  8
1
 62
7
  6
CONTINUOUS
 10
334.952722
 20
123.076137
 40
0.800000
 50
-0.000000
 51
90.000000
  0
LINE
  8
1
 62
7
  6
CONTINUOUS
 10
335.752722
 20
123.076137
 11
335.752722
 21
111.876137
  0
ARC
  8
1
 62
7
  6
CONTINUOUS
 10
334.952722
 20
111.876137
 40
0.800000
 50
-90.000000
 51
0.000000
  0
LINE
  8
1
 62
7
  6
CONTINUOUS
 10
334.952722
 20
111.076137
 11
323.752722
 21
111.076137
  0
LINE
  8
1
 62
7
  6
CONTINUOUS
 10
322.952722
 20
111.876137
 11
322.952722
 21
123.076137
  0
ARC
  8
1
 62
7
  6
CONTINUOUS
 10
323.752722
 20
111.876137
 40
0.800000
 50
180.000000
 51
-90.000000
  0
LINE
  8
1
 62
7
  6
CONTINUOUS
 10
344.762342
 20
117.476137
 11
348.704474
 21
117.476137
  0
LINE
  8
1
 62
7
  6
CONTINUOUS
 10
346.852722
 20
119.127442
 11
346.852722
 21
115.987099
  0
ARC
  8
1
 62
7
  6
CONTINUOUS
 10
341.252722
 20
123.076137
 40
0.800000
 50
90.000000
 51
180.000000
  0
LINE
  8
1
 62
7
  6
CONTINUOUS
 10
341.252722
 20
123.876137
 11
352.452722
 21
123.876137
  0
ARC
  8
1
 62
7
  6
CONTINUOUS
 10
352.452722
 20
123.076137
 40
0.800000
 50
-0.000000
 51
90.000000
  0
LINE
  8
1
 62
7
  6
CONTINUOUS
 10
353.252722
 20
123.076137
 11
353.252722
 21
111.876137
  0
ARC
  8
1
 62
7
  6
CONTINUOUS
 10
352.452722
 20
111.876137
 40
0.800000
 50
-90.000000
 51
0.000000
  0
LINE
  8
1
 62
7
  6
CONTINUOUS
 10
352.452722
 20
111.076137
 11
341.252722
 21
111.076137
  0
LINE
  8
1
 62
7
  6
CONTINUOUS
 10
340.452722
 20
111.876137
 11
340.452722
 21
123.076137
  0
ARC
  8
1
 62
7
  6
CONTINUOUS
 10
341.252722
 20
111.876137
 40
0.800000
 50
180.000000
 51
-90.000000
  0
LINE
  8
1
 62
7
  6
CONTINUOUS
 10
362.262342
 20
117.476137
 11
366.204474
 21
117.476137
  0
LINE
  8
1
 62
7
  6
CONTINUOUS
 10
364.352722
 20
119.127442
 11
364.352722
 21
115.987099
  0
ARC
  8
1
 62
7
  6
CONTINUOUS
 10
358.752722
 20
123.076137
 40
0.800000
 50
90.000000
 51
180.000000
  0
LINE
  8
1
 62
7
  6
CONTINUOUS
 10
358.752722
 20
123.876137
 11
369.952722
 21
123.876137
  0
ARC
  8
1
 62
7
  6
CONTINUOUS
 10
369.952722
 20
123.076137
 40
0.800000
 50
-0.000000
 51
90.000000
  0
LINE
  8
1
 62
7
  6
CONTINUOUS
 10
370.752722
 20
123.076137
 11
370.752722
 21
111.876137
  0
ARC
  8
1
 62
7
  6
CONTINUOUS
 10
369.952722
 20
111.876137
 40
0.800000
 50
-90.000000
 51
0.000000
  0
LINE
  8
1
 62
7
  6
CONTINUOUS
 10
369.952722
 20
111.076137
 11
358.752722
 21
111.076137
  0
LINE
  8
1
 62
7
  6
CONTINUOUS
 10
357.952722
 20
111.876137
 11
357.952722
 21
123.076137
  0
ARC
  8
1
 62
7
  6
CONTINUOUS
 10
358.752722
 20
111.876137
 40
0.800000
 50
180.000000
 51
-90.000000
  0
LINE
  8
1
 62
7
  6
CONTINUOUS
 10
325.289187
 20
77.801641
 11
329.231320
 21
77.801641
  0
LINE
  8
1
 62
7
  6
CONTINUOUS
 10
327.379567
 20
79.452946
 11
327.379567
 21
76.312603
  0
ARC
  8
1
 62
7
  6
CONTINUOUS
 10
321.779567
 20
83.401641
 40
0.800000
 50
90.000000
 51
180.000000
  0
LINE
  8
1
 62
7
  6
CONTINUOUS
 10
321.779567
 20
84.201641
 11
332.979567
 21
84.201641
  0
ARC
  8
1
 62
7
  6
CONTINUOUS
 10
332.979567
 20
83.401641
 40
0.800000
 50
-0.000000
 51
90.000000
  0
LINE
  8
1
 62
7
  6
CONTINUOUS
 10
333.779567
 20
83.401641
 11
333.779567
 21
72.201641
  0
ARC
  8
1
 62
7
  6
CONTINUOUS
 10
332.979567
 20
72.201641
 40
0.800000
 50
-90.000000
 51
0.000000
  0
LINE
  8
1
 62
7
  6
CONTINUOUS
 10
332.979567
 20
71.401641
 11
321.779567
 21
71.401641
  0
LINE
  8
1
 62
7
  6
CONTINUOUS
 10
320.979567
 20
72.201641
 11
320.979567
 21
83.401641
  0
ARC
  8
1
 62
7
  6
CONTINUOUS
 10
321.779567
 20
72.201641
 40
0.800000
 50
180.000000
 51
-90.000000
  0
LINE
  8
1
 62
7
  6
CONTINUOUS
 10
325.289187
 20
60.301641
 11
329.231320
 21
60.301641
  0
LINE
  8
1
 62
7
  6
CONTINUOUS
 10
327.379567
 20
61.952946
 11
327.379567
 21
58.812603
  0
ARC
  8
1
 62
7
  6
CONTINUOUS
 10
321.779567
 20
65.901641
 40
0.800000
 50
90.000000
 51
180.000000
  0
LINE
  8
1
 62
7
  6
CONTINUOUS
 10
321.779567
 20
66.701641
 11
332.979567
 21
66.701641
  0
ARC
  8
1
 62
7
  6
CONTINUOUS
 10
332.979567
 20
65.901641
 40
0.800000
 50
-0.000000
 51
90.000000
  0
LINE
  8
1
 62
7
  6
CONTINUOUS
 10
333.779567
 20
65.901641
 11
333.779567
 21
54.701641
  0
ARC
  8
1
 62
7
  6
CONTINUOUS
 10
332.979567
 20
54.701641
 40
0.800000
 50
-90.000000
 51
0.000000
  0
LINE
  8
1
 62
7
  6
CONTINUOUS
 10
332.979567
 20
53.901641
 11
321.779567
 21
53.901641
  0
LINE
  8
1
 62
7
  6
CONTINUOUS
 10
320.979567
 20
54.701641
 11
320.979567
 21
65.901641
  0
ARC
  8
1
 62
7
  6
CONTINUOUS
 10
321.779567
 20
54.701641
 40
0.800000
 50
180.000000
 51
-90.000000
  0
LINE
  8
1
 62
7
  6
CONTINUOUS
 10
325.289187
 20
42.801641
 11
329.231320
 21
42.801641
  0
LINE
  8
1
 62
7
  6
CONTINUOUS
 10
327.379567
 20
44.452946
 11
327.379567
 21
41.312603
  0
ARC
  8
1
 62
7
  6
CONTINUOUS
 10
321.779567
 20
48.401641
 40
0.800000
 50
90.000000
 51
180.000000
  0
LINE
  8
1
 62
7
  6
CONTINUOUS
 10
321.779567
 20
49.201641
 11
332.979567
 21
49.201641
  0
ARC
  8
1
 62
7
  6
CONTINUOUS
 10
332.979567
 20
48.401641
 40
0.800000
 50
-0.000000
 51
90.000000
  0
LINE
  8
1
 62
7
  6
CONTINUOUS
 10
333.779567
 20
48.401641
 11
333.779567
 21
37.201641
  0
ARC
  8
1
 62
7
  6
CONTINUOUS
 10
332.979567
 20
37.201641
 40
0.800000
 50
-90.000000
 51
0.000000
  0
LINE
  8
1
 62
7
  6
CONTINUOUS
 10
332.979567
 20
36.401641
 11
321.779567
 21
36.401641
  0
LINE
  8
1
 62
7
  6
CONTINUOUS
 10
320.979567
 20
37.201641
 11
320.979567
 21
48.401641
  0
ARC
  8
1
 62
7
  6
CONTINUOUS
 10
321.779567
 20
37.201641
 40
0.800000
 50
180.000000
 51
-90.000000
  0
LINE
  8
1
 62
7
  6
CONTINUOUS
 10
325.289187
 20
25.301641
 11
329.231320
 21
25.301641
  0
LINE
  8
1
 62
7
  6
CONTINUOUS
 10
327.379567
 20
26.952946
 11
327.379567
 21
23.812603
  0
ARC
  8
1
 62
7
  6
CONTINUOUS
 10
321.779567
 20
30.901641
 40
0.800000
 50
90.000000
 51
180.000000
  0
LINE
  8
1
 62
7
  6
CONTINUOUS
 10
321.779567
 20
31.701641
 11
332.979567
 21
31.701641
  0
ARC
  8
1
 62
7
  6
CONTINUOUS
 10
332.979567
 20
30.901641
 40
0.800000
 50
-0.000000
 51
90.000000
  0
LINE
  8
1
 62
7
  6
CONTINUOUS
 10
333.779567
 20
30.901641
 11
333.779567
 21
19.701641
  0
ARC
  8
1
 62
7
  6
CONTINUOUS
 10
332.979567
 20
19.701641
 40
0.800000
 50
-90.000000
 51
0.000000
  0
LINE
  8
1
 62
7
  6
CONTINUOUS
 10
332.979567
 20
18.901641
 11
321.779567
 21
18.901641
  0
LINE
  8
1
 62
7
  6
CONTINUOUS
 10
320.979567
 20
19.701641
 11
320.979567
 21
30.901641
  0
ARC
  8
1
 62
7
  6
CONTINUOUS
 10
321.779567
 20
19.701641
 40
0.800000
 50
180.000000
 51
-90.000000
  0
LINE
  8
1
 62
7
  6
CONTINUOUS
 10
346.289187
 20
77.801641
 11
350.231320
 21
77.801641
  0
LINE
  8
1
 62
7
  6
CONTINUOUS
 10
348.379567
 20
79.452946
 11
348.379567
 21
76.312603
  0
ARC
  8
1
 62
7
  6
CONTINUOUS
 10
342.779567
 20
83.401641
 40
0.800000
 50
90.000000
 51
180.000000
  0
LINE
  8
1
 62
7
  6
CONTINUOUS
 10
342.779567
 20
84.201641
 11
353.979567
 21
84.201641
  0
ARC
  8
1
 62
7
  6
CONTINUOUS
 10
353.979567
 20
83.401641
 40
0.800000
 50
-0.000000
 51
90.000000
  0
LINE
  8
1
 62
7
  6
CONTINUOUS
 10
354.779567
 20
83.401641
 11
354.779567
 21
72.201641
  0
ARC
  8
1
 62
7
  6
CONTINUOUS
 10
353.979567
 20
72.201641
 40
0.800000
 50
-90.000000
 51
0.000000
  0
LINE
  8
1
 62
7
  6
CONTINUOUS
 10
353.979567
 20
71.401641
 11
342.779567
 21
71.401641
  0
LINE
  8
1
 62
7
  6
CONTINUOUS
 10
341.979567
 20
72.201641
 11
341.979567
 21
83.401641
  0
ARC
  8
1
 62
7
  6
CONTINUOUS
 10
342.779567
 20
72.201641
 40
0.800000
 50
180.000000
 51
-90.000000
  0
LINE
  8
1
 62
7
  6
CONTINUOUS
 10
346.289187
 20
60.301641
 11
350.231320
 21
60.301641
  0
LINE
  8
1
 62
7
  6
CONTINUOUS
 10
348.379567
 20
61.952946
 11
348.379567
 21
58.812603
  0
ARC
  8
1
 62
7
  6
CONTINUOUS
 10
342.779567
 20
65.901641
 40
0.800000
 50
90.000000
 51
180.000000
  0
LINE
  8
1
 62
7
  6
CONTINUOUS
 10
342.779567
 20
66.701641
 11
353.979567
 21
66.701641
  0
ARC
  8
1
 62
7
  6
CONTINUOUS
 10
353.979567
 20
65.901641
 40
0.800000
 50
-0.000000
 51
90.000000
  0
LINE
  8
1
 62
7
  6
CONTINUOUS
 10
354.779567
 20
65.901641
 11
354.779567
 21
54.701641
  0
ARC
  8
1
 62
7
  6
CONTINUOUS
 10
353.979567
 20
54.701641
 40
0.800000
 50
-90.000000
 51
0.000000
  0
LINE
  8
1
 62
7
  6
CONTINUOUS
 10
353.979567
 20
53.901641
 11
342.779567
 21
53.901641
  0
LINE
  8
1
 62
7
  6
CONTINUOUS
 10
341.979567
 20
54.701641
 11
341.979567
 21
65.901641
  0
ARC
  8
1
 62
7
  6
CONTINUOUS
 10
342.779567
 20
54.701641
 40
0.800000
 50
180.000000
 51
-90.000000
  0
LINE
  8
1
 62
7
  6
CONTINUOUS
 10
346.289187
 20
42.801641
 11
350.231320
 21
42.801641
  0
LINE
  8
1
 62
7
  6
CONTINUOUS
 10
348.379567
 20
44.452946
 11
348.379567
 21
41.312603
  0
ARC
  8
1
 62
7
  6
CONTINUOUS
 10
342.779567
 20
48.401641
 40
0.800000
 50
90.000000
 51
180.000000
  0
LINE
  8
1
 62
7
  6
CONTINUOUS
 10
342.779567
 20
49.201641
 11
353.979567
 21
49.201641
  0
ARC
  8
1
 62
7
  6
CONTINUOUS
 10
353.979567
 20
48.401641
 40
0.800000
 50
-0.000000
 51
90.000000
  0
LINE
  8
1
 62
7
  6
CONTINUOUS
 10
354.779567
 20
48.401641
 11
354.779567
 21
37.201641
  0
ARC
  8
1
 62
7
  6
CONTINUOUS
 10
353.979567
 20
37.201641
 40
0.800000
 50
-90.000000
 51
0.000000
  0
LINE
  8
1
 62
7
  6
CONTINUOUS
 10
353.979567
 20
36.401641
 11
342.779567
 21
36.401641
  0
LINE
  8
1
 62
7
  6
CONTINUOUS
 10
341.979567
 20
37.201641
 11
341.979567
 21
48.401641
  0
ARC
  8
1
 62
7
  6
CONTINUOUS
 10
342.779567
 20
37.201641
 40
0.800000
 50
180.000000
 51
-90.000000
  0
LINE
  8
1
 62
7
  6
CONTINUOUS
 10
346.289187
 20
25.301641
 11
350.231320
 21
25.301641
  0
LINE
  8
1
 62
7
  6
CONTINUOUS
 10
348.379567
 20
26.952946
 11
348.379567
 21
23.812603
  0
ARC
  8
1
 62
7
  6
CONTINUOUS
 10
342.779567
 20
30.901641
 40
0.800000
 50
90.000000
 51
180.000000
  0
LINE
  8
1
 62
7
  6
CONTINUOUS
 10
342.779567
 20
31.701641
 11
353.979567
 21
31.701641
  0
ARC
  8
1
 62
7
  6
CONTINUOUS
 10
353.979567
 20
30.901641
 40
0.800000
 50
-0.000000
 51
90.000000
  0
LINE
  8
1
 62
7
  6
CONTINUOUS
 10
354.779567
 20
30.901641
 11
354.779567
 21
19.701641
  0
ARC
  8
1
 62
7
  6
CONTINUOUS
 10
353.979567
 20
19.701641
 40
0.800000
 50
-90.000000
 51
0.000000
  0
LINE
  8
1
 62
7
  6
CONTINUOUS
 10
353.979567
 20
18.901641
 11
342.779567
 21
18.901641
  0
LINE
  8
1
 62
7
  6
CONTINUOUS
 10
341.979567
 20
19.701641
 11
341.979567
 21
30.901641
  0
ARC
  8
1
 62
7
  6
CONTINUOUS
 10
342.779567
 20
19.701641
 40
0.800000
 50
180.000000
 51
-90.000000
  0
TEXT
  8
1
 62
7
  6
CONTINUOUS
 10
245.234899
 20
13.248322
 40
6.000000
 41
0.500000
  1
LFB-12MS
  7
KANJI
 50
0.000000
 51
0.000000
  0
LINE
  8
1
 62
7
  6
CONTINUOUS
 10
123.201952
 20
93.727723
 11
123.201952
 21
99.741145
  0
LINE
  8
1
 62
7
  6
CONTINUOUS
 10
123.201952
 20
143.756060
 11
123.201952
 21
149.957402
  0
LINE
  8
1
 62
7
  6
CONTINUOUS
 10
120.413735
 20
96.880221
 11
126.594197
 21
96.880221
  0
LINE
  8
1
 62
7
  6
CONTINUOUS
 10
120.497254
 20
146.880221
 11
126.093078
 21
146.880221
  0
LINE
  8
1
 62
7
  6
CONTINUOUS
 10
118.201952
 20
79.880221
 11
118.201952
 21
163.880221
  0
ARC
  8
1
 62
7
  6
CONTINUOUS
 10
125.201952
 20
82.880221
 40
3.000000
 50
-90.000000
 51
0.000000
  0
LINE
  8
1
 62
7
  6
CONTINUOUS
 10
128.201952
 20
82.880221
 11
128.201952
 21
160.880221
  0
ARC
  8
1
 62
7
  6
CONTINUOUS
 10
125.201952
 20
160.880221
 40
3.000000
 50
0.000000
 51
90.000000
  0
CIRCLE
  8
1
 62
7
  6
CONTINUOUS
 10
123.201952
 20
96.880221
 40
2.000000
  0
CIRCLE
  8
1
 62
7
  6
CONTINUOUS
 10
123.201952
 20
146.880221
 40
2.000000
  0
LINE
  8
1
 62
7
  6
CONTINUOUS
 10
45.201952
 20
150.145321
 11
45.201952
 21
144.090139
  0
LINE
  8
1
 62
7
  6
CONTINUOUS
 10
45.201952
 20
99.741145
 11
45.201952
 21
93.393644
  0
LINE
  8
1
 62
7
  6
CONTINUOUS
 10
42.003593
 20
96.880221
 11
48.267575
 21
96.880221
  0
LINE
  8
1
 62
7
  6
CONTINUOUS
 10
42.421192
 20
146.880221
 11
48.184055
 21
146.880221
  0
LINE
  8
1
 62
7
  6
CONTINUOUS
 10
50.201952
 20
163.880221
 11
50.201952
 21
79.880221
  0
LINE
  8
1
 62
7
  6
CONTINUOUS
 10
43.201952
 20
79.880221
 11
125.201952
 21
79.880221
  0
ARC
  8
1
 62
7
  6
CONTINUOUS
 10
43.201952
 20
82.880221
 40
3.000000
 50
180.000000
 51
-90.000000
  0
LINE
  8
1
 62
7
  6
CONTINUOUS
 10
40.201952
 20
160.880221
 11
40.201952
 21
82.880221
  0
ARC
  8
1
 62
7
  6
CONTINUOUS
 10
43.201952
 20
160.880221
 40
3.000000
 50
90.000000
 51
180.000000
  0
LINE
  8
1
 62
7
  6
CONTINUOUS
 10
125.201952
 20
163.880221
 11
43.201952
 21
163.880221
  0
CIRCLE
  8
1
 62
7
  6
CONTINUOUS
 10
45.201952
 20
146.880221
 40
2.000000
  0
CIRCLE
  8
1
 62
7
  6
CONTINUOUS
 10
45.201952
 20
96.880221
 40
2.000000
  0
LINE
  8
1
 62
7
  6
CONTINUOUS
 10
116.201952
 20
81.880221
 11
116.201952
 21
161.880221
  0
LINE
  8
1
 62
7
  6
CONTINUOUS
 10
52.201952
 20
81.880221
 11
116.201952
 21
81.880221
  0
LINE
  8
1
 62
7
  6
CONTINUOUS
 10
52.201952
 20
81.880221
 11
52.201952
 21
161.880221
  0
LINE
  8
1
 62
7
  6
CONTINUOUS
 10
116.201952
 20
161.880221
 11
52.201952
 21
161.880221
  0
LINE
  8
1
 62
7
  6
CONTINUOUS
 10
123.201952
 20
118.756060
 11
123.201952
 21
124.957402
  0
LINE
  8
1
 62
7
  6
CONTINUOUS
 10
120.497254
 20
121.880221
 11
126.093078
 21
121.880221
  0
CIRCLE
  8
1
 62
7
  6
CONTINUOUS
 10
123.201952
 20
121.880221
 40
2.000000
  0
LINE
  8
1
 62
7
  6
CONTINUOUS
 10
45.201952
 20
125.145321
 11
45.201952
 21
119.090139
  0
LINE
  8
1
 62
7
  6
CONTINUOUS
 10
42.421192
 20
121.880221
 11
48.184055
 21
121.880221
  0
CIRCLE
  8
1
 62
7
  6
CONTINUOUS
 10
45.201952
 20
121.880221
 40
2.000000
  0
LINE
  8
1
 62
7
  6
CONTINUOUS
 10
54.960265
 20
85.953134
 11
57.169563
 21
85.953134
  0
LINE
  8
1
 62
7
  6
CONTINUOUS
 10
56.026823
 20
87.110159
 11
56.026823
 21
84.791348
  0
CIRCLE
  8
1
 62
7
  6
CONTINUOUS
 10
56.026823
 20
85.953134
 40
2.000000
  0
LINE
  8
1
 62
7
  6
CONTINUOUS
 10
54.474600
 20
158.379077
 11
56.683898
 21
158.379077
  0
LINE
  8
1
 62
7
  6
CONTINUOUS
 10
55.541158
 20
159.536102
 11
55.541158
 21
157.217291
  0
CIRCLE
  8
1
 62
7
  6
CONTINUOUS
 10
55.541158
 20
158.379077
 40
2.000000
  0
LINE
  8
1
 62
7
  6
CONTINUOUS
 10
111.978256
 20
156.926844
 11
111.978256
 21
159.136143
  0
LINE
  8
1
 62
7
  6
CONTINUOUS
 10
110.821231
 20
157.993402
 11
113.140042
 21
157.993402
  0
CIRCLE
  8
1
 62
7
  6
CONTINUOUS
 10
111.978256
 20
157.993402
 40
2.000000
  0
LINE
  8
1
 62
7
  6
CONTINUOUS
 10
112.621048
 20
84.677074
 11
112.621048
 21
86.886372
  0
LINE
  8
1
 62
7
  6
CONTINUOUS
 10
111.464023
 20
85.743632
 11
113.782834
 21
85.743632
  0
CIRCLE
  8
1
 62
7
  6
CONTINUOUS
 10
112.621048
 20
85.743632
 40
2.000000
  0
LINE
  8
1
 62
7
  6
CONTINUOUS
 10
371.036663
 20
264.566171
 11
307.036663
 21
264.566171
  0
LINE
  8
1
 62
7
  6
DOT
 10
335.237221
 20
207.107438
 11
353.278237
 21
207.107438
  0
LINE
  8
1
 62
7
  6
DOT
 10
335.237221
 20
207.107438
 11
335.237221
 21
213.578206
  0
LINE
  8
1
 62
7
  6
DOT
 10
333.437404
 20
213.578206
 11
333.437404
 21
207.107438
  0
LINE
  8
1
 62
7
  6
DOT
 10
327.716253
 20
207.107438
 11
333.437404
 21
207.107438
  0
LINE
  8
1
 62
7
  6
DOT
 10
353.278237
 20
207.107438
 11
353.278237
 21
213.578206
  0
LINE
  8
1
 62
7
  6
DOT
 10
327.716253
 20
213.578206
 11
327.716253
 21
207.107438
  0
LINE
  8
1
 62
7
  6
CONTINUOUS
 10
335.237221
 20
213.578206
 11
335.237221
 21
214.985206
  0
LINE
  8
1
 62
7
  6
CONTINUOUS
 10
353.278237
 20
213.578206
 11
353.278237
 21
214.566171
  0
LINE
  8
1
 62
7
  6
CONTINUOUS
 10
327.716253
 20
214.566171
 11
327.716253
 21
213.578206
  0
LINE
  8
1
 62
7
  6
CONTINUOUS
 10
355.549434
 20
206.057545
 11
362.341598
 21
206.057545
  0
LINE
  8
1
 62
7
  6
CONTINUOUS
 10
355.549434
 20
213.578206
 11
355.549434
 21
206.057545
  0
LINE
  8
1
 62
7
  6
CONTINUOUS
 10
325.702479
 20
213.578206
 11
355.549434
 21
213.578206
  0
LINE
  8
1
 62
7
  6
CONTINUOUS
 10
325.702479
 20
206.057545
 11
318.953168
 21
206.057545
  0
LINE
  8
1
 62
7
  6
CONTINUOUS
 10
325.702479
 20
213.578206
 11
325.702479
 21
206.057545
  0
LINE
  8
1
 62
7
  6
CONTINUOUS
 10
333.437404
 20
214.985206
 11
333.437404
 21
213.578206
  0
LINE
  8
1
 62
7
  6
CONTINUOUS
 10
335.237221
 20
214.985206
 11
333.437404
 21
214.985206
  0
LINE
  8
1
 62
7
  6
CONTINUOUS
 10
318.953168
 20
206.057545
 11
318.953168
 21
201.322314
  0
LINE
  8
1
 62
7
  6
CONTINUOUS
 10
318.953168
 20
201.322314
 11
362.341598
 21
201.322314
  0
LINE
  8
1
 62
7
  6
CONTINUOUS
 10
362.341598
 20
206.057545
 11
362.341598
 21
201.322314
  0
LINE
  8
1
 62
7
  6
CONTINUOUS
 10
326.984888
 20
201.322314
 11
326.984888
 21
193.566171
  0
LINE
  8
1
 62
7
  6
CONTINUOUS
 10
326.984888
 20
193.566171
 11
329.470349
 21
193.566171
  0
LINE
  8
1
 62
7
  6
CONTINUOUS
 10
329.470349
 20
193.566171
 11
329.470349
 21
201.322314
  0
LINE
  8
1
 62
7
  6
CONTINUOUS
 10
329.470349
 20
201.322314
 11
326.984888
 21
201.322314
  0
LINE
  8
1
 62
7
  6
CONTINUOUS
 10
331.984888
 20
201.322314
 11
331.984888
 21
193.566171
  0
LINE
  8
1
 62
7
  6
CONTINUOUS
 10
331.984888
 20
193.566171
 11
334.470349
 21
193.566171
  0
LINE
  8
1
 62
7
  6
CONTINUOUS
 10
334.470349
 20
193.566171
 11
334.470349
 21
201.322314
  0
LINE
  8
1
 62
7
  6
CONTINUOUS
 10
334.470349
 20
201.322314
 11
331.984888
 21
201.322314
  0
LINE
  8
1
 62
7
  6
CONTINUOUS
 10
336.984888
 20
201.322314
 11
336.984888
 21
193.566171
  0
LINE
  8
1
 62
7
  6
CONTINUOUS
 10
336.984888
 20
193.566171
 11
339.470349
 21
193.566171
  0
LINE
  8
1
 62
7
  6
CONTINUOUS
 10
339.470349
 20
193.566171
 11
339.470349
 21
201.322314
  0
LINE
  8
1
 62
7
  6
CONTINUOUS
 10
339.470349
 20
201.322314
 11
336.984888
 21
201.322314
  0
LINE
  8
1
 62
7
  6
CONTINUOUS
 10
341.984888
 20
201.322314
 11
341.984888
 21
193.566171
  0
LINE
  8
1
 62
7
  6
CONTINUOUS
 10
341.984888
 20
193.566171
 11
344.470349
 21
193.566171
  0
LINE
  8
1
 62
7
  6
CONTINUOUS
 10
344.470349
 20
193.566171
 11
344.470349
 21
201.322314
  0
LINE
  8
1
 62
7
  6
CONTINUOUS
 10
344.470349
 20
201.322314
 11
341.984888
 21
201.322314
  0
LINE
  8
1
 62
7
  6
CONTINUOUS
 10
346.984888
 20
201.322314
 11
346.984888
 21
193.566171
  0
LINE
  8
1
 62
7
  6
CONTINUOUS
 10
346.984888
 20
193.566171
 11
349.470349
 21
193.566171
  0
LINE
  8
1
 62
7
  6
CONTINUOUS
 10
349.470349
 20
193.566171
 11
349.470349
 21
201.322314
  0
LINE
  8
1
 62
7
  6
CONTINUOUS
 10
349.470349
 20
201.322314
 11
346.984888
 21
201.322314
  0
LINE
  8
1
 62
7
  6
CONTINUOUS
 10
351.984888
 20
201.322314
 11
351.984888
 21
193.566171
  0
LINE
  8
1
 62
7
  6
CONTINUOUS
 10
351.984888
 20
193.566171
 11
354.470349
 21
193.566171
  0
LINE
  8
1
 62
7
  6
CONTINUOUS
 10
354.470349
 20
193.566171
 11
354.470349
 21
201.322314
  0
LINE
  8
1
 62
7
  6
CONTINUOUS
 10
354.470349
 20
201.322314
 11
351.984888
 21
201.322314
  0
LINE
  8
1
 62
7
  6
CONTINUOUS
 10
309.309311
 20
261.065027
 11
311.518609
 21
261.065027
  0
LINE
  8
1
 62
7
  6
CONTINUOUS
 10
310.375869
 20
262.222052
 11
310.375869
 21
259.903241
  0
CIRCLE
  8
1
 62
7
  6
CONTINUOUS
 10
310.375869
 20
261.065027
 40
2.000000
  0
LINE
  8
1
 62
7
  6
CONTINUOUS
 10
366.812967
 20
259.612795
 11
366.812967
 21
261.822093
  0
LINE
  8
1
 62
7
  6
CONTINUOUS
 10
365.655942
 20
260.679352
 11
367.974753
 21
260.679352
  0
CIRCLE
  8
1
 62
7
  6
CONTINUOUS
 10
366.812967
 20
260.679352
 40
2.000000
  0
LINE
  8
1
 62
7
  6
CONTINUOUS
 10
327.716253
 20
214.566171
 11
307.036663
 21
214.566171
  0
LINE
  8
1
 62
7
  6
CONTINUOUS
 10
307.036663
 20
214.566171
 11
307.036663
 21
264.566171
  0
LINE
  8
1
 62
7
  6
CONTINUOUS
 10
371.036663
 20
214.566171
 11
353.278237
 21
214.566171
  0
LINE
  8
1
 62
7
  6
CONTINUOUS
 10
371.036663
 20
214.566171
 11
371.036663
 21
264.566171
  0
LINE
  8
1
 62
7
  6
CONTINUOUS
 10
311.239669
 20
252.809917
 11
311.239669
 21
245.000000
  0
LINE
  8
1
 62
7
  6
CONTINUOUS
 10
311.239669
 20
245.000000
 11
337.561983
 21
245.000000
  0
LINE
  8
1
 62
7
  6
CONTINUOUS
 10
337.561983
 20
245.000000
 11
337.561983
 21
252.809917
  0
LINE
  8
1
 62
7
  6
CONTINUOUS
 10
337.561983
 20
252.809917
 11
311.239669
 21
252.809917
  0
LINE
  8
1
 62
7
  6
CONTINUOUS
 10
311.528926
 20
235.454545
 11
311.528926
 21
227.644628
  0
LINE
  8
1
 62
7
  6
CONTINUOUS
 10
311.528926
 20
227.644628
 11
332.355372
 21
227.644628
  0
LINE
  8
1
 62
7
  6
CONTINUOUS
 10
332.355372
 20
227.644628
 11
332.355372
 21
235.454545
  0
LINE
  8
1
 62
7
  6
CONTINUOUS
 10
332.355372
 20
235.454545
 11
311.528926
 21
235.454545
  0
LINE
  8
1
 62
7
  6
CONTINUOUS
 10
334.487297
 20
235.368840
 11
334.487297
 21
228.137435
  0
LINE
  8
1
 62
7
  6
CONTINUOUS
 10
334.487297
 20
228.137435
 11
337.958372
 21
228.137435
  0
LINE
  8
1
 62
7
  6
CONTINUOUS
 10
337.958372
 20
228.137435
 11
337.958372
 21
235.368840
  0
LINE
  8
1
 62
7
  6
CONTINUOUS
 10
337.958372
 20
235.368840
 11
334.487297
 21
235.368840
  0
LINE
  8
1
 62
7
  6
CONTINUOUS
 10
334.487297
 20
232.918693
 11
337.958372
 21
232.918693
  0
LINE
  8
1
 62
7
  6
CONTINUOUS
 10
334.487297
 20
230.499892
 11
337.958372
 21
230.499892
  0
LINE
  8
1
 62
7
  6
CONTINUOUS
 10
335.463785
 20
234.626455
 11
335.463785
 21
233.585292
  0
LINE
  8
1
 62
7
  6
CONTINUOUS
 10
335.463785
 20
233.585292
 11
336.885862
 21
233.585292
  0
LINE
  8
1
 62
7
  6
CONTINUOUS
 10
336.885862
 20
233.585292
 11
336.885862
 21
234.626455
  0
LINE
  8
1
 62
7
  6
CONTINUOUS
 10
336.885862
 20
234.626455
 11
335.463785
 21
234.626455
  0
LINE
  8
1
 62
7
  6
CONTINUOUS
 10
335.463785
 20
232.207655
 11
335.463785
 21
231.166491
  0
LINE
  8
1
 62
7
  6
CONTINUOUS
 10
335.463785
 20
231.166491
 11
336.885862
 21
231.166491
  0
LINE
  8
1
 62
7
  6
CONTINUOUS
 10
336.885862
 20
231.166491
 11
336.885862
 21
232.207655
  0
LINE
  8
1
 62
7
  6
CONTINUOUS
 10
336.885862
 20
232.207655
 11
335.463785
 21
232.207655
  0
LINE
  8
1
 62
7
  6
CONTINUOUS
 10
335.463785
 20
229.845197
 11
335.463785
 21
228.804034
  0
LINE
  8
1
 62
7
  6
CONTINUOUS
 10
335.463785
 20
228.804034
 11
336.885862
 21
228.804034
  0
LINE
  8
1
 62
7
  6
CONTINUOUS
 10
336.885862
 20
228.804034
 11
336.885862
 21
229.845197
  0
LINE
  8
1
 62
7
  6
CONTINUOUS
 10
336.885862
 20
229.845197
 11
335.463785
 21
229.845197
  0
LINE
  8
1
 62
7
  6
CONTINUOUS
 10
352.328334
 20
256.098074
 11
344.518416
 21
256.098074
  0
LINE
  8
1
 62
7
  6
CONTINUOUS
 10
344.518416
 20
256.098074
 11
344.518416
 21
235.271628
  0
LINE
  8
1
 62
7
  6
CONTINUOUS
 10
344.518416
 20
235.271628
 11
352.328334
 21
235.271628
  0
LINE
  8
1
 62
7
  6
CONTINUOUS
 10
352.328334
 20
235.271628
 11
352.328334
 21
256.098074
  0
TEXT
  8
1
 62
7
  6
CONTINUOUS
 10
318.852781
 20
256.659128
 40
4.000000
 41
0.500000
  1
CFB-V
  7
KANJI
 50
0.000000
 51
0.000000
  0
TEXT
  8
1
 62
7
  6
CONTINUOUS
 10
344.564444
 20
258.801766
 40
4.000000
 41
0.500000
  1
CN
  7
KANJI
 50
0.000000
 51
0.000000
  0
TEXT
  8
1
 62
7
  6
CONTINUOUS
 10
315.424560
 20
246.974402
 40
4.000000
 41
0.500000
  1
IC
  7
KANJI
 50
0.000000
 51
0.000000
  0
TEXT
  8
1
 62
7
  6
CONTINUOUS
 10
315.510265
 20
229.661883
 40
4.000000
 41
0.500000
  1
IC
  7
KANJI
 50
0.000000
 51
0.000000
  0
TEXT
  8
1
 62
7
  6
CONTINUOUS
 10
346.278554
 20
243.974708
 40
4.000000
 41
0.500000
  1
IC
  7
KANJI
 50
0.000000
 51
0.000000
  0
LINE
  8
1
 62
7
  6
CONTINUOUS
 10
340.450578
 20
263.515571
 11
340.450578
 21
258.030416
  0
LINE
  8
1
 62
7
  6
CONTINUOUS
 10
340.450578
 20
258.030416
 11
352.877881
 21
258.030416
  0
LINE
  8
1
 62
7
  6
CONTINUOUS
 10
352.877881
 20
258.030416
 11
352.877881
 21
263.515571
  0
LINE
  8
1
 62
7
  6
CONTINUOUS
 10
352.877881
 20
263.515571
 11
340.450578
 21
263.515571
  0
CIRCLE
  8
1
 62
7
  6
CONTINUOUS
 10
362.476901
 20
242.689125
 40
4.060851
  0
ARC
  8
1
 62
7
  6
CONTINUOUS
 10
383.419102
 20
206.493206
 40
0.800000
 50
90.000000
 51
180.000000
  0
LINE
  8
1
 62
7
  6
CONTINUOUS
 10
383.419102
 20
207.293206
 11
394.619102
 21
207.293206
  0
ARC
  8
1
 62
7
  6
CONTINUOUS
 10
394.619102
 20
206.493206
 40
0.800000
 50
-0.000000
 51
90.000000
  0
LINE
  8
1
 62
7
  6
CONTINUOUS
 10
395.419102
 20
206.493206
 11
395.419102
 21
195.293206
  0
ARC
  8
1
 62
7
  6
CONTINUOUS
 10
394.619102
 20
195.293206
 40
0.800000
 50
-90.000000
 51
0.000000
  0
LINE
  8
1
 62
7
  6
CONTINUOUS
 10
394.619102
 20
194.493206
 11
383.419102
 21
194.493206
  0
LINE
  8
1
 62
7
  6
CONTINUOUS
 10
382.619102
 20
195.293206
 11
382.619102
 21
206.493206
  0
ARC
  8
1
 62
7
  6
CONTINUOUS
 10
383.419102
 20
195.293206
 40
0.800000
 50
180.000000
 51
-90.000000
  0
ARC
  8
1
 62
7
  6
CONTINUOUS
 10
383.419102
 20
188.993206
 40
0.800000
 50
90.000000
 51
180.000000
  0
LINE
  8
1
 62
7
  6
CONTINUOUS
 10
383.419102
 20
189.793206
 11
394.619102
 21
189.793206
  0
ARC
  8
1
 62
7
  6
CONTINUOUS
 10
394.619102
 20
188.993206
 40
0.800000
 50
-0.000000
 51
90.000000
  0
LINE
  8
1
 62
7
  6
CONTINUOUS
 10
395.419102
 20
188.993206
 11
395.419102
 21
177.793206
  0
ARC
  8
1
 62
7
  6
CONTINUOUS
 10
394.619102
 20
177.793206
 40
0.800000
 50
-90.000000
 51
0.000000
  0
LINE
  8
1
 62
7
  6
CONTINUOUS
 10
394.619102
 20
176.993206
 11
383.419102
 21
176.993206
  0
LINE
  8
1
 62
7
  6
CONTINUOUS
 10
382.619102
 20
177.793206
 11
382.619102
 21
188.993206
  0
ARC
  8
1
 62
7
  6
CONTINUOUS
 10
383.419102
 20
177.793206
 40
0.800000
 50
180.000000
 51
-90.000000
  0
ARC
  8
1
 62
7
  6
CONTINUOUS
 10
383.419102
 20
171.493206
 40
0.800000
 50
90.000000
 51
180.000000
  0
LINE
  8
1
 62
7
  6
CONTINUOUS
 10
383.419102
 20
172.293206
 11
394.619102
 21
172.293206
  0
ARC
  8
1
 62
7
  6
CONTINUOUS
 10
394.619102
 20
171.493206
 40
0.800000
 50
-0.000000
 51
90.000000
  0
LINE
  8
1
 62
7
  6
CONTINUOUS
 10
395.419102
 20
171.493206
 11
395.419102
 21
160.293206
  0
ARC
  8
1
 62
7
  6
CONTINUOUS
 10
394.619102
 20
160.293206
 40
0.800000
 50
-90.000000
 51
0.000000
  0
LINE
  8
1
 62
7
  6
CONTINUOUS
 10
394.619102
 20
159.493206
 11
383.419102
 21
159.493206
  0
LINE
  8
1
 62
7
  6
CONTINUOUS
 10
382.619102
 20
160.293206
 11
382.619102
 21
171.493206
  0
ARC
  8
1
 62
7
  6
CONTINUOUS
 10
383.419102
 20
160.293206
 40
0.800000
 50
180.000000
 51
-90.000000
  0
ARC
  8
1
 62
7
  6
CONTINUOUS
 10
383.419102
 20
153.993206
 40
0.800000
 50
90.000000
 51
180.000000
  0
LINE
  8
1
 62
7
  6
CONTINUOUS
 10
383.419102
 20
154.793206
 11
394.619102
 21
154.793206
  0
ARC
  8
1
 62
7
  6
CONTINUOUS
 10
394.619102
 20
153.993206
 40
0.800000
 50
-0.000000
 51
90.000000
  0
LINE
  8
1
 62
7
  6
CONTINUOUS
 10
395.419102
 20
153.993206
 11
395.419102
 21
142.793206
  0
ARC
  8
1
 62
7
  6
CONTINUOUS
 10
394.619102
 20
142.793206
 40
0.800000
 50
-90.000000
 51
0.000000
  0
LINE
  8
1
 62
7
  6
CONTINUOUS
 10
394.619102
 20
141.993206
 11
383.419102
 21
141.993206
  0
LINE
  8
1
 62
7
  6
CONTINUOUS
 10
382.619102
 20
142.793206
 11
382.619102
 21
153.993206
  0
ARC
  8
1
 62
7
  6
CONTINUOUS
 10
383.419102
 20
142.793206
 40
0.800000
 50
180.000000
 51
-90.000000
  0
ARC
  8
1
 62
7
  6
CONTINUOUS
 10
404.419102
 20
206.493206
 40
0.800000
 50
90.000000
 51
180.000000
  0
LINE
  8
1
 62
7
  6
CONTINUOUS
 10
404.419102
 20
207.293206
 11
415.619102
 21
207.293206
  0
ARC
  8
1
 62
7
  6
CONTINUOUS
 10
415.619102
 20
206.493206
 40
0.800000
 50
-0.000000
 51
90.000000
  0
LINE
  8
1
 62
7
  6
CONTINUOUS
 10
416.419102
 20
206.493206
 11
416.419102
 21
195.293206
  0
ARC
  8
1
 62
7
  6
CONTINUOUS
 10
415.619102
 20
195.293206
 40
0.800000
 50
-90.000000
 51
0.000000
  0
LINE
  8
1
 62
7
  6
CONTINUOUS
 10
415.619102
 20
194.493206
 11
404.419102
 21
194.493206
  0
LINE
  8
1
 62
7
  6
CONTINUOUS
 10
403.619102
 20
195.293206
 11
403.619102
 21
206.493206
  0
ARC
  8
1
 62
7
  6
CONTINUOUS
 10
404.419102
 20
195.293206
 40
0.800000
 50
180.000000
 51
-90.000000
  0
ARC
  8
1
 62
7
  6
CONTINUOUS
 10
404.419102
 20
188.993206
 40
0.800000
 50
90.000000
 51
180.000000
  0
LINE
  8
1
 62
7
  6
CONTINUOUS
 10
404.419102
 20
189.793206
 11
415.619102
 21
189.793206
  0
ARC
  8
1
 62
7
  6
CONTINUOUS
 10
415.619102
 20
188.993206
 40
0.800000
 50
-0.000000
 51
90.000000
  0
LINE
  8
1
 62
7
  6
CONTINUOUS
 10
416.419102
 20
188.993206
 11
416.419102
 21
177.793206
  0
ARC
  8
1
 62
7
  6
CONTINUOUS
 10
415.619102
 20
177.793206
 40
0.800000
 50
-90.000000
 51
0.000000
  0
LINE
  8
1
 62
7
  6
CONTINUOUS
 10
415.619102
 20
176.993206
 11
404.419102
 21
176.993206
  0
LINE
  8
1
 62
7
  6
CONTINUOUS
 10
403.619102
 20
177.793206
 11
403.619102
 21
188.993206
  0
ARC
  8
1
 62
7
  6
CONTINUOUS
 10
404.419102
 20
177.793206
 40
0.800000
 50
180.000000
 51
-90.000000
  0
ARC
  8
1
 62
7
  6
CONTINUOUS
 10
404.419102
 20
171.493206
 40
0.800000
 50
90.000000
 51
180.000000
  0
LINE
  8
1
 62
7
  6
CONTINUOUS
 10
404.419102
 20
172.293206
 11
415.619102
 21
172.293206
  0
ARC
  8
1
 62
7
  6
CONTINUOUS
 10
415.619102
 20
171.493206
 40
0.800000
 50
-0.000000
 51
90.000000
  0
LINE
  8
1
 62
7
  6
CONTINUOUS
 10
416.419102
 20
171.493206
 11
416.419102
 21
160.293206
  0
ARC
  8
1
 62
7
  6
CONTINUOUS
 10
415.619102
 20
160.293206
 40
0.800000
 50
-90.000000
 51
0.000000
  0
LINE
  8
1
 62
7
  6
CONTINUOUS
 10
415.619102
 20
159.493206
 11
404.419102
 21
159.493206
  0
LINE
  8
1
 62
7
  6
CONTINUOUS
 10
403.619102
 20
160.293206
 11
403.619102
 21
171.493206
  0
ARC
  8
1
 62
7
  6
CONTINUOUS
 10
404.419102
 20
160.293206
 40
0.800000
 50
180.000000
 51
-90.000000
  0
ARC
  8
1
 62
7
  6
CONTINUOUS
 10
404.419102
 20
153.993206
 40
0.800000
 50
90.000000
 51
180.000000
  0
LINE
  8
1
 62
7
  6
CONTINUOUS
 10
404.419102
 20
154.793206
 11
415.619102
 21
154.793206
  0
ARC
  8
1
 62
7
  6
CONTINUOUS
 10
415.619102
 20
153.993206
 40
0.800000
 50
-0.000000
 51
90.000000
  0
LINE
  8
1
 62
7
  6
CONTINUOUS
 10
416.419102
 20
153.993206
 11
416.419102
 21
142.793206
  0
ARC
  8
1
 62
7
  6
CONTINUOUS
 10
415.619102
 20
142.793206
 40
0.800000
 50
-90.000000
 51
0.000000
  0
LINE
  8
1
 62
7
  6
CONTINUOUS
 10
415.619102
 20
141.993206
 11
404.419102
 21
141.993206
  0
LINE
  8
1
 62
7
  6
CONTINUOUS
 10
403.619102
 20
142.793206
 11
403.619102
 21
153.993206
  0
ARC
  8
1
 62
7
  6
CONTINUOUS
 10
404.419102
 20
142.793206
 40
0.800000
 50
180.000000
 51
-90.000000
  0
TEXT
  8
1
 62
7
  6
CONTINUOUS
 10
390.602497
 20
143.895567
 40
6.000000
 41
0.500000
  1
1
  7
KANJI
 50
0.000000
 51
0.000000
  0
TEXT
  8
1
 62
7
  6
CONTINUOUS
 10
390.790417
 20
161.559997
 40
6.000000
 41
0.500000
  1
2
  7
KANJI
 50
0.000000
 51
0.000000
  0
TEXT
  8
1
 62
7
  6
CONTINUOUS
 10
390.790417
 20
179.224426
 40
6.000000
 41
0.500000
  1
3
  7
KANJI
 50
0.000000
 51
0.000000
  0
TEXT
  8
1
 62
7
  6
CONTINUOUS
 10
390.790417
 20
195.197581
 40
6.000000
 41
0.500000
  1
4
  7
KANJI
 50
0.000000
 51
0.000000
  0
TEXT
  8
1
 62
7
  6
CONTINUOUS
 10
411.620022
 20
143.895567
 40
6.000000
 41
0.500000
  1
5
  7
KANJI
 50
0.000000
 51
0.000000
  0
TEXT
  8
1
 62
7
  6
CONTINUOUS
 10
411.807941
 20
161.559997
 40
6.000000
 41
0.500000
  1
6
  7
KANJI
 50
0.000000
 51
0.000000
  0
TEXT
  8
1
 62
7
  6
CONTINUOUS
 10
411.807941
 20
179.224426
 40
6.000000
 41
0.500000
  1
7
  7
KANJI
 50
0.000000
 51
0.000000
  0
TEXT
  8
1
 62
7
  6
CONTINUOUS
 10
411.807941
 20
195.197581
 40
6.000000
 41
0.500000
  1
8
  7
KANJI
 50
0.000000
 51
0.000000
  0
LINE
  8
1
 62
7
  6
CONTINUOUS
 10
384.259468
 20
205.736149
 11
384.259468
 21
203.807775
  0
LINE
  8
1
 62
7
  6
CONTINUOUS
 10
384.259468
 20
203.807775
 11
389.144684
 21
203.807775
  0
LINE
  8
1
 62
7
  6
CONTINUOUS
 10
389.144684
 20
203.807775
 11
389.144684
 21
205.736149
  0
LINE
  8
1
 62
7
  6
CONTINUOUS
 10
389.144684
 20
205.736149
 11
384.259468
 21
205.736149
  0
LINE
  8
1
 62
7
  6
CONTINUOUS
 10
384.259468
 20
188.236149
 11
384.259468
 21
186.307775
  0
LINE
  8
1
 62
7
  6
CONTINUOUS
 10
384.259468
 20
186.307775
 11
389.144684
 21
186.307775
  0
LINE
  8
1
 62
7
  6
CONTINUOUS
 10
389.144684
 20
186.307775
 11
389.144684
 21
188.236149
  0
LINE
  8
1
 62
7
  6
CONTINUOUS
 10
389.144684
 20
188.236149
 11
384.259468
 21
188.236149
  0
LINE
  8
1
 62
7
  6
CONTINUOUS
 10
384.259468
 20
170.736149
 11
384.259468
 21
168.807775
  0
LINE
  8
1
 62
7
  6
CONTINUOUS
 10
384.259468
 20
168.807775
 11
389.144684
 21
168.807775
  0
LINE
  8
1
 62
7
  6
CONTINUOUS
 10
389.144684
 20
168.807775
 11
389.144684
 21
170.736149
  0
LINE
  8
1
 62
7
  6
CONTINUOUS
 10
389.144684
 20
170.736149
 11
384.259468
 21
170.736149
  0
LINE
  8
1
 62
7
  6
CONTINUOUS
 10
384.259468
 20
153.236149
 11
384.259468
 21
151.307775
  0
LINE
  8
1
 62
7
  6
CONTINUOUS
 10
384.259468
 20
151.307775
 11
389.144684
 21
151.307775
  0
LINE
  8
1
 62
7
  6
CONTINUOUS
 10
389.144684
 20
151.307775
 11
389.144684
 21
153.236149
  0
LINE
  8
1
 62
7
  6
CONTINUOUS
 10
389.144684
 20
153.236149
 11
384.259468
 21
153.236149
  0
LINE
  8
1
 62
7
  6
CONTINUOUS
 10
405.259468
 20
153.236149
 11
405.259468
 21
151.307775
  0
LINE
  8
1
 62
7
  6
CONTINUOUS
 10
405.259468
 20
151.307775
 11
410.144684
 21
151.307775
  0
LINE
  8
1
 62
7
  6
CONTINUOUS
 10
410.144684
 20
151.307775
 11
410.144684
 21
153.236149
  0
LINE
  8
1
 62
7
  6
CONTINUOUS
 10
410.144684
 20
153.236149
 11
405.259468
 21
153.236149
  0
LINE
  8
1
 62
7
  6
CONTINUOUS
 10
405.259468
 20
170.736149
 11
405.259468
 21
168.807775
  0
LINE
  8
1
 62
7
  6
CONTINUOUS
 10
405.259468
 20
168.807775
 11
410.144684
 21
168.807775
  0
LINE
  8
1
 62
7
  6
CONTINUOUS
 10
410.144684
 20
168.807775
 11
410.144684
 21
170.736149
  0
LINE
  8
1
 62
7
  6
CONTINUOUS
 10
410.144684
 20
170.736149
 11
405.259468
 21
170.736149
  0
LINE
  8
1
 62
7
  6
CONTINUOUS
 10
405.259468
 20
188.236149
 11
405.259468
 21
186.307775
  0
LINE
  8
1
 62
7
  6
CONTINUOUS
 10
405.259468
 20
186.307775
 11
410.144684
 21
186.307775
  0
LINE
  8
1
 62
7
  6
CONTINUOUS
 10
410.144684
 20
186.307775
 11
410.144684
 21
188.236149
  0
LINE
  8
1
 62
7
  6
CONTINUOUS
 10
410.144684
 20
188.236149
 11
405.259468
 21
188.236149
  0
LINE
  8
1
 62
7
  6
CONTINUOUS
 10
405.259468
 20
205.736149
 11
405.259468
 21
203.807775
  0
LINE
  8
1
 62
7
  6
CONTINUOUS
 10
405.259468
 20
203.807775
 11
410.144684
 21
203.807775
  0
LINE
  8
1
 62
7
  6
CONTINUOUS
 10
410.144684
 20
203.807775
 11
410.144684
 21
205.736149
  0
LINE
  8
1
 62
7
  6
CONTINUOUS
 10
410.144684
 20
205.736149
 11
405.259468
 21
205.736149
  0
LINE
  8
1
 62
7
  6
CONTINUOUS
 10
497.611570
 20
34.719008
 11
376.611570
 21
34.719008
  0
LINE
  8
1
 62
7
  6
CONTINUOUS
 10
497.611570
 20
118.719008
 11
376.611570
 21
118.719008
  0
ARC
  8
1
 62
7
  6
CONTINUOUS
 10
494.611570
 20
125.719008
 40
3.000000
 50
0.000000
 51
90.000000
  0
ARC
  8
1
 62
7
  6
CONTINUOUS
 10
379.611570
 20
125.719008
 40
3.000000
 50
90.000000
 51
180.000000
  0
LINE
  8
1
 62
7
  6
CONTINUOUS
 10
376.611570
 20
125.719008
 11
376.611570
 21
27.719008
  0
ARC
  8
1
 62
7
  6
CONTINUOUS
 10
379.611570
 20
27.719008
 40
3.000000
 50
180.000000
 51
-90.000000
  0
LINE
  8
1
 62
7
  6
CONTINUOUS
 10
497.611570
 20
27.719008
 11
497.611570
 21
125.719008
  0
ARC
  8
1
 62
7
  6
CONTINUOUS
 10
494.611570
 20
27.719008
 40
3.000000
 50
-90.000000
 51
0.000000
  0
CIRCLE
  8
1
 62
7
  6
CONTINUOUS
 10
437.111570
 20
29.719008
 40
2.000000
  0
CIRCLE
  8
1
 62
7
  6
CONTINUOUS
 10
437.111570
 20
123.719008
 40
2.000000
  0
ARC
  8
1
 62
7
  6
CONTINUOUS
 10
477.111570
 20
123.719008
 40
2.000000
 50
180.000000
 51
0.000000
  0
ARC
  8
1
 62
7
  6
CONTINUOUS
 10
397.111570
 20
123.719008
 40
2.000000
 50
180.000000
 51
0.000000
  0
ARC
  8
1
 62
7
  6
CONTINUOUS
 10
397.111570
 20
29.719008
 40
2.000000
 50
0.000000
 51
180.000000
  0
ARC
  8
1
 62
7
  6
CONTINUOUS
 10
477.111570
 20
29.719008
 40
2.000000
 50
0.000000
 51
180.000000
  0
LINE
  8
1
 62
7
  6
CONTINUOUS
 10
494.611570
 20
128.719008
 11
479.311570
 21
128.719008
  0
LINE
  8
1
 62
7
  6
CONTINUOUS
 10
479.111570
 20
123.719008
 11
479.111570
 21
128.519008
  0
LINE
  8
1
 62
7
  6
CONTINUOUS
 10
479.311570
 20
128.719008
 11
479.111570
 21
128.519008
  0
LINE
  8
1
 62
7
  6
CONTINUOUS
 10
475.111570
 20
123.719008
 11
475.111570
 21
128.519008
  0
LINE
  8
1
 62
7
  6
CONTINUOUS
 10
475.111570
 20
128.519008
 11
474.911570
 21
128.719008
  0
LINE
  8
1
 62
7
  6
CONTINUOUS
 10
474.911570
 20
128.719008
 11
399.311570
 21
128.719008
  0
LINE
  8
1
 62
7
  6
CONTINUOUS
 10
399.111570
 20
123.719008
 11
399.111570
 21
128.519008
  0
LINE
  8
1
 62
7
  6
CONTINUOUS
 10
399.311570
 20
128.719008
 11
399.111570
 21
128.519008
  0
LINE
  8
1
 62
7
  6
CONTINUOUS
 10
395.111570
 20
123.719008
 11
395.111570
 21
128.519008
  0
LINE
  8
1
 62
7
  6
CONTINUOUS
 10
379.611570
 20
128.719008
 11
394.911570
 21
128.719008
  0
LINE
  8
1
 62
7
  6
CONTINUOUS
 10
395.111570
 20
128.519008
 11
394.911570
 21
128.719008
  0
LINE
  8
1
 62
7
  6
CONTINUOUS
 10
399.111570
 20
29.719008
 11
399.111570
 21
24.919008
  0
LINE
  8
1
 62
7
  6
CONTINUOUS
 10
399.311570
 20
24.719008
 11
399.111570
 21
24.919008
  0
LINE
  8
1
 62
7
  6
CONTINUOUS
 10
395.111570
 20
29.719008
 11
395.111570
 21
24.919008
  0
LINE
  8
1
 62
7
  6
CONTINUOUS
 10
379.611570
 20
24.719008
 11
394.911570
 21
24.719008
  0
LINE
  8
1
 62
7
  6
CONTINUOUS
 10
395.111570
 20
24.919008
 11
394.911570
 21
24.719008
  0
LINE
  8
1
 62
7
  6
CONTINUOUS
 10
399.311570
 20
24.719008
 11
474.911570
 21
24.719008
  0
LINE
  8
1
 62
7
  6
CONTINUOUS
 10
475.111570
 20
29.719008
 11
475.111570
 21
24.919008
  0
LINE
  8
1
 62
7
  6
CONTINUOUS
 10
474.911570
 20
24.719008
 11
475.111570
 21
24.919008
  0
LINE
  8
1
 62
7
  6
CONTINUOUS
 10
479.111570
 20
29.719008
 11
479.111570
 21
24.919008
  0
LINE
  8
1
 62
7
  6
CONTINUOUS
 10
494.611570
 20
24.719008
 11
479.311570
 21
24.719008
  0
LINE
  8
1
 62
7
  6
CONTINUOUS
 10
479.111570
 20
24.919008
 11
479.311570
 21
24.719008
  0
LINE
  8
1
 62
7
  6
CONTINUOUS
 10
496.684741
 20
35.526596
 11
496.684741
 21
117.672938
  0
LINE
  8
1
 62
7
  6
CONTINUOUS
 10
377.538400
 20
117.672938
 11
377.538400
 21
35.526596
  0
LINE
  8
1
 62
7
  6
CONTINUOUS
 10
377.538400
 20
35.526596
 11
496.684741
 21
35.526596
  0
LINE
  8
1
 62
7
  6
CONTINUOUS
 10
496.684741
 20
117.672938
 11
377.538400
 21
117.672938
  0
CIRCLE
  8
1
 62
7
  6
CONTINUOUS
 10
381.572103
 20
113.898140
 40
2.000000
  0
LINE
  8
1
 62
7
  6
CONTINUOUS
 10
381.280134
 20
114.864456
 11
381.280134
 21
114.190110
  0
ARC
  8
1
 62
7
  6
CONTINUOUS
 10
381.480134
 20
114.864456
 40
0.200000
 50
90.000000
 51
180.000000
  0
LINE
  8
1
 62
7
  6
CONTINUOUS
 10
381.704667
 20
115.064456
 11
381.480134
 21
115.064456
  0
LINE
  8
1
 62
7
  6
CONTINUOUS
 10
381.904667
 20
114.190110
 11
381.904667
 21
114.864456
  0
ARC
  8
1
 62
7
  6
CONTINUOUS
 10
381.704667
 20
114.864456
 40
0.200000
 50
0.000000
 51
90.000000
  0
LINE
  8
1
 62
7
  6
CONTINUOUS
 10
381.904667
 20
112.891230
 11
381.904667
 21
113.615539
  0
ARC
  8
1
 62
7
  6
CONTINUOUS
 10
381.704667
 20
112.891230
 40
0.200000
 50
-90.000000
 51
0.000000
  0
LINE
  8
1
 62
7
  6
CONTINUOUS
 10
381.480134
 20
112.691230
 11
381.704667
 21
112.691230
  0
LINE
  8
1
 62
7
  6
CONTINUOUS
 10
381.280134
 20
113.615539
 11
381.280134
 21
112.891230
  0
ARC
  8
1
 62
7
  6
CONTINUOUS
 10
381.480134
 20
112.891230
 40
0.200000
 50
180.000000
 51
-90.000000
  0
LINE
  8
1
 62
7
  6
CONTINUOUS
 10
382.579013
 20
114.190110
 11
381.904667
 21
114.190110
  0
ARC
  8
1
 62
7
  6
CONTINUOUS
 10
382.579013
 20
113.990110
 40
0.200000
 50
0.000000
 51
90.000000
  0
LINE
  8
1
 62
7
  6
CONTINUOUS
 10
382.779013
 20
113.815539
 11
382.779013
 21
113.990110
  0
LINE
  8
1
 62
7
  6
CONTINUOUS
 10
381.904667
 20
113.615539
 11
382.579013
 21
113.615539
  0
ARC
  8
1
 62
7
  6
CONTINUOUS
 10
382.579013
 20
113.815539
 40
0.200000
 50
-90.000000
 51
0.000000
  0
LINE
  8
1
 62
7
  6
CONTINUOUS
 10
380.480881
 20
113.615539
 11
381.280134
 21
113.615539
  0
ARC
  8
1
 62
7
  6
CONTINUOUS
 10
380.480881
 20
113.815539
 40
0.200000
 50
-180.000000
 51
-90.000000
  0
LINE
  8
1
 62
7
  6
CONTINUOUS
 10
380.280881
 20
113.990110
 11
380.280881
 21
113.815539
  0
LINE
  8
1
 62
7
  6
CONTINUOUS
 10
381.280134
 20
114.190110
 11
380.480881
 21
114.190110
  0
ARC
  8
1
 62
7
  6
CONTINUOUS
 10
380.480881
 20
113.990110
 40
0.200000
 50
90.000000
 51
-180.000000
  0
CIRCLE
  8
1
 62
7
  6
CONTINUOUS
 10
493.181859
 20
113.898140
 40
2.000000
  0
LINE
  8
1
 62
7
  6
CONTINUOUS
 10
492.889890
 20
114.864456
 11
492.889890
 21
114.190110
  0
ARC
  8
1
 62
7
  6
CONTINUOUS
 10
493.089890
 20
114.864456
 40
0.200000
 50
90.000000
 51
180.000000
  0
LINE
  8
1
 62
7
  6
CONTINUOUS
 10
493.314423
 20
115.064456
 11
493.089890
 21
115.064456
  0
LINE
  8
1
 62
7
  6
CONTINUOUS
 10
493.514423
 20
114.190110
 11
493.514423
 21
114.864456
  0
ARC
  8
1
 62
7
  6
CONTINUOUS
 10
493.314423
 20
114.864456
 40
0.200000
 50
0.000000
 51
90.000000
  0
LINE
  8
1
 62
7
  6
CONTINUOUS
 10
493.514423
 20
112.891230
 11
493.514423
 21
113.615539
  0
ARC
  8
1
 62
7
  6
CONTINUOUS
 10
493.314423
 20
112.891230
 40
0.200000
 50
-90.000000
 51
0.000000
  0
LINE
  8
1
 62
7
  6
CONTINUOUS
 10
493.089890
 20
112.691230
 11
493.314423
 21
112.691230
  0
LINE
  8
1
 62
7
  6
CONTINUOUS
 10
492.889890
 20
113.615539
 11
492.889890
 21
112.891230
  0
ARC
  8
1
 62
7
  6
CONTINUOUS
 10
493.089890
 20
112.891230
 40
0.200000
 50
180.000000
 51
-90.000000
  0
LINE
  8
1
 62
7
  6
CONTINUOUS
 10
494.188769
 20
114.190110
 11
493.514423
 21
114.190110
  0
ARC
  8
1
 62
7
  6
CONTINUOUS
 10
494.188769
 20
113.990110
 40
0.200000
 50
0.000000
 51
90.000000
  0
LINE
  8
1
 62
7
  6
CONTINUOUS
 10
494.388769
 20
113.815539
 11
494.388769
 21
113.990110
  0
LINE
  8
1
 62
7
  6
CONTINUOUS
 10
493.514423
 20
113.615539
 11
494.188769
 21
113.615539
  0
ARC
  8
1
 62
7
  6
CONTINUOUS
 10
494.188769
 20
113.815539
 40
0.200000
 50
-90.000000
 51
0.000000
  0
LINE
  8
1
 62
7
  6
CONTINUOUS
 10
492.090637
 20
113.615539
 11
492.889890
 21
113.615539
  0
ARC
  8
1
 62
7
  6
CONTINUOUS
 10
492.090637
 20
113.815539
 40
0.200000
 50
-180.000000
 51
-90.000000
  0
LINE
  8
1
 62
7
  6
CONTINUOUS
 10
491.890637
 20
113.990110
 11
491.890637
 21
113.815539
  0
LINE
  8
1
 62
7
  6
CONTINUOUS
 10
492.889890
 20
114.190110
 11
492.090637
 21
114.190110
  0
ARC
  8
1
 62
7
  6
CONTINUOUS
 10
492.090637
 20
113.990110
 40
0.200000
 50
90.000000
 51
-180.000000
  0
CIRCLE
  8
1
 62
7
  6
CONTINUOUS
 10
493.181859
 20
39.133913
 40
2.000000
  0
LINE
  8
1
 62
7
  6
CONTINUOUS
 10
492.889890
 20
40.100228
 11
492.889890
 21
39.425882
  0
ARC
  8
1
 62
7
  6
CONTINUOUS
 10
493.089890
 20
40.100228
 40
0.200000
 50
90.000000
 51
180.000000
  0
LINE
  8
1
 62
7
  6
CONTINUOUS
 10
493.314423
 20
40.300228
 11
493.089890
 21
40.300228
  0
LINE
  8
1
 62
7
  6
CONTINUOUS
 10
493.514423
 20
39.425882
 11
493.514423
 21
40.100228
  0
ARC
  8
1
 62
7
  6
CONTINUOUS
 10
493.314423
 20
40.100228
 40
0.200000
 50
0.000000
 51
90.000000
  0
LINE
  8
1
 62
7
  6
CONTINUOUS
 10
493.514423
 20
38.127003
 11
493.514423
 21
38.851312
  0
ARC
  8
1
 62
7
  6
CONTINUOUS
 10
493.314423
 20
38.127003
 40
0.200000
 50
-90.000000
 51
0.000000
  0
LINE
  8
1
 62
7
  6
CONTINUOUS
 10
493.089890
 20
37.927003
 11
493.314423
 21
37.927003
  0
LINE
  8
1
 62
7
  6
CONTINUOUS
 10
492.889890
 20
38.851312
 11
492.889890
 21
38.127003
  0
ARC
  8
1
 62
7
  6
CONTINUOUS
 10
493.089890
 20
38.127003
 40
0.200000
 50
180.000000
 51
-90.000000
  0
LINE
  8
1
 62
7
  6
CONTINUOUS
 10
494.188769
 20
39.425882
 11
493.514423
 21
39.425882
  0
ARC
  8
1
 62
7
  6
CONTINUOUS
 10
494.188769
 20
39.225882
 40
0.200000
 50
0.000000
 51
90.000000
  0
LINE
  8
1
 62
7
  6
CONTINUOUS
 10
494.388769
 20
39.051312
 11
494.388769
 21
39.225882
  0
LINE
  8
1
 62
7
  6
CONTINUOUS
 10
493.514423
 20
38.851312
 11
494.188769
 21
38.851312
  0
ARC
  8
1
 62
7
  6
CONTINUOUS
 10
494.188769
 20
39.051312
 40
0.200000
 50
-90.000000
 51
0.000000
  0
LINE
  8
1
 62
7
  6
CONTINUOUS
 10
492.090637
 20
38.851312
 11
492.889890
 21
38.851312
  0
ARC
  8
1
 62
7
  6
CONTINUOUS
 10
492.090637
 20
39.051312
 40
0.200000
 50
-180.000000
 51
-90.000000
  0
LINE
  8
1
 62
7
  6
CONTINUOUS
 10
491.890637
 20
39.225882
 11
491.890637
 21
39.051312
  0
LINE
  8
1
 62
7
  6
CONTINUOUS
 10
492.889890
 20
39.425882
 11
492.090637
 21
39.425882
  0
ARC
  8
1
 62
7
  6
CONTINUOUS
 10
492.090637
 20
39.225882
 40
0.200000
 50
90.000000
 51
-180.000000
  0
CIRCLE
  8
1
 62
7
  6
CONTINUOUS
 10
381.035518
 20
38.776189
 40
2.000000
  0
LINE
  8
1
 62
7
  6
CONTINUOUS
 10
380.743549
 20
39.742505
 11
380.743549
 21
39.068158
  0
ARC
  8
1
 62
7
  6
CONTINUOUS
 10
380.943549
 20
39.742505
 40
0.200000
 50
90.000000
 51
180.000000
  0
LINE
  8
1
 62
7
  6
CONTINUOUS
 10
381.168082
 20
39.942505
 11
380.943549
 21
39.942505
  0
LINE
  8
1
 62
7
  6
CONTINUOUS
 10
381.368082
 20
39.068158
 11
381.368082
 21
39.742505
  0
ARC
  8
1
 62
7
  6
CONTINUOUS
 10
381.168082
 20
39.742505
 40
0.200000
 50
0.000000
 51
90.000000
  0
LINE
  8
1
 62
7
  6
CONTINUOUS
 10
381.368082
 20
37.769279
 11
381.368082
 21
38.493588
  0
ARC
  8
1
 62
7
  6
CONTINUOUS
 10
381.168082
 20
37.769279
 40
0.200000
 50
-90.000000
 51
0.000000
  0
LINE
  8
1
 62
7
  6
CONTINUOUS
 10
380.943549
 20
37.569279
 11
381.168082
 21
37.569279
  0
LINE
  8
1
 62
7
  6
CONTINUOUS
 10
380.743549
 20
38.493588
 11
380.743549
 21
37.769279
  0
ARC
  8
1
 62
7
  6
CONTINUOUS
 10
380.943549
 20
37.769279
 40
0.200000
 50
180.000000
 51
-90.000000
  0
LINE
  8
1
 62
7
  6
CONTINUOUS
 10
382.042428
 20
39.068158
 11
381.368082
 21
39.068158
  0
ARC
  8
1
 62
7
  6
CONTINUOUS
 10
382.042428
 20
38.868158
 40
0.200000
 50
0.000000
 51
90.000000
  0
LINE
  8
1
 62
7
  6
CONTINUOUS
 10
382.242428
 20
38.693588
 11
382.242428
 21
38.868158
  0
LINE
  8
1
 62
7
  6
CONTINUOUS
 10
381.368082
 20
38.493588
 11
382.042428
 21
38.493588
  0
ARC
  8
1
 62
7
  6
CONTINUOUS
 10
382.042428
 20
38.693588
 40
0.200000
 50
-90.000000
 51
0.000000
  0
LINE
  8
1
 62
7
  6
CONTINUOUS
 10
379.944296
 20
38.493588
 11
380.743549
 21
38.493588
  0
ARC
  8
1
 62
7
  6
CONTINUOUS
 10
379.944296
 20
38.693588
 40
0.200000
 50
-180.000000
 51
-90.000000
  0
LINE
  8
1
 62
7
  6
CONTINUOUS
 10
379.744296
 20
38.868158
 11
379.744296
 21
38.693588
  0
LINE
  8
1
 62
7
  6
CONTINUOUS
 10
380.743549
 20
39.068158
 11
379.944296
 21
39.068158
  0
ARC
  8
1
 62
7
  6
CONTINUOUS
 10
379.944296
 20
38.868158
 40
0.200000
 50
90.000000
 51
-180.000000
  0
CIRCLE
  8
1
 62
7
  6
CONTINUOUS
 10
418.775355
 20
77.946921
 40
2.000000
  0
LINE
  8
1
 62
7
  6
CONTINUOUS
 10
418.483386
 20
78.913236
 11
418.483386
 21
78.238890
  0
ARC
  8
1
 62
7
  6
CONTINUOUS
 10
418.683386
 20
78.913236
 40
0.200000
 50
90.000000
 51
180.000000
  0
LINE
  8
1
 62
7
  6
CONTINUOUS
 10
418.907919
 20
79.113236
 11
418.683386
 21
79.113236
  0
LINE
  8
1
 62
7
  6
CONTINUOUS
 10
419.107919
 20
78.238890
 11
419.107919
 21
78.913236
  0
ARC
  8
1
 62
7
  6
CONTINUOUS
 10
418.907919
 20
78.913236
 40
0.200000
 50
0.000000
 51
90.000000
  0
LINE
  8
1
 62
7
  6
CONTINUOUS
 10
419.107919
 20
76.940011
 11
419.107919
 21
77.664320
  0
ARC
  8
1
 62
7
  6
CONTINUOUS
 10
418.907919
 20
76.940011
 40
0.200000
 50
-90.000000
 51
0.000000
  0
LINE
  8
1
 62
7
  6
CONTINUOUS
 10
418.683386
 20
76.740011
 11
418.907919
 21
76.740011
  0
LINE
  8
1
 62
7
  6
CONTINUOUS
 10
418.483386
 20
77.664320
 11
418.483386
 21
76.940011
  0
ARC
  8
1
 62
7
  6
CONTINUOUS
 10
418.683386
 20
76.940011
 40
0.200000
 50
180.000000
 51
-90.000000
  0
LINE
  8
1
 62
7
  6
CONTINUOUS
 10
419.782265
 20
78.238890
 11
419.107919
 21
78.238890
  0
ARC
  8
1
 62
7
  6
CONTINUOUS
 10
419.782265
 20
78.038890
 40
0.200000
 50
0.000000
 51
90.000000
  0
LINE
  8
1
 62
7
  6
CONTINUOUS
 10
419.982265
 20
77.864320
 11
419.982265
 21
78.038890
  0
LINE
  8
1
 62
7
  6
CONTINUOUS
 10
419.107919
 20
77.664320
 11
419.782265
 21
77.664320
  0
ARC
  8
1
 62
7
  6
CONTINUOUS
 10
419.782265
 20
77.864320
 40
0.200000
 50
-90.000000
 51
0.000000
  0
LINE
  8
1
 62
7
  6
CONTINUOUS
 10
417.684133
 20
77.664320
 11
418.483386
 21
77.664320
  0
ARC
  8
1
 62
7
  6
CONTINUOUS
 10
417.684133
 20
77.864320
 40
0.200000
 50
-180.000000
 51
-90.000000
  0
LINE
  8
1
 62
7
  6
CONTINUOUS
 10
417.484133
 20
78.038890
 11
417.484133
 21
77.864320
  0
LINE
  8
1
 62
7
  6
CONTINUOUS
 10
418.483386
 20
78.238890
 11
417.684133
 21
78.238890
  0
ARC
  8
1
 62
7
  6
CONTINUOUS
 10
417.684133
 20
78.038890
 40
0.200000
 50
90.000000
 51
-180.000000
  0
CIRCLE
  8
1
 62
7
  6
CONTINUOUS
 10
450.076168
 20
78.125783
 40
2.000000
  0
LINE
  8
1
 62
7
  6
CONTINUOUS
 10
449.784199
 20
79.092098
 11
449.784199
 21
78.417752
  0
ARC
  8
1
 62
7
  6
CONTINUOUS
 10
449.984199
 20
79.092098
 40
0.200000
 50
90.000000
 51
180.000000
  0
LINE
  8
1
 62
7
  6
CONTINUOUS
 10
450.208732
 20
79.292098
 11
449.984199
 21
79.292098
  0
LINE
  8
1
 62
7
  6
CONTINUOUS
 10
450.408732
 20
78.417752
 11
450.408732
 21
79.092098
  0
ARC
  8
1
 62
7
  6
CONTINUOUS
 10
450.208732
 20
79.092098
 40
0.200000
 50
0.000000
 51
90.000000
  0
LINE
  8
1
 62
7
  6
CONTINUOUS
 10
450.408732
 20
77.118873
 11
450.408732
 21
77.843182
  0
ARC
  8
1
 62
7
  6
CONTINUOUS
 10
450.208732
 20
77.118873
 40
0.200000
 50
-90.000000
 51
0.000000
  0
LINE
  8
1
 62
7
  6
CONTINUOUS
 10
449.984199
 20
76.918873
 11
450.208732
 21
76.918873
  0
LINE
  8
1
 62
7
  6
CONTINUOUS
 10
449.784199
 20
77.843182
 11
449.784199
 21
77.118873
  0
ARC
  8
1
 62
7
  6
CONTINUOUS
 10
449.984199
 20
77.118873
 40
0.200000
 50
180.000000
 51
-90.000000
  0
LINE
  8
1
 62
7
  6
CONTINUOUS
 10
451.083078
 20
78.417752
 11
450.408732
 21
78.417752
  0
ARC
  8
1
 62
7
  6
CONTINUOUS
 10
451.083078
 20
78.217752
 40
0.200000
 50
0.000000
 51
90.000000
  0
LINE
  8
1
 62
7
  6
CONTINUOUS
 10
451.283078
 20
78.043182
 11
451.283078
 21
78.217752
  0
LINE
  8
1
 62
7
  6
CONTINUOUS
 10
450.408732
 20
77.843182
 11
451.083078
 21
77.843182
  0
ARC
  8
1
 62
7
  6
CONTINUOUS
 10
451.083078
 20
78.043182
 40
0.200000
 50
-90.000000
 51
0.000000
  0
LINE
  8
1
 62
7
  6
CONTINUOUS
 10
448.984946
 20
77.843182
 11
449.784199
 21
77.843182
  0
ARC
  8
1
 62
7
  6
CONTINUOUS
 10
448.984946
 20
78.043182
 40
0.200000
 50
-180.000000
 51
-90.000000
  0
LINE
  8
1
 62
7
  6
CONTINUOUS
 10
448.784946
 20
78.217752
 11
448.784946
 21
78.043182
  0
LINE
  8
1
 62
7
  6
CONTINUOUS
 10
449.784199
 20
78.417752
 11
448.984946
 21
78.417752
  0
ARC
  8
1
 62
7
  6
CONTINUOUS
 10
448.984946
 20
78.217752
 40
0.200000
 50
90.000000
 51
-180.000000
  0
LINE
  8
1
 62
7
  6
CONTINUOUS
 10
479.745182
 20
110.902613
 11
479.151552
 21
110.902613
  0
LINE
  8
1
 62
7
  6
CONTINUOUS
 10
451.713140
 20
110.902613
 11
452.220116
 21
110.902613
  0
LINE
  8
1
 62
7
  6
CONTINUOUS
 10
453.539899
 20
114.032694
 11
453.539899
 21
112.894483
  0
LINE
  8
1
 62
7
  6
CONTINUOUS
 10
453.539899
 20
112.894483
 11
454.678110
 21
112.894483
  0
LINE
  8
1
 62
7
  6
CONTINUOUS
 10
454.678110
 20
112.894483
 11
454.678110
 21
114.032694
  0
LINE
  8
1
 62
7
  6
CONTINUOUS
 10
454.678110
 20
114.032694
 11
453.539899
 21
114.032694
  0
LINE
  8
1
 62
7
  6
CONTINUOUS
 10
456.079899
 20
114.032694
 11
456.079899
 21
112.894483
  0
LINE
  8
1
 62
7
  6
CONTINUOUS
 10
456.079899
 20
112.894483
 11
457.218110
 21
112.894483
  0
LINE
  8
1
 62
7
  6
CONTINUOUS
 10
457.218110
 20
112.894483
 11
457.218110
 21
114.032694
  0
LINE
  8
1
 62
7
  6
CONTINUOUS
 10
457.218110
 20
114.032694
 11
456.079899
 21
114.032694
  0
LINE
  8
1
 62
7
  6
CONTINUOUS
 10
458.619899
 20
114.032694
 11
458.619899
 21
112.894483
  0
LINE
  8
1
 62
7
  6
CONTINUOUS
 10
458.619899
 20
112.894483
 11
459.758110
 21
112.894483
  0
LINE
  8
1
 62
7
  6
CONTINUOUS
 10
459.758110
 20
112.894483
 11
459.758110
 21
114.032694
  0
LINE
  8
1
 62
7
  6
CONTINUOUS
 10
459.758110
 20
114.032694
 11
458.619899
 21
114.032694
  0
LINE
  8
1
 62
7
  6
CONTINUOUS
 10
461.159899
 20
114.032694
 11
461.159899
 21
112.894483
  0
LINE
  8
1
 62
7
  6
CONTINUOUS
 10
461.159899
 20
112.894483
 11
462.298110
 21
112.894483
  0
LINE
  8
1
 62
7
  6
CONTINUOUS
 10
462.298110
 20
112.894483
 11
462.298110
 21
114.032694
  0
LINE
  8
1
 62
7
  6
CONTINUOUS
 10
462.298110
 20
114.032694
 11
461.159899
 21
114.032694
  0
LINE
  8
1
 62
7
  6
CONTINUOUS
 10
463.699899
 20
114.032694
 11
463.699899
 21
112.894483
  0
LINE
  8
1
 62
7
  6
CONTINUOUS
 10
463.699899
 20
112.894483
 11
464.838110
 21
112.894483
  0
LINE
  8
1
 62
7
  6
CONTINUOUS
 10
464.838110
 20
112.894483
 11
464.838110
 21
114.032694
  0
LINE
  8
1
 62
7
  6
CONTINUOUS
 10
464.838110
 20
114.032694
 11
463.699899
 21
114.032694
  0
LINE
  8
1
 62
7
  6
CONTINUOUS
 10
466.239899
 20
114.032694
 11
466.239899
 21
112.894483
  0
LINE
  8
1
 62
7
  6
CONTINUOUS
 10
466.239899
 20
112.894483
 11
467.378110
 21
112.894483
  0
LINE
  8
1
 62
7
  6
CONTINUOUS
 10
467.378110
 20
112.894483
 11
467.378110
 21
114.032694
  0
LINE
  8
1
 62
7
  6
CONTINUOUS
 10
467.378110
 20
114.032694
 11
466.239899
 21
114.032694
  0
LINE
  8
1
 62
7
  6
CONTINUOUS
 10
468.779899
 20
114.032694
 11
468.779899
 21
112.894483
  0
LINE
  8
1
 62
7
  6
CONTINUOUS
 10
468.779899
 20
112.894483
 11
469.918110
 21
112.894483
  0
LINE
  8
1
 62
7
  6
CONTINUOUS
 10
469.918110
 20
112.894483
 11
469.918110
 21
114.032694
  0
LINE
  8
1
 62
7
  6
CONTINUOUS
 10
469.918110
 20
114.032694
 11
468.779899
 21
114.032694
  0
LINE
  8
1
 62
7
  6
CONTINUOUS
 10
471.319899
 20
114.032694
 11
471.319899
 21
112.894483
  0
LINE
  8
1
 62
7
  6
CONTINUOUS
 10
471.319899
 20
112.894483
 11
472.458110
 21
112.894483
  0
LINE
  8
1
 62
7
  6
CONTINUOUS
 10
472.458110
 20
112.894483
 11
472.458110
 21
114.032694
  0
LINE
  8
1
 62
7
  6
CONTINUOUS
 10
472.458110
 20
114.032694
 11
471.319899
 21
114.032694
  0
LINE
  8
1
 62
7
  6
CONTINUOUS
 10
473.859899
 20
114.032694
 11
473.859899
 21
112.894483
  0
LINE
  8
1
 62
7
  6
CONTINUOUS
 10
473.859899
 20
112.894483
 11
474.998110
 21
112.894483
  0
LINE
  8
1
 62
7
  6
CONTINUOUS
 10
474.998110
 20
112.894483
 11
474.998110
 21
114.032694
  0
LINE
  8
1
 62
7
  6
CONTINUOUS
 10
474.998110
 20
114.032694
 11
473.859899
 21
114.032694
  0
LINE
  8
1
 62
7
  6
CONTINUOUS
 10
476.399899
 20
114.032694
 11
476.399899
 21
112.894483
  0
LINE
  8
1
 62
7
  6
CONTINUOUS
 10
476.399899
 20
112.894483
 11
477.538110
 21
112.894483
  0
LINE
  8
1
 62
7
  6
CONTINUOUS
 10
477.538110
 20
112.894483
 11
477.538110
 21
114.032694
  0
LINE
  8
1
 62
7
  6
CONTINUOUS
 10
477.538110
 20
114.032694
 11
476.399899
 21
114.032694
  0
LINE
  8
1
 62
7
  6
CONTINUOUS
 10
479.745182
 20
111.949227
 11
479.745182
 21
110.902613
  0
LINE
  8
1
 62
7
  6
CONTINUOUS
 10
479.151552
 20
111.949227
 11
479.745182
 21
111.949227
  0
LINE
  8
1
 62
7
  6
CONTINUOUS
 10
479.151552
 20
111.949227
 11
479.151552
 21
115.834862
  0
LINE
  8
1
 62
7
  6
CONTINUOUS
 10
479.145630
 20
116.183560
 11
479.145630
 21
115.096873
  0
LINE
  8
1
 62
7
  6
CONTINUOUS
 10
479.145630
 20
115.096873
 11
481.169117
 21
115.096873
  0
LINE
  8
1
 62
7
  6
CONTINUOUS
 10
481.169117
 20
115.096873
 11
481.169117
 21
116.183560
  0
LINE
  8
1
 62
7
  6
CONTINUOUS
 10
481.169117
 20
116.183560
 11
479.145630
 21
116.183560
  0
LINE
  8
1
 62
7
  6
CONTINUOUS
 10
450.307941
 20
116.117984
 11
450.307941
 21
115.106241
  0
LINE
  8
1
 62
7
  6
CONTINUOUS
 10
450.307941
 20
115.106241
 11
452.220116
 21
115.106241
  0
LINE
  8
1
 62
7
  6
CONTINUOUS
 10
452.220116
 20
115.106241
 11
452.220116
 21
116.117984
  0
LINE
  8
1
 62
7
  6
CONTINUOUS
 10
452.220116
 20
116.117984
 11
450.307941
 21
116.117984
  0
LINE
  8
1
 62
7
  6
CONTINUOUS
 10
451.713140
 20
111.949227
 11
451.713140
 21
110.902613
  0
LINE
  8
1
 62
7
  6
CONTINUOUS
 10
452.220116
 20
111.949227
 11
451.713140
 21
111.949227
  0
LINE
  8
1
 62
7
  6
CONTINUOUS
 10
452.220116
 20
110.902613
 11
479.151552
 21
110.902613
  0
LINE
  8
1
 62
7
  6
CONTINUOUS
 10
479.151552
 20
115.834862
 11
452.220116
 21
115.834862
  0
LINE
  8
1
 62
7
  6
CONTINUOUS
 10
452.220116
 20
115.834862
 11
452.220116
 21
111.986699
  0
LINE
  8
1
 62
7
  6
CONTINUOUS
 10
394.022322
 20
116.093594
 11
394.022322
 21
115.081851
  0
LINE
  8
1
 62
7
  6
CONTINUOUS
 10
394.022322
 20
115.081851
 11
395.934497
 21
115.081851
  0
LINE
  8
1
 62
7
  6
CONTINUOUS
 10
395.934497
 20
115.081851
 11
395.934497
 21
116.093594
  0
LINE
  8
1
 62
7
  6
CONTINUOUS
 10
395.934497
 20
116.093594
 11
394.022322
 21
116.093594
  0
LINE
  8
1
 62
7
  6
CONTINUOUS
 10
395.427521
 20
111.924836
 11
395.427521
 21
110.878222
  0
LINE
  8
1
 62
7
  6
CONTINUOUS
 10
395.427521
 20
110.878222
 11
395.934497
 21
110.878222
  0
LINE
  8
1
 62
7
  6
CONTINUOUS
 10
395.934497
 20
111.924836
 11
395.427521
 21
111.924836
  0
LINE
  8
1
 62
7
  6
CONTINUOUS
 10
397.254280
 20
114.008304
 11
397.254280
 21
112.870092
  0
LINE
  8
1
 62
7
  6
CONTINUOUS
 10
397.254280
 20
112.870092
 11
398.392492
 21
112.870092
  0
LINE
  8
1
 62
7
  6
CONTINUOUS
 10
398.392492
 20
112.870092
 11
398.392492
 21
114.008304
  0
LINE
  8
1
 62
7
  6
CONTINUOUS
 10
398.392492
 20
114.008304
 11
397.254280
 21
114.008304
  0
LINE
  8
1
 62
7
  6
CONTINUOUS
 10
399.794280
 20
114.008304
 11
399.794280
 21
112.870092
  0
LINE
  8
1
 62
7
  6
CONTINUOUS
 10
399.794280
 20
112.870092
 11
400.932492
 21
112.870092
  0
LINE
  8
1
 62
7
  6
CONTINUOUS
 10
400.932492
 20
112.870092
 11
400.932492
 21
114.008304
  0
LINE
  8
1
 62
7
  6
CONTINUOUS
 10
400.932492
 20
114.008304
 11
399.794280
 21
114.008304
  0
LINE
  8
1
 62
7
  6
CONTINUOUS
 10
402.334280
 20
114.008304
 11
402.334280
 21
112.870092
  0
LINE
  8
1
 62
7
  6
CONTINUOUS
 10
402.334280
 20
112.870092
 11
403.472492
 21
112.870092
  0
LINE
  8
1
 62
7
  6
CONTINUOUS
 10
403.472492
 20
112.870092
 11
403.472492
 21
114.008304
  0
LINE
  8
1
 62
7
  6
CONTINUOUS
 10
403.472492
 20
114.008304
 11
402.334280
 21
114.008304
  0
LINE
  8
1
 62
7
  6
CONTINUOUS
 10
404.874280
 20
114.008304
 11
404.874280
 21
112.870092
  0
LINE
  8
1
 62
7
  6
CONTINUOUS
 10
404.874280
 20
112.870092
 11
406.012492
 21
112.870092
  0
LINE
  8
1
 62
7
  6
CONTINUOUS
 10
406.012492
 20
112.870092
 11
406.012492
 21
114.008304
  0
LINE
  8
1
 62
7
  6
CONTINUOUS
 10
406.012492
 20
114.008304
 11
404.874280
 21
114.008304
  0
LINE
  8
1
 62
7
  6
CONTINUOUS
 10
407.414280
 20
114.008304
 11
407.414280
 21
112.870092
  0
LINE
  8
1
 62
7
  6
CONTINUOUS
 10
407.414280
 20
112.870092
 11
408.552492
 21
112.870092
  0
LINE
  8
1
 62
7
  6
CONTINUOUS
 10
408.552492
 20
112.870092
 11
408.552492
 21
114.008304
  0
LINE
  8
1
 62
7
  6
CONTINUOUS
 10
408.552492
 20
114.008304
 11
407.414280
 21
114.008304
  0
LINE
  8
1
 62
7
  6
CONTINUOUS
 10
409.954280
 20
114.008304
 11
409.954280
 21
112.870092
  0
LINE
  8
1
 62
7
  6
CONTINUOUS
 10
409.954280
 20
112.870092
 11
411.092492
 21
112.870092
  0
LINE
  8
1
 62
7
  6
CONTINUOUS
 10
411.092492
 20
112.870092
 11
411.092492
 21
114.008304
  0
LINE
  8
1
 62
7
  6
CONTINUOUS
 10
411.092492
 20
114.008304
 11
409.954280
 21
114.008304
  0
LINE
  8
1
 62
7
  6
CONTINUOUS
 10
412.494280
 20
114.008304
 11
412.494280
 21
112.870092
  0
LINE
  8
1
 62
7
  6
CONTINUOUS
 10
412.494280
 20
112.870092
 11
413.632492
 21
112.870092
  0
LINE
  8
1
 62
7
  6
CONTINUOUS
 10
413.632492
 20
112.870092
 11
413.632492
 21
114.008304
  0
LINE
  8
1
 62
7
  6
CONTINUOUS
 10
413.632492
 20
114.008304
 11
412.494280
 21
114.008304
  0
LINE
  8
1
 62
7
  6
CONTINUOUS
 10
415.034280
 20
114.008304
 11
415.034280
 21
112.870092
  0
LINE
  8
1
 62
7
  6
CONTINUOUS
 10
415.034280
 20
112.870092
 11
416.172492
 21
112.870092
  0
LINE
  8
1
 62
7
  6
CONTINUOUS
 10
416.172492
 20
112.870092
 11
416.172492
 21
114.008304
  0
LINE
  8
1
 62
7
  6
CONTINUOUS
 10
416.172492
 20
114.008304
 11
415.034280
 21
114.008304
  0
LINE
  8
1
 62
7
  6
CONTINUOUS
 10
417.574280
 20
114.008304
 11
417.574280
 21
112.870092
  0
LINE
  8
1
 62
7
  6
CONTINUOUS
 10
417.574280
 20
112.870092
 11
418.712492
 21
112.870092
  0
LINE
  8
1
 62
7
  6
CONTINUOUS
 10
418.712492
 20
112.870092
 11
418.712492
 21
114.008304
  0
LINE
  8
1
 62
7
  6
CONTINUOUS
 10
418.712492
 20
114.008304
 11
417.574280
 21
114.008304
  0
LINE
  8
1
 62
7
  6
CONTINUOUS
 10
420.114280
 20
114.008304
 11
420.114280
 21
112.870092
  0
LINE
  8
1
 62
7
  6
CONTINUOUS
 10
420.114280
 20
112.870092
 11
421.252492
 21
112.870092
  0
LINE
  8
1
 62
7
  6
CONTINUOUS
 10
421.252492
 20
112.870092
 11
421.252492
 21
114.008304
  0
LINE
  8
1
 62
7
  6
CONTINUOUS
 10
421.252492
 20
114.008304
 11
420.114280
 21
114.008304
  0
LINE
  8
1
 62
7
  6
CONTINUOUS
 10
422.654280
 20
114.008304
 11
422.654280
 21
112.870092
  0
LINE
  8
1
 62
7
  6
CONTINUOUS
 10
422.654280
 20
112.870092
 11
423.792492
 21
112.870092
  0
LINE
  8
1
 62
7
  6
CONTINUOUS
 10
423.792492
 20
112.870092
 11
423.792492
 21
114.008304
  0
LINE
  8
1
 62
7
  6
CONTINUOUS
 10
423.792492
 20
114.008304
 11
422.654280
 21
114.008304
  0
LINE
  8
1
 62
7
  6
CONTINUOUS
 10
425.194280
 20
114.008304
 11
425.194280
 21
112.870092
  0
LINE
  8
1
 62
7
  6
CONTINUOUS
 10
425.194280
 20
112.870092
 11
426.332492
 21
112.870092
  0
LINE
  8
1
 62
7
  6
CONTINUOUS
 10
426.332492
 20
112.870092
 11
426.332492
 21
114.008304
  0
LINE
  8
1
 62
7
  6
CONTINUOUS
 10
426.332492
 20
114.008304
 11
425.194280
 21
114.008304
  0
LINE
  8
1
 62
7
  6
CONTINUOUS
 10
427.734280
 20
114.008304
 11
427.734280
 21
112.870092
  0
LINE
  8
1
 62
7
  6
CONTINUOUS
 10
427.734280
 20
112.870092
 11
428.872492
 21
112.870092
  0
LINE
  8
1
 62
7
  6
CONTINUOUS
 10
428.872492
 20
112.870092
 11
428.872492
 21
114.008304
  0
LINE
  8
1
 62
7
  6
CONTINUOUS
 10
428.872492
 20
114.008304
 11
427.734280
 21
114.008304
  0
LINE
  8
1
 62
7
  6
CONTINUOUS
 10
430.274280
 20
114.008304
 11
430.274280
 21
112.870092
  0
LINE
  8
1
 62
7
  6
CONTINUOUS
 10
430.274280
 20
112.870092
 11
431.412492
 21
112.870092
  0
LINE
  8
1
 62
7
  6
CONTINUOUS
 10
431.412492
 20
112.870092
 11
431.412492
 21
114.008304
  0
LINE
  8
1
 62
7
  6
CONTINUOUS
 10
431.412492
 20
114.008304
 11
430.274280
 21
114.008304
  0
LINE
  8
1
 62
7
  6
CONTINUOUS
 10
432.814280
 20
114.008304
 11
432.814280
 21
112.870092
  0
LINE
  8
1
 62
7
  6
CONTINUOUS
 10
432.814280
 20
112.870092
 11
433.952492
 21
112.870092
  0
LINE
  8
1
 62
7
  6
CONTINUOUS
 10
433.952492
 20
112.870092
 11
433.952492
 21
114.008304
  0
LINE
  8
1
 62
7
  6
CONTINUOUS
 10
433.952492
 20
114.008304
 11
432.814280
 21
114.008304
  0
LINE
  8
1
 62
7
  6
CONTINUOUS
 10
436.159563
 20
111.924836
 11
436.159563
 21
110.878222
  0
LINE
  8
1
 62
7
  6
CONTINUOUS
 10
436.159563
 20
110.878222
 11
435.565933
 21
110.878222
  0
LINE
  8
1
 62
7
  6
CONTINUOUS
 10
435.565933
 20
111.924836
 11
436.159563
 21
111.924836
  0
LINE
  8
1
 62
7
  6
CONTINUOUS
 10
395.934497
 20
110.878222
 11
435.565933
 21
110.878222
  0
LINE
  8
1
 62
7
  6
CONTINUOUS
 10
435.565933
 20
115.810472
 11
395.934497
 21
115.810472
  0
LINE
  8
1
 62
7
  6
CONTINUOUS
 10
395.934497
 20
115.810472
 11
395.934497
 21
111.962308
  0
LINE
  8
1
 62
7
  6
CONTINUOUS
 10
435.565933
 20
111.924836
 11
435.565933
 21
115.810472
  0
LINE
  8
1
 62
7
  6
CONTINUOUS
 10
435.560011
 20
116.159170
 11
435.560011
 21
115.072483
  0
LINE
  8
1
 62
7
  6
CONTINUOUS
 10
435.560011
 20
115.072483
 11
437.583498
 21
115.072483
  0
LINE
  8
1
 62
7
  6
CONTINUOUS
 10
437.583498
 20
115.072483
 11
437.583498
 21
116.159170
  0
LINE
  8
1
 62
7
  6
CONTINUOUS
 10
437.583498
 20
116.159170
 11
435.560011
 21
116.159170
  0
TEXT
  8
1
 62
7
  6
CONTINUOUS
 10
396.212258
 20
108.142634
 40
2.000000
 41
0.500000
  1
15
  7
KANJI
 50
0.000000
 51
0.000000
  0
TEXT
  8
1
 62
7
  6
CONTINUOUS
 10
396.212258
 20
108.016166
 40
2.000000
 41
0.500000
  1
1
  7
KANJI
 50
0.000000
 51
0.000000
  0
TEXT
  8
1
 62
7
  6
CONTINUOUS
 10
433.719368
 20
108.006505
 40
2.000000
 41
0.500000
  1
1
  7
KANJI
 50
0.000000
 51
0.000000
  0
TEXT
  8
1
 62
7
  6
CONTINUOUS
 10
476.825312
 20
107.927915
 40
2.000000
 41
0.500000
  1
1
  7
KANJI
 50
0.000000
 51
0.000000
  0
TEXT
  8
1
 62
7
  6
CONTINUOUS
 10
452.018202
 20
107.937575
 40
2.000000
 41
0.500000
  1
1
  7
KANJI
 50
0.000000
 51
0.000000
  0
TEXT
  8
1
 62
7
  6
CONTINUOUS
 10
452.018202
 20
108.064043
 40
2.000000
 41
0.500000
  1
10
  7
KANJI
 50
0.000000
 51
0.000000
  0
LINE
  8
1
 62
7
  6
CONTINUOUS
 10
451.810518
 20
39.927864
 11
451.810518
 21
38.789653
  0
LINE
  8
1
 62
7
  6
CONTINUOUS
 10
451.810518
 20
38.789653
 11
452.948730
 21
38.789653
  0
LINE
  8
1
 62
7
  6
CONTINUOUS
 10
452.948730
 20
38.789653
 11
452.948730
 21
39.927864
  0
LINE
  8
1
 62
7
  6
CONTINUOUS
 10
452.948730
 20
39.927864
 11
451.810518
 21
39.927864
  0
LINE
  8
1
 62
7
  6
CONTINUOUS
 10
454.350518
 20
39.927864
 11
454.350518
 21
38.789653
  0
LINE
  8
1
 62
7
  6
CONTINUOUS
 10
454.350518
 20
38.789653
 11
455.488730
 21
38.789653
  0
LINE
  8
1
 62
7
  6
CONTINUOUS
 10
455.488730
 20
38.789653
 11
455.488730
 21
39.927864
  0
LINE
  8
1
 62
7
  6
CONTINUOUS
 10
455.488730
 20
39.927864
 11
454.350518
 21
39.927864
  0
LINE
  8
1
 62
7
  6
CONTINUOUS
 10
456.890518
 20
39.927864
 11
456.890518
 21
38.789653
  0
LINE
  8
1
 62
7
  6
CONTINUOUS
 10
456.890518
 20
38.789653
 11
458.028730
 21
38.789653
  0
LINE
  8
1
 62
7
  6
CONTINUOUS
 10
458.028730
 20
38.789653
 11
458.028730
 21
39.927864
  0
LINE
  8
1
 62
7
  6
CONTINUOUS
 10
458.028730
 20
39.927864
 11
456.890518
 21
39.927864
  0
LINE
  8
1
 62
7
  6
CONTINUOUS
 10
459.430518
 20
39.927864
 11
459.430518
 21
38.789653
  0
LINE
  8
1
 62
7
  6
CONTINUOUS
 10
459.430518
 20
38.789653
 11
460.568730
 21
38.789653
  0
LINE
  8
1
 62
7
  6
CONTINUOUS
 10
460.568730
 20
38.789653
 11
460.568730
 21
39.927864
  0
LINE
  8
1
 62
7
  6
CONTINUOUS
 10
460.568730
 20
39.927864
 11
459.430518
 21
39.927864
  0
LINE
  8
1
 62
7
  6
CONTINUOUS
 10
461.970518
 20
39.927864
 11
461.970518
 21
38.789653
  0
LINE
  8
1
 62
7
  6
CONTINUOUS
 10
461.970518
 20
38.789653
 11
463.108730
 21
38.789653
  0
LINE
  8
1
 62
7
  6
CONTINUOUS
 10
463.108730
 20
38.789653
 11
463.108730
 21
39.927864
  0
LINE
  8
1
 62
7
  6
CONTINUOUS
 10
463.108730
 20
39.927864
 11
461.970518
 21
39.927864
  0
LINE
  8
1
 62
7
  6
CONTINUOUS
 10
464.510518
 20
39.927864
 11
464.510518
 21
38.789653
  0
LINE
  8
1
 62
7
  6
CONTINUOUS
 10
464.510518
 20
38.789653
 11
465.648730
 21
38.789653
  0
LINE
  8
1
 62
7
  6
CONTINUOUS
 10
465.648730
 20
38.789653
 11
465.648730
 21
39.927864
  0
LINE
  8
1
 62
7
  6
CONTINUOUS
 10
465.648730
 20
39.927864
 11
464.510518
 21
39.927864
  0
LINE
  8
1
 62
7
  6
CONTINUOUS
 10
467.050518
 20
39.927864
 11
467.050518
 21
38.789653
  0
LINE
  8
1
 62
7
  6
CONTINUOUS
 10
467.050518
 20
38.789653
 11
468.188730
 21
38.789653
  0
LINE
  8
1
 62
7
  6
CONTINUOUS
 10
468.188730
 20
38.789653
 11
468.188730
 21
39.927864
  0
LINE
  8
1
 62
7
  6
CONTINUOUS
 10
468.188730
 20
39.927864
 11
467.050518
 21
39.927864
  0
LINE
  8
1
 62
7
  6
CONTINUOUS
 10
469.590518
 20
39.927864
 11
469.590518
 21
38.789653
  0
LINE
  8
1
 62
7
  6
CONTINUOUS
 10
469.590518
 20
38.789653
 11
470.728730
 21
38.789653
  0
LINE
  8
1
 62
7
  6
CONTINUOUS
 10
470.728730
 20
38.789653
 11
470.728730
 21
39.927864
  0
LINE
  8
1
 62
7
  6
CONTINUOUS
 10
470.728730
 20
39.927864
 11
469.590518
 21
39.927864
  0
LINE
  8
1
 62
7
  6
CONTINUOUS
 10
472.130518
 20
39.927864
 11
472.130518
 21
38.789653
  0
LINE
  8
1
 62
7
  6
CONTINUOUS
 10
472.130518
 20
38.789653
 11
473.268730
 21
38.789653
  0
LINE
  8
1
 62
7
  6
CONTINUOUS
 10
473.268730
 20
38.789653
 11
473.268730
 21
39.927864
  0
LINE
  8
1
 62
7
  6
CONTINUOUS
 10
473.268730
 20
39.927864
 11
472.130518
 21
39.927864
  0
LINE
  8
1
 62
7
  6
CONTINUOUS
 10
474.670518
 20
39.927864
 11
474.670518
 21
38.789653
  0
LINE
  8
1
 62
7
  6
CONTINUOUS
 10
474.670518
 20
38.789653
 11
475.808730
 21
38.789653
  0
LINE
  8
1
 62
7
  6
CONTINUOUS
 10
475.808730
 20
38.789653
 11
475.808730
 21
39.927864
  0
LINE
  8
1
 62
7
  6
CONTINUOUS
 10
475.808730
 20
39.927864
 11
474.670518
 21
39.927864
  0
LINE
  8
1
 62
7
  6
CONTINUOUS
 10
478.015801
 20
37.844397
 11
478.015801
 21
36.797783
  0
LINE
  8
1
 62
7
  6
CONTINUOUS
 10
477.422171
 20
37.844397
 11
478.015801
 21
37.844397
  0
LINE
  8
1
 62
7
  6
CONTINUOUS
 10
477.422171
 20
37.844397
 11
477.422171
 21
41.730032
  0
LINE
  8
1
 62
7
  6
CONTINUOUS
 10
477.416250
 20
42.078731
 11
477.416250
 21
40.992043
  0
LINE
  8
1
 62
7
  6
CONTINUOUS
 10
477.416250
 20
40.992043
 11
479.439736
 21
40.992043
  0
LINE
  8
1
 62
7
  6
CONTINUOUS
 10
479.439736
 20
40.992043
 11
479.439736
 21
42.078731
  0
LINE
  8
1
 62
7
  6
CONTINUOUS
 10
479.439736
 20
42.078731
 11
477.416250
 21
42.078731
  0
LINE
  8
1
 62
7
  6
CONTINUOUS
 10
448.578560
 20
42.013155
 11
448.578560
 21
41.001411
  0
LINE
  8
1
 62
7
  6
CONTINUOUS
 10
448.578560
 20
41.001411
 11
450.490735
 21
41.001411
  0
LINE
  8
1
 62
7
  6
CONTINUOUS
 10
450.490735
 20
41.001411
 11
450.490735
 21
42.013155
  0
LINE
  8
1
 62
7
  6
CONTINUOUS
 10
450.490735
 20
42.013155
 11
448.578560
 21
42.013155
  0
LINE
  8
1
 62
7
  6
CONTINUOUS
 10
449.983759
 20
37.844397
 11
449.983759
 21
36.797783
  0
LINE
  8
1
 62
7
  6
CONTINUOUS
 10
450.490735
 20
37.844397
 11
449.983759
 21
37.844397
  0
LINE
  8
1
 62
7
  6
CONTINUOUS
 10
450.490735
 20
36.797783
 11
477.422171
 21
36.797783
  0
LINE
  8
1
 62
7
  6
CONTINUOUS
 10
477.422171
 20
41.730032
 11
450.490735
 21
41.730032
  0
LINE
  8
1
 62
7
  6
CONTINUOUS
 10
450.490735
 20
41.730032
 11
450.490735
 21
37.881869
  0
LINE
  8
1
 62
7
  6
CONTINUOUS
 10
392.292941
 20
41.988765
 11
392.292941
 21
40.977021
  0
LINE
  8
1
 62
7
  6
CONTINUOUS
 10
392.292941
 20
40.977021
 11
394.205116
 21
40.977021
  0
LINE
  8
1
 62
7
  6
CONTINUOUS
 10
394.205116
 20
40.977021
 11
394.205116
 21
41.988765
  0
LINE
  8
1
 62
7
  6
CONTINUOUS
 10
394.205116
 20
41.988765
 11
392.292941
 21
41.988765
  0
LINE
  8
1
 62
7
  6
CONTINUOUS
 10
393.698141
 20
37.820007
 11
393.698141
 21
36.773393
  0
LINE
  8
1
 62
7
  6
CONTINUOUS
 10
394.205116
 20
37.820007
 11
393.698141
 21
37.820007
  0
LINE
  8
1
 62
7
  6
CONTINUOUS
 10
395.524900
 20
39.903474
 11
395.524900
 21
38.765263
  0
LINE
  8
1
 62
7
  6
CONTINUOUS
 10
395.524900
 20
38.765263
 11
396.663111
 21
38.765263
  0
LINE
  8
1
 62
7
  6
CONTINUOUS
 10
396.663111
 20
38.765263
 11
396.663111
 21
39.903474
  0
LINE
  8
1
 62
7
  6
CONTINUOUS
 10
396.663111
 20
39.903474
 11
395.524900
 21
39.903474
  0
LINE
  8
1
 62
7
  6
CONTINUOUS
 10
398.064900
 20
39.903474
 11
398.064900
 21
38.765263
  0
LINE
  8
1
 62
7
  6
CONTINUOUS
 10
398.064900
 20
38.765263
 11
399.203111
 21
38.765263
  0
LINE
  8
1
 62
7
  6
CONTINUOUS
 10
399.203111
 20
38.765263
 11
399.203111
 21
39.903474
  0
LINE
  8
1
 62
7
  6
CONTINUOUS
 10
399.203111
 20
39.903474
 11
398.064900
 21
39.903474
  0
LINE
  8
1
 62
7
  6
CONTINUOUS
 10
400.604900
 20
39.903474
 11
400.604900
 21
38.765263
  0
LINE
  8
1
 62
7
  6
CONTINUOUS
 10
400.604900
 20
38.765263
 11
401.743111
 21
38.765263
  0
LINE
  8
1
 62
7
  6
CONTINUOUS
 10
401.743111
 20
38.765263
 11
401.743111
 21
39.903474
  0
LINE
  8
1
 62
7
  6
CONTINUOUS
 10
401.743111
 20
39.903474
 11
400.604900
 21
39.903474
  0
LINE
  8
1
 62
7
  6
CONTINUOUS
 10
403.144900
 20
39.903474
 11
403.144900
 21
38.765263
  0
LINE
  8
1
 62
7
  6
CONTINUOUS
 10
403.144900
 20
38.765263
 11
404.283111
 21
38.765263
  0
LINE
  8
1
 62
7
  6
CONTINUOUS
 10
404.283111
 20
38.765263
 11
404.283111
 21
39.903474
  0
LINE
  8
1
 62
7
  6
CONTINUOUS
 10
404.283111
 20
39.903474
 11
403.144900
 21
39.903474
  0
LINE
  8
1
 62
7
  6
CONTINUOUS
 10
405.684900
 20
39.903474
 11
405.684900
 21
38.765263
  0
LINE
  8
1
 62
7
  6
CONTINUOUS
 10
405.684900
 20
38.765263
 11
406.823111
 21
38.765263
  0
LINE
  8
1
 62
7
  6
CONTINUOUS
 10
406.823111
 20
38.765263
 11
406.823111
 21
39.903474
  0
LINE
  8
1
 62
7
  6
CONTINUOUS
 10
406.823111
 20
39.903474
 11
405.684900
 21
39.903474
  0
LINE
  8
1
 62
7
  6
CONTINUOUS
 10
408.224900
 20
39.903474
 11
408.224900
 21
38.765263
  0
LINE
  8
1
 62
7
  6
CONTINUOUS
 10
408.224900
 20
38.765263
 11
409.363111
 21
38.765263
  0
LINE
  8
1
 62
7
  6
CONTINUOUS
 10
409.363111
 20
38.765263
 11
409.363111
 21
39.903474
  0
LINE
  8
1
 62
7
  6
CONTINUOUS
 10
409.363111
 20
39.903474
 11
408.224900
 21
39.903474
  0
LINE
  8
1
 62
7
  6
CONTINUOUS
 10
410.764900
 20
39.903474
 11
410.764900
 21
38.765263
  0
LINE
  8
1
 62
7
  6
CONTINUOUS
 10
410.764900
 20
38.765263
 11
411.903111
 21
38.765263
  0
LINE
  8
1
 62
7
  6
CONTINUOUS
 10
411.903111
 20
38.765263
 11
411.903111
 21
39.903474
  0
LINE
  8
1
 62
7
  6
CONTINUOUS
 10
411.903111
 20
39.903474
 11
410.764900
 21
39.903474
  0
LINE
  8
1
 62
7
  6
CONTINUOUS
 10
413.304900
 20
39.903474
 11
413.304900
 21
38.765263
  0
LINE
  8
1
 62
7
  6
CONTINUOUS
 10
413.304900
 20
38.765263
 11
414.443111
 21
38.765263
  0
LINE
  8
1
 62
7
  6
CONTINUOUS
 10
414.443111
 20
38.765263
 11
414.443111
 21
39.903474
  0
LINE
  8
1
 62
7
  6
CONTINUOUS
 10
414.443111
 20
39.903474
 11
413.304900
 21
39.903474
  0
LINE
  8
1
 62
7
  6
CONTINUOUS
 10
415.844900
 20
39.903474
 11
415.844900
 21
38.765263
  0
LINE
  8
1
 62
7
  6
CONTINUOUS
 10
415.844900
 20
38.765263
 11
416.983111
 21
38.765263
  0
LINE
  8
1
 62
7
  6
CONTINUOUS
 10
416.983111
 20
38.765263
 11
416.983111
 21
39.903474
  0
LINE
  8
1
 62
7
  6
CONTINUOUS
 10
416.983111
 20
39.903474
 11
415.844900
 21
39.903474
  0
LINE
  8
1
 62
7
  6
CONTINUOUS
 10
418.384900
 20
39.903474
 11
418.384900
 21
38.765263
  0
LINE
  8
1
 62
7
  6
CONTINUOUS
 10
418.384900
 20
38.765263
 11
419.523111
 21
38.765263
  0
LINE
  8
1
 62
7
  6
CONTINUOUS
 10
419.523111
 20
38.765263
 11
419.523111
 21
39.903474
  0
LINE
  8
1
 62
7
  6
CONTINUOUS
 10
419.523111
 20
39.903474
 11
418.384900
 21
39.903474
  0
LINE
  8
1
 62
7
  6
CONTINUOUS
 10
420.924900
 20
39.903474
 11
420.924900
 21
38.765263
  0
LINE
  8
1
 62
7
  6
CONTINUOUS
 10
420.924900
 20
38.765263
 11
422.063111
 21
38.765263
  0
LINE
  8
1
 62
7
  6
CONTINUOUS
 10
422.063111
 20
38.765263
 11
422.063111
 21
39.903474
  0
LINE
  8
1
 62
7
  6
CONTINUOUS
 10
422.063111
 20
39.903474
 11
420.924900
 21
39.903474
  0
LINE
  8
1
 62
7
  6
CONTINUOUS
 10
423.464900
 20
39.903474
 11
423.464900
 21
38.765263
  0
LINE
  8
1
 62
7
  6
CONTINUOUS
 10
423.464900
 20
38.765263
 11
424.603111
 21
38.765263
  0
LINE
  8
1
 62
7
  6
CONTINUOUS
 10
424.603111
 20
38.765263
 11
424.603111
 21
39.903474
  0
LINE
  8
1
 62
7
  6
CONTINUOUS
 10
424.603111
 20
39.903474
 11
423.464900
 21
39.903474
  0
LINE
  8
1
 62
7
  6
CONTINUOUS
 10
426.004900
 20
39.903474
 11
426.004900
 21
38.765263
  0
LINE
  8
1
 62
7
  6
CONTINUOUS
 10
426.004900
 20
38.765263
 11
427.143111
 21
38.765263
  0
LINE
  8
1
 62
7
  6
CONTINUOUS
 10
427.143111
 20
38.765263
 11
427.143111
 21
39.903474
  0
LINE
  8
1
 62
7
  6
CONTINUOUS
 10
427.143111
 20
39.903474
 11
426.004900
 21
39.903474
  0
LINE
  8
1
 62
7
  6
CONTINUOUS
 10
428.544900
 20
39.903474
 11
428.544900
 21
38.765263
  0
LINE
  8
1
 62
7
  6
CONTINUOUS
 10
428.544900
 20
38.765263
 11
429.683111
 21
38.765263
  0
LINE
  8
1
 62
7
  6
CONTINUOUS
 10
429.683111
 20
38.765263
 11
429.683111
 21
39.903474
  0
LINE
  8
1
 62
7
  6
CONTINUOUS
 10
429.683111
 20
39.903474
 11
428.544900
 21
39.903474
  0
LINE
  8
1
 62
7
  6
CONTINUOUS
 10
431.084900
 20
39.903474
 11
431.084900
 21
38.765263
  0
LINE
  8
1
 62
7
  6
CONTINUOUS
 10
431.084900
 20
38.765263
 11
432.223111
 21
38.765263
  0
LINE
  8
1
 62
7
  6
CONTINUOUS
 10
432.223111
 20
38.765263
 11
432.223111
 21
39.903474
  0
LINE
  8
1
 62
7
  6
CONTINUOUS
 10
432.223111
 20
39.903474
 11
431.084900
 21
39.903474
  0
LINE
  8
1
 62
7
  6
CONTINUOUS
 10
434.430182
 20
37.820007
 11
434.430182
 21
36.773393
  0
LINE
  8
1
 62
7
  6
CONTINUOUS
 10
433.836553
 20
37.820007
 11
434.430182
 21
37.820007
  0
LINE
  8
1
 62
7
  6
CONTINUOUS
 10
394.205116
 20
36.773393
 11
433.836553
 21
36.773393
  0
LINE
  8
1
 62
7
  6
CONTINUOUS
 10
433.836553
 20
41.705642
 11
394.205116
 21
41.705642
  0
LINE
  8
1
 62
7
  6
CONTINUOUS
 10
394.205116
 20
41.705642
 11
394.205116
 21
37.857479
  0
LINE
  8
1
 62
7
  6
CONTINUOUS
 10
433.836553
 20
37.820007
 11
433.836553
 21
41.705642
  0
LINE
  8
1
 62
7
  6
CONTINUOUS
 10
433.830631
 20
42.054341
 11
433.830631
 21
40.967653
  0
LINE
  8
1
 62
7
  6
CONTINUOUS
 10
433.830631
 20
40.967653
 11
435.854118
 21
40.967653
  0
LINE
  8
1
 62
7
  6
CONTINUOUS
 10
435.854118
 20
40.967653
 11
435.854118
 21
42.054341
  0
LINE
  8
1
 62
7
  6
CONTINUOUS
 10
435.854118
 20
42.054341
 11
433.830631
 21
42.054341
  0
TEXT
  8
1
 62
7
  6
CONTINUOUS
 10
394.244778
 20
43.215805
 40
2.000000
 41
0.500000
  1
15
  7
KANJI
 50
0.000000
 51
0.000000
  0
TEXT
  8
1
 62
7
  6
CONTINUOUS
 10
394.244778
 20
43.089337
 40
2.000000
 41
0.500000
  1
1
  7
KANJI
 50
0.000000
 51
0.000000
  0
TEXT
  8
1
 62
7
  6
CONTINUOUS
 10
431.751888
 20
43.079676
 40
2.000000
 41
0.500000
  1
1
  7
KANJI
 50
0.000000
 51
0.000000
  0
TEXT
  8
1
 62
7
  6
CONTINUOUS
 10
474.857832
 20
43.001085
 40
2.000000
 41
0.500000
  1
1
  7
KANJI
 50
0.000000
 51
0.000000
  0
TEXT
  8
1
 62
7
  6
CONTINUOUS
 10
450.050722
 20
43.010746
 40
2.000000
 41
0.500000
  1
1
  7
KANJI
 50
0.000000
 51
0.000000
  0
TEXT
  8
1
 62
7
  6
CONTINUOUS
 10
450.050722
 20
43.137214
 40
2.000000
 41
0.500000
  1
10
  7
KANJI
 50
0.000000
 51
0.000000
  0
TEXT
  8
1
 62
7
  6
CONTINUOUS
 10
460.358183
 20
43.292857
 40
3.000000
 41
0.500000
  1
J1-1
  7
KANJI
 50
0.000000
 51
0.000000
  0
TEXT
  8
1
 62
7
  6
CONTINUOUS
 10
411.886638
 20
43.650580
 40
3.000000
 41
0.500000
  1
J1-2
  7
KANJI
 50
0.000000
 51
0.000000
  0
TEXT
  8
1
 62
7
  6
CONTINUOUS
 10
411.707776
 20
106.252206
 40
3.000000
 41
0.500000
  1
J2-2
  7
KANJI
 50
0.000000
 51
0.000000
  0
TEXT
  8
1
 62
7
  6
CONTINUOUS
 10
461.967939
 20
105.715621
 40
3.000000
 41
0.500000
  1
J2-1
  7
KANJI
 50
0.000000
 51
0.000000
  0
LINE
  8
1
 62
7
  6
CONTINUOUS
 10
62.245463
 20
160.349793
 11
62.245463
 21
159.338049
  0
LINE
  8
1
 62
7
  6
CONTINUOUS
 10
62.245463
 20
159.338049
 11
64.157638
 21
159.338049
  0
LINE
  8
1
 62
7
  6
CONTINUOUS
 10
64.157638
 20
159.338049
 11
64.157638
 21
160.349793
  0
LINE
  8
1
 62
7
  6
CONTINUOUS
 10
64.157638
 20
160.349793
 11
62.245463
 21
160.349793
  0
LINE
  8
1
 62
7
  6
CONTINUOUS
 10
63.650662
 20
156.181035
 11
63.650662
 21
155.134421
  0
LINE
  8
1
 62
7
  6
CONTINUOUS
 10
63.650662
 20
155.134421
 11
64.157638
 21
155.134421
  0
LINE
  8
1
 62
7
  6
CONTINUOUS
 10
64.157638
 20
156.181035
 11
63.650662
 21
156.181035
  0
LINE
  8
1
 62
7
  6
CONTINUOUS
 10
65.477421
 20
158.264502
 11
65.477421
 21
157.126291
  0
LINE
  8
1
 62
7
  6
CONTINUOUS
 10
65.477421
 20
157.126291
 11
66.615632
 21
157.126291
  0
LINE
  8
1
 62
7
  6
CONTINUOUS
 10
66.615632
 20
157.126291
 11
66.615632
 21
158.264502
  0
LINE
  8
1
 62
7
  6
CONTINUOUS
 10
66.615632
 20
158.264502
 11
65.477421
 21
158.264502
  0
LINE
  8
1
 62
7
  6
CONTINUOUS
 10
68.017421
 20
158.264502
 11
68.017421
 21
157.126291
  0
LINE
  8
1
 62
7
  6
CONTINUOUS
 10
68.017421
 20
157.126291
 11
69.155632
 21
157.126291
  0
LINE
  8
1
 62
7
  6
CONTINUOUS
 10
69.155632
 20
157.126291
 11
69.155632
 21
158.264502
  0
LINE
  8
1
 62
7
  6
CONTINUOUS
 10
69.155632
 20
158.264502
 11
68.017421
 21
158.264502
  0
LINE
  8
1
 62
7
  6
CONTINUOUS
 10
70.557421
 20
158.264502
 11
70.557421
 21
157.126291
  0
LINE
  8
1
 62
7
  6
CONTINUOUS
 10
70.557421
 20
157.126291
 11
71.695632
 21
157.126291
  0
LINE
  8
1
 62
7
  6
CONTINUOUS
 10
71.695632
 20
157.126291
 11
71.695632
 21
158.264502
  0
LINE
  8
1
 62
7
  6
CONTINUOUS
 10
71.695632
 20
158.264502
 11
70.557421
 21
158.264502
  0
LINE
  8
1
 62
7
  6
CONTINUOUS
 10
73.097421
 20
158.264502
 11
73.097421
 21
157.126291
  0
LINE
  8
1
 62
7
  6
CONTINUOUS
 10
73.097421
 20
157.126291
 11
74.235632
 21
157.126291
  0
LINE
  8
1
 62
7
  6
CONTINUOUS
 10
74.235632
 20
157.126291
 11
74.235632
 21
158.264502
  0
LINE
  8
1
 62
7
  6
CONTINUOUS
 10
74.235632
 20
158.264502
 11
73.097421
 21
158.264502
  0
LINE
  8
1
 62
7
  6
CONTINUOUS
 10
75.637421
 20
158.264502
 11
75.637421
 21
157.126291
  0
LINE
  8
1
 62
7
  6
CONTINUOUS
 10
75.637421
 20
157.126291
 11
76.775632
 21
157.126291
  0
LINE
  8
1
 62
7
  6
CONTINUOUS
 10
76.775632
 20
157.126291
 11
76.775632
 21
158.264502
  0
LINE
  8
1
 62
7
  6
CONTINUOUS
 10
76.775632
 20
158.264502
 11
75.637421
 21
158.264502
  0
LINE
  8
1
 62
7
  6
CONTINUOUS
 10
78.177421
 20
158.264502
 11
78.177421
 21
157.126291
  0
LINE
  8
1
 62
7
  6
CONTINUOUS
 10
78.177421
 20
157.126291
 11
79.315632
 21
157.126291
  0
LINE
  8
1
 62
7
  6
CONTINUOUS
 10
79.315632
 20
157.126291
 11
79.315632
 21
158.264502
  0
LINE
  8
1
 62
7
  6
CONTINUOUS
 10
79.315632
 20
158.264502
 11
78.177421
 21
158.264502
  0
LINE
  8
1
 62
7
  6
CONTINUOUS
 10
80.717421
 20
158.264502
 11
80.717421
 21
157.126291
  0
LINE
  8
1
 62
7
  6
CONTINUOUS
 10
80.717421
 20
157.126291
 11
81.855632
 21
157.126291
  0
LINE
  8
1
 62
7
  6
CONTINUOUS
 10
81.855632
 20
157.126291
 11
81.855632
 21
158.264502
  0
LINE
  8
1
 62
7
  6
CONTINUOUS
 10
81.855632
 20
158.264502
 11
80.717421
 21
158.264502
  0
LINE
  8
1
 62
7
  6
CONTINUOUS
 10
83.257421
 20
158.264502
 11
83.257421
 21
157.126291
  0
LINE
  8
1
 62
7
  6
CONTINUOUS
 10
83.257421
 20
157.126291
 11
84.395632
 21
157.126291
  0
LINE
  8
1
 62
7
  6
CONTINUOUS
 10
84.395632
 20
157.126291
 11
84.395632
 21
158.264502
  0
LINE
  8
1
 62
7
  6
CONTINUOUS
 10
84.395632
 20
158.264502
 11
83.257421
 21
158.264502
  0
LINE
  8
1
 62
7
  6
CONTINUOUS
 10
85.797421
 20
158.264502
 11
85.797421
 21
157.126291
  0
LINE
  8
1
 62
7
  6
CONTINUOUS
 10
85.797421
 20
157.126291
 11
86.935632
 21
157.126291
  0
LINE
  8
1
 62
7
  6
CONTINUOUS
 10
86.935632
 20
157.126291
 11
86.935632
 21
158.264502
  0
LINE
  8
1
 62
7
  6
CONTINUOUS
 10
86.935632
 20
158.264502
 11
85.797421
 21
158.264502
  0
LINE
  8
1
 62
7
  6
CONTINUOUS
 10
88.337421
 20
158.264502
 11
88.337421
 21
157.126291
  0
LINE
  8
1
 62
7
  6
CONTINUOUS
 10
88.337421
 20
157.126291
 11
89.475632
 21
157.126291
  0
LINE
  8
1
 62
7
  6
CONTINUOUS
 10
89.475632
 20
157.126291
 11
89.475632
 21
158.264502
  0
LINE
  8
1
 62
7
  6
CONTINUOUS
 10
89.475632
 20
158.264502
 11
88.337421
 21
158.264502
  0
LINE
  8
1
 62
7
  6
CONTINUOUS
 10
90.877421
 20
158.264502
 11
90.877421
 21
157.126291
  0
LINE
  8
1
 62
7
  6
CONTINUOUS
 10
90.877421
 20
157.126291
 11
92.015632
 21
157.126291
  0
LINE
  8
1
 62
7
  6
CONTINUOUS
 10
92.015632
 20
157.126291
 11
92.015632
 21
158.264502
  0
LINE
  8
1
 62
7
  6
CONTINUOUS
 10
92.015632
 20
158.264502
 11
90.877421
 21
158.264502
  0
LINE
  8
1
 62
7
  6
CONTINUOUS
 10
93.417421
 20
158.264502
 11
93.417421
 21
157.126291
  0
LINE
  8
1
 62
7
  6
CONTINUOUS
 10
93.417421
 20
157.126291
 11
94.555632
 21
157.126291
  0
LINE
  8
1
 62
7
  6
CONTINUOUS
 10
94.555632
 20
157.126291
 11
94.555632
 21
158.264502
  0
LINE
  8
1
 62
7
  6
CONTINUOUS
 10
94.555632
 20
158.264502
 11
93.417421
 21
158.264502
  0
LINE
  8
1
 62
7
  6
CONTINUOUS
 10
95.957421
 20
158.264502
 11
95.957421
 21
157.126291
  0
LINE
  8
1
 62
7
  6
CONTINUOUS
 10
95.957421
 20
157.126291
 11
97.095632
 21
157.126291
  0
LINE
  8
1
 62
7
  6
CONTINUOUS
 10
97.095632
 20
157.126291
 11
97.095632
 21
158.264502
  0
LINE
  8
1
 62
7
  6
CONTINUOUS
 10
97.095632
 20
158.264502
 11
95.957421
 21
158.264502
  0
LINE
  8
1
 62
7
  6
CONTINUOUS
 10
98.497421
 20
158.264502
 11
98.497421
 21
157.126291
  0
LINE
  8
1
 62
7
  6
CONTINUOUS
 10
98.497421
 20
157.126291
 11
99.635632
 21
157.126291
  0
LINE
  8
1
 62
7
  6
CONTINUOUS
 10
99.635632
 20
157.126291
 11
99.635632
 21
158.264502
  0
LINE
  8
1
 62
7
  6
CONTINUOUS
 10
99.635632
 20
158.264502
 11
98.497421
 21
158.264502
  0
LINE
  8
1
 62
7
  6
CONTINUOUS
 10
101.037421
 20
158.264502
 11
101.037421
 21
157.126291
  0
LINE
  8
1
 62
7
  6
CONTINUOUS
 10
101.037421
 20
157.126291
 11
102.175632
 21
157.126291
  0
LINE
  8
1
 62
7
  6
CONTINUOUS
 10
102.175632
 20
157.126291
 11
102.175632
 21
158.264502
  0
LINE
  8
1
 62
7
  6
CONTINUOUS
 10
102.175632
 20
158.264502
 11
101.037421
 21
158.264502
  0
LINE
  8
1
 62
7
  6
CONTINUOUS
 10
104.382704
 20
156.181035
 11
104.382704
 21
155.134421
  0
LINE
  8
1
 62
7
  6
CONTINUOUS
 10
104.382704
 20
155.134421
 11
103.789074
 21
155.134421
  0
LINE
  8
1
 62
7
  6
CONTINUOUS
 10
103.789074
 20
156.181035
 11
104.382704
 21
156.181035
  0
LINE
  8
1
 62
7
  6
CONTINUOUS
 10
64.157638
 20
155.134421
 11
103.789074
 21
155.134421
  0
LINE
  8
1
 62
7
  6
CONTINUOUS
 10
103.789074
 20
160.066670
 11
64.157638
 21
160.066670
  0
LINE
  8
1
 62
7
  6
CONTINUOUS
 10
64.157638
 20
160.066670
 11
64.157638
 21
156.218507
  0
LINE
  8
1
 62
7
  6
CONTINUOUS
 10
103.789074
 20
156.181035
 11
103.789074
 21
160.066670
  0
LINE
  8
1
 62
7
  6
CONTINUOUS
 10
103.783152
 20
160.415369
 11
103.783152
 21
159.328681
  0
LINE
  8
1
 62
7
  6
CONTINUOUS
 10
103.783152
 20
159.328681
 11
105.806639
 21
159.328681
  0
LINE
  8
1
 62
7
  6
CONTINUOUS
 10
105.806639
 20
159.328681
 11
105.806639
 21
160.415369
  0
LINE
  8
1
 62
7
  6
CONTINUOUS
 10
105.806639
 20
160.415369
 11
103.783152
 21
160.415369
  0
TEXT
  8
1
 62
7
  6
CONTINUOUS
 10
64.435399
 20
152.398832
 40
2.000000
 41
0.500000
  1
15
  7
KANJI
 50
0.000000
 51
0.000000
  0
TEXT
  8
1
 62
7
  6
CONTINUOUS
 10
64.435399
 20
152.272364
 40
2.000000
 41
0.500000
  1
1
  7
KANJI
 50
0.000000
 51
0.000000
  0
TEXT
  8
1
 62
7
  6
CONTINUOUS
 10
101.942508
 20
152.262704
 40
2.000000
 41
0.500000
  1
1
  7
KANJI
 50
0.000000
 51
0.000000
  0
TEXT
  8
1
 62
7
  6
CONTINUOUS
 10
94.623616
 20
89.270212
 40
2.000000
 41
0.500000
  1
1
  7
KANJI
 50
0.000000
 51
0.000000
  0
TEXT
  8
1
 62
7
  6
CONTINUOUS
 10
69.816507
 20
89.279873
 40
2.000000
 41
0.500000
  1
1
  7
KANJI
 50
0.000000
 51
0.000000
  0
TEXT
  8
1
 62
7
  6
CONTINUOUS
 10
69.816507
 20
89.406341
 40
2.000000
 41
0.500000
  1
10
  7
KANJI
 50
0.000000
 51
0.000000
  0
LINE
  8
1
 62
7
  6
CONTINUOUS
 10
71.576303
 20
86.196991
 11
71.576303
 21
85.058780
  0
LINE
  8
1
 62
7
  6
CONTINUOUS
 10
71.576303
 20
85.058780
 11
72.714514
 21
85.058780
  0
LINE
  8
1
 62
7
  6
CONTINUOUS
 10
72.714514
 20
85.058780
 11
72.714514
 21
86.196991
  0
LINE
  8
1
 62
7
  6
CONTINUOUS
 10
72.714514
 20
86.196991
 11
71.576303
 21
86.196991
  0
LINE
  8
1
 62
7
  6
CONTINUOUS
 10
74.116303
 20
86.196991
 11
74.116303
 21
85.058780
  0
LINE
  8
1
 62
7
  6
CONTINUOUS
 10
74.116303
 20
85.058780
 11
75.254514
 21
85.058780
  0
LINE
  8
1
 62
7
  6
CONTINUOUS
 10
75.254514
 20
85.058780
 11
75.254514
 21
86.196991
  0
LINE
  8
1
 62
7
  6
CONTINUOUS
 10
75.254514
 20
86.196991
 11
74.116303
 21
86.196991
  0
LINE
  8
1
 62
7
  6
CONTINUOUS
 10
76.656303
 20
86.196991
 11
76.656303
 21
85.058780
  0
LINE
  8
1
 62
7
  6
CONTINUOUS
 10
76.656303
 20
85.058780
 11
77.794514
 21
85.058780
  0
LINE
  8
1
 62
7
  6
CONTINUOUS
 10
77.794514
 20
85.058780
 11
77.794514
 21
86.196991
  0
LINE
  8
1
 62
7
  6
CONTINUOUS
 10
77.794514
 20
86.196991
 11
76.656303
 21
86.196991
  0
LINE
  8
1
 62
7
  6
CONTINUOUS
 10
79.196303
 20
86.196991
 11
79.196303
 21
85.058780
  0
LINE
  8
1
 62
7
  6
CONTINUOUS
 10
79.196303
 20
85.058780
 11
80.334514
 21
85.058780
  0
LINE
  8
1
 62
7
  6
CONTINUOUS
 10
80.334514
 20
85.058780
 11
80.334514
 21
86.196991
  0
LINE
  8
1
 62
7
  6
CONTINUOUS
 10
80.334514
 20
86.196991
 11
79.196303
 21
86.196991
  0
LINE
  8
1
 62
7
  6
CONTINUOUS
 10
81.736303
 20
86.196991
 11
81.736303
 21
85.058780
  0
LINE
  8
1
 62
7
  6
CONTINUOUS
 10
81.736303
 20
85.058780
 11
82.874514
 21
85.058780
  0
LINE
  8
1
 62
7
  6
CONTINUOUS
 10
82.874514
 20
85.058780
 11
82.874514
 21
86.196991
  0
LINE
  8
1
 62
7
  6
CONTINUOUS
 10
82.874514
 20
86.196991
 11
81.736303
 21
86.196991
  0
LINE
  8
1
 62
7
  6
CONTINUOUS
 10
84.276303
 20
86.196991
 11
84.276303
 21
85.058780
  0
LINE
  8
1
 62
7
  6
CONTINUOUS
 10
84.276303
 20
85.058780
 11
85.414514
 21
85.058780
  0
LINE
  8
1
 62
7
  6
CONTINUOUS
 10
85.414514
 20
85.058780
 11
85.414514
 21
86.196991
  0
LINE
  8
1
 62
7
  6
CONTINUOUS
 10
85.414514
 20
86.196991
 11
84.276303
 21
86.196991
  0
LINE
  8
1
 62
7
  6
CONTINUOUS
 10
86.816303
 20
86.196991
 11
86.816303
 21
85.058780
  0
LINE
  8
1
 62
7
  6
CONTINUOUS
 10
86.816303
 20
85.058780
 11
87.954514
 21
85.058780
  0
LINE
  8
1
 62
7
  6
CONTINUOUS
 10
87.954514
 20
85.058780
 11
87.954514
 21
86.196991
  0
LINE
  8
1
 62
7
  6
CONTINUOUS
 10
87.954514
 20
86.196991
 11
86.816303
 21
86.196991
  0
LINE
  8
1
 62
7
  6
CONTINUOUS
 10
89.356303
 20
86.196991
 11
89.356303
 21
85.058780
  0
LINE
  8
1
 62
7
  6
CONTINUOUS
 10
89.356303
 20
85.058780
 11
90.494514
 21
85.058780
  0
LINE
  8
1
 62
7
  6
CONTINUOUS
 10
90.494514
 20
85.058780
 11
90.494514
 21
86.196991
  0
LINE
  8
1
 62
7
  6
CONTINUOUS
 10
90.494514
 20
86.196991
 11
89.356303
 21
86.196991
  0
LINE
  8
1
 62
7
  6
CONTINUOUS
 10
91.896303
 20
86.196991
 11
91.896303
 21
85.058780
  0
LINE
  8
1
 62
7
  6
CONTINUOUS
 10
91.896303
 20
85.058780
 11
93.034514
 21
85.058780
  0
LINE
  8
1
 62
7
  6
CONTINUOUS
 10
93.034514
 20
85.058780
 11
93.034514
 21
86.196991
  0
LINE
  8
1
 62
7
  6
CONTINUOUS
 10
93.034514
 20
86.196991
 11
91.896303
 21
86.196991
  0
LINE
  8
1
 62
7
  6
CONTINUOUS
 10
94.436303
 20
86.196991
 11
94.436303
 21
85.058780
  0
LINE
  8
1
 62
7
  6
CONTINUOUS
 10
94.436303
 20
85.058780
 11
95.574514
 21
85.058780
  0
LINE
  8
1
 62
7
  6
CONTINUOUS
 10
95.574514
 20
85.058780
 11
95.574514
 21
86.196991
  0
LINE
  8
1
 62
7
  6
CONTINUOUS
 10
95.574514
 20
86.196991
 11
94.436303
 21
86.196991
  0
LINE
  8
1
 62
7
  6
CONTINUOUS
 10
97.781585
 20
84.113524
 11
97.781585
 21
83.066910
  0
LINE
  8
1
 62
7
  6
CONTINUOUS
 10
97.187956
 20
84.113524
 11
97.781585
 21
84.113524
  0
LINE
  8
1
 62
7
  6
CONTINUOUS
 10
97.187956
 20
84.113524
 11
97.187956
 21
87.999159
  0
LINE
  8
1
 62
7
  6
CONTINUOUS
 10
97.182034
 20
88.347858
 11
97.182034
 21
87.261170
  0
LINE
  8
1
 62
7
  6
CONTINUOUS
 10
97.182034
 20
87.261170
 11
99.205521
 21
87.261170
  0
LINE
  8
1
 62
7
  6
CONTINUOUS
 10
99.205521
 20
87.261170
 11
99.205521
 21
88.347858
  0
LINE
  8
1
 62
7
  6
CONTINUOUS
 10
99.205521
 20
88.347858
 11
97.182034
 21
88.347858
  0
LINE
  8
1
 62
7
  6
CONTINUOUS
 10
68.344344
 20
88.282282
 11
68.344344
 21
87.270538
  0
LINE
  8
1
 62
7
  6
CONTINUOUS
 10
68.344344
 20
87.270538
 11
70.256519
 21
87.270538
  0
LINE
  8
1
 62
7
  6
CONTINUOUS
 10
70.256519
 20
87.270538
 11
70.256519
 21
88.282282
  0
LINE
  8
1
 62
7
  6
CONTINUOUS
 10
70.256519
 20
88.282282
 11
68.344344
 21
88.282282
  0
LINE
  8
1
 62
7
  6
CONTINUOUS
 10
69.749544
 20
84.113524
 11
69.749544
 21
83.066910
  0
LINE
  8
1
 62
7
  6
CONTINUOUS
 10
70.256519
 20
84.113524
 11
69.749544
 21
84.113524
  0
LINE
  8
1
 62
7
  6
CONTINUOUS
 10
97.187956
 20
87.999159
 11
70.256519
 21
87.999159
  0
LINE
  8
1
 62
7
  6
CONTINUOUS
 10
70.256519
 20
87.999159
 11
70.256519
 21
84.150996
  0
LINE
  8
1
 62
7
  6
CONTINUOUS
 10
69.749544
 20
83.066910
 11
97.781585
 21
83.066910
  0
TEXT
  8
1
 62
7
  6
CONTINUOUS
 10
104.699818
 20
151.708282
 40
3.000000
 41
0.500000
  1
J2
  7
KANJI
 50
0.000000
 51
0.000000
  0
TEXT
  8
1
 62
7
  6
CONTINUOUS
 10
97.607897
 20
88.962045
 40
3.000000
 41
0.500000
  1
J1
  7
KANJI
 50
0.000000
 51
0.000000
  0
TEXT
  8
1
 62
7
  6
CONTINUOUS
 10
54.412305
 20
121.851852
 40
4.000000
 41
0.500000
  1
LFB-12MS-
  7
KANJI
 50
-90.000000
 51
0.000000
  0
LINE
  8
1
 62
7
  6
CONTINUOUS
 10
54.412305
 20
103.851852
 11
54.412305
 21
96.900826
  0
LINE
  8
1
 62
7
  6
CONTINUOUS
 10
54.412305
 20
96.900826
 11
58.719008
 21
96.900826
  0
LINE
  8
1
 62
7
  6
CONTINUOUS
 10
58.719008
 20
96.900826
 11
58.719008
 21
103.851852
  0
LINE
  8
1
 62
7
  6
CONTINUOUS
 10
58.719008
 20
103.851852
 11
54.412305
 21
103.851852
  0
LINE
  8
1
 62
7
  6
CONTINUOUS
 10
58.271030
 20
141.947159
 11
55.506270
 21
141.947159
  0
LINE
  8
1
 62
7
  6
CONTINUOUS
 10
55.506270
 20
141.947159
 11
55.506270
 21
141.091400
  0
LINE
  8
1
 62
7
  6
CONTINUOUS
 10
55.506270
 20
141.091400
 11
58.271030
 21
141.091400
  0
LINE
  8
1
 62
7
  6
CONTINUOUS
 10
58.271030
 20
141.091400
 11
58.271030
 21
141.930702
  0
LINE
  8
1
 62
7
  6
CONTINUOUS
 10
58.303943
 20
140.449580
 11
55.539183
 21
140.449580
  0
LINE
  8
1
 62
7
  6
CONTINUOUS
 10
55.539183
 20
140.449580
 11
55.539183
 21
139.577365
  0
LINE
  8
1
 62
7
  6
CONTINUOUS
 10
55.539183
 20
139.577365
 11
56.296201
 21
139.577365
  0
LINE
  8
1
 62
7
  6
CONTINUOUS
 10
56.296201
 20
139.577365
 11
56.296201
 21
138.622864
  0
LINE
  8
1
 62
7
  6
CONTINUOUS
 10
56.296201
 20
138.606407
 11
55.555640
 21
138.211442
  0
LINE
  8
1
 62
7
  6
CONTINUOUS
 10
55.555640
 20
138.211442
 11
55.555640
 21
137.388596
  0
LINE
  8
1
 62
7
  6
CONTINUOUS
 10
58.303943
 20
136.911346
 11
55.539183
 21
136.911346
  0
LINE
  8
1
 62
7
  6
CONTINUOUS
 10
58.303943
 20
135.308874
 11
58.303943
 21
136.911346
  0
ARC
  8
1
 62
7
  6
CONTINUOUS
 10
56.993543
 20
135.308874
 40
1.310400
 50
-90.000000
 51
0.000000
  0
LINE
  8
1
 62
7
  6
CONTINUOUS
 10
56.849583
 20
133.998474
 11
56.993543
 21
133.998474
  0
LINE
  8
1
 62
7
  6
CONTINUOUS
 10
55.539183
 20
136.911346
 11
55.539183
 21
135.308874
  0
ARC
  8
1
 62
7
  6
CONTINUOUS
 10
56.849583
 20
135.308874
 40
1.310400
 50
180.000000
 51
-90.000000
  0
LINE
  8
1
 62
7
  6
CONTINUOUS
 10
57.629210
 20
136.072044
 11
56.230373
 21
136.072044
  0
LINE
  8
1
 62
7
  6
CONTINUOUS
 10
57.629210
 20
135.545392
 11
57.629210
 21
136.072044
  0
ARC
  8
1
 62
7
  6
CONTINUOUS
 10
56.921594
 20
135.545392
 40
0.707616
 50
-90.000000
 51
0.000000
  0
LINE
  8
1
 62
7
  6
CONTINUOUS
 10
56.937989
 20
134.837776
 11
56.921594
 21
134.837776
  0
LINE
  8
1
 62
7
  6
CONTINUOUS
 10
56.230373
 20
136.072044
 11
56.230373
 21
135.545392
  0
ARC
  8
1
 62
7
  6
CONTINUOUS
 10
56.937989
 20
135.545392
 40
0.707616
 50
180.000000
 51
-90.000000
  0
LINE
  8
1
 62
7
  6
CONTINUOUS
 10
58.303943
 20
140.449580
 11
58.303943
 21
138.306492
  0
ARC
  8
1
 62
7
  6
CONTINUOUS
 10
57.517703
 20
138.306492
 40
0.786240
 50
-90.000000
 51
0.000000
  0
LINE
  8
1
 62
7
  6
CONTINUOUS
 10
57.517703
 20
137.520252
 11
57.115355
 21
137.520252
  0
ARC
  8
1
 62
7
  6
CONTINUOUS
 10
57.615830
 20
143.227721
 40
0.655200
 50
-90.000000
 51
0.000000
  0
LINE
  8
1
 62
7
  6
CONTINUOUS
 10
57.615830
 20
142.572521
 11
57.560306
 21
142.572521
  0
LINE
  8
1
 62
7
  6
CONTINUOUS
 10
56.266363
 20
142.523150
 11
56.194383
 21
142.523150
  0
ARC
  8
1
 62
7
  6
CONTINUOUS
 10
56.194383
 20
143.178350
 40
0.655200
 50
180.000000
 51
-90.000000
  0
LINE
  8
1
 62
7
  6
CONTINUOUS
 10
57.662124
 20
144.563807
 11
57.662124
 21
143.591619
  0
ARC
  8
1
 62
7
  6
CONTINUOUS
 10
57.400044
 20
143.591619
 40
0.262080
 50
-90.000000
 51
0.000000
  0
LINE
  8
1
 62
7
  6
CONTINUOUS
 10
57.400044
 20
143.329539
 11
57.463411
 21
143.329539
  0
LINE
  8
1
 62
7
  6
CONTINUOUS
 10
57.201331
 20
143.591619
 11
57.201331
 21
144.563807
  0
ARC
  8
1
 62
7
  6
CONTINUOUS
 10
57.463411
 20
143.591619
 40
0.262080
 50
180.000000
 51
-90.000000
  0
LINE
  8
1
 62
7
  6
CONTINUOUS
 10
56.608882
 20
144.563807
 11
56.608882
 21
143.608076
  0
ARC
  8
1
 62
7
  6
CONTINUOUS
 10
56.346802
 20
143.608076
 40
0.262080
 50
-90.000000
 51
0.000000
  0
LINE
  8
1
 62
7
  6
CONTINUOUS
 10
56.346802
 20
143.345996
 11
56.410169
 21
143.345996
  0
LINE
  8
1
 62
7
  6
CONTINUOUS
 10
56.148089
 20
143.608076
 11
56.148089
 21
144.580263
  0
ARC
  8
1
 62
7
  6
CONTINUOUS
 10
56.410169
 20
143.608076
 40
0.262080
 50
180.000000
 51
-90.000000
  0
LINE
  8
1
 62
7
  6
CONTINUOUS
 10
55.555640
 20
137.388596
 11
56.467600
 21
137.860861
  0
ARC
  8
1
 62
7
  6
CONTINUOUS
 10
57.115355
 20
138.306492
 40
0.786240
 50
-145.473528
 51
-90.000000
  0
LINE
  8
1
 62
7
  6
CONTINUOUS
 10
57.629210
 20
139.577365
 11
56.987391
 21
139.577365
  0
LINE
  8
1
 62
7
  6
CONTINUOUS
 10
57.629210
 20
138.736217
 11
57.629210
 21
139.577365
  0
LINE
  8
1
 62
7
  6
CONTINUOUS
 10
56.987391
 20
139.577365
 11
56.987391
 21
138.736217
  0
ARC
  8
1
 62
7
  6
CONTINUOUS
 10
57.236090
 20
138.736217
 40
0.393120
 50
-79.415507
 51
0.000000
  0
ARC
  8
1
 62
7
  6
CONTINUOUS
 10
57.380511
 20
138.736217
 40
0.393120
 50
180.000000
 51
-100.584493
  0
ARC
  8
1
 62
7
  6
CONTINUOUS
 10
57.560306
 20
143.227721
 40
0.655200
 50
-168.989285
 51
-90.000000
  0
ARC
  8
1
 62
7
  6
CONTINUOUS
 10
56.266363
 20
143.178350
 40
0.655200
 50
-90.000000
 51
-6.640566
  0
LINE
  8
1
 62
7
  6
CONTINUOUS
 10
58.271030
 20
145.468936
 11
58.271030
 21
143.227721
  0
LINE
  8
1
 62
7
  6
CONTINUOUS
 10
55.539183
 20
143.178350
 11
55.539183
 21
145.468936
  0
LINE
  8
1
 62
7
  6
CONTINUOUS
 10
55.563076
 20
145.468936
 11
55.563076
 21
143.003027
  0
LINE
  8
1
 62
7
  6
CONTINUOUS
 10
55.595809
 20
145.468936
 11
55.595809
 21
142.911901
  0
LINE
  8
1
 62
7
  6
CONTINUOUS
 10
55.628541
 20
145.468936
 11
55.628541
 21
142.848033
  0
LINE
  8
1
 62
7
  6
CONTINUOUS
 10
55.661273
 20
145.468936
 11
55.661273
 21
142.797456
  0
LINE
  8
1
 62
7
  6
CONTINUOUS
 10
55.694006
 20
145.468936
 11
55.694006
 21
142.755374
  0
LINE
  8
1
 62
7
  6
CONTINUOUS
 10
55.726738
 20
145.468936
 11
55.726738
 21
142.719444
  0
LINE
  8
1
 62
7
  6
CONTINUOUS
 10
55.759471
 20
145.468936
 11
55.759471
 21
142.688312
  0
LINE
  8
1
 62
7
  6
CONTINUOUS
 10
55.792203
 20
145.468936
 11
55.792203
 21
142.661109
  0
LINE
  8
1
 62
7
  6
CONTINUOUS
 10
55.824936
 20
145.468936
 11
55.824936
 21
142.637245
  0
LINE
  8
1
 62
7
  6
CONTINUOUS
 10
55.857668
 20
145.468936
 11
55.857668
 21
142.616292
  0
LINE
  8
1
 62
7
  6
CONTINUOUS
 10
55.890401
 20
145.468936
 11
55.890401
 21
142.597935
  0
LINE
  8
1
 62
7
  6
CONTINUOUS
 10
55.923133
 20
145.468936
 11
55.923133
 21
142.581936
  0
LINE
  8
1
 62
7
  6
CONTINUOUS
 10
55.955866
 20
145.468936
 11
55.955866
 21
142.568108
  0
LINE
  8
1
 62
7
  6
CONTINUOUS
 10
55.988598
 20
145.468936
 11
55.988598
 21
142.556306
  0
LINE
  8
1
 62
7
  6
CONTINUOUS
 10
56.021330
 20
145.468936
 11
56.021330
 21
142.546417
  0
LINE
  8
1
 62
7
  6
CONTINUOUS
 10
56.054063
 20
145.468936
 11
56.054063
 21
142.538353
  0
LINE
  8
1
 62
7
  6
CONTINUOUS
 10
56.086795
 20
145.468936
 11
56.086795
 21
142.532044
  0
LINE
  8
1
 62
7
  6
CONTINUOUS
 10
56.119528
 20
145.468936
 11
56.119528
 21
142.527441
  0
LINE
  8
1
 62
7
  6
CONTINUOUS
 10
56.152260
 20
145.468936
 11
56.152260
 21
144.580263
  0
LINE
  8
1
 62
7
  6
CONTINUOUS
 10
56.152260
 20
143.561503
 11
56.152260
 21
142.524506
  0
LINE
  8
1
 62
7
  6
CONTINUOUS
 10
56.184993
 20
145.468936
 11
56.184993
 21
144.580263
  0
LINE
  8
1
 62
7
  6
CONTINUOUS
 10
56.184993
 20
143.473980
 11
56.184993
 21
142.523218
  0
LINE
  8
1
 62
7
  6
CONTINUOUS
 10
56.217725
 20
145.468936
 11
56.217725
 21
144.580263
  0
LINE
  8
1
 62
7
  6
CONTINUOUS
 10
56.217725
 20
143.430167
 11
56.217725
 21
142.523566
  0
LINE
  8
1
 62
7
  6
CONTINUOUS
 10
56.250458
 20
145.468936
 11
56.250458
 21
144.580263
  0
LINE
  8
1
 62
7
  6
CONTINUOUS
 10
56.250458
 20
143.400282
 11
56.250458
 21
142.523343
  0
LINE
  8
1
 62
7
  6
CONTINUOUS
 10
56.283190
 20
145.468936
 11
56.283190
 21
144.580263
  0
LINE
  8
1
 62
7
  6
CONTINUOUS
 10
56.283190
 20
143.378811
 11
56.283190
 21
142.523367
  0
LINE
  8
1
 62
7
  6
CONTINUOUS
 10
56.315922
 20
145.468936
 11
56.315922
 21
144.580263
  0
LINE
  8
1
 62
7
  6
CONTINUOUS
 10
56.315922
 20
143.363528
 11
56.315922
 21
142.525027
  0
LINE
  8
1
 62
7
  6
CONTINUOUS
 10
56.348655
 20
145.468936
 11
56.348655
 21
144.580263
  0
LINE
  8
1
 62
7
  6
CONTINUOUS
 10
56.348655
 20
143.353317
 11
56.348655
 21
142.528339
  0
LINE
  8
1
 62
7
  6
CONTINUOUS
 10
56.381387
 20
145.468936
 11
56.381387
 21
144.580263
  0
LINE
  8
1
 62
7
  6
CONTINUOUS
 10
56.381387
 20
143.348288
 11
56.381387
 21
142.533326
  0
LINE
  8
1
 62
7
  6
CONTINUOUS
 10
56.414120
 20
145.468936
 11
56.414120
 21
144.580263
  0
LINE
  8
1
 62
7
  6
CONTINUOUS
 10
56.414120
 20
143.354789
 11
56.414120
 21
142.540028
  0
LINE
  8
1
 62
7
  6
CONTINUOUS
 10
56.446852
 20
145.468936
 11
56.446852
 21
144.580263
  0
LINE
  8
1
 62
7
  6
CONTINUOUS
 10
56.446852
 20
143.365844
 11
56.446852
 21
142.548501
  0
LINE
  8
1
 62
7
  6
CONTINUOUS
 10
56.479585
 20
145.468936
 11
56.479585
 21
144.580263
  0
LINE
  8
1
 62
7
  6
CONTINUOUS
 10
56.479585
 20
143.382123
 11
56.479585
 21
142.558815
  0
LINE
  8
1
 62
7
  6
CONTINUOUS
 10
56.512317
 20
145.468936
 11
56.512317
 21
144.580263
  0
LINE
  8
1
 62
7
  6
CONTINUOUS
 10
56.512317
 20
143.404874
 11
56.512317
 21
142.571066
  0
LINE
  8
1
 62
7
  6
CONTINUOUS
 10
56.545050
 20
145.468936
 11
56.545050
 21
144.580263
  0
LINE
  8
1
 62
7
  6
CONTINUOUS
 10
56.545050
 20
143.436658
 11
56.545050
 21
142.585374
  0
LINE
  8
1
 62
7
  6
CONTINUOUS
 10
56.577782
 20
145.468936
 11
56.577782
 21
144.580263
  0
LINE
  8
1
 62
7
  6
CONTINUOUS
 10
56.577782
 20
143.484244
 11
56.577782
 21
142.601891
  0
LINE
  8
1
 62
7
  6
CONTINUOUS
 10
56.610514
 20
145.468936
 11
56.610514
 21
142.620814
  0
LINE
  8
1
 62
7
  6
CONTINUOUS
 10
56.643247
 20
145.468936
 11
56.643247
 21
142.642397
  0
LINE
  8
1
 62
7
  6
CONTINUOUS
 10
56.675979
 20
145.468936
 11
56.675979
 21
142.666978
  0
LINE
  8
1
 62
7
  6
CONTINUOUS
 10
56.708712
 20
145.468936
 11
56.708712
 21
142.695013
  0
LINE
  8
1
 62
7
  6
CONTINUOUS
 10
56.741444
 20
145.468936
 11
56.741444
 21
142.727146
  0
LINE
  8
1
 62
7
  6
CONTINUOUS
 10
56.774177
 20
145.468936
 11
56.774177
 21
142.764330
  0
LINE
  8
1
 62
7
  6
CONTINUOUS
 10
56.806909
 20
145.468936
 11
56.806909
 21
142.808084
  0
LINE
  8
1
 62
7
  6
CONTINUOUS
 10
56.839642
 20
145.468936
 11
56.839642
 21
142.861114
  0
LINE
  8
1
 62
7
  6
CONTINUOUS
 10
56.872374
 20
145.468936
 11
56.872374
 21
142.929276
  0
LINE
  8
1
 62
7
  6
CONTINUOUS
 10
56.905106
 20
145.468936
 11
56.905106
 21
143.032425
  0
LINE
  8
1
 62
7
  6
CONTINUOUS
 10
56.937839
 20
145.468936
 11
56.937839
 21
143.023219
  0
LINE
  8
1
 62
7
  6
CONTINUOUS
 10
56.970571
 20
145.468936
 11
56.970571
 21
142.942240
  0
LINE
  8
1
 62
7
  6
CONTINUOUS
 10
57.003304
 20
145.468936
 11
57.003304
 21
142.882707
  0
LINE
  8
1
 62
7
  6
CONTINUOUS
 10
57.036036
 20
145.468936
 11
57.036036
 21
142.834748
  0
LINE
  8
1
 62
7
  6
CONTINUOUS
 10
57.068769
 20
145.468936
 11
57.068769
 21
142.794503
  0
LINE
  8
1
 62
7
  6
CONTINUOUS
 10
57.101501
 20
145.468936
 11
57.101501
 21
142.759977
  0
LINE
  8
1
 62
7
  6
CONTINUOUS
 10
57.134234
 20
145.468936
 11
57.134234
 21
142.729977
  0
LINE
  8
1
 62
7
  6
CONTINUOUS
 10
57.166966
 20
145.468936
 11
57.166966
 21
142.703727
  0
LINE
  8
1
 62
7
  6
CONTINUOUS
 10
57.199699
 20
145.468936
 11
57.199699
 21
142.680685
  0
LINE
  8
1
 62
7
  6
CONTINUOUS
 10
57.232431
 20
145.468936
 11
57.232431
 21
144.563807
  0
LINE
  8
1
 62
7
  6
CONTINUOUS
 10
57.232431
 20
143.467787
 11
57.232431
 21
142.660460
  0
LINE
  8
1
 62
7
  6
CONTINUOUS
 10
57.265163
 20
145.468936
 11
57.265163
 21
144.563807
  0
LINE
  8
1
 62
7
  6
CONTINUOUS
 10
57.265163
 20
143.420201
 11
57.265163
 21
142.642762
  0
LINE
  8
1
 62
7
  6
CONTINUOUS
 10
57.297896
 20
145.468936
 11
57.297896
 21
144.563807
  0
LINE
  8
1
 62
7
  6
CONTINUOUS
 10
57.297896
 20
143.388417
 11
57.297896
 21
142.627365
  0
LINE
  8
1
 62
7
  6
CONTINUOUS
 10
57.330628
 20
145.468936
 11
57.330628
 21
144.563807
  0
LINE
  8
1
 62
7
  6
CONTINUOUS
 10
57.330628
 20
143.365666
 11
57.330628
 21
142.614097
  0
LINE
  8
1
 62
7
  6
CONTINUOUS
 10
57.363361
 20
145.468936
 11
57.363361
 21
144.563807
  0
LINE
  8
1
 62
7
  6
CONTINUOUS
 10
57.363361
 20
143.349388
 11
57.363361
 21
142.602822
  0
LINE
  8
1
 62
7
  6
CONTINUOUS
 10
57.396093
 20
145.468936
 11
57.396093
 21
144.563807
  0
LINE
  8
1
 62
7
  6
CONTINUOUS
 10
57.396093
 20
143.338332
 11
57.396093
 21
142.593433
  0
LINE
  8
1
 62
7
  6
CONTINUOUS
 10
57.428826
 20
145.468936
 11
57.428826
 21
144.563807
  0
LINE
  8
1
 62
7
  6
CONTINUOUS
 10
57.428826
 20
143.331831
 11
57.428826
 21
142.585849
  0
LINE
  8
1
 62
7
  6
CONTINUOUS
 10
57.461558
 20
145.468936
 11
57.461558
 21
144.563807
  0
LINE
  8
1
 62
7
  6
CONTINUOUS
 10
57.461558
 20
143.336860
 11
57.461558
 21
142.580005
  0
LINE
  8
1
 62
7
  6
CONTINUOUS
 10
57.494291
 20
145.468936
 11
57.494291
 21
144.563807
  0
LINE
  8
1
 62
7
  6
CONTINUOUS
 10
57.494291
 20
143.347071
 11
57.494291
 21
142.575855
  0
LINE
  8
1
 62
7
  6
CONTINUOUS
 10
57.527023
 20
145.468936
 11
57.527023
 21
144.563807
  0
LINE
  8
1
 62
7
  6
CONTINUOUS
 10
57.527023
 20
143.362354
 11
57.527023
 21
142.573367
  0
LINE
  8
1
 62
7
  6
CONTINUOUS
 10
57.559755
 20
145.468936
 11
57.559755
 21
144.563807
  0
LINE
  8
1
 62
7
  6
CONTINUOUS
 10
57.559755
 20
143.383825
 11
57.559755
 21
142.572521
  0
LINE
  8
1
 62
7
  6
CONTINUOUS
 10
57.592488
 20
145.468936
 11
57.592488
 21
144.563807
  0
LINE
  8
1
 62
7
  6
CONTINUOUS
 10
57.592488
 20
143.413711
 11
57.592488
 21
142.572937
  0
LINE
  8
1
 62
7
  6
CONTINUOUS
 10
57.625220
 20
145.468936
 11
57.625220
 21
144.563807
  0
LINE
  8
1
 62
7
  6
CONTINUOUS
 10
57.625220
 20
143.457523
 11
57.625220
 21
142.572588
  0
LINE
  8
1
 62
7
  6
CONTINUOUS
 10
57.657953
 20
145.468936
 11
57.657953
 21
144.563807
  0
LINE
  8
1
 62
7
  6
CONTINUOUS
 10
57.657953
 20
143.545046
 11
57.657953
 21
142.573877
  0
LINE
  8
1
 62
7
  6
CONTINUOUS
 10
57.690685
 20
145.468936
 11
57.690685
 21
142.576811
  0
LINE
  8
1
 62
7
  6
CONTINUOUS
 10
57.723418
 20
145.468936
 11
57.723418
 21
142.581415
  0
LINE
  8
1
 62
7
  6
CONTINUOUS
 10
57.756150
 20
145.468936
 11
57.756150
 21
142.587723
  0
LINE
  8
1
 62
7
  6
CONTINUOUS
 10
57.788883
 20
145.468936
 11
57.788883
 21
142.595788
  0
LINE
  8
1
 62
7
  6
CONTINUOUS
 10
57.821615
 20
145.468936
 11
57.821615
 21
142.605677
  0
LINE
  8
1
 62
7
  6
CONTINUOUS
 10
57.854347
 20
145.468936
 11
57.854347
 21
142.617478
  0
LINE
  8
1
 62
7
  6
CONTINUOUS
 10
57.887080
 20
145.468936
 11
57.887080
 21
142.631307
  0
LINE
  8
1
 62
7
  6
CONTINUOUS
 10
57.919812
 20
145.468936
 11
57.919812
 21
142.647306
  0
LINE
  8
1
 62
7
  6
CONTINUOUS
 10
57.952545
 20
145.468936
 11
57.952545
 21
142.665663
  0
LINE
  8
1
 62
7
  6
CONTINUOUS
 10
57.985277
 20
145.468936
 11
57.985277
 21
142.686615
  0
LINE
  8
1
 62
7
  6
CONTINUOUS
 10
58.018010
 20
145.468936
 11
58.018010
 21
142.710480
  0
LINE
  8
1
 62
7
  6
CONTINUOUS
 10
58.050742
 20
145.468936
 11
58.050742
 21
142.737682
  0
LINE
  8
1
 62
7
  6
CONTINUOUS
 10
58.083475
 20
145.468936
 11
58.083475
 21
142.768815
  0
LINE
  8
1
 62
7
  6
CONTINUOUS
 10
58.116207
 20
145.468936
 11
58.116207
 21
142.804744
  0
LINE
  8
1
 62
7
  6
CONTINUOUS
 10
58.148939
 20
145.468936
 11
58.148939
 21
142.846826
  0
LINE
  8
1
 62
7
  6
CONTINUOUS
 10
58.181672
 20
145.468936
 11
58.181672
 21
142.897404
  0
LINE
  8
1
 62
7
  6
CONTINUOUS
 10
58.214404
 20
145.468936
 11
58.214404
 21
142.961272
  0
LINE
  8
1
 62
7
  6
CONTINUOUS
 10
58.247137
 20
145.468936
 11
58.247137
 21
143.052398
  0
LINE
  8
1
 62
7
  6
CONTINUOUS
 10
55.513887
 20
141.947159
 11
55.513887
 21
141.091400
  0
LINE
  8
1
 62
7
  6
CONTINUOUS
 10
55.546619
 20
141.947159
 11
55.546619
 21
141.091400
  0
LINE
  8
1
 62
7
  6
CONTINUOUS
 10
55.579352
 20
141.947159
 11
55.579352
 21
141.091400
  0
LINE
  8
1
 62
7
  6
CONTINUOUS
 10
55.612084
 20
141.947159
 11
55.612084
 21
141.091400
  0
LINE
  8
1
 62
7
  6
CONTINUOUS
 10
55.644817
 20
141.947159
 11
55.644817
 21
141.091400
  0
LINE
  8
1
 62
7
  6
CONTINUOUS
 10
55.677549
 20
141.947159
 11
55.677549
 21
141.091400
  0
LINE
  8
1
 62
7
  6
CONTINUOUS
 10
55.710281
 20
141.947159
 11
55.710281
 21
141.091400
  0
LINE
  8
1
 62
7
  6
CONTINUOUS
 10
55.743014
 20
141.947159
 11
55.743014
 21
141.091400
  0
LINE
  8
1
 62
7
  6
CONTINUOUS
 10
55.775746
 20
141.947159
 11
55.775746
 21
141.091400
  0
LINE
  8
1
 62
7
  6
CONTINUOUS
 10
55.808479
 20
141.947159
 11
55.808479
 21
141.091400
  0
LINE
  8
1
 62
7
  6
CONTINUOUS
 10
55.841211
 20
141.947159
 11
55.841211
 21
141.091400
  0
LINE
  8
1
 62
7
  6
CONTINUOUS
 10
55.873944
 20
141.947159
 11
55.873944
 21
141.091400
  0
LINE
  8
1
 62
7
  6
CONTINUOUS
 10
55.906676
 20
141.947159
 11
55.906676
 21
141.091400
  0
LINE
  8
1
 62
7
  6
CONTINUOUS
 10
55.939409
 20
141.947159
 11
55.939409
 21
141.091400
  0
LINE
  8
1
 62
7
  6
CONTINUOUS
 10
55.972141
 20
141.947159
 11
55.972141
 21
141.091400
  0
LINE
  8
1
 62
7
  6
CONTINUOUS
 10
56.004874
 20
141.947159
 11
56.004874
 21
141.091400
  0
LINE
  8
1
 62
7
  6
CONTINUOUS
 10
56.037606
 20
141.947159
 11
56.037606
 21
141.091400
  0
LINE
  8
1
 62
7
  6
CONTINUOUS
 10
56.070338
 20
141.947159
 11
56.070338
 21
141.091400
  0
LINE
  8
1
 62
7
  6
CONTINUOUS
 10
56.103071
 20
141.947159
 11
56.103071
 21
141.091400
  0
LINE
  8
1
 62
7
  6
CONTINUOUS
 10
56.135803
 20
141.947159
 11
56.135803
 21
141.091400
  0
LINE
  8
1
 62
7
  6
CONTINUOUS
 10
56.168536
 20
141.947159
 11
56.168536
 21
141.091400
  0
LINE
  8
1
 62
7
  6
CONTINUOUS
 10
56.201268
 20
141.947159
 11
56.201268
 21
141.091400
  0
LINE
  8
1
 62
7
  6
CONTINUOUS
 10
56.234001
 20
141.947159
 11
56.234001
 21
141.091400
  0
LINE
  8
1
 62
7
  6
CONTINUOUS
 10
56.266733
 20
141.947159
 11
56.266733
 21
141.091400
  0
LINE
  8
1
 62
7
  6
CONTINUOUS
 10
56.299466
 20
141.947159
 11
56.299466
 21
141.091400
  0
LINE
  8
1
 62
7
  6
CONTINUOUS
 10
56.332198
 20
141.947159
 11
56.332198
 21
141.091400
  0
LINE
  8
1
 62
7
  6
CONTINUOUS
 10
56.364930
 20
141.947159
 11
56.364930
 21
141.091400
  0
LINE
  8
1
 62
7
  6
CONTINUOUS
 10
56.397663
 20
141.947159
 11
56.397663
 21
141.091400
  0
LINE
  8
1
 62
7
  6
CONTINUOUS
 10
56.430395
 20
141.947159
 11
56.430395
 21
141.091400
  0
LINE
  8
1
 62
7
  6
CONTINUOUS
 10
56.463128
 20
141.947159
 11
56.463128
 21
141.091400
  0
LINE
  8
1
 62
7
  6
CONTINUOUS
 10
56.495860
 20
141.947159
 11
56.495860
 21
141.091400
  0
LINE
  8
1
 62
7
  6
CONTINUOUS
 10
56.528593
 20
141.947159
 11
56.528593
 21
141.091400
  0
LINE
  8
1
 62
7
  6
CONTINUOUS
 10
56.561325
 20
141.947159
 11
56.561325
 21
141.091400
  0
LINE
  8
1
 62
7
  6
CONTINUOUS
 10
56.594058
 20
141.947159
 11
56.594058
 21
141.091400
  0
LINE
  8
1
 62
7
  6
CONTINUOUS
 10
56.626790
 20
141.947159
 11
56.626790
 21
141.091400
  0
LINE
  8
1
 62
7
  6
CONTINUOUS
 10
56.659522
 20
141.947159
 11
56.659522
 21
141.091400
  0
LINE
  8
1
 62
7
  6
CONTINUOUS
 10
56.692255
 20
141.947159
 11
56.692255
 21
141.091400
  0
LINE
  8
1
 62
7
  6
CONTINUOUS
 10
56.724987
 20
141.947159
 11
56.724987
 21
141.091400
  0
LINE
  8
1
 62
7
  6
CONTINUOUS
 10
56.757720
 20
141.947159
 11
56.757720
 21
141.091400
  0
LINE
  8
1
 62
7
  6
CONTINUOUS
 10
56.790452
 20
141.947159
 11
56.790452
 21
141.091400
  0
LINE
  8
1
 62
7
  6
CONTINUOUS
 10
56.823185
 20
141.947159
 11
56.823185
 21
141.091400
  0
LINE
  8
1
 62
7
  6
CONTINUOUS
 10
56.855917
 20
141.947159
 11
56.855917
 21
141.091400
  0
LINE
  8
1
 62
7
  6
CONTINUOUS
 10
56.888650
 20
141.947159
 11
56.888650
 21
141.091400
  0
LINE
  8
1
 62
7
  6
CONTINUOUS
 10
56.921382
 20
141.947159
 11
56.921382
 21
141.091400
  0
LINE
  8
1
 62
7
  6
CONTINUOUS
 10
56.954114
 20
141.947159
 11
56.954114
 21
141.091400
  0
LINE
  8
1
 62
7
  6
CONTINUOUS
 10
56.986847
 20
141.947159
 11
56.986847
 21
141.091400
  0
LINE
  8
1
 62
7
  6
CONTINUOUS
 10
57.019579
 20
141.947159
 11
57.019579
 21
141.091400
  0
LINE
  8
1
 62
7
  6
CONTINUOUS
 10
57.052312
 20
141.947159
 11
57.052312
 21
141.091400
  0
LINE
  8
1
 62
7
  6
CONTINUOUS
 10
57.085044
 20
141.947159
 11
57.085044
 21
141.091400
  0
LINE
  8
1
 62
7
  6
CONTINUOUS
 10
57.117777
 20
141.947159
 11
57.117777
 21
141.091400
  0
LINE
  8
1
 62
7
  6
CONTINUOUS
 10
57.150509
 20
141.947159
 11
57.150509
 21
141.091400
  0
LINE
  8
1
 62
7
  6
CONTINUOUS
 10
57.183242
 20
141.947159
 11
57.183242
 21
141.091400
  0
LINE
  8
1
 62
7
  6
CONTINUOUS
 10
57.215974
 20
141.947159
 11
57.215974
 21
141.091400
  0
LINE
  8
1
 62
7
  6
CONTINUOUS
 10
57.248707
 20
141.947159
 11
57.248707
 21
141.091400
  0
LINE
  8
1
 62
7
  6
CONTINUOUS
 10
57.281439
 20
141.947159
 11
57.281439
 21
141.091400
  0
LINE
  8
1
 62
7
  6
CONTINUOUS
 10
57.314171
 20
141.947159
 11
57.314171
 21
141.091400
  0
LINE
  8
1
 62
7
  6
CONTINUOUS
 10
57.346904
 20
141.947159
 11
57.346904
 21
141.091400
  0
LINE
  8
1
 62
7
  6
CONTINUOUS
 10
57.379636
 20
141.947159
 11
57.379636
 21
141.091400
  0
LINE
  8
1
 62
7
  6
CONTINUOUS
 10
57.412369
 20
141.947159
 11
57.412369
 21
141.091400
  0
LINE
  8
1
 62
7
  6
CONTINUOUS
 10
57.445101
 20
141.947159
 11
57.445101
 21
141.091400
  0
LINE
  8
1
 62
7
  6
CONTINUOUS
 10
57.477834
 20
141.947159
 11
57.477834
 21
141.091400
  0
LINE
  8
1
 62
7
  6
CONTINUOUS
 10
57.510566
 20
141.947159
 11
57.510566
 21
141.091400
  0
LINE
  8
1
 62
7
  6
CONTINUOUS
 10
57.543299
 20
141.947159
 11
57.543299
 21
141.091400
  0
LINE
  8
1
 62
7
  6
CONTINUOUS
 10
57.576031
 20
141.947159
 11
57.576031
 21
141.091400
  0
LINE
  8
1
 62
7
  6
CONTINUOUS
 10
57.608763
 20
141.947159
 11
57.608763
 21
141.091400
  0
LINE
  8
1
 62
7
  6
CONTINUOUS
 10
57.641496
 20
141.947159
 11
57.641496
 21
141.091400
  0
LINE
  8
1
 62
7
  6
CONTINUOUS
 10
57.674228
 20
141.947159
 11
57.674228
 21
141.091400
  0
LINE
  8
1
 62
7
  6
CONTINUOUS
 10
57.706961
 20
141.947159
 11
57.706961
 21
141.091400
  0
LINE
  8
1
 62
7
  6
CONTINUOUS
 10
57.739693
 20
141.947159
 11
57.739693
 21
141.091400
  0
LINE
  8
1
 62
7
  6
CONTINUOUS
 10
57.772426
 20
141.947159
 11
57.772426
 21
141.091400
  0
LINE
  8
1
 62
7
  6
CONTINUOUS
 10
57.805158
 20
141.947159
 11
57.805158
 21
141.091400
  0
LINE
  8
1
 62
7
  6
CONTINUOUS
 10
57.837891
 20
141.947159
 11
57.837891
 21
141.091400
  0
LINE
  8
1
 62
7
  6
CONTINUOUS
 10
57.870623
 20
141.947159
 11
57.870623
 21
141.091400
  0
LINE
  8
1
 62
7
  6
CONTINUOUS
 10
57.903355
 20
141.947159
 11
57.903355
 21
141.091400
  0
LINE
  8
1
 62
7
  6
CONTINUOUS
 10
57.936088
 20
141.947159
 11
57.936088
 21
141.091400
  0
LINE
  8
1
 62
7
  6
CONTINUOUS
 10
57.968820
 20
141.947159
 11
57.968820
 21
141.091400
  0
LINE
  8
1
 62
7
  6
CONTINUOUS
 10
58.001553
 20
141.947159
 11
58.001553
 21
141.091400
  0
LINE
  8
1
 62
7
  6
CONTINUOUS
 10
58.034285
 20
141.947159
 11
58.034285
 21
141.091400
  0
LINE
  8
1
 62
7
  6
CONTINUOUS
 10
58.067018
 20
141.947159
 11
58.067018
 21
141.091400
  0
LINE
  8
1
 62
7
  6
CONTINUOUS
 10
58.099750
 20
141.947159
 11
58.099750
 21
141.091400
  0
LINE
  8
1
 62
7
  6
CONTINUOUS
 10
58.132483
 20
141.947159
 11
58.132483
 21
141.091400
  0
LINE
  8
1
 62
7
  6
CONTINUOUS
 10
58.165215
 20
141.947159
 11
58.165215
 21
141.091400
  0
LINE
  8
1
 62
7
  6
CONTINUOUS
 10
58.197947
 20
141.947159
 11
58.197947
 21
141.091400
  0
LINE
  8
1
 62
7
  6
CONTINUOUS
 10
58.230680
 20
141.947159
 11
58.230680
 21
141.091400
  0
LINE
  8
1
 62
7
  6
CONTINUOUS
 10
58.263412
 20
141.947159
 11
58.263412
 21
141.091400
  0
LINE
  8
1
 62
7
  6
CONTINUOUS
 10
55.546801
 20
140.449580
 11
55.546801
 21
139.577365
  0
LINE
  8
1
 62
7
  6
CONTINUOUS
 10
55.579533
 20
140.449580
 11
55.579533
 21
139.577365
  0
LINE
  8
1
 62
7
  6
CONTINUOUS
 10
55.579533
 20
138.224184
 11
55.579533
 21
137.400969
  0
LINE
  8
1
 62
7
  6
CONTINUOUS
 10
55.612266
 20
140.449580
 11
55.612266
 21
139.577365
  0
LINE
  8
1
 62
7
  6
CONTINUOUS
 10
55.612266
 20
138.241642
 11
55.612266
 21
137.417920
  0
LINE
  8
1
 62
7
  6
CONTINUOUS
 10
55.644998
 20
140.449580
 11
55.644998
 21
139.577365
  0
LINE
  8
1
 62
7
  6
CONTINUOUS
 10
55.644998
 20
138.259099
 11
55.644998
 21
137.434871
  0
LINE
  8
1
 62
7
  6
CONTINUOUS
 10
55.677730
 20
140.449580
 11
55.677730
 21
139.577365
  0
LINE
  8
1
 62
7
  6
CONTINUOUS
 10
55.677730
 20
138.276556
 11
55.677730
 21
137.451822
  0
LINE
  8
1
 62
7
  6
CONTINUOUS
 10
55.710463
 20
140.449580
 11
55.710463
 21
139.577365
  0
LINE
  8
1
 62
7
  6
CONTINUOUS
 10
55.710463
 20
138.294014
 11
55.710463
 21
137.468772
  0
LINE
  8
1
 62
7
  6
CONTINUOUS
 10
55.743195
 20
140.449580
 11
55.743195
 21
139.577365
  0
LINE
  8
1
 62
7
  6
CONTINUOUS
 10
55.743195
 20
138.311471
 11
55.743195
 21
137.485723
  0
LINE
  8
1
 62
7
  6
CONTINUOUS
 10
55.775928
 20
140.449580
 11
55.775928
 21
139.577365
  0
LINE
  8
1
 62
7
  6
CONTINUOUS
 10
55.775928
 20
138.328928
 11
55.775928
 21
137.502674
  0
LINE
  8
1
 62
7
  6
CONTINUOUS
 10
55.808660
 20
140.449580
 11
55.808660
 21
139.577365
  0
LINE
  8
1
 62
7
  6
CONTINUOUS
 10
55.808660
 20
138.346385
 11
55.808660
 21
137.519624
  0
LINE
  8
1
 62
7
  6
CONTINUOUS
 10
55.841393
 20
140.449580
 11
55.841393
 21
139.577365
  0
LINE
  8
1
 62
7
  6
CONTINUOUS
 10
55.841393
 20
138.363843
 11
55.841393
 21
137.536575
  0
LINE
  8
1
 62
7
  6
CONTINUOUS
 10
55.874125
 20
140.449580
 11
55.874125
 21
139.577365
  0
LINE
  8
1
 62
7
  6
CONTINUOUS
 10
55.874125
 20
138.381300
 11
55.874125
 21
137.553526
  0
LINE
  8
1
 62
7
  6
CONTINUOUS
 10
55.906858
 20
140.449580
 11
55.906858
 21
139.577365
  0
LINE
  8
1
 62
7
  6
CONTINUOUS
 10
55.906858
 20
138.398757
 11
55.906858
 21
137.570477
  0
LINE
  8
1
 62
7
  6
CONTINUOUS
 10
55.939590
 20
140.449580
 11
55.939590
 21
139.577365
  0
LINE
  8
1
 62
7
  6
CONTINUOUS
 10
55.939590
 20
138.416215
 11
55.939590
 21
137.587427
  0
LINE
  8
1
 62
7
  6
CONTINUOUS
 10
55.972322
 20
140.449580
 11
55.972322
 21
139.577365
  0
LINE
  8
1
 62
7
  6
CONTINUOUS
 10
55.972322
 20
138.433672
 11
55.972322
 21
137.604378
  0
LINE
  8
1
 62
7
  6
CONTINUOUS
 10
56.005055
 20
140.449580
 11
56.005055
 21
139.577365
  0
LINE
  8
1
 62
7
  6
CONTINUOUS
 10
56.005055
 20
138.451129
 11
56.005055
 21
137.621329
  0
LINE
  8
1
 62
7
  6
CONTINUOUS
 10
56.037787
 20
140.449580
 11
56.037787
 21
139.577365
  0
LINE
  8
1
 62
7
  6
CONTINUOUS
 10
56.037787
 20
138.468587
 11
56.037787
 21
137.638280
  0
LINE
  8
1
 62
7
  6
CONTINUOUS
 10
56.070520
 20
140.449580
 11
56.070520
 21
139.577365
  0
LINE
  8
1
 62
7
  6
CONTINUOUS
 10
56.070520
 20
138.486044
 11
56.070520
 21
137.655230
  0
LINE
  8
1
 62
7
  6
CONTINUOUS
 10
56.103252
 20
140.449580
 11
56.103252
 21
139.577365
  0
LINE
  8
1
 62
7
  6
CONTINUOUS
 10
56.103252
 20
138.503501
 11
56.103252
 21
137.672181
  0
LINE
  8
1
 62
7
  6
CONTINUOUS
 10
56.135985
 20
140.449580
 11
56.135985
 21
139.577365
  0
LINE
  8
1
 62
7
  6
CONTINUOUS
 10
56.135985
 20
138.520958
 11
56.135985
 21
137.689132
  0
LINE
  8
1
 62
7
  6
CONTINUOUS
 10
56.168717
 20
140.449580
 11
56.168717
 21
139.577365
  0
LINE
  8
1
 62
7
  6
CONTINUOUS
 10
56.168717
 20
138.538416
 11
56.168717
 21
137.706082
  0
LINE
  8
1
 62
7
  6
CONTINUOUS
 10
56.201450
 20
140.449580
 11
56.201450
 21
139.577365
  0
LINE
  8
1
 62
7
  6
CONTINUOUS
 10
56.201450
 20
138.555873
 11
56.201450
 21
137.723033
  0
LINE
  8
1
 62
7
  6
CONTINUOUS
 10
56.234182
 20
140.449580
 11
56.234182
 21
139.577365
  0
LINE
  8
1
 62
7
  6
CONTINUOUS
 10
56.234182
 20
138.573330
 11
56.234182
 21
137.739984
  0
LINE
  8
1
 62
7
  6
CONTINUOUS
 10
56.266914
 20
140.449580
 11
56.266914
 21
139.577365
  0
LINE
  8
1
 62
7
  6
CONTINUOUS
 10
56.266914
 20
138.590788
 11
56.266914
 21
137.756935
  0
LINE
  8
1
 62
7
  6
CONTINUOUS
 10
56.299647
 20
140.449580
 11
56.299647
 21
137.773885
  0
LINE
  8
1
 62
7
  6
CONTINUOUS
 10
56.332379
 20
140.449580
 11
56.332379
 21
137.790836
  0
LINE
  8
1
 62
7
  6
CONTINUOUS
 10
56.365112
 20
140.449580
 11
56.365112
 21
137.807787
  0
LINE
  8
1
 62
7
  6
CONTINUOUS
 10
56.397844
 20
140.449580
 11
56.397844
 21
137.824738
  0
LINE
  8
1
 62
7
  6
CONTINUOUS
 10
56.430577
 20
140.449580
 11
56.430577
 21
137.841688
  0
LINE
  8
1
 62
7
  6
CONTINUOUS
 10
56.463309
 20
140.449580
 11
56.463309
 21
137.858639
  0
LINE
  8
1
 62
7
  6
CONTINUOUS
 10
56.496042
 20
140.449580
 11
56.496042
 21
137.822111
  0
LINE
  8
1
 62
7
  6
CONTINUOUS
 10
56.528774
 20
140.449580
 11
56.528774
 21
137.782949
  0
LINE
  8
1
 62
7
  6
CONTINUOUS
 10
56.561506
 20
140.449580
 11
56.561506
 21
137.748437
  0
LINE
  8
1
 62
7
  6
CONTINUOUS
 10
56.594239
 20
140.449580
 11
56.594239
 21
137.717754
  0
LINE
  8
1
 62
7
  6
CONTINUOUS
 10
56.626971
 20
140.449580
 11
56.626971
 21
137.690330
  0
LINE
  8
1
 62
7
  6
CONTINUOUS
 10
56.659704
 20
140.449580
 11
56.659704
 21
137.665746
  0
LINE
  8
1
 62
7
  6
CONTINUOUS
 10
56.692436
 20
140.449580
 11
56.692436
 21
137.643684
  0
LINE
  8
1
 62
7
  6
CONTINUOUS
 10
56.725169
 20
140.449580
 11
56.725169
 21
137.623902
  0
LINE
  8
1
 62
7
  6
CONTINUOUS
 10
56.757901
 20
140.449580
 11
56.757901
 21
137.606206
  0
LINE
  8
1
 62
7
  6
CONTINUOUS
 10
56.790634
 20
140.449580
 11
56.790634
 21
137.590440
  0
LINE
  8
1
 62
7
  6
CONTINUOUS
 10
56.823366
 20
140.449580
 11
56.823366
 21
137.576481
  0
LINE
  8
1
 62
7
  6
CONTINUOUS
 10
56.856099
 20
140.449580
 11
56.856099
 21
137.564225
  0
LINE
  8
1
 62
7
  6
CONTINUOUS
 10
56.888831
 20
140.449580
 11
56.888831
 21
137.553590
  0
LINE
  8
1
 62
7
  6
CONTINUOUS
 10
56.921563
 20
140.449580
 11
56.921563
 21
137.544508
  0
LINE
  8
1
 62
7
  6
CONTINUOUS
 10
56.954296
 20
140.449580
 11
56.954296
 21
137.536925
  0
LINE
  8
1
 62
7
  6
CONTINUOUS
 10
56.987028
 20
140.449580
 11
56.987028
 21
137.530795
  0
LINE
  8
1
 62
7
  6
CONTINUOUS
 10
57.019761
 20
140.449580
 11
57.019761
 21
139.577365
  0
LINE
  8
1
 62
7
  6
CONTINUOUS
 10
57.019761
 20
138.580004
 11
57.019761
 21
137.526085
  0
LINE
  8
1
 62
7
  6
CONTINUOUS
 10
57.052493
 20
140.449580
 11
57.052493
 21
139.577365
  0
LINE
  8
1
 62
7
  6
CONTINUOUS
 10
57.052493
 20
138.519543
 11
57.052493
 21
137.522769
  0
LINE
  8
1
 62
7
  6
CONTINUOUS
 10
57.085226
 20
140.449580
 11
57.085226
 21
139.577365
  0
LINE
  8
1
 62
7
  6
CONTINUOUS
 10
57.085226
 20
138.476698
 11
57.085226
 21
137.520829
  0
LINE
  8
1
 62
7
  6
CONTINUOUS
 10
57.117958
 20
140.449580
 11
57.117958
 21
139.577365
  0
LINE
  8
1
 62
7
  6
CONTINUOUS
 10
57.117958
 20
138.443626
 11
57.117958
 21
137.520252
  0
LINE
  8
1
 62
7
  6
CONTINUOUS
 10
57.150691
 20
140.449580
 11
57.150691
 21
139.577365
  0
LINE
  8
1
 62
7
  6
CONTINUOUS
 10
57.150691
 20
138.417272
 11
57.150691
 21
137.520252
  0
LINE
  8
1
 62
7
  6
CONTINUOUS
 10
57.183423
 20
140.449580
 11
57.183423
 21
139.577365
  0
LINE
  8
1
 62
7
  6
CONTINUOUS
 10
57.183423
 20
138.396070
 11
57.183423
 21
137.520252
  0
LINE
  8
1
 62
7
  6
CONTINUOUS
 10
57.216155
 20
140.449580
 11
57.216155
 21
139.577365
  0
LINE
  8
1
 62
7
  6
CONTINUOUS
 10
57.216155
 20
138.379103
 11
57.216155
 21
137.520252
  0
LINE
  8
1
 62
7
  6
CONTINUOUS
 10
57.248888
 20
140.449580
 11
57.248888
 21
139.577365
  0
LINE
  8
1
 62
7
  6
CONTINUOUS
 10
57.248888
 20
138.365786
 11
57.248888
 21
137.520252
  0
LINE
  8
1
 62
7
  6
CONTINUOUS
 10
57.281620
 20
140.449580
 11
57.281620
 21
139.577365
  0
LINE
  8
1
 62
7
  6
CONTINUOUS
 10
57.281620
 20
138.355738
 11
57.281620
 21
137.520252
  0
LINE
  8
1
 62
7
  6
CONTINUOUS
 10
57.314353
 20
140.449580
 11
57.314353
 21
139.577365
  0
LINE
  8
1
 62
7
  6
CONTINUOUS
 10
57.314353
 20
138.350966
 11
57.314353
 21
137.520252
  0
LINE
  8
1
 62
7
  6
CONTINUOUS
 10
57.347085
 20
140.449580
 11
57.347085
 21
139.577365
  0
LINE
  8
1
 62
7
  6
CONTINUOUS
 10
57.347085
 20
138.359091
 11
57.347085
 21
137.520252
  0
LINE
  8
1
 62
7
  6
CONTINUOUS
 10
57.379818
 20
140.449580
 11
57.379818
 21
139.577365
  0
LINE
  8
1
 62
7
  6
CONTINUOUS
 10
57.379818
 20
138.370313
 11
57.379818
 21
137.520252
  0
LINE
  8
1
 62
7
  6
CONTINUOUS
 10
57.412550
 20
140.449580
 11
57.412550
 21
139.577365
  0
LINE
  8
1
 62
7
  6
CONTINUOUS
 10
57.412550
 20
138.384926
 11
57.412550
 21
137.520252
  0
LINE
  8
1
 62
7
  6
CONTINUOUS
 10
57.445283
 20
140.449580
 11
57.445283
 21
139.577365
  0
LINE
  8
1
 62
7
  6
CONTINUOUS
 10
57.445283
 20
138.403378
 11
57.445283
 21
137.520252
  0
LINE
  8
1
 62
7
  6
CONTINUOUS
 10
57.478015
 20
140.449580
 11
57.478015
 21
139.577365
  0
LINE
  8
1
 62
7
  6
CONTINUOUS
 10
57.478015
 20
138.426353
 11
57.478015
 21
137.520252
  0
LINE
  8
1
 62
7
  6
CONTINUOUS
 10
57.510747
 20
140.449580
 11
57.510747
 21
139.577365
  0
LINE
  8
1
 62
7
  6
CONTINUOUS
 10
57.510747
 20
138.454957
 11
57.510747
 21
137.520252
  0
LINE
  8
1
 62
7
  6
CONTINUOUS
 10
57.543480
 20
140.449580
 11
57.543480
 21
139.577365
  0
LINE
  8
1
 62
7
  6
CONTINUOUS
 10
57.543480
 20
138.491156
 11
57.543480
 21
137.520674
  0
LINE
  8
1
 62
7
  6
CONTINUOUS
 10
57.576212
 20
140.449580
 11
57.576212
 21
139.577365
  0
LINE
  8
1
 62
7
  6
CONTINUOUS
 10
57.576212
 20
138.539087
 11
57.576212
 21
137.522432
  0
LINE
  8
1
 62
7
  6
CONTINUOUS
 10
57.608945
 20
140.449580
 11
57.608945
 21
139.577365
  0
LINE
  8
1
 62
7
  6
CONTINUOUS
 10
57.608945
 20
138.611626
 11
57.608945
 21
137.525564
  0
LINE
  8
1
 62
7
  6
CONTINUOUS
 10
57.641677
 20
140.449580
 11
57.641677
 21
137.530087
  0
LINE
  8
1
 62
7
  6
CONTINUOUS
 10
57.674410
 20
140.449580
 11
57.674410
 21
137.536026
  0
LINE
  8
1
 62
7
  6
CONTINUOUS
 10
57.707142
 20
140.449580
 11
57.707142
 21
137.543415
  0
LINE
  8
1
 62
7
  6
CONTINUOUS
 10
57.739875
 20
140.449580
 11
57.739875
 21
137.552294
  0
LINE
  8
1
 62
7
  6
CONTINUOUS
 10
57.772607
 20
140.449580
 11
57.772607
 21
137.562719
  0
LINE
  8
1
 62
7
  6
CONTINUOUS
 10
57.805339
 20
140.449580
 11
57.805339
 21
137.574755
  0
LINE
  8
1
 62
7
  6
CONTINUOUS
 10
57.838072
 20
140.449580
 11
57.838072
 21
137.588482
  0
LINE
  8
1
 62
7
  6
CONTINUOUS
 10
57.870804
 20
140.449580
 11
57.870804
 21
137.604001
  0
LINE
  8
1
 62
7
  6
CONTINUOUS
 10
57.903537
 20
140.449580
 11
57.903537
 21
137.621433
  0
LINE
  8
1
 62
7
  6
CONTINUOUS
 10
57.936269
 20
140.449580
 11
57.936269
 21
137.640927
  0
LINE
  8
1
 62
7
  6
CONTINUOUS
 10
57.969002
 20
140.449580
 11
57.969002
 21
137.662672
  0
LINE
  8
1
 62
7
  6
CONTINUOUS
 10
58.001734
 20
140.449580
 11
58.001734
 21
137.686905
  0
LINE
  8
1
 62
7
  6
CONTINUOUS
 10
58.034467
 20
140.449580
 11
58.034467
 21
137.713930
  0
LINE
  8
1
 62
7
  6
CONTINUOUS
 10
58.067199
 20
140.449580
 11
58.067199
 21
137.744150
  0
LINE
  8
1
 62
7
  6
CONTINUOUS
 10
58.099932
 20
140.449580
 11
58.099932
 21
137.778113
  0
LINE
  8
1
 62
7
  6
CONTINUOUS
 10
58.132664
 20
140.449580
 11
58.132664
 21
137.816597
  0
LINE
  8
1
 62
7
  6
CONTINUOUS
 10
58.165396
 20
140.449580
 11
58.165396
 21
137.860771
  0
LINE
  8
1
 62
7
  6
CONTINUOUS
 10
58.198129
 20
140.449580
 11
58.198129
 21
137.912544
  0
LINE
  8
1
 62
7
  6
CONTINUOUS
 10
58.230861
 20
140.449580
 11
58.230861
 21
137.975464
  0
LINE
  8
1
 62
7
  6
CONTINUOUS
 10
58.263594
 20
140.449580
 11
58.263594
 21
138.057854
  0
LINE
  8
1
 62
7
  6
CONTINUOUS
 10
58.296326
 20
140.449580
 11
58.296326
 21
138.197314
  0
LINE
  8
1
 62
7
  6
CONTINUOUS
 10
55.546801
 20
136.911346
 11
55.546801
 21
135.167789
  0
LINE
  8
1
 62
7
  6
CONTINUOUS
 10
55.579533
 20
136.911346
 11
55.579533
 21
134.986197
  0
LINE
  8
1
 62
7
  6
CONTINUOUS
 10
55.612266
 20
136.911346
 11
55.612266
 21
134.877374
  0
LINE
  8
1
 62
7
  6
CONTINUOUS
 10
55.644998
 20
136.911346
 11
55.644998
 21
134.793004
  0
LINE
  8
1
 62
7
  6
CONTINUOUS
 10
55.677730
 20
136.911346
 11
55.677730
 21
134.722437
  0
LINE
  8
1
 62
7
  6
CONTINUOUS
 10
55.710463
 20
136.911346
 11
55.710463
 21
134.661145
  0
LINE
  8
1
 62
7
  6
CONTINUOUS
 10
55.743195
 20
136.911346
 11
55.743195
 21
134.606696
  0
LINE
  8
1
 62
7
  6
CONTINUOUS
 10
55.775928
 20
136.911346
 11
55.775928
 21
134.557601
  0
LINE
  8
1
 62
7
  6
CONTINUOUS
 10
55.808660
 20
136.911346
 11
55.808660
 21
134.512867
  0
LINE
  8
1
 62
7
  6
CONTINUOUS
 10
55.841393
 20
136.911346
 11
55.841393
 21
134.471796
  0
LINE
  8
1
 62
7
  6
CONTINUOUS
 10
55.874125
 20
136.911346
 11
55.874125
 21
134.433872
  0
LINE
  8
1
 62
7
  6
CONTINUOUS
 10
55.906858
 20
136.911346
 11
55.906858
 21
134.398700
  0
LINE
  8
1
 62
7
  6
CONTINUOUS
 10
55.939590
 20
136.911346
 11
55.939590
 21
134.365974
  0
LINE
  8
1
 62
7
  6
CONTINUOUS
 10
55.972322
 20
136.911346
 11
55.972322
 21
134.335446
  0
LINE
  8
1
 62
7
  6
CONTINUOUS
 10
56.005055
 20
136.911346
 11
56.005055
 21
134.306916
  0
LINE
  8
1
 62
7
  6
CONTINUOUS
 10
56.037787
 20
136.911346
 11
56.037787
 21
134.280217
  0
LINE
  8
1
 62
7
  6
CONTINUOUS
 10
56.070520
 20
136.911346
 11
56.070520
 21
134.255210
  0
LINE
  8
1
 62
7
  6
CONTINUOUS
 10
56.103252
 20
136.911346
 11
56.103252
 21
134.231777
  0
LINE
  8
1
 62
7
  6
CONTINUOUS
 10
56.135985
 20
136.911346
 11
56.135985
 21
134.209818
  0
LINE
  8
1
 62
7
  6
CONTINUOUS
 10
56.168717
 20
136.911346
 11
56.168717
 21
134.189245
  0
LINE
  8
1
 62
7
  6
CONTINUOUS
 10
56.201450
 20
136.911346
 11
56.201450
 21
134.169984
  0
LINE
  8
1
 62
7
  6
CONTINUOUS
 10
56.234182
 20
136.911346
 11
56.234182
 21
136.072044
  0
LINE
  8
1
 62
7
  6
CONTINUOUS
 10
56.234182
 20
135.472074
 11
56.234182
 21
134.151969
  0
LINE
  8
1
 62
7
  6
CONTINUOUS
 10
56.266914
 20
136.911346
 11
56.266914
 21
136.072044
  0
LINE
  8
1
 62
7
  6
CONTINUOUS
 10
56.266914
 20
135.320940
 11
56.266914
 21
134.135143
  0
LINE
  8
1
 62
7
  6
CONTINUOUS
 10
56.299647
 20
136.911346
 11
56.299647
 21
136.072044
  0
LINE
  8
1
 62
7
  6
CONTINUOUS
 10
56.299647
 20
135.240041
 11
56.299647
 21
134.119455
  0
LINE
  8
1
 62
7
  6
CONTINUOUS
 10
56.332379
 20
136.911346
 11
56.332379
 21
136.072044
  0
LINE
  8
1
 62
7
  6
CONTINUOUS
 10
56.332379
 20
135.179391
 11
56.332379
 21
134.104861
  0
LINE
  8
1
 62
7
  6
CONTINUOUS
 10
56.365112
 20
136.911346
 11
56.365112
 21
136.072044
  0
LINE
  8
1
 62
7
  6
CONTINUOUS
 10
56.365112
 20
135.130023
 11
56.365112
 21
134.091321
  0
LINE
  8
1
 62
7
  6
CONTINUOUS
 10
56.397844
 20
136.911346
 11
56.397844
 21
136.072044
  0
LINE
  8
1
 62
7
  6
CONTINUOUS
 10
56.397844
 20
135.088267
 11
56.397844
 21
134.078801
  0
LINE
  8
1
 62
7
  6
CONTINUOUS
 10
56.430577
 20
136.911346
 11
56.430577
 21
136.072044
  0
LINE
  8
1
 62
7
  6
CONTINUOUS
 10
56.430577
 20
135.052186
 11
56.430577
 21
134.067270
  0
LINE
  8
1
 62
7
  6
CONTINUOUS
 10
56.463309
 20
136.911346
 11
56.463309
 21
136.072044
  0
LINE
  8
1
 62
7
  6
CONTINUOUS
 10
56.463309
 20
135.020607
 11
56.463309
 21
134.056700
  0
LINE
  8
1
 62
7
  6
CONTINUOUS
 10
56.496042
 20
136.911346
 11
56.496042
 21
136.072044
  0
LINE
  8
1
 62
7
  6
CONTINUOUS
 10
56.496042
 20
134.992760
 11
56.496042
 21
134.047067
  0
LINE
  8
1
 62
7
  6
CONTINUOUS
 10
56.528774
 20
136.911346
 11
56.528774
 21
136.072044
  0
LINE
  8
1
 62
7
  6
CONTINUOUS
 10
56.528774
 20
134.968103
 11
56.528774
 21
134.038351
  0
LINE
  8
1
 62
7
  6
CONTINUOUS
 10
56.561506
 20
136.911346
 11
56.561506
 21
136.072044
  0
LINE
  8
1
 62
7
  6
CONTINUOUS
 10
56.561506
 20
134.946242
 11
56.561506
 21
134.030531
  0
LINE
  8
1
 62
7
  6
CONTINUOUS
 10
56.594239
 20
136.911346
 11
56.594239
 21
136.072044
  0
LINE
  8
1
 62
7
  6
CONTINUOUS
 10
56.594239
 20
134.926881
 11
56.594239
 21
134.023593
  0
LINE
  8
1
 62
7
  6
CONTINUOUS
 10
56.626971
 20
136.911346
 11
56.626971
 21
136.072044
  0
LINE
  8
1
 62
7
  6
CONTINUOUS
 10
56.626971
 20
134.909792
 11
56.626971
 21
134.017521
  0
LINE
  8
1
 62
7
  6
CONTINUOUS
 10
56.659704
 20
136.911346
 11
56.659704
 21
136.072044
  0
LINE
  8
1
 62
7
  6
CONTINUOUS
 10
56.659704
 20
134.894794
 11
56.659704
 21
134.012304
  0
LINE
  8
1
 62
7
  6
CONTINUOUS
 10
56.692436
 20
136.911346
 11
56.692436
 21
136.072044
  0
LINE
  8
1
 62
7
  6
CONTINUOUS
 10
56.692436
 20
134.881748
 11
56.692436
 21
134.007931
  0
LINE
  8
1
 62
7
  6
CONTINUOUS
 10
56.725169
 20
136.911346
 11
56.725169
 21
136.072044
  0
LINE
  8
1
 62
7
  6
CONTINUOUS
 10
56.725169
 20
134.870538
 11
56.725169
 21
134.004394
  0
LINE
  8
1
 62
7
  6
CONTINUOUS
 10
56.757901
 20
136.911346
 11
56.757901
 21
136.072044
  0
LINE
  8
1
 62
7
  6
CONTINUOUS
 10
56.757901
 20
134.861076
 11
56.757901
 21
134.001685
  0
LINE
  8
1
 62
7
  6
CONTINUOUS
 10
56.790634
 20
136.911346
 11
56.790634
 21
136.072044
  0
LINE
  8
1
 62
7
  6
CONTINUOUS
 10
56.790634
 20
134.853289
 11
56.790634
 21
133.999801
  0
LINE
  8
1
 62
7
  6
CONTINUOUS
 10
56.823366
 20
136.911346
 11
56.823366
 21
136.072044
  0
LINE
  8
1
 62
7
  6
CONTINUOUS
 10
56.823366
 20
134.847122
 11
56.823366
 21
133.998736
  0
LINE
  8
1
 62
7
  6
CONTINUOUS
 10
56.856099
 20
136.911346
 11
56.856099
 21
136.072044
  0
LINE
  8
1
 62
7
  6
CONTINUOUS
 10
56.856099
 20
134.842531
 11
56.856099
 21
133.998474
  0
LINE
  8
1
 62
7
  6
CONTINUOUS
 10
56.888831
 20
136.911346
 11
56.888831
 21
136.072044
  0
LINE
  8
1
 62
7
  6
CONTINUOUS
 10
56.888831
 20
134.839486
 11
56.888831
 21
133.998474
  0
LINE
  8
1
 62
7
  6
CONTINUOUS
 10
56.921563
 20
136.911346
 11
56.921563
 21
136.072044
  0
LINE
  8
1
 62
7
  6
CONTINUOUS
 10
56.921563
 20
134.837967
 11
56.921563
 21
133.998474
  0
LINE
  8
1
 62
7
  6
CONTINUOUS
 10
56.954296
 20
136.911346
 11
56.954296
 21
136.072044
  0
LINE
  8
1
 62
7
  6
CONTINUOUS
 10
56.954296
 20
134.838532
 11
56.954296
 21
133.998474
  0
LINE
  8
1
 62
7
  6
CONTINUOUS
 10
56.987028
 20
136.911346
 11
56.987028
 21
136.072044
  0
LINE
  8
1
 62
7
  6
CONTINUOUS
 10
56.987028
 20
134.840808
 11
56.987028
 21
133.998474
  0
LINE
  8
1
 62
7
  6
CONTINUOUS
 10
57.019761
 20
136.911346
 11
57.019761
 21
136.072044
  0
LINE
  8
1
 62
7
  6
CONTINUOUS
 10
57.019761
 20
134.844618
 11
57.019761
 21
133.998736
  0
LINE
  8
1
 62
7
  6
CONTINUOUS
 10
57.052493
 20
136.911346
 11
57.052493
 21
136.072044
  0
LINE
  8
1
 62
7
  6
CONTINUOUS
 10
57.052493
 20
134.849989
 11
57.052493
 21
133.999801
  0
LINE
  8
1
 62
7
  6
CONTINUOUS
 10
57.085226
 20
136.911346
 11
57.085226
 21
136.072044
  0
LINE
  8
1
 62
7
  6
CONTINUOUS
 10
57.085226
 20
134.856955
 11
57.085226
 21
134.001685
  0
LINE
  8
1
 62
7
  6
CONTINUOUS
 10
57.117958
 20
136.911346
 11
57.117958
 21
136.072044
  0
LINE
  8
1
 62
7
  6
CONTINUOUS
 10
57.117958
 20
134.865567
 11
57.117958
 21
134.004394
  0
LINE
  8
1
 62
7
  6
CONTINUOUS
 10
57.150691
 20
136.911346
 11
57.150691
 21
136.072044
  0
LINE
  8
1
 62
7
  6
CONTINUOUS
 10
57.150691
 20
134.875888
 11
57.150691
 21
134.007931
  0
LINE
  8
1
 62
7
  6
CONTINUOUS
 10
57.183423
 20
136.911346
 11
57.183423
 21
136.072044
  0
LINE
  8
1
 62
7
  6
CONTINUOUS
 10
57.183423
 20
134.887999
 11
57.183423
 21
134.012304
  0
LINE
  8
1
 62
7
  6
CONTINUOUS
 10
57.216155
 20
136.911346
 11
57.216155
 21
136.072044
  0
LINE
  8
1
 62
7
  6
CONTINUOUS
 10
57.216155
 20
134.901999
 11
57.216155
 21
134.017521
  0
LINE
  8
1
 62
7
  6
CONTINUOUS
 10
57.248888
 20
136.911346
 11
57.248888
 21
136.072044
  0
LINE
  8
1
 62
7
  6
CONTINUOUS
 10
57.248888
 20
134.918017
 11
57.248888
 21
134.023593
  0
LINE
  8
1
 62
7
  6
CONTINUOUS
 10
57.281620
 20
136.911346
 11
57.281620
 21
136.072044
  0
LINE
  8
1
 62
7
  6
CONTINUOUS
 10
57.281620
 20
134.936211
 11
57.281620
 21
134.030531
  0
LINE
  8
1
 62
7
  6
CONTINUOUS
 10
57.314353
 20
136.911346
 11
57.314353
 21
136.072044
  0
LINE
  8
1
 62
7
  6
CONTINUOUS
 10
57.314353
 20
134.956783
 11
57.314353
 21
134.038351
  0
LINE
  8
1
 62
7
  6
CONTINUOUS
 10
57.347085
 20
136.911346
 11
57.347085
 21
136.072044
  0
LINE
  8
1
 62
7
  6
CONTINUOUS
 10
57.347085
 20
134.979992
 11
57.347085
 21
134.047067
  0
LINE
  8
1
 62
7
  6
CONTINUOUS
 10
57.379818
 20
136.911346
 11
57.379818
 21
136.072044
  0
LINE
  8
1
 62
7
  6
CONTINUOUS
 10
57.379818
 20
135.006178
 11
57.379818
 21
134.056700
  0
LINE
  8
1
 62
7
  6
CONTINUOUS
 10
57.412550
 20
136.911346
 11
57.412550
 21
136.072044
  0
LINE
  8
1
 62
7
  6
CONTINUOUS
 10
57.412550
 20
135.035801
 11
57.412550
 21
134.067270
  0
LINE
  8
1
 62
7
  6
CONTINUOUS
 10
57.445283
 20
136.911346
 11
57.445283
 21
136.072044
  0
LINE
  8
1
 62
7
  6
CONTINUOUS
 10
57.445283
 20
135.069502
 11
57.445283
 21
134.078801
  0
LINE
  8
1
 62
7
  6
CONTINUOUS
 10
57.478015
 20
136.911346
 11
57.478015
 21
136.072044
  0
LINE
  8
1
 62
7
  6
CONTINUOUS
 10
57.478015
 20
135.108224
 11
57.478015
 21
134.091321
  0
LINE
  8
1
 62
7
  6
CONTINUOUS
 10
57.510747
 20
136.911346
 11
57.510747
 21
136.072044
  0
LINE
  8
1
 62
7
  6
CONTINUOUS
 10
57.510747
 20
135.153450
 11
57.510747
 21
134.104861
  0
LINE
  8
1
 62
7
  6
CONTINUOUS
 10
57.543480
 20
136.911346
 11
57.543480
 21
136.072044
  0
LINE
  8
1
 62
7
  6
CONTINUOUS
 10
57.543480
 20
135.207785
 11
57.543480
 21
134.119455
  0
LINE
  8
1
 62
7
  6
CONTINUOUS
 10
57.576212
 20
136.911346
 11
57.576212
 21
136.072044
  0
LINE
  8
1
 62
7
  6
CONTINUOUS
 10
57.576212
 20
135.276700
 11
57.576212
 21
134.135143
  0
LINE
  8
1
 62
7
  6
CONTINUOUS
 10
57.608945
 20
136.911346
 11
57.608945
 21
136.072044
  0
LINE
  8
1
 62
7
  6
CONTINUOUS
 10
57.608945
 20
135.377256
 11
57.608945
 21
134.151969
  0
LINE
  8
1
 62
7
  6
CONTINUOUS
 10
57.641677
 20
136.911346
 11
57.641677
 21
134.169984
  0
LINE
  8
1
 62
7
  6
CONTINUOUS
 10
57.674410
 20
136.911346
 11
57.674410
 21
134.189245
  0
LINE
  8
1
 62
7
  6
CONTINUOUS
 10
57.707142
 20
136.911346
 11
57.707142
 21
134.209818
  0
LINE
  8
1
 62
7
  6
CONTINUOUS
 10
57.739875
 20
136.911346
 11
57.739875
 21
134.231777
  0
LINE
  8
1
 62
7
  6
CONTINUOUS
 10
57.772607
 20
136.911346
 11
57.772607
 21
134.255210
  0
LINE
  8
1
 62
7
  6
CONTINUOUS
 10
57.805339
 20
136.911346
 11
57.805339
 21
134.280217
  0
LINE
  8
1
 62
7
  6
CONTINUOUS
 10
57.838072
 20
136.911346
 11
57.838072
 21
134.306916
  0
LINE
  8
1
 62
7
  6
CONTINUOUS
 10
57.870804
 20
136.911346
 11
57.870804
 21
134.335446
  0
LINE
  8
1
 62
7
  6
CONTINUOUS
 10
57.903537
 20
136.911346
 11
57.903537
 21
134.365974
  0
LINE
  8
1
 62
7
  6
CONTINUOUS
 10
57.936269
 20
136.911346
 11
57.936269
 21
134.398700
  0
LINE
  8
1
 62
7
  6
CONTINUOUS
 10
57.969002
 20
136.911346
 11
57.969002
 21
134.433872
  0
LINE
  8
1
 62
7
  6
CONTINUOUS
 10
58.001734
 20
136.911346
 11
58.001734
 21
134.471796
  0
LINE
  8
1
 62
7
  6
CONTINUOUS
 10
58.034467
 20
136.911346
 11
58.034467
 21
134.512867
  0
LINE
  8
1
 62
7
  6
CONTINUOUS
 10
58.067199
 20
136.911346
 11
58.067199
 21
134.557601
  0
LINE
  8
1
 62
7
  6
CONTINUOUS
 10
58.099932
 20
136.911346
 11
58.099932
 21
134.606696
  0
LINE
  8
1
 62
7
  6
CONTINUOUS
 10
58.132664
 20
136.911346
 11
58.132664
 21
134.661145
  0
LINE
  8
1
 62
7
  6
CONTINUOUS
 10
58.165396
 20
136.911346
 11
58.165396
 21
134.722437
  0
LINE
  8
1
 62
7
  6
CONTINUOUS
 10
58.198129
 20
136.911346
 11
58.198129
 21
134.793004
  0
LINE
  8
1
 62
7
  6
CONTINUOUS
 10
58.230861
 20
136.911346
 11
58.230861
 21
134.877374
  0
LINE
  8
1
 62
7
  6
CONTINUOUS
 10
58.263594
 20
136.911346
 11
58.263594
 21
134.986197
  0
LINE
  8
1
 62
7
  6
CONTINUOUS
 10
58.296326
 20
136.911346
 11
58.296326
 21
135.167789
  0
LINE
  8
1
 62
7
  6
CONTINUOUS
 10
171.756725
 20
92.859954
 11
171.756725
 21
98.873377
  0
LINE
  8
1
 62
7
  6
CONTINUOUS
 10
171.756725
 20
142.888291
 11
171.756725
 21
149.089633
  0
LINE
  8
1
 62
7
  6
CONTINUOUS
 10
174.544943
 20
96.012452
 11
168.364481
 21
96.012452
  0
LINE
  8
1
 62
7
  6
CONTINUOUS
 10
174.461423
 20
146.012452
 11
168.865599
 21
146.012452
  0
LINE
  8
1
 62
7
  6
CONTINUOUS
 10
176.756725
 20
79.012452
 11
176.756725
 21
163.012452
  0
ARC
  8
1
 62
7
  6
CONTINUOUS
 10
169.756725
 20
82.012452
 40
3.000000
 50
180.000000
 51
-90.000000
  0
LINE
  8
1
 62
7
  6
CONTINUOUS
 10
166.756725
 20
82.012452
 11
166.756725
 21
160.012452
  0
ARC
  8
1
 62
7
  6
CONTINUOUS
 10
169.756725
 20
160.012452
 40
3.000000
 50
90.000000
 51
180.000000
  0
CIRCLE
  8
1
 62
7
  6
CONTINUOUS
 10
171.756725
 20
96.012452
 40
2.000000
  0
CIRCLE
  8
1
 62
7
  6
CONTINUOUS
 10
171.756725
 20
146.012452
 40
2.000000
  0
LINE
  8
1
 62
7
  6
CONTINUOUS
 10
249.756725
 20
149.277553
 11
249.756725
 21
143.222370
  0
LINE
  8
1
 62
7
  6
CONTINUOUS
 10
249.756725
 20
98.873377
 11
249.756725
 21
92.525875
  0
LINE
  8
1
 62
7
  6
CONTINUOUS
 10
252.955085
 20
96.012452
 11
246.691103
 21
96.012452
  0
LINE
  8
1
 62
7
  6
CONTINUOUS
 10
252.537486
 20
146.012452
 11
246.774622
 21
146.012452
  0
LINE
  8
1
 62
7
  6
CONTINUOUS
 10
244.756725
 20
163.012452
 11
244.756725
 21
79.012452
  0
LINE
  8
1
 62
7
  6
CONTINUOUS
 10
251.756725
 20
79.012452
 11
169.756725
 21
79.012452
  0
ARC
  8
1
 62
7
  6
CONTINUOUS
 10
251.756725
 20
82.012452
 40
3.000000
 50
-90.000000
 51
0.000000
  0
LINE
  8
1
 62
7
  6
CONTINUOUS
 10
254.756725
 20
160.012452
 11
254.756725
 21
82.012452
  0
ARC
  8
1
 62
7
  6
CONTINUOUS
 10
251.756725
 20
160.012452
 40
3.000000
 50
0.000000
 51
90.000000
  0
LINE
  8
1
 62
7
  6
CONTINUOUS
 10
169.756725
 20
163.012452
 11
251.756725
 21
163.012452
  0
CIRCLE
  8
1
 62
7
  6
CONTINUOUS
 10
249.756725
 20
146.012452
 40
2.000000
  0
CIRCLE
  8
1
 62
7
  6
CONTINUOUS
 10
249.756725
 20
96.012452
 40
2.000000
  0
ARC
  8
1
 62
7
  6
CONTINUOUS
 10
187.628015
 20
152.798880
 40
0.800000
 50
90.000000
 51
180.000000
  0
LINE
  8
1
 62
7
  6
CONTINUOUS
 10
187.628015
 20
153.598880
 11
198.828015
 21
153.598880
  0
ARC
  8
1
 62
7
  6
CONTINUOUS
 10
198.828015
 20
152.798880
 40
0.800000
 50
0.000000
 51
90.000000
  0
LINE
  8
1
 62
7
  6
CONTINUOUS
 10
199.628015
 20
152.798880
 11
199.628015
 21
141.598880
  0
ARC
  8
1
 62
7
  6
CONTINUOUS
 10
198.828015
 20
141.598880
 40
0.800000
 50
-90.000000
 51
0.000000
  0
LINE
  8
1
 62
7
  6
CONTINUOUS
 10
198.828015
 20
140.798880
 11
187.628015
 21
140.798880
  0
LINE
  8
1
 62
7
  6
CONTINUOUS
 10
186.828015
 20
141.598880
 11
186.828015
 21
152.798880
  0
ARC
  8
1
 62
7
  6
CONTINUOUS
 10
187.628015
 20
141.598880
 40
0.800000
 50
180.000000
 51
-90.000000
  0
ARC
  8
1
 62
7
  6
CONTINUOUS
 10
187.628015
 20
135.298880
 40
0.800000
 50
90.000000
 51
180.000000
  0
LINE
  8
1
 62
7
  6
CONTINUOUS
 10
187.628015
 20
136.098880
 11
198.828015
 21
136.098880
  0
ARC
  8
1
 62
7
  6
CONTINUOUS
 10
198.828015
 20
135.298880
 40
0.800000
 50
0.000000
 51
90.000000
  0
LINE
  8
1
 62
7
  6
CONTINUOUS
 10
199.628015
 20
135.298880
 11
199.628015
 21
124.098880
  0
ARC
  8
1
 62
7
  6
CONTINUOUS
 10
198.828015
 20
124.098880
 40
0.800000
 50
-90.000000
 51
0.000000
  0
LINE
  8
1
 62
7
  6
CONTINUOUS
 10
198.828015
 20
123.298880
 11
187.628015
 21
123.298880
  0
LINE
  8
1
 62
7
  6
CONTINUOUS
 10
186.828015
 20
124.098880
 11
186.828015
 21
135.298880
  0
ARC
  8
1
 62
7
  6
CONTINUOUS
 10
187.628015
 20
124.098880
 40
0.800000
 50
180.000000
 51
-90.000000
  0
ARC
  8
1
 62
7
  6
CONTINUOUS
 10
187.628015
 20
117.798880
 40
0.800000
 50
90.000000
 51
180.000000
  0
LINE
  8
1
 62
7
  6
CONTINUOUS
 10
187.628015
 20
118.598880
 11
198.828015
 21
118.598880
  0
ARC
  8
1
 62
7
  6
CONTINUOUS
 10
198.828015
 20
117.798880
 40
0.800000
 50
0.000000
 51
90.000000
  0
LINE
  8
1
 62
7
  6
CONTINUOUS
 10
199.628015
 20
117.798880
 11
199.628015
 21
106.598880
  0
ARC
  8
1
 62
7
  6
CONTINUOUS
 10
198.828015
 20
106.598880
 40
0.800000
 50
-90.000000
 51
0.000000
  0
LINE
  8
1
 62
7
  6
CONTINUOUS
 10
198.828015
 20
105.798880
 11
187.628015
 21
105.798880
  0
LINE
  8
1
 62
7
  6
CONTINUOUS
 10
186.828015
 20
106.598880
 11
186.828015
 21
117.798880
  0
ARC
  8
1
 62
7
  6
CONTINUOUS
 10
187.628015
 20
106.598880
 40
0.800000
 50
180.000000
 51
-90.000000
  0
ARC
  8
1
 62
7
  6
CONTINUOUS
 10
187.628015
 20
100.298880
 40
0.800000
 50
90.000000
 51
180.000000
  0
LINE
  8
1
 62
7
  6
CONTINUOUS
 10
187.628015
 20
101.098880
 11
198.828015
 21
101.098880
  0
ARC
  8
1
 62
7
  6
CONTINUOUS
 10
198.828015
 20
100.298880
 40
0.800000
 50
-0.000000
 51
90.000000
  0
LINE
  8
1
 62
7
  6
CONTINUOUS
 10
199.628015
 20
100.298880
 11
199.628015
 21
89.098880
  0
ARC
  8
1
 62
7
  6
CONTINUOUS
 10
198.828015
 20
89.098880
 40
0.800000
 50
-90.000000
 51
0.000000
  0
LINE
  8
1
 62
7
  6
CONTINUOUS
 10
198.828015
 20
88.298880
 11
187.628015
 21
88.298880
  0
LINE
  8
1
 62
7
  6
CONTINUOUS
 10
186.828015
 20
89.098880
 11
186.828015
 21
100.298880
  0
ARC
  8
1
 62
7
  6
CONTINUOUS
 10
187.628015
 20
89.098880
 40
0.800000
 50
180.000000
 51
-90.000000
  0
ARC
  8
1
 62
7
  6
CONTINUOUS
 10
205.128015
 20
152.798880
 40
0.800000
 50
90.000000
 51
180.000000
  0
LINE
  8
1
 62
7
  6
CONTINUOUS
 10
205.128015
 20
153.598880
 11
216.328015
 21
153.598880
  0
ARC
  8
1
 62
7
  6
CONTINUOUS
 10
216.328015
 20
152.798880
 40
0.800000
 50
0.000000
 51
90.000000
  0
LINE
  8
1
 62
7
  6
CONTINUOUS
 10
217.128015
 20
152.798880
 11
217.128015
 21
141.598880
  0
ARC
  8
1
 62
7
  6
CONTINUOUS
 10
216.328015
 20
141.598880
 40
0.800000
 50
-90.000000
 51
0.000000
  0
LINE
  8
1
 62
7
  6
CONTINUOUS
 10
216.328015
 20
140.798880
 11
205.128015
 21
140.798880
  0
LINE
  8
1
 62
7
  6
CONTINUOUS
 10
204.328015
 20
141.598880
 11
204.328015
 21
152.798880
  0
ARC
  8
1
 62
7
  6
CONTINUOUS
 10
205.128015
 20
141.598880
 40
0.800000
 50
180.000000
 51
-90.000000
  0
ARC
  8
1
 62
7
  6
CONTINUOUS
 10
205.128015
 20
135.298880
 40
0.800000
 50
90.000000
 51
180.000000
  0
LINE
  8
1
 62
7
  6
CONTINUOUS
 10
205.128015
 20
136.098880
 11
216.328015
 21
136.098880
  0
ARC
  8
1
 62
7
  6
CONTINUOUS
 10
216.328015
 20
135.298880
 40
0.800000
 50
0.000000
 51
90.000000
  0
LINE
  8
1
 62
7
  6
CONTINUOUS
 10
217.128015
 20
135.298880
 11
217.128015
 21
124.098880
  0
ARC
  8
1
 62
7
  6
CONTINUOUS
 10
216.328015
 20
124.098880
 40
0.800000
 50
-90.000000
 51
0.000000
  0
LINE
  8
1
 62
7
  6
CONTINUOUS
 10
216.328015
 20
123.298880
 11
205.128015
 21
123.298880
  0
LINE
  8
1
 62
7
  6
CONTINUOUS
 10
204.328015
 20
124.098880
 11
204.328015
 21
135.298880
  0
ARC
  8
1
 62
7
  6
CONTINUOUS
 10
205.128015
 20
124.098880
 40
0.800000
 50
180.000000
 51
-90.000000
  0
ARC
  8
1
 62
7
  6
CONTINUOUS
 10
205.128015
 20
117.798880
 40
0.800000
 50
90.000000
 51
180.000000
  0
LINE
  8
1
 62
7
  6
CONTINUOUS
 10
205.128015
 20
118.598880
 11
216.328015
 21
118.598880
  0
ARC
  8
1
 62
7
  6
CONTINUOUS
 10
216.328015
 20
117.798880
 40
0.800000
 50
0.000000
 51
90.000000
  0
LINE
  8
1
 62
7
  6
CONTINUOUS
 10
217.128015
 20
117.798880
 11
217.128015
 21
106.598880
  0
ARC
  8
1
 62
7
  6
CONTINUOUS
 10
216.328015
 20
106.598880
 40
0.800000
 50
-90.000000
 51
0.000000
  0
LINE
  8
1
 62
7
  6
CONTINUOUS
 10
216.328015
 20
105.798880
 11
205.128015
 21
105.798880
  0
LINE
  8
1
 62
7
  6
CONTINUOUS
 10
204.328015
 20
106.598880
 11
204.328015
 21
117.798880
  0
ARC
  8
1
 62
7
  6
CONTINUOUS
 10
205.128015
 20
106.598880
 40
0.800000
 50
180.000000
 51
-90.000000
  0
ARC
  8
1
 62
7
  6
CONTINUOUS
 10
205.128015
 20
100.298880
 40
0.800000
 50
90.000000
 51
180.000000
  0
LINE
  8
1
 62
7
  6
CONTINUOUS
 10
205.128015
 20
101.098880
 11
216.328015
 21
101.098880
  0
ARC
  8
1
 62
7
  6
CONTINUOUS
 10
216.328015
 20
100.298880
 40
0.800000
 50
-0.000000
 51
90.000000
  0
LINE
  8
1
 62
7
  6
CONTINUOUS
 10
217.128015
 20
100.298880
 11
217.128015
 21
89.098880
  0
ARC
  8
1
 62
7
  6
CONTINUOUS
 10
216.328015
 20
89.098880
 40
0.800000
 50
-90.000000
 51
0.000000
  0
LINE
  8
1
 62
7
  6
CONTINUOUS
 10
216.328015
 20
88.298880
 11
205.128015
 21
88.298880
  0
LINE
  8
1
 62
7
  6
CONTINUOUS
 10
204.328015
 20
89.098880
 11
204.328015
 21
100.298880
  0
ARC
  8
1
 62
7
  6
CONTINUOUS
 10
205.128015
 20
89.098880
 40
0.800000
 50
180.000000
 51
-90.000000
  0
ARC
  8
1
 62
7
  6
CONTINUOUS
 10
222.628015
 20
152.798880
 40
0.800000
 50
90.000000
 51
180.000000
  0
LINE
  8
1
 62
7
  6
CONTINUOUS
 10
222.628015
 20
153.598880
 11
233.828015
 21
153.598880
  0
ARC
  8
1
 62
7
  6
CONTINUOUS
 10
233.828015
 20
152.798880
 40
0.800000
 50
0.000000
 51
90.000000
  0
LINE
  8
1
 62
7
  6
CONTINUOUS
 10
234.628015
 20
152.798880
 11
234.628015
 21
141.598880
  0
ARC
  8
1
 62
7
  6
CONTINUOUS
 10
233.828015
 20
141.598880
 40
0.800000
 50
-90.000000
 51
0.000000
  0
LINE
  8
1
 62
7
  6
CONTINUOUS
 10
233.828015
 20
140.798880
 11
222.628015
 21
140.798880
  0
LINE
  8
1
 62
7
  6
CONTINUOUS
 10
221.828015
 20
141.598880
 11
221.828015
 21
152.798880
  0
ARC
  8
1
 62
7
  6
CONTINUOUS
 10
222.628015
 20
141.598880
 40
0.800000
 50
180.000000
 51
-90.000000
  0
ARC
  8
1
 62
7
  6
CONTINUOUS
 10
222.628015
 20
135.298880
 40
0.800000
 50
90.000000
 51
180.000000
  0
LINE
  8
1
 62
7
  6
CONTINUOUS
 10
222.628015
 20
136.098880
 11
233.828015
 21
136.098880
  0
ARC
  8
1
 62
7
  6
CONTINUOUS
 10
233.828015
 20
135.298880
 40
0.800000
 50
0.000000
 51
90.000000
  0
LINE
  8
1
 62
7
  6
CONTINUOUS
 10
234.628015
 20
135.298880
 11
234.628015
 21
124.098880
  0
ARC
  8
1
 62
7
  6
CONTINUOUS
 10
233.828015
 20
124.098880
 40
0.800000
 50
-90.000000
 51
0.000000
  0
LINE
  8
1
 62
7
  6
CONTINUOUS
 10
233.828015
 20
123.298880
 11
222.628015
 21
123.298880
  0
LINE
  8
1
 62
7
  6
CONTINUOUS
 10
221.828015
 20
124.098880
 11
221.828015
 21
135.298880
  0
ARC
  8
1
 62
7
  6
CONTINUOUS
 10
222.628015
 20
124.098880
 40
0.800000
 50
180.000000
 51
-90.000000
  0
ARC
  8
1
 62
7
  6
CONTINUOUS
 10
222.628015
 20
117.798880
 40
0.800000
 50
90.000000
 51
180.000000
  0
LINE
  8
1
 62
7
  6
CONTINUOUS
 10
222.628015
 20
118.598880
 11
233.828015
 21
118.598880
  0
ARC
  8
1
 62
7
  6
CONTINUOUS
 10
233.828015
 20
117.798880
 40
0.800000
 50
0.000000
 51
90.000000
  0
LINE
  8
1
 62
7
  6
CONTINUOUS
 10
234.628015
 20
117.798880
 11
234.628015
 21
106.598880
  0
ARC
  8
1
 62
7
  6
CONTINUOUS
 10
233.828015
 20
106.598880
 40
0.800000
 50
-90.000000
 51
0.000000
  0
LINE
  8
1
 62
7
  6
CONTINUOUS
 10
233.828015
 20
105.798880
 11
222.628015
 21
105.798880
  0
LINE
  8
1
 62
7
  6
CONTINUOUS
 10
221.828015
 20
106.598880
 11
221.828015
 21
117.798880
  0
ARC
  8
1
 62
7
  6
CONTINUOUS
 10
222.628015
 20
106.598880
 40
0.800000
 50
180.000000
 51
-90.000000
  0
ARC
  8
1
 62
7
  6
CONTINUOUS
 10
222.628015
 20
100.298880
 40
0.800000
 50
90.000000
 51
180.000000
  0
LINE
  8
1
 62
7
  6
CONTINUOUS
 10
222.628015
 20
101.098880
 11
233.828015
 21
101.098880
  0
ARC
  8
1
 62
7
  6
CONTINUOUS
 10
233.828015
 20
100.298880
 40
0.800000
 50
-0.000000
 51
90.000000
  0
LINE
  8
1
 62
7
  6
CONTINUOUS
 10
234.628015
 20
100.298880
 11
234.628015
 21
89.098880
  0
ARC
  8
1
 62
7
  6
CONTINUOUS
 10
233.828015
 20
89.098880
 40
0.800000
 50
-90.000000
 51
0.000000
  0
LINE
  8
1
 62
7
  6
CONTINUOUS
 10
233.828015
 20
88.298880
 11
222.628015
 21
88.298880
  0
LINE
  8
1
 62
7
  6
CONTINUOUS
 10
221.828015
 20
89.098880
 11
221.828015
 21
100.298880
  0
ARC
  8
1
 62
7
  6
CONTINUOUS
 10
222.628015
 20
89.098880
 40
0.800000
 50
180.000000
 51
-90.000000
  0
LINE
  8
1
 62
7
  6
CONTINUOUS
 10
178.756725
 20
81.012452
 11
178.756725
 21
161.012452
  0
LINE
  8
1
 62
7
  6
CONTINUOUS
 10
242.756725
 20
81.012452
 11
178.756725
 21
81.012452
  0
LINE
  8
1
 62
7
  6
CONTINUOUS
 10
242.756725
 20
81.012452
 11
242.756725
 21
161.012452
  0
LINE
  8
1
 62
7
  6
CONTINUOUS
 10
178.756725
 20
161.012452
 11
242.756725
 21
161.012452
  0
LINE
  8
1
 62
7
  6
CONTINUOUS
 10
171.756725
 20
117.888291
 11
171.756725
 21
124.089633
  0
LINE
  8
1
 62
7
  6
CONTINUOUS
 10
174.461423
 20
121.012452
 11
168.865599
 21
121.012452
  0
CIRCLE
  8
1
 62
7
  6
CONTINUOUS
 10
171.756725
 20
121.012452
 40
2.000000
  0
LINE
  8
1
 62
7
  6
CONTINUOUS
 10
249.756725
 20
124.277553
 11
249.756725
 21
118.222370
  0
LINE
  8
1
 62
7
  6
CONTINUOUS
 10
252.537486
 20
121.012452
 11
246.774622
 21
121.012452
  0
CIRCLE
  8
1
 62
7
  6
CONTINUOUS
 10
249.756725
 20
121.012452
 40
2.000000
  0
LINE
  8
1
 62
7
  6
CONTINUOUS
 10
251.165269
 20
147.432313
 11
262.277978
 21
164.937508
  0
LINE
  8
1
 62
7
  6
CONTINUOUS
 10
262.277978
 20
164.937508
 11
269.777978
 21
164.937508
  0
TEXT
  8
1
 62
7
  6
CONTINUOUS
 10
262.277978
 20
164.937508
 40
3.000000
 41
0.625000
  1
6-φ4
  7
KANJI
 50
0.000000
 51
30.000000
  0
LINE
  8
1
 62
7
  6
CONTINUOUS
 10
251.165269
 20
147.432313
 11
252.062808
 21
150.294903
  0
LINE
  8
1
 62
7
  6
CONTINUOUS
 10
251.165269
 20
147.432313
 11
253.373856
 21
149.462619
  0
DIMENSION
  8
1
 62
7
  6
CONTINUOUS
  2
*D1
 10
166.756725
 20
169.407713
 11
169.256725
 21
169.407713
 70
     0
  1
5
 13
166.756725
 23
162.012452
 14
171.756725
 24
150.012452
 50
0.000000
  0
DIMENSION
  8
1
 62
7
  6
CONTINUOUS
  2
*D2
 10
171.756725
 20
169.407713
 11
174.256725
 21
169.407713
 70
     0
  1
5
 13
171.756725
 23
151.089633
 14
176.756725
 24
165.012452
 50
0.000000
  0
DIMENSION
  8
1
 62
7
  6
CONTINUOUS
  2
*D3
 10
176.756725
 20
169.407713
 11
210.756725
 21
169.407713
 70
     0
  1
68
 13
176.756725
 23
165.012452
 14
244.756725
 24
165.012452
 50
0.000000
  0
DIMENSION
  8
1
 62
7
  6
CONTINUOUS
  2
*D4
 10
244.756725
 20
169.407713
 11
247.256725
 21
169.407713
 70
     0
  1
5
 13
244.756725
 23
165.012452
 14
249.756725
 24
151.277553
 50
0.000000
  0
DIMENSION
  8
1
 62
7
  6
CONTINUOUS
  2
*D5
 10
249.756725
 20
169.407713
 11
252.256725
 21
169.407713
 70
     0
  1
5
 13
249.756725
 23
151.277553
 14
254.756725
 24
162.012452
 50
0.000000
  0
DIMENSION
  8
1
 62
7
  6
CONTINUOUS
  2
*D6
 10
166.756725
 20
173.757270
 11
210.756725
 21
173.757270
 70
     0
  1
88
 13
166.756725
 23
162.012452
 14
254.756725
 24
162.012452
 50
0.000000
  0
DIMENSION
  8
1
 62
7
  6
CONTINUOUS
  2
*D7
 10
159.862259
 20
121.012452
 11
159.862259
 21
133.512452
 70
     0
  1
25
 13
167.756725
 23
121.012452
 14
166.865599
 24
146.012452
 50
90.000000
  0
DIMENSION
  8
1
 62
7
  6
CONTINUOUS
  2
*D8
 10
159.862259
 20
96.012452
 11
159.862259
 21
108.512452
 70
     0
  1
25
 13
166.364481
 23
96.012452
 14
166.865599
 24
121.012452
 50
90.000000
  0
DIMENSION
  8
1
 62
7
  6
CONTINUOUS
  2
*D9
 10
154.462810
 20
79.012452
 11
154.462810
 21
121.012452
 70
     0
  1
84
 13
167.756725
 23
79.012452
 14
167.756725
 24
163.012452
 50
90.000000
  0
DIMENSION
  8
1
 62
7
  6
CONTINUOUS
  2
*D10
 10
159.862259
 20
146.012452
 11
159.862259
 21
154.512452
 70
     0
  1
17
 13
166.865599
 23
146.012452
 14
167.756725
 24
163.012452
 50
90.000000
  0
DIMENSION
  8
1
 62
7
  6
CONTINUOUS
  2
*D11
 10
159.862259
 20
79.012452
 11
159.862259
 21
87.512452
 70
     0
  1
17
 13
167.756725
 23
79.012452
 14
167.756725
 24
96.012452
 50
90.000000
  0
DIMENSION
  8
1
 62
7
  6
CONTINUOUS
  2
*D12
 10
251.756725
 20
82.012452
 11
260.951722
 21
72.817456
 70
     4
  1
4-R3
 15
263.073042
 25
70.696135
  0
LINE
  8
1
 62
7
  6
CONTINUOUS
 10
188.468382
 20
152.041824
 11
188.468382
 21
150.113449
  0
LINE
  8
1
 62
7
  6
CONTINUOUS
 10
188.468382
 20
150.113449
 11
193.353598
 21
150.113449
  0
LINE
  8
1
 62
7
  6
CONTINUOUS
 10
193.353598
 20
150.113449
 11
193.353598
 21
152.041824
  0
LINE
  8
1
 62
7
  6
CONTINUOUS
 10
193.353598
 20
152.041824
 11
188.468382
 21
152.041824
  0
LINE
  8
1
 62
7
  6
CONTINUOUS
 10
223.468382
 20
152.041824
 11
223.468382
 21
150.113449
  0
LINE
  8
1
 62
7
  6
CONTINUOUS
 10
223.468382
 20
150.113449
 11
228.353598
 21
150.113449
  0
LINE
  8
1
 62
7
  6
CONTINUOUS
 10
228.353598
 20
150.113449
 11
228.353598
 21
152.041824
  0
LINE
  8
1
 62
7
  6
CONTINUOUS
 10
228.353598
 20
152.041824
 11
223.468382
 21
152.041824
  0
LINE
  8
1
 62
7
  6
CONTINUOUS
 10
205.939732
 20
152.013173
 11
205.939732
 21
150.084799
  0
LINE
  8
1
 62
7
  6
CONTINUOUS
 10
205.939732
 20
150.084799
 11
210.824947
 21
150.084799
  0
LINE
  8
1
 62
7
  6
CONTINUOUS
 10
210.824947
 20
150.084799
 11
210.824947
 21
152.013173
  0
LINE
  8
1
 62
7
  6
CONTINUOUS
 10
210.824947
 20
152.013173
 11
205.939732
 21
152.013173
  0
LINE
  8
1
 62
7
  6
CONTINUOUS
 10
188.468382
 20
134.541824
 11
188.468382
 21
132.613449
  0
LINE
  8
1
 62
7
  6
CONTINUOUS
 10
188.468382
 20
132.613449
 11
193.353598
 21
132.613449
  0
LINE
  8
1
 62
7
  6
CONTINUOUS
 10
193.353598
 20
132.613449
 11
193.353598
 21
134.541824
  0
LINE
  8
1
 62
7
  6
CONTINUOUS
 10
193.353598
 20
134.541824
 11
188.468382
 21
134.541824
  0
LINE
  8
1
 62
7
  6
CONTINUOUS
 10
223.468382
 20
134.541824
 11
223.468382
 21
132.613449
  0
LINE
  8
1
 62
7
  6
CONTINUOUS
 10
223.468382
 20
132.613449
 11
228.353598
 21
132.613449
  0
LINE
  8
1
 62
7
  6
CONTINUOUS
 10
228.353598
 20
132.613449
 11
228.353598
 21
134.541824
  0
LINE
  8
1
 62
7
  6
CONTINUOUS
 10
228.353598
 20
134.541824
 11
223.468382
 21
134.541824
  0
LINE
  8
1
 62
7
  6
CONTINUOUS
 10
205.939732
 20
134.513173
 11
205.939732
 21
132.584799
  0
LINE
  8
1
 62
7
  6
CONTINUOUS
 10
205.939732
 20
132.584799
 11
210.824947
 21
132.584799
  0
LINE
  8
1
 62
7
  6
CONTINUOUS
 10
210.824947
 20
132.584799
 11
210.824947
 21
134.513173
  0
LINE
  8
1
 62
7
  6
CONTINUOUS
 10
210.824947
 20
134.513173
 11
205.939732
 21
134.513173
  0
LINE
  8
1
 62
7
  6
CONTINUOUS
 10
188.468382
 20
117.041824
 11
188.468382
 21
115.113449
  0
LINE
  8
1
 62
7
  6
CONTINUOUS
 10
188.468382
 20
115.113449
 11
193.353598
 21
115.113449
  0
LINE
  8
1
 62
7
  6
CONTINUOUS
 10
193.353598
 20
115.113449
 11
193.353598
 21
117.041824
  0
LINE
  8
1
 62
7
  6
CONTINUOUS
 10
193.353598
 20
117.041824
 11
188.468382
 21
117.041824
  0
LINE
  8
1
 62
7
  6
CONTINUOUS
 10
223.468382
 20
117.041824
 11
223.468382
 21
115.113449
  0
LINE
  8
1
 62
7
  6
CONTINUOUS
 10
223.468382
 20
115.113449
 11
228.353598
 21
115.113449
  0
LINE
  8
1
 62
7
  6
CONTINUOUS
 10
228.353598
 20
115.113449
 11
228.353598
 21
117.041824
  0
LINE
  8
1
 62
7
  6
CONTINUOUS
 10
228.353598
 20
117.041824
 11
223.468382
 21
117.041824
  0
LINE
  8
1
 62
7
  6
CONTINUOUS
 10
205.939732
 20
117.013173
 11
205.939732
 21
115.084799
  0
LINE
  8
1
 62
7
  6
CONTINUOUS
 10
205.939732
 20
115.084799
 11
210.824947
 21
115.084799
  0
LINE
  8
1
 62
7
  6
CONTINUOUS
 10
210.824947
 20
115.084799
 11
210.824947
 21
117.013173
  0
LINE
  8
1
 62
7
  6
CONTINUOUS
 10
210.824947
 20
117.013173
 11
205.939732
 21
117.013173
  0
LINE
  8
1
 62
7
  6
CONTINUOUS
 10
188.468382
 20
99.541824
 11
188.468382
 21
97.613449
  0
LINE
  8
1
 62
7
  6
CONTINUOUS
 10
188.468382
 20
97.613449
 11
193.353598
 21
97.613449
  0
LINE
  8
1
 62
7
  6
CONTINUOUS
 10
193.353598
 20
97.613449
 11
193.353598
 21
99.541824
  0
LINE
  8
1
 62
7
  6
CONTINUOUS
 10
193.353598
 20
99.541824
 11
188.468382
 21
99.541824
  0
LINE
  8
1
 62
7
  6
CONTINUOUS
 10
223.468382
 20
99.541824
 11
223.468382
 21
97.613449
  0
LINE
  8
1
 62
7
  6
CONTINUOUS
 10
223.468382
 20
97.613449
 11
228.353598
 21
97.613449
  0
LINE
  8
1
 62
7
  6
CONTINUOUS
 10
228.353598
 20
97.613449
 11
228.353598
 21
99.541824
  0
LINE
  8
1
 62
7
  6
CONTINUOUS
 10
228.353598
 20
99.541824
 11
223.468382
 21
99.541824
  0
LINE
  8
1
 62
7
  6
CONTINUOUS
 10
205.939732
 20
99.513173
 11
205.939732
 21
97.584799
  0
LINE
  8
1
 62
7
  6
CONTINUOUS
 10
205.939732
 20
97.584799
 11
210.824947
 21
97.584799
  0
LINE
  8
1
 62
7
  6
CONTINUOUS
 10
210.824947
 20
97.584799
 11
210.824947
 21
99.513173
  0
LINE
  8
1
 62
7
  6
CONTINUOUS
 10
210.824947
 20
99.513173
 11
205.939732
 21
99.513173
  0
TEXT
  8
1
 62
7
  6
CONTINUOUS
 10
194.011411
 20
89.401242
 40
6.000000
 41
0.500000
  1
1
  7
KANJI
 50
0.000000
 51
0.000000
  0
TEXT
  8
1
 62
7
  6
CONTINUOUS
 10
212.311411
 20
90.201242
 40
6.000000
 41
0.500000
  1
2
  7
KANJI
 50
0.000000
 51
0.000000
  0
TEXT
  8
1
 62
7
  6
CONTINUOUS
 10
229.811411
 20
90.201242
 40
6.000000
 41
0.500000
  1
3
  7
KANJI
 50
0.000000
 51
0.000000
  0
TEXT
  8
1
 62
7
  6
CONTINUOUS
 10
194.811411
 20
107.701242
 40
6.000000
 41
0.500000
  1
4
  7
KANJI
 50
0.000000
 51
0.000000
  0
TEXT
  8
1
 62
7
  6
CONTINUOUS
 10
212.311411
 20
107.701242
 40
6.000000
 41
0.500000
  1
5
  7
KANJI
 50
0.000000
 51
0.000000
  0
TEXT
  8
1
 62
7
  6
CONTINUOUS
 10
229.811411
 20
107.701242
 40
6.000000
 41
0.500000
  1
6
  7
KANJI
 50
0.000000
 51
0.000000
  0
TEXT
  8
1
 62
7
  6
CONTINUOUS
 10
194.811411
 20
125.201242
 40
6.000000
 41
0.500000
  1
7
  7
KANJI
 50
0.000000
 51
0.000000
  0
TEXT
  8
1
 62
7
  6
CONTINUOUS
 10
212.311411
 20
125.201242
 40
6.000000
 41
0.500000
  1
8
  7
KANJI
 50
0.000000
 51
0.000000
  0
TEXT
  8
1
 62
7
  6
CONTINUOUS
 10
229.811411
 20
125.201242
 40
6.000000
 41
0.500000
  1
9
  7
KANJI
 50
0.000000
 51
0.000000
  0
TEXT
  8
1
 62
7
  6
CONTINUOUS
 10
193.011594
 20
142.572683
 40
6.000000
 41
0.500000
  1
10
  7
KANJI
 50
0.000000
 51
0.000000
  0
TEXT
  8
1
 62
7
  6
CONTINUOUS
 10
210.511594
 20
142.572683
 40
6.000000
 41
0.500000
  1
11
  7
KANJI
 50
0.000000
 51
0.000000
  0
TEXT
  8
1
 62
7
  6
CONTINUOUS
 10
228.011594
 20
142.572683
 40
6.000000
 41
0.500000
  1
12
  7
KANJI
 50
0.000000
 51
0.000000
  0
ENDSEC
  0
EOF
