  0
SECTION
  2
HEADER
  9
$ACADVER
  1
AC1009
  9
$INSBASE
 10
0.000000
 20
0.000000
  9
$EXTMIN
 10
0.000000
 20
0.000000
  9
$EXTMAX
 10
297.000000
 20
210.000000
  9
$LIMMIN
 10
0.000000
 20
0.000000
  9
$LIMMAX
 10
297.000000
 20
210.000000
  9
$VIEWCTR
 10
148.500000
 20
105.000000
  9
$VIEWSIZE
 40
210.000000
  9
$PEXTMIN
 10
0.000000
 20
0.000000
 30
0.000000
  9
$PEXTMAX
 10
297.000000
 20
210.000000
 30
0.000000
  9
$SNAPMODE
 70
     0
  9
$SNAPUNIT
 10
1.000000
 20
1.000000
  9
$SNAPBASE
 10
0.000000
 20
0.000000
  9
$SNAPANG
 50
0.000000
  9
$SNAPISOPAIR
 70
     0
  9
$SNAPSTYLE
 70
     0
  9
$GRIDMODE
 70
     0
  9
$GRIDUNIT
 10
0.000000
 20
0.000000
  9
$ORTHOMODE
 70
     0
  9
$REGENMODE
 70
     1
  9
$FILLMODE
 70
     1
  9
$QTEXTMODE
 70
     0
  9
$DRAGMODE
 70
     2
  9
$LTSCALE
 40
0.250000
  9
$OSMODE
 70
     0
  9
$ATTMODE
 70
     1
  9
$TEXTSIZE
 40
2.000000
  9
$TRACEWID
 40
0.050000
  9
$TEXTSTYLE
  7
STANDARD
  9
$CLAYER
  8
0
  9
$CELTYPE
  6
BYLAYER
  9
$CECOLOR
 62
   256
  9
$DIMSCALE
 40
1.000000
  9
$DIMASZ
 40
1.000000
  9
$DIMEXO
 40
0.000000
  9
$DIMDLI
 40
0.500000
  9
$DIMRND
 40
0.000000
  9
$DIMDLE
 40
0.000000
  9
$DIMEXE
 40
0.000000
  9
$DIMTP
 40
0.000000
  9
$DIMTM
 40
0.000000
  9
$DIMTXT
 40
3.000000
  9
$DIMCEN
 40
0.000000
  9
$DIMTSZ
 40
0.000000
  9
$DIMTOL
 70
     0
  9
$DIMLIM
 70
     0
  9
$DIMTIH
 70
     1
  9
$DIMTOH
 70
     1
  9
$DIMSE1
 70
     0
  9
$DIMSE2
 70
     0
  9
$DIMTAD
 70
     0
  9
$DIMZIN
 70
     0
  9
$DIMBLK
  1

  9
$DIMASO
 70
     0
  9
$DIMSHO
 70
     0
  9
$DIMPOST
  1

  9
$DIMAPOST
  1

  9
$DIMALT
 70
     0
  9
$DIMALTD
 70
     0
  9
$DIMALTF
 40
25.400000
  9
$DIMLFAC
 40
1.000000
  9
$DIMTOFL
 70
     0
  9
$DIMTVP
 40
0.000000
  9
$DIMTIX
 70
     0
  9
$DIMSOXD
 70
     0
  9
$DIMSAH
 70
     0
  9
$DIMBLKL
  1

  9
$DIMBLKR
  1

  9
$LUNITS
 70
     2
  9
$LUPREC
 70
     2
  9
$AXISMODE
 70
     0
  9
$AXISUNIT
 10
1.000000
 20
1.000000
  9
$SKETCHINC
 40
0.000000
  9
$FILLETRAD
 40
0.000000
  9
$AUNITS
 70
     1
  9
$AUPREC
 70
     2
  9
$MENU
  1
ACAD
  9
$ELEVATION
 40
0.000000
  9
$THICKNESS
 40
0.000000
  9
$VIEWDIR
 10
0.000000
 20
0.000000
 30
1.000000
  9
$LIMCHECK
 70
     1
  9
$BLIPMODE
 70
     1
  9
$CHAMFERA
 40
0.000000
  9
$CHAMFERB
 40
0.000000
  9
$FASTZOOM
 70
     1
  9
$SKPOLY
 70
     0
  9
$TDCREATE
 40
0.000000
  9
$TDUPDATE
 40
0.000000
  9
$TDINDWG
 40
0.000000
  9
$TDUSRTIMER
 40
0.000000
  9
$USRTIMER
 70
     1
  9
$ANGBASE
 50
0.000000
  9
$ANGDIR
 70
     0
  9
$PDMODE
 70
     0
  9
$PDSIZE
 40
0.000000
  9
$PLINEWID
 40
0.000000
  9
$COORDS
 70
     2
  9
$USERI1
 70
     0
  9
$USERI2
 70
     0
  9
$USERI3
 70
     0
  9
$USERI4
 70
     0
  9
$USERI5
 70
     0
  9
$USERR1
 40
0.000000
  9
$USERR2
 40
0.000000
  9
$USERR3
 40
0.000000
  9
$USERR4
 40
0.000000
  9
$USERR5
 40
0.000000
  0
ENDSEC
  0
SECTION
  2
TABLES
  0
TABLE
  2
LTYPE
 70
     5
  0
LTYPE
  2
CONTINUOUS
 70
    64
  3
Solid line
 72
    65
 73
     0
 40
0.0
  0
LTYPE
  2
HIDDEN
 70
    64
  3
------------------------
 72
    65
 73
     2
 40
12.6
 49
8.4
 49
-4.2
  0
LTYPE
  2
DOT
 70
    64
  3
････････････････････････
 72
    65
 73
     2
 40
8.0
 49
6.0
 49
-2.0
  0
LTYPE
  2
DASHDOT
 70
    64
  3
--･--･--･--･--･--･--･--
 72
    65
 73
     4
 40
50.5
 49
30.0
 49
-9.0
 49
2.5
 49
-9.0
  0
LTYPE
  2
DIVIDE
 70
    64
  3
--･･--･･--･･--･･--･･--
 72
    65
 73
     6
 40
58.0
 49
30.0
 49
-9.0
 49
2.5
 49
-5.0
 49
2.5
 49
-9.0
  0
LTYPE
  2
ACAD_ISO06W100
 70
    64
  3
____ ... ____ ... ____
 72
    65
 73
     8
 40
37.5
 49
24.0
 49
-3.0
 49
0.5
 49
-3.0
 49
0.5
 49
-3.0
 49
0.5
 49
-3.0
  0
LTYPE
  2
ACAD_ISO14W100
 70
    64
  3
__ . . . __ . . . __ . . . 
 72
    65
 73
     8
 40
25.5
 49
12.0
 49
-3.0
 49
0.5
 49
-3.0
 49
0.5
 49
-3.0
 49
0.5
 49
-3.0
  0
ENDTAB
  0
TABLE
  2
LAYER
 70
1
  0
LAYER
  2
1
 70
64
 62
7
  6
CONTINUOUS
  0
ENDTAB
  0
TABLE
  2
STYLE
 70
     2
  0
STYLE
  2
STANDARD
 70
    64
 40
0.0
 41
1.0
 50
0.0
 71
     0
 42
0.2
  3
TXT
  4

  0
STYLE
  2
KANJI
 70
    64
 40
0.0
 41
1.0
 50
0.0
 71
     0
 42
0.2
  3
TXT
  4
BIGFONT
  0
ENDTAB
  0
TABLE
  2
VIEW
 70
     0
  0
ENDTAB
  0
ENDSEC
  0
SECTION
  2
BLOCKS
  0
BLOCK
  8
1
 62
7
  6
CONTINUOUS
  2
*D1
 70
    65
 10
0.0
 20
0.0
  0
LINE
  8
1
 62
7
  6
CONTINUOUS
 10
332.431911
 20
109.301152
 11
323.231911
 21
109.301152
  0
LINE
  8
1
 62
7
  6
CONTINUOUS
 10
328.431911
 20
107.301152
 11
328.431911
 21
117.213076
  0
LINE
  8
1
 62
7
  6
CONTINUOUS
 10
327.231911
 20
107.301152
 11
327.231911
 21
117.213076
  0
LINE
  8
1
 62
7
  6
CONTINUOUS
 10
328.431911
 20
109.301152
 11
330.846725
 21
109.948199
  0
LINE
  8
1
 62
7
  6
CONTINUOUS
 10
328.431911
 20
109.301152
 11
330.846725
 21
108.654104
  0
LINE
  8
1
 62
7
  6
CONTINUOUS
 10
327.231911
 20
109.301152
 11
324.817096
 21
108.654104
  0
LINE
  8
1
 62
7
  6
CONTINUOUS
 10
327.231911
 20
109.301152
 11
324.817096
 21
109.948199
  0
TEXT
  8
1
 62
7
  6
CONTINUOUS
 10
325.581911
 20
109.301152
 40
3.000000
 41
0.500000
  1
1.2
  7
KANJI
 50
0.000000
 51
30.000000
  0
ENDBLK
  0
BLOCK
  8
1
 62
7
  6
CONTINUOUS
  2
*D2
 70
    65
 10
0.0
 20
0.0
  0
LINE
  8
1
 62
7
  6
CONTINUOUS
 10
328.431911
 20
104.293022
 11
316.931911
 21
104.293022
  0
LINE
  8
1
 62
7
  6
CONTINUOUS
 10
328.431911
 20
102.293022
 11
328.431911
 21
117.213076
  0
LINE
  8
1
 62
7
  6
CONTINUOUS
 10
316.931911
 20
102.293022
 11
316.931911
 21
129.599255
  0
LINE
  8
1
 62
7
  6
CONTINUOUS
 10
328.431911
 20
104.293022
 11
326.017096
 21
103.645974
  0
LINE
  8
1
 62
7
  6
CONTINUOUS
 10
328.431911
 20
104.293022
 11
326.017096
 21
104.940069
  0
LINE
  8
1
 62
7
  6
CONTINUOUS
 10
316.931911
 20
104.293022
 11
319.346725
 21
104.940069
  0
LINE
  8
1
 62
7
  6
CONTINUOUS
 10
316.931911
 20
104.293022
 11
319.346725
 21
103.645974
  0
TEXT
  8
1
 62
7
  6
CONTINUOUS
 10
319.681911
 20
104.293022
 40
3.000000
 41
0.500000
  1
11.5
  7
KANJI
 50
0.000000
 51
30.000000
  0
ENDBLK
  0
BLOCK
  8
1
 62
7
  6
CONTINUOUS
  2
*D3
 70
    65
 10
0.0
 20
0.0
  0
LINE
  8
1
 62
7
  6
CONTINUOUS
 10
321.431911
 20
109.181911
 11
312.931911
 21
109.181911
  0
LINE
  8
1
 62
7
  6
CONTINUOUS
 10
317.431911
 20
107.181911
 11
317.431911
 21
129.213076
  0
LINE
  8
1
 62
7
  6
CONTINUOUS
 10
316.931911
 20
107.181911
 11
316.931911
 21
129.213076
  0
LINE
  8
1
 62
7
  6
CONTINUOUS
 10
317.431911
 20
109.181911
 11
319.846725
 21
109.828958
  0
LINE
  8
1
 62
7
  6
CONTINUOUS
 10
317.431911
 20
109.181911
 11
319.846725
 21
108.534863
  0
LINE
  8
1
 62
7
  6
CONTINUOUS
 10
316.931911
 20
109.181911
 11
314.517096
 21
108.534863
  0
LINE
  8
1
 62
7
  6
CONTINUOUS
 10
316.931911
 20
109.181911
 11
314.517096
 21
109.828958
  0
TEXT
  8
1
 62
7
  6
CONTINUOUS
 10
314.931911
 20
109.181911
 40
3.000000
 41
0.500000
  1
0.5
  7
KANJI
 50
0.000000
 51
30.000000
  0
ENDBLK
  0
BLOCK
  8
1
 62
7
  6
CONTINUOUS
  2
*D4
 70
    65
 10
0.0
 20
0.0
  0
LINE
  8
1
 62
7
  6
CONTINUOUS
 10
347.431911
 20
104.293022
 11
328.431911
 21
104.293022
  0
LINE
  8
1
 62
7
  6
CONTINUOUS
 10
347.431911
 20
102.293022
 11
347.431911
 21
118.782533
  0
LINE
  8
1
 62
7
  6
CONTINUOUS
 10
328.431911
 20
102.293022
 11
328.431911
 21
117.213076
  0
LINE
  8
1
 62
7
  6
CONTINUOUS
 10
347.431911
 20
104.293022
 11
345.017096
 21
103.645974
  0
LINE
  8
1
 62
7
  6
CONTINUOUS
 10
347.431911
 20
104.293022
 11
345.017096
 21
104.940069
  0
LINE
  8
1
 62
7
  6
CONTINUOUS
 10
328.431911
 20
104.293022
 11
330.846725
 21
104.940069
  0
LINE
  8
1
 62
7
  6
CONTINUOUS
 10
328.431911
 20
104.293022
 11
330.846725
 21
103.645974
  0
TEXT
  8
1
 62
7
  6
CONTINUOUS
 10
336.431911
 20
104.293022
 40
3.000000
 41
0.500000
  1
19
  7
KANJI
 50
0.000000
 51
30.000000
  0
ENDBLK
  0
BLOCK
  8
1
 62
7
  6
CONTINUOUS
  2
*D5
 70
    65
 10
0.0
 20
0.0
  0
LINE
  8
1
 62
7
  6
CONTINUOUS
 10
154.223779
 20
123.124656
 11
154.223779
 21
148.124656
  0
LINE
  8
1
 62
7
  6
CONTINUOUS
 10
152.223779
 20
123.124656
 11
163.540852
 21
123.124656
  0
LINE
  8
1
 62
7
  6
CONTINUOUS
 10
152.223779
 20
148.124656
 11
163.540852
 21
148.124656
  0
LINE
  8
1
 62
7
  6
CONTINUOUS
 10
154.223779
 20
123.124656
 11
153.576731
 21
125.539470
  0
LINE
  8
1
 62
7
  6
CONTINUOUS
 10
154.223779
 20
123.124656
 11
154.870826
 21
125.539470
  0
LINE
  8
1
 62
7
  6
CONTINUOUS
 10
154.223779
 20
148.124656
 11
154.870826
 21
145.709841
  0
LINE
  8
1
 62
7
  6
CONTINUOUS
 10
154.223779
 20
148.124656
 11
153.576731
 21
145.709841
  0
TEXT
  8
1
 62
7
  6
CONTINUOUS
 10
154.223779
 20
134.124656
 40
3.000000
 41
0.500000
  1
25
  7
KANJI
 50
90.000000
 51
30.000000
  0
ENDBLK
  0
BLOCK
  8
1
 62
7
  6
CONTINUOUS
  2
*D6
 70
    65
 10
0.0
 20
0.0
  0
LINE
  8
1
 62
7
  6
CONTINUOUS
 10
154.223779
 20
98.124656
 11
154.223779
 21
123.124656
  0
LINE
  8
1
 62
7
  6
CONTINUOUS
 10
152.223779
 20
98.124656
 11
163.540852
 21
98.124656
  0
LINE
  8
1
 62
7
  6
CONTINUOUS
 10
152.223779
 20
123.124656
 11
163.540852
 21
123.124656
  0
LINE
  8
1
 62
7
  6
CONTINUOUS
 10
154.223779
 20
98.124656
 11
153.576731
 21
100.539470
  0
LINE
  8
1
 62
7
  6
CONTINUOUS
 10
154.223779
 20
98.124656
 11
154.870826
 21
100.539470
  0
LINE
  8
1
 62
7
  6
CONTINUOUS
 10
154.223779
 20
123.124656
 11
154.870826
 21
120.709841
  0
LINE
  8
1
 62
7
  6
CONTINUOUS
 10
154.223779
 20
123.124656
 11
153.576731
 21
120.709841
  0
TEXT
  8
1
 62
7
  6
CONTINUOUS
 10
154.223779
 20
109.124656
 40
3.000000
 41
0.500000
  1
25
  7
KANJI
 50
90.000000
 51
30.000000
  0
ENDBLK
  0
BLOCK
  8
1
 62
7
  6
CONTINUOUS
  2
*D7
 70
    65
 10
0.0
 20
0.0
  0
LINE
  8
1
 62
7
  6
CONTINUOUS
 10
174.540852
 20
74.103863
 11
254.540852
 21
74.103863
  0
LINE
  8
1
 62
7
  6
CONTINUOUS
 10
174.540852
 20
72.103863
 11
174.540852
 21
81.124656
  0
LINE
  8
1
 62
7
  6
CONTINUOUS
 10
254.540852
 20
72.103863
 11
254.540852
 21
81.124656
  0
LINE
  8
1
 62
7
  6
CONTINUOUS
 10
174.540852
 20
74.103863
 11
176.955667
 21
74.750911
  0
LINE
  8
1
 62
7
  6
CONTINUOUS
 10
174.540852
 20
74.103863
 11
176.955667
 21
73.456815
  0
LINE
  8
1
 62
7
  6
CONTINUOUS
 10
254.540852
 20
74.103863
 11
252.126037
 21
73.456815
  0
LINE
  8
1
 62
7
  6
CONTINUOUS
 10
254.540852
 20
74.103863
 11
252.126037
 21
74.750911
  0
TEXT
  8
1
 62
7
  6
CONTINUOUS
 10
213.040852
 20
74.103863
 40
3.000000
 41
0.500000
  1
80
  7
KANJI
 50
0.000000
 51
30.000000
  0
ENDBLK
  0
BLOCK
  8
1
 62
7
  6
CONTINUOUS
  2
*D8
 70
    65
 10
0.0
 20
0.0
  0
LINE
  8
1
 62
7
  6
CONTINUOUS
 10
172.540852
 20
69.930421
 11
256.540852
 21
69.930421
  0
LINE
  8
1
 62
7
  6
CONTINUOUS
 10
172.540852
 20
67.930421
 11
172.540852
 21
79.124656
  0
LINE
  8
1
 62
7
  6
CONTINUOUS
 10
256.540852
 20
67.930421
 11
256.540852
 21
79.124656
  0
LINE
  8
1
 62
7
  6
CONTINUOUS
 10
172.540852
 20
69.930421
 11
174.955667
 21
70.577469
  0
LINE
  8
1
 62
7
  6
CONTINUOUS
 10
172.540852
 20
69.930421
 11
174.955667
 21
69.283374
  0
LINE
  8
1
 62
7
  6
CONTINUOUS
 10
256.540852
 20
69.930421
 11
254.126037
 21
69.283374
  0
LINE
  8
1
 62
7
  6
CONTINUOUS
 10
256.540852
 20
69.930421
 11
254.126037
 21
70.577469
  0
TEXT
  8
1
 62
7
  6
CONTINUOUS
 10
213.040852
 20
69.930421
 40
3.000000
 41
0.500000
  1
84
  7
KANJI
 50
0.000000
 51
30.000000
  0
ENDBLK
  0
BLOCK
  8
1
 62
7
  6
CONTINUOUS
  2
*D9
 70
    65
 10
0.0
 20
0.0
  0
LINE
  8
1
 62
7
  6
CONTINUOUS
 10
167.540852
 20
64.998172
 11
261.540852
 21
64.998172
  0
LINE
  8
1
 62
7
  6
CONTINUOUS
 10
167.540852
 20
62.998172
 11
167.540852
 21
92.226282
  0
LINE
  8
1
 62
7
  6
CONTINUOUS
 10
261.540852
 20
62.998172
 11
261.540852
 21
92.405143
  0
LINE
  8
1
 62
7
  6
CONTINUOUS
 10
167.540852
 20
64.998172
 11
169.955667
 21
65.645220
  0
LINE
  8
1
 62
7
  6
CONTINUOUS
 10
167.540852
 20
64.998172
 11
169.955667
 21
64.351124
  0
LINE
  8
1
 62
7
  6
CONTINUOUS
 10
261.540852
 20
64.998172
 11
259.126037
 21
64.351124
  0
LINE
  8
1
 62
7
  6
CONTINUOUS
 10
261.540852
 20
64.998172
 11
259.126037
 21
65.645220
  0
TEXT
  8
1
 62
7
  6
CONTINUOUS
 10
213.040852
 20
64.998172
 40
3.000000
 41
0.500000
  1
94
  7
KANJI
 50
0.000000
 51
30.000000
  0
ENDBLK
  0
BLOCK
  8
1
 62
7
  6
CONTINUOUS
  2
*D10
 70
    65
 10
0.0
 20
0.0
  0
LINE
  8
1
 62
7
  6
CONTINUOUS
 10
162.540852
 20
60.255624
 11
266.540852
 21
60.255624
  0
LINE
  8
1
 62
7
  6
CONTINUOUS
 10
162.540852
 20
58.255624
 11
162.540852
 21
81.124656
  0
LINE
  8
1
 62
7
  6
CONTINUOUS
 10
266.540852
 20
58.255624
 11
266.540852
 21
81.124656
  0
LINE
  8
1
 62
7
  6
CONTINUOUS
 10
162.540852
 20
60.255624
 11
164.955667
 21
60.902672
  0
LINE
  8
1
 62
7
  6
CONTINUOUS
 10
162.540852
 20
60.255624
 11
164.955667
 21
59.608577
  0
LINE
  8
1
 62
7
  6
CONTINUOUS
 10
266.540852
 20
60.255624
 11
264.126037
 21
59.608577
  0
LINE
  8
1
 62
7
  6
CONTINUOUS
 10
266.540852
 20
60.255624
 11
264.126037
 21
60.902672
  0
TEXT
  8
1
 62
7
  6
CONTINUOUS
 10
212.290852
 20
60.255624
 40
3.000000
 41
0.500000
  1
104
  7
KANJI
 50
0.000000
 51
30.000000
  0
ENDBLK
  0
BLOCK
  8
1
 62
7
  6
CONTINUOUS
  2
*D11
 70
    65
 10
0.0
 20
0.0
  0
LINE
  8
1
 62
7
  6
CONTINUOUS
 10
149.256198
 20
81.124656
 11
149.256198
 21
165.124656
  0
LINE
  8
1
 62
7
  6
CONTINUOUS
 10
147.256198
 20
81.124656
 11
162.540852
 21
81.124656
  0
LINE
  8
1
 62
7
  6
CONTINUOUS
 10
147.256198
 20
165.124656
 11
162.540852
 21
165.124656
  0
LINE
  8
1
 62
7
  6
CONTINUOUS
 10
149.256198
 20
81.124656
 11
148.609151
 21
83.539470
  0
LINE
  8
1
 62
7
  6
CONTINUOUS
 10
149.256198
 20
81.124656
 11
149.903246
 21
83.539470
  0
LINE
  8
1
 62
7
  6
CONTINUOUS
 10
149.256198
 20
165.124656
 11
149.903246
 21
162.709841
  0
LINE
  8
1
 62
7
  6
CONTINUOUS
 10
149.256198
 20
165.124656
 11
148.609151
 21
162.709841
  0
TEXT
  8
1
 62
7
  6
CONTINUOUS
 10
149.256198
 20
121.624656
 40
3.000000
 41
0.500000
  1
84
  7
KANJI
 50
90.000000
 51
30.000000
  0
ENDBLK
  0
ENDSEC
  0
SECTION
  2
ENTITIES
  0
LINE
  8
1
 62
7
  6
CONTINUOUS
 10
324.959011
 20
124.213076
 11
330.682588
 21
124.213076
  0
LINE
  8
1
 62
7
  6
CONTINUOUS
 10
324.839770
 20
202.213076
 11
330.444106
 21
202.213076
  0
ARC
  8
1
 62
7
  6
CONTINUOUS
 10
327.031911
 20
197.413076
 40
0.200000
 50
-90.000000
 51
-0.000000
  0
LINE
  8
1
 62
7
  6
CONTINUOUS
 10
327.231911
 20
197.413076
 11
327.231911
 21
207.213076
  0
ARC
  8
1
 62
7
  6
CONTINUOUS
 10
327.031911
 20
129.013076
 40
0.200000
 50
0.000000
 51
90.000000
  0
LINE
  8
1
 62
7
  6
CONTINUOUS
 10
327.231911
 20
119.213076
 11
327.231911
 21
129.013076
  0
LINE
  8
1
 62
7
  6
CONTINUOUS
 10
327.231911
 20
207.213076
 11
328.431911
 21
207.213076
  0
LINE
  8
1
 62
7
  6
CONTINUOUS
 10
327.231911
 20
119.213076
 11
328.431911
 21
119.213076
  0
LINE
  8
1
 62
7
  6
CONTINUOUS
 10
328.431911
 20
119.213076
 11
328.431911
 21
207.213076
  0
LINE
  8
1
 62
7
  6
CONTINUOUS
 10
318.431911
 20
129.213076
 11
327.031911
 21
129.213076
  0
ARC
  8
1
 62
7
  6
CONTINUOUS
 10
318.431911
 20
130.213076
 40
1.000000
 50
180.000000
 51
-90.000000
  0
LINE
  8
1
 62
7
  6
CONTINUOUS
 10
317.431911
 20
130.213076
 11
317.431911
 21
196.213076
  0
LINE
  8
1
 62
7
  6
CONTINUOUS
 10
318.431911
 20
197.213076
 11
327.031911
 21
197.213076
  0
ARC
  8
1
 62
7
  6
CONTINUOUS
 10
318.431911
 20
196.213076
 40
1.000000
 50
90.000000
 51
180.000000
  0
DIMENSION
  8
1
 62
7
  6
CONTINUOUS
  2
*D1
 10
328.431911
 20
109.301152
 11
327.831911
 21
109.301152
 70
     0
  1
1.2
 13
328.431911
 23
117.213076
 14
327.231911
 24
117.213076
 50
180.000000
  0
LINE
  8
1
 62
7
  6
CONTINUOUS
 10
316.931911
 20
131.213076
 11
316.931911
 21
195.213076
  0
LINE
  8
1
 62
7
  6
CONTINUOUS
 10
316.931911
 20
195.213076
 11
317.431911
 21
195.213076
  0
LINE
  8
1
 62
7
  6
CONTINUOUS
 10
316.931911
 20
131.213076
 11
317.431911
 21
131.213076
  0
DIMENSION
  8
1
 62
7
  6
CONTINUOUS
  2
*D2
 10
328.431911
 20
104.293022
 11
322.681911
 21
104.293022
 70
     0
  1
11.5
 13
328.431911
 23
117.213076
 14
316.931911
 24
129.599255
 50
180.000000
  0
DIMENSION
  8
1
 62
7
  6
CONTINUOUS
  2
*D3
 10
317.431911
 20
109.181911
 11
317.181911
 21
109.181911
 70
     0
  1
0.5
 13
317.431911
 23
129.213076
 14
316.931911
 24
129.213076
 50
180.000000
  0
LINE
  8
1
 62
7
  6
CONTINUOUS
 10
314.194181
 20
163.213076
 11
330.901498
 21
163.213076
  0
LINE
  8
1
 62
7
  6
CONTINUOUS
 10
328.431911
 20
144.213076
 11
328.431911
 21
182.211269
  0
LINE
  8
1
 62
7
  6
CONTINUOUS
 10
329.794653
 20
145.908951
 11
329.794653
 21
180.621387
  0
LINE
  8
1
 62
7
  6
CONTINUOUS
 10
328.431911
 20
145.908951
 11
331.943503
 21
145.908951
  0
LINE
  8
1
 62
7
  6
CONTINUOUS
 10
331.996500
 20
182.211269
 11
328.378914
 21
182.211269
  0
LINE
  8
1
 62
7
  6
CONTINUOUS
 10
331.996500
 20
180.621387
 11
331.996500
 21
182.211269
  0
LINE
  8
1
 62
7
  6
CONTINUOUS
 10
328.431911
 20
180.621387
 11
331.996500
 21
180.621387
  0
LINE
  8
1
 62
7
  6
CONTINUOUS
 10
331.943503
 20
144.213076
 11
328.431911
 21
144.213076
  0
LINE
  8
1
 62
7
  6
CONTINUOUS
 10
331.943503
 20
145.908951
 11
331.943503
 21
144.213076
  0
LINE
  8
1
 62
7
  6
CONTINUOUS
 10
329.794653
 20
177.778994
 11
332.014165
 21
177.778994
  0
LINE
  8
1
 62
7
  6
CONTINUOUS
 10
332.014165
 20
177.778994
 11
332.014165
 21
179.120457
  0
LINE
  8
1
 62
7
  6
CONTINUOUS
 10
332.014165
 20
179.120457
 11
329.794653
 21
179.120457
  0
LINE
  8
1
 62
7
  6
CONTINUOUS
 10
329.794653
 20
179.120457
 11
329.794653
 21
177.778994
  0
LINE
  8
1
 62
7
  6
CONTINUOUS
 10
329.794653
 20
175.238994
 11
332.014165
 21
175.238994
  0
LINE
  8
1
 62
7
  6
CONTINUOUS
 10
332.014165
 20
175.238994
 11
332.014165
 21
176.580457
  0
LINE
  8
1
 62
7
  6
CONTINUOUS
 10
332.014165
 20
176.580457
 11
329.794653
 21
176.580457
  0
LINE
  8
1
 62
7
  6
CONTINUOUS
 10
329.794653
 20
176.580457
 11
329.794653
 21
175.238994
  0
LINE
  8
1
 62
7
  6
CONTINUOUS
 10
329.794653
 20
172.698994
 11
332.014165
 21
172.698994
  0
LINE
  8
1
 62
7
  6
CONTINUOUS
 10
332.014165
 20
172.698994
 11
332.014165
 21
174.040457
  0
LINE
  8
1
 62
7
  6
CONTINUOUS
 10
332.014165
 20
174.040457
 11
329.794653
 21
174.040457
  0
LINE
  8
1
 62
7
  6
CONTINUOUS
 10
329.794653
 20
174.040457
 11
329.794653
 21
172.698994
  0
LINE
  8
1
 62
7
  6
CONTINUOUS
 10
329.794653
 20
170.158994
 11
332.014165
 21
170.158994
  0
LINE
  8
1
 62
7
  6
CONTINUOUS
 10
332.014165
 20
170.158994
 11
332.014165
 21
171.500457
  0
LINE
  8
1
 62
7
  6
CONTINUOUS
 10
332.014165
 20
171.500457
 11
329.794653
 21
171.500457
  0
LINE
  8
1
 62
7
  6
CONTINUOUS
 10
329.794653
 20
171.500457
 11
329.794653
 21
170.158994
  0
LINE
  8
1
 62
7
  6
CONTINUOUS
 10
329.794653
 20
167.618994
 11
332.014165
 21
167.618994
  0
LINE
  8
1
 62
7
  6
CONTINUOUS
 10
332.014165
 20
167.618994
 11
332.014165
 21
168.960457
  0
LINE
  8
1
 62
7
  6
CONTINUOUS
 10
332.014165
 20
168.960457
 11
329.794653
 21
168.960457
  0
LINE
  8
1
 62
7
  6
CONTINUOUS
 10
329.794653
 20
168.960457
 11
329.794653
 21
167.618994
  0
LINE
  8
1
 62
7
  6
CONTINUOUS
 10
329.794653
 20
165.078994
 11
332.014165
 21
165.078994
  0
LINE
  8
1
 62
7
  6
CONTINUOUS
 10
332.014165
 20
165.078994
 11
332.014165
 21
166.420457
  0
LINE
  8
1
 62
7
  6
CONTINUOUS
 10
332.014165
 20
166.420457
 11
329.794653
 21
166.420457
  0
LINE
  8
1
 62
7
  6
CONTINUOUS
 10
329.794653
 20
166.420457
 11
329.794653
 21
165.078994
  0
LINE
  8
1
 62
7
  6
CONTINUOUS
 10
329.794653
 20
162.538994
 11
332.014165
 21
162.538994
  0
LINE
  8
1
 62
7
  6
CONTINUOUS
 10
332.014165
 20
162.538994
 11
332.014165
 21
163.880457
  0
LINE
  8
1
 62
7
  6
CONTINUOUS
 10
332.014165
 20
163.880457
 11
329.794653
 21
163.880457
  0
LINE
  8
1
 62
7
  6
CONTINUOUS
 10
329.794653
 20
163.880457
 11
329.794653
 21
162.538994
  0
LINE
  8
1
 62
7
  6
CONTINUOUS
 10
329.794653
 20
159.998994
 11
332.014165
 21
159.998994
  0
LINE
  8
1
 62
7
  6
CONTINUOUS
 10
332.014165
 20
159.998994
 11
332.014165
 21
161.340457
  0
LINE
  8
1
 62
7
  6
CONTINUOUS
 10
332.014165
 20
161.340457
 11
329.794653
 21
161.340457
  0
LINE
  8
1
 62
7
  6
CONTINUOUS
 10
329.794653
 20
161.340457
 11
329.794653
 21
159.998994
  0
LINE
  8
1
 62
7
  6
CONTINUOUS
 10
329.794653
 20
157.458994
 11
332.014165
 21
157.458994
  0
LINE
  8
1
 62
7
  6
CONTINUOUS
 10
332.014165
 20
157.458994
 11
332.014165
 21
158.800457
  0
LINE
  8
1
 62
7
  6
CONTINUOUS
 10
332.014165
 20
158.800457
 11
329.794653
 21
158.800457
  0
LINE
  8
1
 62
7
  6
CONTINUOUS
 10
329.794653
 20
158.800457
 11
329.794653
 21
157.458994
  0
LINE
  8
1
 62
7
  6
CONTINUOUS
 10
329.794653
 20
154.918994
 11
332.014165
 21
154.918994
  0
LINE
  8
1
 62
7
  6
CONTINUOUS
 10
332.014165
 20
154.918994
 11
332.014165
 21
156.260457
  0
LINE
  8
1
 62
7
  6
CONTINUOUS
 10
332.014165
 20
156.260457
 11
329.794653
 21
156.260457
  0
LINE
  8
1
 62
7
  6
CONTINUOUS
 10
329.794653
 20
156.260457
 11
329.794653
 21
154.918994
  0
LINE
  8
1
 62
7
  6
CONTINUOUS
 10
329.794653
 20
152.378994
 11
332.014165
 21
152.378994
  0
LINE
  8
1
 62
7
  6
CONTINUOUS
 10
332.014165
 20
152.378994
 11
332.014165
 21
153.720457
  0
LINE
  8
1
 62
7
  6
CONTINUOUS
 10
332.014165
 20
153.720457
 11
329.794653
 21
153.720457
  0
LINE
  8
1
 62
7
  6
CONTINUOUS
 10
329.794653
 20
153.720457
 11
329.794653
 21
152.378994
  0
LINE
  8
1
 62
7
  6
CONTINUOUS
 10
329.794653
 20
149.838994
 11
332.014165
 21
149.838994
  0
LINE
  8
1
 62
7
  6
CONTINUOUS
 10
332.014165
 20
149.838994
 11
332.014165
 21
151.180457
  0
LINE
  8
1
 62
7
  6
CONTINUOUS
 10
332.014165
 20
151.180457
 11
329.794653
 21
151.180457
  0
LINE
  8
1
 62
7
  6
CONTINUOUS
 10
329.794653
 20
151.180457
 11
329.794653
 21
149.838994
  0
LINE
  8
1
 62
7
  6
CONTINUOUS
 10
329.794653
 20
147.298994
 11
332.014165
 21
147.298994
  0
LINE
  8
1
 62
7
  6
CONTINUOUS
 10
332.014165
 20
147.298994
 11
332.014165
 21
148.640457
  0
LINE
  8
1
 62
7
  6
CONTINUOUS
 10
332.014165
 20
148.640457
 11
329.794653
 21
148.640457
  0
LINE
  8
1
 62
7
  6
CONTINUOUS
 10
329.794653
 20
148.640457
 11
329.794653
 21
147.298994
  0
LINE
  8
1
 62
7
  6
DOT
 10
342.545983
 20
143.583747
 11
342.545983
 21
178.296183
  0
ARC
  8
1
 62
7
  6
DOT
 10
337.937600
 20
175.621387
 40
5.000000
 50
4.667927
 51
90.000000
  0
LINE
  8
1
 62
7
  6
DOT
 10
331.996500
 20
180.621387
 11
337.937600
 21
180.621387
  0
LINE
  8
1
 62
7
  6
DOT
 10
347.431911
 20
120.782533
 11
342.921016
 21
176.028290
  0
ARC
  8
1
 62
7
  6
DOT
 10
337.898934
 20
140.908951
 40
5.000000
 50
4.190634
 51
90.000000
  0
LINE
  8
1
 62
7
  6
DOT
 10
331.943503
 20
145.908951
 11
337.898934
 21
145.908951
  0
LINE
  8
1
 62
7
  6
DOT
 10
342.885566
 20
141.274326
 11
344.334601
 21
121.497980
  0
DIMENSION
  8
1
 62
7
  6
CONTINUOUS
  2
*D4
 10
347.431911
 20
104.293022
 11
337.931911
 21
104.293022
 70
     0
  1
19
 13
347.431911
 23
118.782533
 14
328.431911
 24
117.213076
 50
180.000000
  0
LINE
  8
1
 62
7
  6
CONTINUOUS
 10
318.905224
 20
51.528455
 11
316.361412
 21
51.528455
  0
LINE
  8
1
 62
7
  6
CONTINUOUS
 10
317.754065
 20
50.205059
 11
317.754065
 21
52.801867
  0
ARC
  8
1
 62
7
  6
CONTINUOUS
 10
312.754065
 20
46.528455
 40
1.000000
 50
180.000000
 51
-90.000000
  0
LINE
  8
1
 62
7
  6
CONTINUOUS
 10
311.754065
 20
56.528455
 11
311.754065
 21
46.528455
  0
ARC
  8
1
 62
7
  6
CONTINUOUS
 10
312.754065
 20
56.528455
 40
1.000000
 50
90.000000
 51
180.000000
  0
LINE
  8
1
 62
7
  6
CONTINUOUS
 10
322.754065
 20
57.528455
 11
312.754065
 21
57.528455
  0
ARC
  8
1
 62
7
  6
CONTINUOUS
 10
322.754065
 20
56.528455
 40
1.000000
 50
0.000000
 51
90.000000
  0
LINE
  8
1
 62
7
  6
CONTINUOUS
 10
323.754065
 20
46.528455
 11
323.754065
 21
56.528455
  0
LINE
  8
1
 62
7
  6
CONTINUOUS
 10
312.754065
 20
45.528455
 11
322.754065
 21
45.528455
  0
ARC
  8
1
 62
7
  6
CONTINUOUS
 10
322.754065
 20
46.528455
 40
1.000000
 50
-90.000000
 51
0.000000
  0
LINE
  8
1
 62
7
  6
CONTINUOUS
 10
312.408085
 20
56.336871
 11
312.408085
 21
55.170958
  0
LINE
  8
1
 62
7
  6
CONTINUOUS
 10
312.408085
 20
55.170958
 11
315.534854
 21
55.170958
  0
LINE
  8
1
 62
7
  6
CONTINUOUS
 10
315.534854
 20
55.170958
 11
315.534854
 21
56.336871
  0
LINE
  8
1
 62
7
  6
CONTINUOUS
 10
315.534854
 20
56.336871
 11
312.408085
 21
56.336871
  0
TEXT
  8
1
 62
7
  6
CONTINUOUS
 10
317.754065
 20
48.381587
 40
5.000000
 41
0.500000
  1
1
  7
KANJI
 50
0.000000
 51
0.000000
  0
CIRCLE
  8
1
 62
7
  6
CONTINUOUS
 10
307.503609
 20
32.454898
 40
2.000000
  0
LINE
  8
1
 62
7
  6
CONTINUOUS
 10
307.211640
 20
33.421213
 11
307.211640
 21
32.746867
  0
ARC
  8
1
 62
7
  6
CONTINUOUS
 10
307.411640
 20
33.421213
 40
0.200000
 50
90.000000
 51
180.000000
  0
LINE
  8
1
 62
7
  6
CONTINUOUS
 10
307.636173
 20
33.621213
 11
307.411640
 21
33.621213
  0
LINE
  8
1
 62
7
  6
CONTINUOUS
 10
307.836173
 20
32.746867
 11
307.836173
 21
33.421213
  0
ARC
  8
1
 62
7
  6
CONTINUOUS
 10
307.636173
 20
33.421213
 40
0.200000
 50
0.000000
 51
90.000000
  0
LINE
  8
1
 62
7
  6
CONTINUOUS
 10
307.836173
 20
31.447988
 11
307.836173
 21
32.172297
  0
ARC
  8
1
 62
7
  6
CONTINUOUS
 10
307.636173
 20
31.447988
 40
0.200000
 50
-90.000000
 51
0.000000
  0
LINE
  8
1
 62
7
  6
CONTINUOUS
 10
307.411640
 20
31.247988
 11
307.636173
 21
31.247988
  0
LINE
  8
1
 62
7
  6
CONTINUOUS
 10
307.211640
 20
32.172297
 11
307.211640
 21
31.447988
  0
ARC
  8
1
 62
7
  6
CONTINUOUS
 10
307.411640
 20
31.447988
 40
0.200000
 50
180.000000
 51
-90.000000
  0
LINE
  8
1
 62
7
  6
CONTINUOUS
 10
308.510519
 20
32.746867
 11
307.836173
 21
32.746867
  0
ARC
  8
1
 62
7
  6
CONTINUOUS
 10
308.510519
 20
32.546867
 40
0.200000
 50
0.000000
 51
90.000000
  0
LINE
  8
1
 62
7
  6
CONTINUOUS
 10
308.710519
 20
32.372297
 11
308.710519
 21
32.546867
  0
LINE
  8
1
 62
7
  6
CONTINUOUS
 10
307.836173
 20
32.172297
 11
308.510519
 21
32.172297
  0
ARC
  8
1
 62
7
  6
CONTINUOUS
 10
308.510519
 20
32.372297
 40
0.200000
 50
-90.000000
 51
0.000000
  0
LINE
  8
1
 62
7
  6
CONTINUOUS
 10
306.412387
 20
32.172297
 11
307.211640
 21
32.172297
  0
ARC
  8
1
 62
7
  6
CONTINUOUS
 10
306.412387
 20
32.372297
 40
0.200000
 50
-180.000000
 51
-90.000000
  0
LINE
  8
1
 62
7
  6
CONTINUOUS
 10
306.212387
 20
32.546867
 11
306.212387
 21
32.372297
  0
LINE
  8
1
 62
7
  6
CONTINUOUS
 10
307.211640
 20
32.746867
 11
306.412387
 21
32.746867
  0
ARC
  8
1
 62
7
  6
CONTINUOUS
 10
306.412387
 20
32.546867
 40
0.200000
 50
90.000000
 51
-180.000000
  0
LINE
  8
1
 62
7
  6
CONTINUOUS
 10
261.382301
 20
219.618071
 11
261.382301
 21
215.068171
  0
LINE
  8
1
 62
7
  6
CONTINUOUS
 10
261.382301
 20
228.043814
 11
261.382301
 21
223.072626
  0
LINE
  8
1
 62
7
  6
CONTINUOUS
 10
259.023094
 20
219.618071
 11
263.741509
 21
219.618071
  0
LINE
  8
1
 62
7
  6
CONTINUOUS
 10
257.337945
 20
223.072626
 11
265.595172
 21
223.072626
  0
LINE
  8
1
 62
7
  6
CONTINUOUS
 10
271.429972
 20
224.640712
 11
270.271412
 21
222.574092
  0
LINE
  8
1
 62
7
  6
CONTINUOUS
 10
271.465758
 20
224.685444
 11
269.183422
 21
224.685444
  0
LINE
  8
1
 62
7
  6
CONTINUOUS
 10
270.302724
 20
222.542779
 11
269.183422
 21
224.685444
  0
LINE
  8
1
 62
7
  6
CONTINUOUS
 10
271.273410
 20
222.574092
 11
269.238102
 21
222.574092
  0
LINE
  8
1
 62
7
  6
CONTINUOUS
 10
270.260080
 20
226.135136
 11
270.260080
 21
224.683305
  0
LINE
  8
1
 62
7
  6
CONTINUOUS
 10
270.260080
 20
222.574092
 11
270.260080
 21
220.985020
  0
LINE
  8
1
 62
7
  6
CONTINUOUS
 10
276.591770
 20
224.474764
 11
275.433210
 21
222.408144
  0
LINE
  8
1
 62
7
  6
CONTINUOUS
 10
276.627555
 20
224.519496
 11
274.345220
 21
224.519496
  0
LINE
  8
1
 62
7
  6
CONTINUOUS
 10
275.464522
 20
222.376831
 11
274.345220
 21
224.519496
  0
CIRCLE
  8
1
 62
7
  6
CONTINUOUS
 10
275.440516
 20
223.677374
 40
2.010718
  0
LINE
  8
1
 62
7
  6
CONTINUOUS
 10
276.435207
 20
222.408144
 11
274.399900
 21
222.408144
  0
LINE
  8
1
 62
7
  6
CONTINUOUS
 10
275.447154
 20
220.648347
 11
275.447154
 21
222.408144
  0
LINE
  8
1
 62
7
  6
CONTINUOUS
 10
275.447154
 20
224.532466
 11
275.447154
 21
226.568800
  0
LINE
  8
1
 62
7
  6
CONTINUOUS
 10
280.779757
 20
221.587605
 11
280.130702
 21
221.939502
  0
LINE
  8
1
 62
7
  6
CONTINUOUS
 10
280.130702
 20
221.939502
 11
281.419757
 21
222.588558
  0
LINE
  8
1
 62
7
  6
CONTINUOUS
 10
281.419757
 20
222.588558
 11
280.139757
 21
223.221973
  0
LINE
  8
1
 62
7
  6
CONTINUOUS
 10
280.139757
 20
223.221973
 11
281.419757
 21
223.863208
  0
LINE
  8
1
 62
7
  6
CONTINUOUS
 10
281.419757
 20
223.863208
 11
280.139757
 21
224.496624
  0
LINE
  8
1
 62
7
  6
CONTINUOUS
 10
280.139757
 20
224.496624
 11
281.419757
 21
225.137859
  0
LINE
  8
1
 62
7
  6
CONTINUOUS
 10
281.419757
 20
225.137859
 11
280.779757
 21
225.474117
  0
LINE
  8
1
 62
7
  6
CONTINUOUS
 10
280.779757
 20
225.474117
 11
280.779757
 21
227.582238
  0
LINE
  8
1
 62
7
  6
CONTINUOUS
 10
280.779757
 20
219.484297
 11
280.779757
 21
221.534530
  0
LINE
  8
1
 62
7
  6
CONTINUOUS
 10
284.561991
 20
224.156305
 11
287.328341
 21
224.156305
  0
LINE
  8
1
 62
7
  6
CONTINUOUS
 10
287.328341
 20
222.810513
 11
284.561991
 21
222.810513
  0
LINE
  8
1
 62
7
  6
CONTINUOUS
 10
285.932254
 20
224.176506
 11
285.932254
 21
226.070566
  0
LINE
  8
1
 62
7
  6
CONTINUOUS
 10
285.932254
 20
220.513014
 11
285.932254
 21
222.810513
  0
LINE
  8
1
 62
7
  6
CONTINUOUS
 10
290.150836
 20
224.769518
 11
293.312379
 21
224.769518
  0
LINE
  8
1
 62
7
  6
CONTINUOUS
 10
293.312379
 20
223.231470
 11
290.150836
 21
223.231470
  0
LINE
  8
1
 62
7
  6
CONTINUOUS
 10
291.716851
 20
224.792605
 11
291.716851
 21
226.957245
  0
LINE
  8
1
 62
7
  6
CONTINUOUS
 10
291.716851
 20
220.605757
 11
291.716851
 21
223.231470
  0
TEXT
  8
1
 62
7
  6
CONTINUOUS
 10
292.180361
 20
225.055837
 40
2.048000
 41
0.500000
  1
+
  7
KANJI
 50
0.000000
 51
0.000000
  0
LINE
  8
1
 62
7
  6
CONTINUOUS
 10
290.484990
 20
224.761964
 11
290.141558
 21
223.233554
  0
LINE
  8
1
 62
7
  6
CONTINUOUS
 10
290.900698
 20
224.761964
 11
290.556799
 21
223.231470
  0
LINE
  8
1
 62
7
  6
CONTINUOUS
 10
291.300698
 20
224.761964
 11
290.956799
 21
223.231470
  0
LINE
  8
1
 62
7
  6
CONTINUOUS
 10
291.700698
 20
224.761964
 11
291.356799
 21
223.231470
  0
LINE
  8
1
 62
7
  6
CONTINUOUS
 10
292.100698
 20
224.761964
 11
291.756799
 21
223.231470
  0
LINE
  8
1
 62
7
  6
CONTINUOUS
 10
292.500698
 20
224.761964
 11
292.156799
 21
223.231470
  0
LINE
  8
1
 62
7
  6
CONTINUOUS
 10
292.900698
 20
224.761964
 11
292.556799
 21
223.231470
  0
LINE
  8
1
 62
7
  6
CONTINUOUS
 10
293.300698
 20
224.761964
 11
292.956799
 21
223.231470
  0
LINE
  8
1
 62
7
  6
CONTINUOUS
 10
304.843103
 20
88.521438
 11
304.843103
 21
87.509694
  0
LINE
  8
1
 62
7
  6
CONTINUOUS
 10
304.843103
 20
87.509694
 11
306.755279
 21
87.509694
  0
LINE
  8
1
 62
7
  6
CONTINUOUS
 10
306.755279
 20
87.509694
 11
306.755279
 21
88.521438
  0
LINE
  8
1
 62
7
  6
CONTINUOUS
 10
306.755279
 20
88.521438
 11
304.843103
 21
88.521438
  0
TEXT
  8
1
 62
7
  6
CONTINUOUS
 10
307.033040
 20
89.513567
 40
2.000000
 41
0.500000
  1
15
  7
KANJI
 50
0.000000
 51
0.000000
  0
TEXT
  8
1
 62
7
  6
CONTINUOUS
 10
307.033040
 20
89.387099
 40
2.000000
 41
0.500000
  1
1
  7
KANJI
 50
0.000000
 51
0.000000
  0
TEXT
  8
1
 62
7
  6
CONTINUOUS
 10
344.540149
 20
89.377438
 40
2.000000
 41
0.500000
  1
1
  7
KANJI
 50
0.000000
 51
0.000000
  0
LINE
  8
1
 62
7
  6
CONTINUOUS
 10
306.248303
 20
84.352680
 11
306.248303
 21
83.306066
  0
LINE
  8
1
 62
7
  6
CONTINUOUS
 10
306.248303
 20
83.306066
 11
306.755279
 21
83.306066
  0
LINE
  8
1
 62
7
  6
CONTINUOUS
 10
306.755279
 20
84.352680
 11
306.248303
 21
84.352680
  0
LINE
  8
1
 62
7
  6
CONTINUOUS
 10
308.075062
 20
86.436147
 11
308.075062
 21
85.297936
  0
LINE
  8
1
 62
7
  6
CONTINUOUS
 10
308.075062
 20
85.297936
 11
309.213273
 21
85.297936
  0
LINE
  8
1
 62
7
  6
CONTINUOUS
 10
309.213273
 20
85.297936
 11
309.213273
 21
86.436147
  0
LINE
  8
1
 62
7
  6
CONTINUOUS
 10
309.213273
 20
86.436147
 11
308.075062
 21
86.436147
  0
LINE
  8
1
 62
7
  6
CONTINUOUS
 10
310.615062
 20
86.436147
 11
310.615062
 21
85.297936
  0
LINE
  8
1
 62
7
  6
CONTINUOUS
 10
310.615062
 20
85.297936
 11
311.753273
 21
85.297936
  0
LINE
  8
1
 62
7
  6
CONTINUOUS
 10
311.753273
 20
85.297936
 11
311.753273
 21
86.436147
  0
LINE
  8
1
 62
7
  6
CONTINUOUS
 10
311.753273
 20
86.436147
 11
310.615062
 21
86.436147
  0
LINE
  8
1
 62
7
  6
CONTINUOUS
 10
313.155062
 20
86.436147
 11
313.155062
 21
85.297936
  0
LINE
  8
1
 62
7
  6
CONTINUOUS
 10
313.155062
 20
85.297936
 11
314.293273
 21
85.297936
  0
LINE
  8
1
 62
7
  6
CONTINUOUS
 10
314.293273
 20
85.297936
 11
314.293273
 21
86.436147
  0
LINE
  8
1
 62
7
  6
CONTINUOUS
 10
314.293273
 20
86.436147
 11
313.155062
 21
86.436147
  0
LINE
  8
1
 62
7
  6
CONTINUOUS
 10
315.695062
 20
86.436147
 11
315.695062
 21
85.297936
  0
LINE
  8
1
 62
7
  6
CONTINUOUS
 10
315.695062
 20
85.297936
 11
316.833273
 21
85.297936
  0
LINE
  8
1
 62
7
  6
CONTINUOUS
 10
316.833273
 20
85.297936
 11
316.833273
 21
86.436147
  0
LINE
  8
1
 62
7
  6
CONTINUOUS
 10
316.833273
 20
86.436147
 11
315.695062
 21
86.436147
  0
LINE
  8
1
 62
7
  6
CONTINUOUS
 10
318.235062
 20
86.436147
 11
318.235062
 21
85.297936
  0
LINE
  8
1
 62
7
  6
CONTINUOUS
 10
318.235062
 20
85.297936
 11
319.373273
 21
85.297936
  0
LINE
  8
1
 62
7
  6
CONTINUOUS
 10
319.373273
 20
85.297936
 11
319.373273
 21
86.436147
  0
LINE
  8
1
 62
7
  6
CONTINUOUS
 10
319.373273
 20
86.436147
 11
318.235062
 21
86.436147
  0
LINE
  8
1
 62
7
  6
CONTINUOUS
 10
320.775062
 20
86.436147
 11
320.775062
 21
85.297936
  0
LINE
  8
1
 62
7
  6
CONTINUOUS
 10
320.775062
 20
85.297936
 11
321.913273
 21
85.297936
  0
LINE
  8
1
 62
7
  6
CONTINUOUS
 10
321.913273
 20
85.297936
 11
321.913273
 21
86.436147
  0
LINE
  8
1
 62
7
  6
CONTINUOUS
 10
321.913273
 20
86.436147
 11
320.775062
 21
86.436147
  0
LINE
  8
1
 62
7
  6
CONTINUOUS
 10
323.315062
 20
86.436147
 11
323.315062
 21
85.297936
  0
LINE
  8
1
 62
7
  6
CONTINUOUS
 10
323.315062
 20
85.297936
 11
324.453273
 21
85.297936
  0
LINE
  8
1
 62
7
  6
CONTINUOUS
 10
324.453273
 20
85.297936
 11
324.453273
 21
86.436147
  0
LINE
  8
1
 62
7
  6
CONTINUOUS
 10
324.453273
 20
86.436147
 11
323.315062
 21
86.436147
  0
LINE
  8
1
 62
7
  6
CONTINUOUS
 10
325.855062
 20
86.436147
 11
325.855062
 21
85.297936
  0
LINE
  8
1
 62
7
  6
CONTINUOUS
 10
325.855062
 20
85.297936
 11
326.993273
 21
85.297936
  0
LINE
  8
1
 62
7
  6
CONTINUOUS
 10
326.993273
 20
85.297936
 11
326.993273
 21
86.436147
  0
LINE
  8
1
 62
7
  6
CONTINUOUS
 10
326.993273
 20
86.436147
 11
325.855062
 21
86.436147
  0
LINE
  8
1
 62
7
  6
CONTINUOUS
 10
328.395062
 20
86.436147
 11
328.395062
 21
85.297936
  0
LINE
  8
1
 62
7
  6
CONTINUOUS
 10
328.395062
 20
85.297936
 11
329.533273
 21
85.297936
  0
LINE
  8
1
 62
7
  6
CONTINUOUS
 10
329.533273
 20
85.297936
 11
329.533273
 21
86.436147
  0
LINE
  8
1
 62
7
  6
CONTINUOUS
 10
329.533273
 20
86.436147
 11
328.395062
 21
86.436147
  0
LINE
  8
1
 62
7
  6
CONTINUOUS
 10
330.935062
 20
86.436147
 11
330.935062
 21
85.297936
  0
LINE
  8
1
 62
7
  6
CONTINUOUS
 10
330.935062
 20
85.297936
 11
332.073273
 21
85.297936
  0
LINE
  8
1
 62
7
  6
CONTINUOUS
 10
332.073273
 20
85.297936
 11
332.073273
 21
86.436147
  0
LINE
  8
1
 62
7
  6
CONTINUOUS
 10
332.073273
 20
86.436147
 11
330.935062
 21
86.436147
  0
LINE
  8
1
 62
7
  6
CONTINUOUS
 10
333.475062
 20
86.436147
 11
333.475062
 21
85.297936
  0
LINE
  8
1
 62
7
  6
CONTINUOUS
 10
333.475062
 20
85.297936
 11
334.613273
 21
85.297936
  0
LINE
  8
1
 62
7
  6
CONTINUOUS
 10
334.613273
 20
85.297936
 11
334.613273
 21
86.436147
  0
LINE
  8
1
 62
7
  6
CONTINUOUS
 10
334.613273
 20
86.436147
 11
333.475062
 21
86.436147
  0
LINE
  8
1
 62
7
  6
CONTINUOUS
 10
336.015062
 20
86.436147
 11
336.015062
 21
85.297936
  0
LINE
  8
1
 62
7
  6
CONTINUOUS
 10
336.015062
 20
85.297936
 11
337.153273
 21
85.297936
  0
LINE
  8
1
 62
7
  6
CONTINUOUS
 10
337.153273
 20
85.297936
 11
337.153273
 21
86.436147
  0
LINE
  8
1
 62
7
  6
CONTINUOUS
 10
337.153273
 20
86.436147
 11
336.015062
 21
86.436147
  0
LINE
  8
1
 62
7
  6
CONTINUOUS
 10
338.555062
 20
86.436147
 11
338.555062
 21
85.297936
  0
LINE
  8
1
 62
7
  6
CONTINUOUS
 10
338.555062
 20
85.297936
 11
339.693273
 21
85.297936
  0
LINE
  8
1
 62
7
  6
CONTINUOUS
 10
339.693273
 20
85.297936
 11
339.693273
 21
86.436147
  0
LINE
  8
1
 62
7
  6
CONTINUOUS
 10
339.693273
 20
86.436147
 11
338.555062
 21
86.436147
  0
LINE
  8
1
 62
7
  6
CONTINUOUS
 10
341.095062
 20
86.436147
 11
341.095062
 21
85.297936
  0
LINE
  8
1
 62
7
  6
CONTINUOUS
 10
341.095062
 20
85.297936
 11
342.233273
 21
85.297936
  0
LINE
  8
1
 62
7
  6
CONTINUOUS
 10
342.233273
 20
85.297936
 11
342.233273
 21
86.436147
  0
LINE
  8
1
 62
7
  6
CONTINUOUS
 10
342.233273
 20
86.436147
 11
341.095062
 21
86.436147
  0
LINE
  8
1
 62
7
  6
CONTINUOUS
 10
343.635062
 20
86.436147
 11
343.635062
 21
85.297936
  0
LINE
  8
1
 62
7
  6
CONTINUOUS
 10
343.635062
 20
85.297936
 11
344.773273
 21
85.297936
  0
LINE
  8
1
 62
7
  6
CONTINUOUS
 10
344.773273
 20
85.297936
 11
344.773273
 21
86.436147
  0
LINE
  8
1
 62
7
  6
CONTINUOUS
 10
344.773273
 20
86.436147
 11
343.635062
 21
86.436147
  0
LINE
  8
1
 62
7
  6
CONTINUOUS
 10
346.980345
 20
84.352680
 11
346.980345
 21
83.306066
  0
LINE
  8
1
 62
7
  6
CONTINUOUS
 10
346.980345
 20
83.306066
 11
346.386715
 21
83.306066
  0
LINE
  8
1
 62
7
  6
CONTINUOUS
 10
346.386715
 20
84.352680
 11
346.980345
 21
84.352680
  0
LINE
  8
1
 62
7
  6
CONTINUOUS
 10
306.755279
 20
83.306066
 11
346.386715
 21
83.306066
  0
LINE
  8
1
 62
7
  6
CONTINUOUS
 10
346.386715
 20
88.238315
 11
306.755279
 21
88.238315
  0
LINE
  8
1
 62
7
  6
CONTINUOUS
 10
306.755279
 20
88.238315
 11
306.755279
 21
84.390152
  0
LINE
  8
1
 62
7
  6
CONTINUOUS
 10
346.386715
 20
84.352680
 11
346.386715
 21
88.238315
  0
LINE
  8
1
 62
7
  6
CONTINUOUS
 10
346.380793
 20
88.587014
 11
346.380793
 21
87.500326
  0
LINE
  8
1
 62
7
  6
CONTINUOUS
 10
346.380793
 20
87.500326
 11
348.404280
 21
87.500326
  0
LINE
  8
1
 62
7
  6
CONTINUOUS
 10
348.404280
 20
87.500326
 11
348.404280
 21
88.587014
  0
LINE
  8
1
 62
7
  6
CONTINUOUS
 10
348.404280
 20
88.587014
 11
346.380793
 21
88.587014
  0
TEXT
  8
1
 62
7
  6
CONTINUOUS
 10
344.961709
 20
78.079636
 40
2.000000
 41
0.500000
  1
1
  7
KANJI
 50
0.000000
 51
0.000000
  0
TEXT
  8
1
 62
7
  6
CONTINUOUS
 10
320.154599
 20
78.089297
 40
2.000000
 41
0.500000
  1
1
  7
KANJI
 50
0.000000
 51
0.000000
  0
TEXT
  8
1
 62
7
  6
CONTINUOUS
 10
320.154599
 20
78.215765
 40
2.000000
 41
0.500000
  1
10
  7
KANJI
 50
0.000000
 51
0.000000
  0
TEXT
  8
1
 62
7
  6
CONTINUOUS
 10
379.961709
 20
78.079636
 40
2.000000
 41
0.500000
  1
1
  7
KANJI
 50
0.000000
 51
0.000000
  0
LINE
  8
1
 62
7
  6
CONTINUOUS
 10
382.401904
 20
72.008264
 11
381.808275
 21
72.008264
  0
TEXT
  8
1
 62
7
  6
CONTINUOUS
 10
355.154599
 20
78.089297
 40
2.000000
 41
0.500000
  1
1
  7
KANJI
 50
0.000000
 51
0.000000
  0
LINE
  8
1
 62
7
  6
CONTINUOUS
 10
354.369862
 20
72.008264
 11
354.876838
 21
72.008264
  0
TEXT
  8
1
 62
7
  6
CONTINUOUS
 10
355.154599
 20
78.215765
 40
2.000000
 41
0.500000
  1
10
  7
KANJI
 50
0.000000
 51
0.000000
  0
LINE
  8
1
 62
7
  6
CONTINUOUS
 10
321.196621
 20
75.138345
 11
321.196621
 21
74.000134
  0
LINE
  8
1
 62
7
  6
CONTINUOUS
 10
321.196621
 20
74.000134
 11
322.334833
 21
74.000134
  0
LINE
  8
1
 62
7
  6
CONTINUOUS
 10
322.334833
 20
74.000134
 11
322.334833
 21
75.138345
  0
LINE
  8
1
 62
7
  6
CONTINUOUS
 10
322.334833
 20
75.138345
 11
321.196621
 21
75.138345
  0
LINE
  8
1
 62
7
  6
CONTINUOUS
 10
323.736621
 20
75.138345
 11
323.736621
 21
74.000134
  0
LINE
  8
1
 62
7
  6
CONTINUOUS
 10
323.736621
 20
74.000134
 11
324.874833
 21
74.000134
  0
LINE
  8
1
 62
7
  6
CONTINUOUS
 10
324.874833
 20
74.000134
 11
324.874833
 21
75.138345
  0
LINE
  8
1
 62
7
  6
CONTINUOUS
 10
324.874833
 20
75.138345
 11
323.736621
 21
75.138345
  0
LINE
  8
1
 62
7
  6
CONTINUOUS
 10
326.276621
 20
75.138345
 11
326.276621
 21
74.000134
  0
LINE
  8
1
 62
7
  6
CONTINUOUS
 10
326.276621
 20
74.000134
 11
327.414833
 21
74.000134
  0
LINE
  8
1
 62
7
  6
CONTINUOUS
 10
327.414833
 20
74.000134
 11
327.414833
 21
75.138345
  0
LINE
  8
1
 62
7
  6
CONTINUOUS
 10
327.414833
 20
75.138345
 11
326.276621
 21
75.138345
  0
LINE
  8
1
 62
7
  6
CONTINUOUS
 10
328.816621
 20
75.138345
 11
328.816621
 21
74.000134
  0
LINE
  8
1
 62
7
  6
CONTINUOUS
 10
328.816621
 20
74.000134
 11
329.954833
 21
74.000134
  0
LINE
  8
1
 62
7
  6
CONTINUOUS
 10
329.954833
 20
74.000134
 11
329.954833
 21
75.138345
  0
LINE
  8
1
 62
7
  6
CONTINUOUS
 10
329.954833
 20
75.138345
 11
328.816621
 21
75.138345
  0
LINE
  8
1
 62
7
  6
CONTINUOUS
 10
331.356621
 20
75.138345
 11
331.356621
 21
74.000134
  0
LINE
  8
1
 62
7
  6
CONTINUOUS
 10
331.356621
 20
74.000134
 11
332.494833
 21
74.000134
  0
LINE
  8
1
 62
7
  6
CONTINUOUS
 10
332.494833
 20
74.000134
 11
332.494833
 21
75.138345
  0
LINE
  8
1
 62
7
  6
CONTINUOUS
 10
332.494833
 20
75.138345
 11
331.356621
 21
75.138345
  0
LINE
  8
1
 62
7
  6
CONTINUOUS
 10
333.896621
 20
75.138345
 11
333.896621
 21
74.000134
  0
LINE
  8
1
 62
7
  6
CONTINUOUS
 10
333.896621
 20
74.000134
 11
335.034833
 21
74.000134
  0
LINE
  8
1
 62
7
  6
CONTINUOUS
 10
335.034833
 20
74.000134
 11
335.034833
 21
75.138345
  0
LINE
  8
1
 62
7
  6
CONTINUOUS
 10
335.034833
 20
75.138345
 11
333.896621
 21
75.138345
  0
LINE
  8
1
 62
7
  6
CONTINUOUS
 10
336.436621
 20
75.138345
 11
336.436621
 21
74.000134
  0
LINE
  8
1
 62
7
  6
CONTINUOUS
 10
336.436621
 20
74.000134
 11
337.574833
 21
74.000134
  0
LINE
  8
1
 62
7
  6
CONTINUOUS
 10
337.574833
 20
74.000134
 11
337.574833
 21
75.138345
  0
LINE
  8
1
 62
7
  6
CONTINUOUS
 10
337.574833
 20
75.138345
 11
336.436621
 21
75.138345
  0
LINE
  8
1
 62
7
  6
CONTINUOUS
 10
338.976621
 20
75.138345
 11
338.976621
 21
74.000134
  0
LINE
  8
1
 62
7
  6
CONTINUOUS
 10
338.976621
 20
74.000134
 11
340.114833
 21
74.000134
  0
LINE
  8
1
 62
7
  6
CONTINUOUS
 10
340.114833
 20
74.000134
 11
340.114833
 21
75.138345
  0
LINE
  8
1
 62
7
  6
CONTINUOUS
 10
340.114833
 20
75.138345
 11
338.976621
 21
75.138345
  0
LINE
  8
1
 62
7
  6
CONTINUOUS
 10
341.516621
 20
75.138345
 11
341.516621
 21
74.000134
  0
LINE
  8
1
 62
7
  6
CONTINUOUS
 10
341.516621
 20
74.000134
 11
342.654833
 21
74.000134
  0
LINE
  8
1
 62
7
  6
CONTINUOUS
 10
342.654833
 20
74.000134
 11
342.654833
 21
75.138345
  0
LINE
  8
1
 62
7
  6
CONTINUOUS
 10
342.654833
 20
75.138345
 11
341.516621
 21
75.138345
  0
LINE
  8
1
 62
7
  6
CONTINUOUS
 10
344.056621
 20
75.138345
 11
344.056621
 21
74.000134
  0
LINE
  8
1
 62
7
  6
CONTINUOUS
 10
344.056621
 20
74.000134
 11
345.194833
 21
74.000134
  0
LINE
  8
1
 62
7
  6
CONTINUOUS
 10
345.194833
 20
74.000134
 11
345.194833
 21
75.138345
  0
LINE
  8
1
 62
7
  6
CONTINUOUS
 10
345.194833
 20
75.138345
 11
344.056621
 21
75.138345
  0
LINE
  8
1
 62
7
  6
CONTINUOUS
 10
347.401904
 20
73.054878
 11
347.401904
 21
72.008264
  0
LINE
  8
1
 62
7
  6
CONTINUOUS
 10
347.401904
 20
72.008264
 11
346.808275
 21
72.008264
  0
LINE
  8
1
 62
7
  6
CONTINUOUS
 10
346.808275
 20
73.054878
 11
347.401904
 21
73.054878
  0
LINE
  8
1
 62
7
  6
CONTINUOUS
 10
346.808275
 20
73.054878
 11
346.808275
 21
76.940513
  0
LINE
  8
1
 62
7
  6
CONTINUOUS
 10
346.802353
 20
77.289212
 11
346.802353
 21
76.202524
  0
LINE
  8
1
 62
7
  6
CONTINUOUS
 10
346.802353
 20
76.202524
 11
348.825840
 21
76.202524
  0
LINE
  8
1
 62
7
  6
CONTINUOUS
 10
348.825840
 20
76.202524
 11
348.825840
 21
77.289212
  0
LINE
  8
1
 62
7
  6
CONTINUOUS
 10
348.825840
 20
77.289212
 11
346.802353
 21
77.289212
  0
LINE
  8
1
 62
7
  6
CONTINUOUS
 10
317.964663
 20
77.223636
 11
317.964663
 21
76.211892
  0
LINE
  8
1
 62
7
  6
CONTINUOUS
 10
317.964663
 20
76.211892
 11
319.876838
 21
76.211892
  0
LINE
  8
1
 62
7
  6
CONTINUOUS
 10
319.876838
 20
76.211892
 11
319.876838
 21
77.223636
  0
LINE
  8
1
 62
7
  6
CONTINUOUS
 10
319.876838
 20
77.223636
 11
317.964663
 21
77.223636
  0
LINE
  8
1
 62
7
  6
CONTINUOUS
 10
319.369862
 20
73.054878
 11
319.369862
 21
72.008264
  0
LINE
  8
1
 62
7
  6
CONTINUOUS
 10
319.369862
 20
72.008264
 11
319.876838
 21
72.008264
  0
LINE
  8
1
 62
7
  6
CONTINUOUS
 10
319.876838
 20
73.054878
 11
319.369862
 21
73.054878
  0
LINE
  8
1
 62
7
  6
CONTINUOUS
 10
319.876838
 20
72.008264
 11
346.808275
 21
72.008264
  0
LINE
  8
1
 62
7
  6
CONTINUOUS
 10
346.808275
 20
76.940513
 11
319.876838
 21
76.940513
  0
LINE
  8
1
 62
7
  6
CONTINUOUS
 10
319.876838
 20
76.940513
 11
319.876838
 21
73.092350
  0
LINE
  8
1
 62
7
  6
CONTINUOUS
 10
356.196621
 20
75.138345
 11
356.196621
 21
74.000134
  0
LINE
  8
1
 62
7
  6
CONTINUOUS
 10
356.196621
 20
74.000134
 11
357.334833
 21
74.000134
  0
LINE
  8
1
 62
7
  6
CONTINUOUS
 10
357.334833
 20
74.000134
 11
357.334833
 21
75.138345
  0
LINE
  8
1
 62
7
  6
CONTINUOUS
 10
357.334833
 20
75.138345
 11
356.196621
 21
75.138345
  0
LINE
  8
1
 62
7
  6
CONTINUOUS
 10
358.736621
 20
75.138345
 11
358.736621
 21
74.000134
  0
LINE
  8
1
 62
7
  6
CONTINUOUS
 10
358.736621
 20
74.000134
 11
359.874833
 21
74.000134
  0
LINE
  8
1
 62
7
  6
CONTINUOUS
 10
359.874833
 20
74.000134
 11
359.874833
 21
75.138345
  0
LINE
  8
1
 62
7
  6
CONTINUOUS
 10
359.874833
 20
75.138345
 11
358.736621
 21
75.138345
  0
LINE
  8
1
 62
7
  6
CONTINUOUS
 10
361.276621
 20
75.138345
 11
361.276621
 21
74.000134
  0
LINE
  8
1
 62
7
  6
CONTINUOUS
 10
361.276621
 20
74.000134
 11
362.414833
 21
74.000134
  0
LINE
  8
1
 62
7
  6
CONTINUOUS
 10
362.414833
 20
74.000134
 11
362.414833
 21
75.138345
  0
LINE
  8
1
 62
7
  6
CONTINUOUS
 10
362.414833
 20
75.138345
 11
361.276621
 21
75.138345
  0
LINE
  8
1
 62
7
  6
CONTINUOUS
 10
363.816621
 20
75.138345
 11
363.816621
 21
74.000134
  0
LINE
  8
1
 62
7
  6
CONTINUOUS
 10
363.816621
 20
74.000134
 11
364.954833
 21
74.000134
  0
LINE
  8
1
 62
7
  6
CONTINUOUS
 10
364.954833
 20
74.000134
 11
364.954833
 21
75.138345
  0
LINE
  8
1
 62
7
  6
CONTINUOUS
 10
364.954833
 20
75.138345
 11
363.816621
 21
75.138345
  0
LINE
  8
1
 62
7
  6
CONTINUOUS
 10
366.356621
 20
75.138345
 11
366.356621
 21
74.000134
  0
LINE
  8
1
 62
7
  6
CONTINUOUS
 10
366.356621
 20
74.000134
 11
367.494833
 21
74.000134
  0
LINE
  8
1
 62
7
  6
CONTINUOUS
 10
367.494833
 20
74.000134
 11
367.494833
 21
75.138345
  0
LINE
  8
1
 62
7
  6
CONTINUOUS
 10
367.494833
 20
75.138345
 11
366.356621
 21
75.138345
  0
LINE
  8
1
 62
7
  6
CONTINUOUS
 10
368.896621
 20
75.138345
 11
368.896621
 21
74.000134
  0
LINE
  8
1
 62
7
  6
CONTINUOUS
 10
368.896621
 20
74.000134
 11
370.034833
 21
74.000134
  0
LINE
  8
1
 62
7
  6
CONTINUOUS
 10
370.034833
 20
74.000134
 11
370.034833
 21
75.138345
  0
LINE
  8
1
 62
7
  6
CONTINUOUS
 10
370.034833
 20
75.138345
 11
368.896621
 21
75.138345
  0
LINE
  8
1
 62
7
  6
CONTINUOUS
 10
371.436621
 20
75.138345
 11
371.436621
 21
74.000134
  0
LINE
  8
1
 62
7
  6
CONTINUOUS
 10
371.436621
 20
74.000134
 11
372.574833
 21
74.000134
  0
LINE
  8
1
 62
7
  6
CONTINUOUS
 10
372.574833
 20
74.000134
 11
372.574833
 21
75.138345
  0
LINE
  8
1
 62
7
  6
CONTINUOUS
 10
372.574833
 20
75.138345
 11
371.436621
 21
75.138345
  0
LINE
  8
1
 62
7
  6
CONTINUOUS
 10
373.976621
 20
75.138345
 11
373.976621
 21
74.000134
  0
LINE
  8
1
 62
7
  6
CONTINUOUS
 10
373.976621
 20
74.000134
 11
375.114833
 21
74.000134
  0
LINE
  8
1
 62
7
  6
CONTINUOUS
 10
375.114833
 20
74.000134
 11
375.114833
 21
75.138345
  0
LINE
  8
1
 62
7
  6
CONTINUOUS
 10
375.114833
 20
75.138345
 11
373.976621
 21
75.138345
  0
LINE
  8
1
 62
7
  6
CONTINUOUS
 10
376.516621
 20
75.138345
 11
376.516621
 21
74.000134
  0
LINE
  8
1
 62
7
  6
CONTINUOUS
 10
376.516621
 20
74.000134
 11
377.654833
 21
74.000134
  0
LINE
  8
1
 62
7
  6
CONTINUOUS
 10
377.654833
 20
74.000134
 11
377.654833
 21
75.138345
  0
LINE
  8
1
 62
7
  6
CONTINUOUS
 10
377.654833
 20
75.138345
 11
376.516621
 21
75.138345
  0
LINE
  8
1
 62
7
  6
CONTINUOUS
 10
379.056621
 20
75.138345
 11
379.056621
 21
74.000134
  0
LINE
  8
1
 62
7
  6
CONTINUOUS
 10
379.056621
 20
74.000134
 11
380.194833
 21
74.000134
  0
LINE
  8
1
 62
7
  6
CONTINUOUS
 10
380.194833
 20
74.000134
 11
380.194833
 21
75.138345
  0
LINE
  8
1
 62
7
  6
CONTINUOUS
 10
380.194833
 20
75.138345
 11
379.056621
 21
75.138345
  0
LINE
  8
1
 62
7
  6
CONTINUOUS
 10
382.401904
 20
73.054878
 11
382.401904
 21
72.008264
  0
LINE
  8
1
 62
7
  6
CONTINUOUS
 10
381.808275
 20
73.054878
 11
382.401904
 21
73.054878
  0
LINE
  8
1
 62
7
  6
CONTINUOUS
 10
381.808275
 20
73.054878
 11
381.808275
 21
76.940513
  0
LINE
  8
1
 62
7
  6
CONTINUOUS
 10
381.802353
 20
77.289212
 11
381.802353
 21
76.202524
  0
LINE
  8
1
 62
7
  6
CONTINUOUS
 10
381.802353
 20
76.202524
 11
383.825840
 21
76.202524
  0
LINE
  8
1
 62
7
  6
CONTINUOUS
 10
383.825840
 20
76.202524
 11
383.825840
 21
77.289212
  0
LINE
  8
1
 62
7
  6
CONTINUOUS
 10
383.825840
 20
77.289212
 11
381.802353
 21
77.289212
  0
LINE
  8
1
 62
7
  6
CONTINUOUS
 10
352.964663
 20
77.223636
 11
352.964663
 21
76.211892
  0
LINE
  8
1
 62
7
  6
CONTINUOUS
 10
352.964663
 20
76.211892
 11
354.876838
 21
76.211892
  0
LINE
  8
1
 62
7
  6
CONTINUOUS
 10
354.876838
 20
76.211892
 11
354.876838
 21
77.223636
  0
LINE
  8
1
 62
7
  6
CONTINUOUS
 10
354.876838
 20
77.223636
 11
352.964663
 21
77.223636
  0
LINE
  8
1
 62
7
  6
CONTINUOUS
 10
354.369862
 20
73.054878
 11
354.369862
 21
72.008264
  0
LINE
  8
1
 62
7
  6
CONTINUOUS
 10
354.876838
 20
73.054878
 11
354.369862
 21
73.054878
  0
LINE
  8
1
 62
7
  6
CONTINUOUS
 10
354.876838
 20
72.008264
 11
381.808275
 21
72.008264
  0
LINE
  8
1
 62
7
  6
CONTINUOUS
 10
381.808275
 20
76.940513
 11
354.876838
 21
76.940513
  0
LINE
  8
1
 62
7
  6
CONTINUOUS
 10
354.876838
 20
76.940513
 11
354.876838
 21
73.092350
  0
TEXT
  8
1
 62
7
  6
CONTINUOUS
 10
255.528455
 20
9.959350
 40
6.000000
 41
0.500000
  1
LFB-16MS
  7
KANJI
 50
0.000000
 51
0.000000
  0
LINE
  8
1
 62
7
  6
CONTINUOUS
 10
170.847988
 20
123.124656
 11
164.540852
 21
123.124656
  0
LINE
  8
1
 62
7
  6
CONTINUOUS
 10
170.927483
 20
98.124656
 11
164.540852
 21
98.124656
  0
LINE
  8
1
 62
7
  6
CONTINUOUS
 10
171.006977
 20
148.124656
 11
164.540852
 21
148.124656
  0
LINE
  8
1
 62
7
  6
CONTINUOUS
 10
167.540852
 20
151.819778
 11
167.540852
 21
144.526191
  0
LINE
  8
1
 62
7
  6
CONTINUOUS
 10
167.540852
 20
126.640012
 11
167.540852
 21
119.883012
  0
LINE
  8
1
 62
7
  6
CONTINUOUS
 10
167.540852
 20
101.678856
 11
167.540852
 21
94.226282
  0
CIRCLE
  8
1
 62
7
  6
CONTINUOUS
 10
167.540852
 20
98.124656
 40
2.000000
  0
CIRCLE
  8
1
 62
7
  6
CONTINUOUS
 10
167.540852
 20
123.124656
 40
2.000000
  0
CIRCLE
  8
1
 62
7
  6
CONTINUOUS
 10
167.540852
 20
148.124656
 40
2.000000
  0
LINE
  8
1
 62
7
  6
CONTINUOUS
 10
172.540852
 20
81.124656
 11
172.540852
 21
165.124656
  0
ARC
  8
1
 62
7
  6
CONTINUOUS
 10
184.040852
 20
119.374656
 40
1.000000
 50
90.000000
 51
180.000000
  0
LINE
  8
1
 62
7
  6
CONTINUOUS
 10
194.040852
 20
120.374656
 11
184.040852
 21
120.374656
  0
ARC
  8
1
 62
7
  6
CONTINUOUS
 10
194.040852
 20
119.374656
 40
1.000000
 50
0.000000
 51
90.000000
  0
LINE
  8
1
 62
7
  6
CONTINUOUS
 10
195.040852
 20
109.374656
 11
195.040852
 21
119.374656
  0
ARC
  8
1
 62
7
  6
CONTINUOUS
 10
194.040852
 20
109.374656
 40
1.000000
 50
-90.000000
 51
0.000000
  0
LINE
  8
1
 62
7
  6
CONTINUOUS
 10
184.040852
 20
108.374656
 11
194.040852
 21
108.374656
  0
LINE
  8
1
 62
7
  6
CONTINUOUS
 10
183.040852
 20
119.374656
 11
183.040852
 21
109.374656
  0
ARC
  8
1
 62
7
  6
CONTINUOUS
 10
184.040852
 20
109.374656
 40
1.000000
 50
180.000000
 51
-90.000000
  0
ARC
  8
1
 62
7
  6
CONTINUOUS
 10
201.540852
 20
119.374656
 40
1.000000
 50
90.000000
 51
180.000000
  0
LINE
  8
1
 62
7
  6
CONTINUOUS
 10
211.540852
 20
120.374656
 11
201.540852
 21
120.374656
  0
ARC
  8
1
 62
7
  6
CONTINUOUS
 10
211.540852
 20
119.374656
 40
1.000000
 50
0.000000
 51
90.000000
  0
LINE
  8
1
 62
7
  6
CONTINUOUS
 10
212.540852
 20
109.374656
 11
212.540852
 21
119.374656
  0
ARC
  8
1
 62
7
  6
CONTINUOUS
 10
211.540852
 20
109.374656
 40
1.000000
 50
-90.000000
 51
0.000000
  0
LINE
  8
1
 62
7
  6
CONTINUOUS
 10
201.540852
 20
108.374656
 11
211.540852
 21
108.374656
  0
LINE
  8
1
 62
7
  6
CONTINUOUS
 10
200.540852
 20
119.374656
 11
200.540852
 21
109.374656
  0
ARC
  8
1
 62
7
  6
CONTINUOUS
 10
201.540852
 20
109.374656
 40
1.000000
 50
180.000000
 51
-90.000000
  0
ARC
  8
1
 62
7
  6
CONTINUOUS
 10
184.040852
 20
101.874656
 40
1.000000
 50
90.000000
 51
180.000000
  0
LINE
  8
1
 62
7
  6
CONTINUOUS
 10
194.040852
 20
102.874656
 11
184.040852
 21
102.874656
  0
ARC
  8
1
 62
7
  6
CONTINUOUS
 10
194.040852
 20
101.874656
 40
1.000000
 50
0.000000
 51
90.000000
  0
LINE
  8
1
 62
7
  6
CONTINUOUS
 10
195.040852
 20
91.874656
 11
195.040852
 21
101.874656
  0
ARC
  8
1
 62
7
  6
CONTINUOUS
 10
194.040852
 20
91.874656
 40
1.000000
 50
-90.000000
 51
0.000000
  0
LINE
  8
1
 62
7
  6
CONTINUOUS
 10
184.040852
 20
90.874656
 11
194.040852
 21
90.874656
  0
LINE
  8
1
 62
7
  6
CONTINUOUS
 10
183.040852
 20
101.874656
 11
183.040852
 21
91.874656
  0
ARC
  8
1
 62
7
  6
CONTINUOUS
 10
184.040852
 20
91.874656
 40
1.000000
 50
180.000000
 51
-90.000000
  0
ARC
  8
1
 62
7
  6
CONTINUOUS
 10
201.540852
 20
101.874656
 40
1.000000
 50
90.000000
 51
180.000000
  0
LINE
  8
1
 62
7
  6
CONTINUOUS
 10
211.540852
 20
102.874656
 11
201.540852
 21
102.874656
  0
ARC
  8
1
 62
7
  6
CONTINUOUS
 10
211.540852
 20
101.874656
 40
1.000000
 50
0.000000
 51
90.000000
  0
LINE
  8
1
 62
7
  6
CONTINUOUS
 10
212.540852
 20
91.874656
 11
212.540852
 21
101.874656
  0
ARC
  8
1
 62
7
  6
CONTINUOUS
 10
211.540852
 20
91.874656
 40
1.000000
 50
-90.000000
 51
0.000000
  0
LINE
  8
1
 62
7
  6
CONTINUOUS
 10
201.540852
 20
90.874656
 11
211.540852
 21
90.874656
  0
LINE
  8
1
 62
7
  6
CONTINUOUS
 10
200.540852
 20
101.874656
 11
200.540852
 21
91.874656
  0
ARC
  8
1
 62
7
  6
CONTINUOUS
 10
201.540852
 20
91.874656
 40
1.000000
 50
180.000000
 51
-90.000000
  0
ARC
  8
1
 62
7
  6
CONTINUOUS
 10
184.040852
 20
136.874656
 40
1.000000
 50
90.000000
 51
180.000000
  0
LINE
  8
1
 62
7
  6
CONTINUOUS
 10
194.040852
 20
137.874656
 11
184.040852
 21
137.874656
  0
ARC
  8
1
 62
7
  6
CONTINUOUS
 10
194.040852
 20
136.874656
 40
1.000000
 50
0.000000
 51
90.000000
  0
LINE
  8
1
 62
7
  6
CONTINUOUS
 10
195.040852
 20
126.874656
 11
195.040852
 21
136.874656
  0
ARC
  8
1
 62
7
  6
CONTINUOUS
 10
194.040852
 20
126.874656
 40
1.000000
 50
-90.000000
 51
0.000000
  0
LINE
  8
1
 62
7
  6
CONTINUOUS
 10
184.040852
 20
125.874656
 11
194.040852
 21
125.874656
  0
LINE
  8
1
 62
7
  6
CONTINUOUS
 10
183.040852
 20
136.874656
 11
183.040852
 21
126.874656
  0
ARC
  8
1
 62
7
  6
CONTINUOUS
 10
184.040852
 20
126.874656
 40
1.000000
 50
180.000000
 51
-90.000000
  0
ARC
  8
1
 62
7
  6
CONTINUOUS
 10
201.540852
 20
136.874656
 40
1.000000
 50
90.000000
 51
180.000000
  0
LINE
  8
1
 62
7
  6
CONTINUOUS
 10
211.540852
 20
137.874656
 11
201.540852
 21
137.874656
  0
ARC
  8
1
 62
7
  6
CONTINUOUS
 10
211.540852
 20
136.874656
 40
1.000000
 50
0.000000
 51
90.000000
  0
LINE
  8
1
 62
7
  6
CONTINUOUS
 10
212.540852
 20
126.874656
 11
212.540852
 21
136.874656
  0
ARC
  8
1
 62
7
  6
CONTINUOUS
 10
211.540852
 20
126.874656
 40
1.000000
 50
-90.000000
 51
0.000000
  0
LINE
  8
1
 62
7
  6
CONTINUOUS
 10
201.540852
 20
125.874656
 11
211.540852
 21
125.874656
  0
LINE
  8
1
 62
7
  6
CONTINUOUS
 10
200.540852
 20
136.874656
 11
200.540852
 21
126.874656
  0
ARC
  8
1
 62
7
  6
CONTINUOUS
 10
201.540852
 20
126.874656
 40
1.000000
 50
180.000000
 51
-90.000000
  0
ARC
  8
1
 62
7
  6
CONTINUOUS
 10
184.040852
 20
154.374656
 40
1.000000
 50
90.000000
 51
180.000000
  0
LINE
  8
1
 62
7
  6
CONTINUOUS
 10
194.040852
 20
155.374656
 11
184.040852
 21
155.374656
  0
ARC
  8
1
 62
7
  6
CONTINUOUS
 10
194.040852
 20
154.374656
 40
1.000000
 50
0.000000
 51
90.000000
  0
LINE
  8
1
 62
7
  6
CONTINUOUS
 10
195.040852
 20
144.374656
 11
195.040852
 21
154.374656
  0
ARC
  8
1
 62
7
  6
CONTINUOUS
 10
194.040852
 20
144.374656
 40
1.000000
 50
-90.000000
 51
0.000000
  0
LINE
  8
1
 62
7
  6
CONTINUOUS
 10
184.040852
 20
143.374656
 11
194.040852
 21
143.374656
  0
LINE
  8
1
 62
7
  6
CONTINUOUS
 10
183.040852
 20
154.374656
 11
183.040852
 21
144.374656
  0
ARC
  8
1
 62
7
  6
CONTINUOUS
 10
184.040852
 20
144.374656
 40
1.000000
 50
180.000000
 51
-90.000000
  0
ARC
  8
1
 62
7
  6
CONTINUOUS
 10
201.540852
 20
154.374656
 40
1.000000
 50
90.000000
 51
180.000000
  0
LINE
  8
1
 62
7
  6
CONTINUOUS
 10
211.540852
 20
155.374656
 11
201.540852
 21
155.374656
  0
ARC
  8
1
 62
7
  6
CONTINUOUS
 10
211.540852
 20
154.374656
 40
1.000000
 50
0.000000
 51
90.000000
  0
LINE
  8
1
 62
7
  6
CONTINUOUS
 10
212.540852
 20
144.374656
 11
212.540852
 21
154.374656
  0
ARC
  8
1
 62
7
  6
CONTINUOUS
 10
211.540852
 20
144.374656
 40
1.000000
 50
-90.000000
 51
0.000000
  0
LINE
  8
1
 62
7
  6
CONTINUOUS
 10
201.540852
 20
143.374656
 11
211.540852
 21
143.374656
  0
LINE
  8
1
 62
7
  6
CONTINUOUS
 10
200.540852
 20
154.374656
 11
200.540852
 21
144.374656
  0
ARC
  8
1
 62
7
  6
CONTINUOUS
 10
201.540852
 20
144.374656
 40
1.000000
 50
180.000000
 51
-90.000000
  0
DIMENSION
  8
1
 62
7
  6
CONTINUOUS
  2
*D5
 10
154.223779
 20
123.124656
 11
154.223779
 21
135.624656
 70
     0
  1
25
 13
163.540852
 23
123.124656
 14
163.540852
 24
148.124656
 50
90.000000
  0
DIMENSION
  8
1
 62
7
  6
CONTINUOUS
  2
*D6
 10
154.223779
 20
98.124656
 11
154.223779
 21
110.624656
 70
     0
  1
25
 13
163.540852
 23
98.124656
 14
163.540852
 24
123.124656
 50
90.000000
  0
LINE
  8
1
 62
7
  6
CONTINUOUS
 10
174.540852
 20
83.124656
 11
174.540852
 21
163.124656
  0
LINE
  8
1
 62
7
  6
CONTINUOUS
 10
201.194872
 20
154.183072
 11
201.194872
 21
153.017158
  0
LINE
  8
1
 62
7
  6
CONTINUOUS
 10
201.194872
 20
153.017158
 11
204.321641
 21
153.017158
  0
LINE
  8
1
 62
7
  6
CONTINUOUS
 10
204.321641
 20
153.017158
 11
204.321641
 21
154.183072
  0
LINE
  8
1
 62
7
  6
CONTINUOUS
 10
204.321641
 20
154.183072
 11
201.194872
 21
154.183072
  0
LINE
  8
1
 62
7
  6
CONTINUOUS
 10
183.694872
 20
154.183072
 11
183.694872
 21
153.017158
  0
LINE
  8
1
 62
7
  6
CONTINUOUS
 10
183.694872
 20
153.017158
 11
186.821641
 21
153.017158
  0
LINE
  8
1
 62
7
  6
CONTINUOUS
 10
186.821641
 20
153.017158
 11
186.821641
 21
154.183072
  0
LINE
  8
1
 62
7
  6
CONTINUOUS
 10
186.821641
 20
154.183072
 11
183.694872
 21
154.183072
  0
LINE
  8
1
 62
7
  6
CONTINUOUS
 10
201.194872
 20
136.683072
 11
201.194872
 21
135.517158
  0
LINE
  8
1
 62
7
  6
CONTINUOUS
 10
201.194872
 20
135.517158
 11
204.321641
 21
135.517158
  0
LINE
  8
1
 62
7
  6
CONTINUOUS
 10
204.321641
 20
135.517158
 11
204.321641
 21
136.683072
  0
LINE
  8
1
 62
7
  6
CONTINUOUS
 10
204.321641
 20
136.683072
 11
201.194872
 21
136.683072
  0
LINE
  8
1
 62
7
  6
CONTINUOUS
 10
183.694872
 20
136.683072
 11
183.694872
 21
135.517158
  0
LINE
  8
1
 62
7
  6
CONTINUOUS
 10
183.694872
 20
135.517158
 11
186.821641
 21
135.517158
  0
LINE
  8
1
 62
7
  6
CONTINUOUS
 10
186.821641
 20
135.517158
 11
186.821641
 21
136.683072
  0
LINE
  8
1
 62
7
  6
CONTINUOUS
 10
186.821641
 20
136.683072
 11
183.694872
 21
136.683072
  0
LINE
  8
1
 62
7
  6
CONTINUOUS
 10
183.694872
 20
119.183072
 11
183.694872
 21
118.017158
  0
LINE
  8
1
 62
7
  6
CONTINUOUS
 10
183.694872
 20
118.017158
 11
186.821641
 21
118.017158
  0
LINE
  8
1
 62
7
  6
CONTINUOUS
 10
186.821641
 20
118.017158
 11
186.821641
 21
119.183072
  0
LINE
  8
1
 62
7
  6
CONTINUOUS
 10
186.821641
 20
119.183072
 11
183.694872
 21
119.183072
  0
LINE
  8
1
 62
7
  6
CONTINUOUS
 10
201.194872
 20
119.183072
 11
201.194872
 21
118.017158
  0
LINE
  8
1
 62
7
  6
CONTINUOUS
 10
201.194872
 20
118.017158
 11
204.321641
 21
118.017158
  0
LINE
  8
1
 62
7
  6
CONTINUOUS
 10
204.321641
 20
118.017158
 11
204.321641
 21
119.183072
  0
LINE
  8
1
 62
7
  6
CONTINUOUS
 10
204.321641
 20
119.183072
 11
201.194872
 21
119.183072
  0
LINE
  8
1
 62
7
  6
CONTINUOUS
 10
201.194872
 20
101.683072
 11
201.194872
 21
100.517158
  0
LINE
  8
1
 62
7
  6
CONTINUOUS
 10
201.194872
 20
100.517158
 11
204.321641
 21
100.517158
  0
LINE
  8
1
 62
7
  6
CONTINUOUS
 10
204.321641
 20
100.517158
 11
204.321641
 21
101.683072
  0
LINE
  8
1
 62
7
  6
CONTINUOUS
 10
204.321641
 20
101.683072
 11
201.194872
 21
101.683072
  0
LINE
  8
1
 62
7
  6
CONTINUOUS
 10
183.694872
 20
101.683072
 11
183.694872
 21
100.517158
  0
LINE
  8
1
 62
7
  6
CONTINUOUS
 10
183.694872
 20
100.517158
 11
186.821641
 21
100.517158
  0
LINE
  8
1
 62
7
  6
CONTINUOUS
 10
186.821641
 20
100.517158
 11
186.821641
 21
101.683072
  0
LINE
  8
1
 62
7
  6
CONTINUOUS
 10
186.821641
 20
101.683072
 11
183.694872
 21
101.683072
  0
TEXT
  8
1
 62
7
  6
CONTINUOUS
 10
206.540852
 20
94.323993
 40
5.000000
 41
0.500000
  1
2
  7
KANJI
 50
0.000000
 51
0.000000
  0
TEXT
  8
1
 62
7
  6
CONTINUOUS
 10
189.040852
 20
93.727787
 40
5.000000
 41
0.500000
  1
1
  7
KANJI
 50
0.000000
 51
0.000000
  0
ARC
  8
1
 62
7
  6
CONTINUOUS
 10
165.540852
 20
162.124656
 40
3.000000
 50
90.000000
 51
180.000000
  0
LINE
  8
1
 62
7
  6
CONTINUOUS
 10
162.540852
 20
162.124656
 11
162.540852
 21
84.124656
  0
ARC
  8
1
 62
7
  6
CONTINUOUS
 10
165.540852
 20
84.124656
 40
3.000000
 50
180.000000
 51
-90.000000
  0
LINE
  8
1
 62
7
  6
CONTINUOUS
 10
264.540852
 20
148.124656
 11
258.134348
 21
148.124656
  0
LINE
  8
1
 62
7
  6
CONTINUOUS
 10
264.540852
 20
123.124656
 11
257.995233
 21
123.124656
  0
LINE
  8
1
 62
7
  6
CONTINUOUS
 10
264.540852
 20
98.124656
 11
258.631186
 21
98.124656
  0
LINE
  8
1
 62
7
  6
CONTINUOUS
 10
261.540852
 20
151.819778
 11
261.540852
 21
145.003156
  0
LINE
  8
1
 62
7
  6
CONTINUOUS
 10
261.540852
 20
126.242542
 11
261.540852
 21
120.042000
  0
LINE
  8
1
 62
7
  6
CONTINUOUS
 10
261.540852
 20
101.519868
 11
261.540852
 21
94.405143
  0
CIRCLE
  8
1
 62
7
  6
CONTINUOUS
 10
261.540852
 20
148.124656
 40
2.000000
  0
CIRCLE
  8
1
 62
7
  6
CONTINUOUS
 10
261.540852
 20
123.124656
 40
2.000000
  0
CIRCLE
  8
1
 62
7
  6
CONTINUOUS
 10
261.540852
 20
98.124656
 40
2.000000
  0
LINE
  8
1
 62
7
  6
CONTINUOUS
 10
256.540852
 20
165.124656
 11
256.540852
 21
81.124656
  0
LINE
  8
1
 62
7
  6
CONTINUOUS
 10
254.540852
 20
83.124656
 11
174.540852
 21
83.124656
  0
LINE
  8
1
 62
7
  6
CONTINUOUS
 10
254.540852
 20
163.124656
 11
254.540852
 21
83.124656
  0
LINE
  8
1
 62
7
  6
CONTINUOUS
 10
174.540852
 20
163.124656
 11
254.540852
 21
163.124656
  0
DIMENSION
  8
1
 62
7
  6
CONTINUOUS
  2
*D7
 10
174.540852
 20
74.103863
 11
214.540852
 21
74.103863
 70
     0
  1
80
 13
174.540852
 23
81.124656
 14
254.540852
 24
81.124656
 50
0.000000
  0
DIMENSION
  8
1
 62
7
  6
CONTINUOUS
  2
*D8
 10
172.540852
 20
69.930421
 11
214.540852
 21
69.930421
 70
     0
  1
84
 13
172.540852
 23
79.124656
 14
256.540852
 24
79.124656
 50
0.000000
  0
DIMENSION
  8
1
 62
7
  6
CONTINUOUS
  2
*D9
 10
167.540852
 20
64.998172
 11
214.540852
 21
64.998172
 70
     0
  1
94
 13
167.540852
 23
92.226282
 14
261.540852
 24
92.405143
 50
0.000000
  0
DIMENSION
  8
1
 62
7
  6
CONTINUOUS
  2
*D10
 10
162.540852
 20
60.255624
 11
214.540852
 21
60.255624
 70
     0
  1
104
 13
162.540852
 23
81.124656
 14
266.540852
 24
81.124656
 50
0.000000
  0
ARC
  8
1
 62
7
  6
CONTINUOUS
 10
263.540852
 20
84.124656
 40
3.000000
 50
-90.000000
 51
0.000000
  0
LINE
  8
1
 62
7
  6
CONTINUOUS
 10
266.540852
 20
162.124656
 11
266.540852
 21
84.124656
  0
ARC
  8
1
 62
7
  6
CONTINUOUS
 10
263.540852
 20
162.124656
 40
3.000000
 50
-0.000000
 51
90.000000
  0
LINE
  8
1
 62
7
  6
CONTINUOUS
 10
165.540852
 20
165.124656
 11
263.540852
 21
165.124656
  0
LINE
  8
1
 62
7
  6
CONTINUOUS
 10
263.540852
 20
81.124656
 11
165.540852
 21
81.124656
  0
LINE
  8
1
 62
7
  6
CONTINUOUS
 10
262.804922
 20
149.674536
 11
271.346182
 21
164.621268
  0
LINE
  8
1
 62
7
  6
CONTINUOUS
 10
271.346182
 20
164.621268
 11
279.951459
 21
164.621268
  0
TEXT
  8
1
 62
7
  6
CONTINUOUS
 10
273.701459
 20
164.621268
 40
3.000000
 41
0.520833
  1
6-φ4
  7
KANJI
 50
0.000000
 51
30.000000
  0
LINE
  8
1
 62
7
  6
CONTINUOUS
 10
262.804922
 20
149.674536
 11
263.441243
 21
152.092199
  0
LINE
  8
1
 62
7
  6
CONTINUOUS
 10
262.804922
 20
149.674536
 11
264.564824
 21
151.450132
  0
ARC
  8
1
 62
7
  6
CONTINUOUS
 10
236.540852
 20
119.374656
 40
1.000000
 50
90.000000
 51
180.000000
  0
LINE
  8
1
 62
7
  6
CONTINUOUS
 10
246.540852
 20
120.374656
 11
236.540852
 21
120.374656
  0
ARC
  8
1
 62
7
  6
CONTINUOUS
 10
246.540852
 20
119.374656
 40
1.000000
 50
0.000000
 51
90.000000
  0
LINE
  8
1
 62
7
  6
CONTINUOUS
 10
247.540852
 20
109.374656
 11
247.540852
 21
119.374656
  0
ARC
  8
1
 62
7
  6
CONTINUOUS
 10
246.540852
 20
109.374656
 40
1.000000
 50
-90.000000
 51
0.000000
  0
LINE
  8
1
 62
7
  6
CONTINUOUS
 10
236.540852
 20
108.374656
 11
246.540852
 21
108.374656
  0
LINE
  8
1
 62
7
  6
CONTINUOUS
 10
235.540852
 20
119.374656
 11
235.540852
 21
109.374656
  0
ARC
  8
1
 62
7
  6
CONTINUOUS
 10
236.540852
 20
109.374656
 40
1.000000
 50
180.000000
 51
-90.000000
  0
ARC
  8
1
 62
7
  6
CONTINUOUS
 10
236.540852
 20
101.874656
 40
1.000000
 50
90.000000
 51
180.000000
  0
LINE
  8
1
 62
7
  6
CONTINUOUS
 10
246.540852
 20
102.874656
 11
236.540852
 21
102.874656
  0
ARC
  8
1
 62
7
  6
CONTINUOUS
 10
246.540852
 20
101.874656
 40
1.000000
 50
0.000000
 51
90.000000
  0
LINE
  8
1
 62
7
  6
CONTINUOUS
 10
247.540852
 20
91.874656
 11
247.540852
 21
101.874656
  0
ARC
  8
1
 62
7
  6
CONTINUOUS
 10
246.540852
 20
91.874656
 40
1.000000
 50
-90.000000
 51
0.000000
  0
LINE
  8
1
 62
7
  6
CONTINUOUS
 10
236.540852
 20
90.874656
 11
246.540852
 21
90.874656
  0
LINE
  8
1
 62
7
  6
CONTINUOUS
 10
235.540852
 20
101.874656
 11
235.540852
 21
91.874656
  0
ARC
  8
1
 62
7
  6
CONTINUOUS
 10
236.540852
 20
91.874656
 40
1.000000
 50
180.000000
 51
-90.000000
  0
ARC
  8
1
 62
7
  6
CONTINUOUS
 10
236.540852
 20
136.874656
 40
1.000000
 50
90.000000
 51
180.000000
  0
LINE
  8
1
 62
7
  6
CONTINUOUS
 10
246.540852
 20
137.874656
 11
236.540852
 21
137.874656
  0
ARC
  8
1
 62
7
  6
CONTINUOUS
 10
246.540852
 20
136.874656
 40
1.000000
 50
0.000000
 51
90.000000
  0
LINE
  8
1
 62
7
  6
CONTINUOUS
 10
247.540852
 20
126.874656
 11
247.540852
 21
136.874656
  0
ARC
  8
1
 62
7
  6
CONTINUOUS
 10
246.540852
 20
126.874656
 40
1.000000
 50
-90.000000
 51
0.000000
  0
LINE
  8
1
 62
7
  6
CONTINUOUS
 10
236.540852
 20
125.874656
 11
246.540852
 21
125.874656
  0
LINE
  8
1
 62
7
  6
CONTINUOUS
 10
235.540852
 20
136.874656
 11
235.540852
 21
126.874656
  0
ARC
  8
1
 62
7
  6
CONTINUOUS
 10
236.540852
 20
126.874656
 40
1.000000
 50
180.000000
 51
-90.000000
  0
ARC
  8
1
 62
7
  6
CONTINUOUS
 10
236.540852
 20
154.374656
 40
1.000000
 50
90.000000
 51
180.000000
  0
LINE
  8
1
 62
7
  6
CONTINUOUS
 10
246.540852
 20
155.374656
 11
236.540852
 21
155.374656
  0
ARC
  8
1
 62
7
  6
CONTINUOUS
 10
246.540852
 20
154.374656
 40
1.000000
 50
0.000000
 51
90.000000
  0
LINE
  8
1
 62
7
  6
CONTINUOUS
 10
247.540852
 20
144.374656
 11
247.540852
 21
154.374656
  0
ARC
  8
1
 62
7
  6
CONTINUOUS
 10
246.540852
 20
144.374656
 40
1.000000
 50
-90.000000
 51
0.000000
  0
LINE
  8
1
 62
7
  6
CONTINUOUS
 10
236.540852
 20
143.374656
 11
246.540852
 21
143.374656
  0
LINE
  8
1
 62
7
  6
CONTINUOUS
 10
235.540852
 20
154.374656
 11
235.540852
 21
144.374656
  0
ARC
  8
1
 62
7
  6
CONTINUOUS
 10
236.540852
 20
144.374656
 40
1.000000
 50
180.000000
 51
-90.000000
  0
LINE
  8
1
 62
7
  6
CONTINUOUS
 10
236.194872
 20
154.183072
 11
236.194872
 21
153.017158
  0
LINE
  8
1
 62
7
  6
CONTINUOUS
 10
236.194872
 20
153.017158
 11
239.321641
 21
153.017158
  0
LINE
  8
1
 62
7
  6
CONTINUOUS
 10
239.321641
 20
153.017158
 11
239.321641
 21
154.183072
  0
LINE
  8
1
 62
7
  6
CONTINUOUS
 10
239.321641
 20
154.183072
 11
236.194872
 21
154.183072
  0
LINE
  8
1
 62
7
  6
CONTINUOUS
 10
236.194872
 20
136.683072
 11
236.194872
 21
135.517158
  0
LINE
  8
1
 62
7
  6
CONTINUOUS
 10
236.194872
 20
135.517158
 11
239.321641
 21
135.517158
  0
LINE
  8
1
 62
7
  6
CONTINUOUS
 10
239.321641
 20
135.517158
 11
239.321641
 21
136.683072
  0
LINE
  8
1
 62
7
  6
CONTINUOUS
 10
239.321641
 20
136.683072
 11
236.194872
 21
136.683072
  0
LINE
  8
1
 62
7
  6
CONTINUOUS
 10
236.194872
 20
119.183072
 11
236.194872
 21
118.017158
  0
LINE
  8
1
 62
7
  6
CONTINUOUS
 10
236.194872
 20
118.017158
 11
239.321641
 21
118.017158
  0
LINE
  8
1
 62
7
  6
CONTINUOUS
 10
239.321641
 20
118.017158
 11
239.321641
 21
119.183072
  0
LINE
  8
1
 62
7
  6
CONTINUOUS
 10
239.321641
 20
119.183072
 11
236.194872
 21
119.183072
  0
LINE
  8
1
 62
7
  6
CONTINUOUS
 10
236.194872
 20
101.683072
 11
236.194872
 21
100.517158
  0
LINE
  8
1
 62
7
  6
CONTINUOUS
 10
236.194872
 20
100.517158
 11
239.321641
 21
100.517158
  0
LINE
  8
1
 62
7
  6
CONTINUOUS
 10
239.321641
 20
100.517158
 11
239.321641
 21
101.683072
  0
LINE
  8
1
 62
7
  6
CONTINUOUS
 10
239.321641
 20
101.683072
 11
236.194872
 21
101.683072
  0
ARC
  8
1
 62
7
  6
CONTINUOUS
 10
219.040852
 20
119.374656
 40
1.000000
 50
90.000000
 51
180.000000
  0
LINE
  8
1
 62
7
  6
CONTINUOUS
 10
229.040852
 20
120.374656
 11
219.040852
 21
120.374656
  0
ARC
  8
1
 62
7
  6
CONTINUOUS
 10
229.040852
 20
119.374656
 40
1.000000
 50
0.000000
 51
90.000000
  0
LINE
  8
1
 62
7
  6
CONTINUOUS
 10
230.040852
 20
109.374656
 11
230.040852
 21
119.374656
  0
ARC
  8
1
 62
7
  6
CONTINUOUS
 10
229.040852
 20
109.374656
 40
1.000000
 50
-90.000000
 51
0.000000
  0
LINE
  8
1
 62
7
  6
CONTINUOUS
 10
219.040852
 20
108.374656
 11
229.040852
 21
108.374656
  0
LINE
  8
1
 62
7
  6
CONTINUOUS
 10
218.040852
 20
119.374656
 11
218.040852
 21
109.374656
  0
ARC
  8
1
 62
7
  6
CONTINUOUS
 10
219.040852
 20
109.374656
 40
1.000000
 50
180.000000
 51
-90.000000
  0
ARC
  8
1
 62
7
  6
CONTINUOUS
 10
219.040852
 20
101.874656
 40
1.000000
 50
90.000000
 51
180.000000
  0
LINE
  8
1
 62
7
  6
CONTINUOUS
 10
229.040852
 20
102.874656
 11
219.040852
 21
102.874656
  0
ARC
  8
1
 62
7
  6
CONTINUOUS
 10
229.040852
 20
101.874656
 40
1.000000
 50
0.000000
 51
90.000000
  0
LINE
  8
1
 62
7
  6
CONTINUOUS
 10
230.040852
 20
91.874656
 11
230.040852
 21
101.874656
  0
ARC
  8
1
 62
7
  6
CONTINUOUS
 10
229.040852
 20
91.874656
 40
1.000000
 50
-90.000000
 51
0.000000
  0
LINE
  8
1
 62
7
  6
CONTINUOUS
 10
219.040852
 20
90.874656
 11
229.040852
 21
90.874656
  0
LINE
  8
1
 62
7
  6
CONTINUOUS
 10
218.040852
 20
101.874656
 11
218.040852
 21
91.874656
  0
ARC
  8
1
 62
7
  6
CONTINUOUS
 10
219.040852
 20
91.874656
 40
1.000000
 50
180.000000
 51
-90.000000
  0
ARC
  8
1
 62
7
  6
CONTINUOUS
 10
219.040852
 20
136.874656
 40
1.000000
 50
90.000000
 51
180.000000
  0
LINE
  8
1
 62
7
  6
CONTINUOUS
 10
229.040852
 20
137.874656
 11
219.040852
 21
137.874656
  0
ARC
  8
1
 62
7
  6
CONTINUOUS
 10
229.040852
 20
136.874656
 40
1.000000
 50
0.000000
 51
90.000000
  0
LINE
  8
1
 62
7
  6
CONTINUOUS
 10
230.040852
 20
126.874656
 11
230.040852
 21
136.874656
  0
ARC
  8
1
 62
7
  6
CONTINUOUS
 10
229.040852
 20
126.874656
 40
1.000000
 50
-90.000000
 51
0.000000
  0
LINE
  8
1
 62
7
  6
CONTINUOUS
 10
219.040852
 20
125.874656
 11
229.040852
 21
125.874656
  0
LINE
  8
1
 62
7
  6
CONTINUOUS
 10
218.040852
 20
136.874656
 11
218.040852
 21
126.874656
  0
ARC
  8
1
 62
7
  6
CONTINUOUS
 10
219.040852
 20
126.874656
 40
1.000000
 50
180.000000
 51
-90.000000
  0
ARC
  8
1
 62
7
  6
CONTINUOUS
 10
219.040852
 20
154.374656
 40
1.000000
 50
90.000000
 51
180.000000
  0
LINE
  8
1
 62
7
  6
CONTINUOUS
 10
229.040852
 20
155.374656
 11
219.040852
 21
155.374656
  0
ARC
  8
1
 62
7
  6
CONTINUOUS
 10
229.040852
 20
154.374656
 40
1.000000
 50
0.000000
 51
90.000000
  0
LINE
  8
1
 62
7
  6
CONTINUOUS
 10
230.040852
 20
144.374656
 11
230.040852
 21
154.374656
  0
ARC
  8
1
 62
7
  6
CONTINUOUS
 10
229.040852
 20
144.374656
 40
1.000000
 50
-90.000000
 51
0.000000
  0
LINE
  8
1
 62
7
  6
CONTINUOUS
 10
219.040852
 20
143.374656
 11
229.040852
 21
143.374656
  0
LINE
  8
1
 62
7
  6
CONTINUOUS
 10
218.040852
 20
154.374656
 11
218.040852
 21
144.374656
  0
ARC
  8
1
 62
7
  6
CONTINUOUS
 10
219.040852
 20
144.374656
 40
1.000000
 50
180.000000
 51
-90.000000
  0
LINE
  8
1
 62
7
  6
CONTINUOUS
 10
218.694872
 20
154.183072
 11
218.694872
 21
153.017158
  0
LINE
  8
1
 62
7
  6
CONTINUOUS
 10
218.694872
 20
153.017158
 11
221.821641
 21
153.017158
  0
LINE
  8
1
 62
7
  6
CONTINUOUS
 10
221.821641
 20
153.017158
 11
221.821641
 21
154.183072
  0
LINE
  8
1
 62
7
  6
CONTINUOUS
 10
221.821641
 20
154.183072
 11
218.694872
 21
154.183072
  0
LINE
  8
1
 62
7
  6
CONTINUOUS
 10
218.694872
 20
136.683072
 11
218.694872
 21
135.517158
  0
LINE
  8
1
 62
7
  6
CONTINUOUS
 10
218.694872
 20
135.517158
 11
221.821641
 21
135.517158
  0
LINE
  8
1
 62
7
  6
CONTINUOUS
 10
221.821641
 20
135.517158
 11
221.821641
 21
136.683072
  0
LINE
  8
1
 62
7
  6
CONTINUOUS
 10
221.821641
 20
136.683072
 11
218.694872
 21
136.683072
  0
LINE
  8
1
 62
7
  6
CONTINUOUS
 10
218.694872
 20
119.183072
 11
218.694872
 21
118.017158
  0
LINE
  8
1
 62
7
  6
CONTINUOUS
 10
218.694872
 20
118.017158
 11
221.821641
 21
118.017158
  0
LINE
  8
1
 62
7
  6
CONTINUOUS
 10
221.821641
 20
118.017158
 11
221.821641
 21
119.183072
  0
LINE
  8
1
 62
7
  6
CONTINUOUS
 10
221.821641
 20
119.183072
 11
218.694872
 21
119.183072
  0
LINE
  8
1
 62
7
  6
CONTINUOUS
 10
218.694872
 20
101.683072
 11
218.694872
 21
100.517158
  0
LINE
  8
1
 62
7
  6
CONTINUOUS
 10
218.694872
 20
100.517158
 11
221.821641
 21
100.517158
  0
LINE
  8
1
 62
7
  6
CONTINUOUS
 10
221.821641
 20
100.517158
 11
221.821641
 21
101.683072
  0
LINE
  8
1
 62
7
  6
CONTINUOUS
 10
221.821641
 20
101.683072
 11
218.694872
 21
101.683072
  0
TEXT
  8
1
 62
7
  6
CONTINUOUS
 10
224.040852
 20
94.681717
 40
5.000000
 41
0.500000
  1
3
  7
KANJI
 50
0.000000
 51
0.000000
  0
TEXT
  8
1
 62
7
  6
CONTINUOUS
 10
241.540852
 20
94.681717
 40
5.000000
 41
0.500000
  1
4
  7
KANJI
 50
0.000000
 51
0.000000
  0
TEXT
  8
1
 62
7
  6
CONTINUOUS
 10
189.040852
 20
111.017760
 40
5.000000
 41
0.500000
  1
5
  7
KANJI
 50
0.000000
 51
0.000000
  0
TEXT
  8
1
 62
7
  6
CONTINUOUS
 10
206.540852
 20
111.017760
 40
5.000000
 41
0.500000
  1
6
  7
KANJI
 50
0.000000
 51
0.000000
  0
TEXT
  8
1
 62
7
  6
CONTINUOUS
 10
224.040852
 20
111.097254
 40
5.000000
 41
0.500000
  1
7
  7
KANJI
 50
0.000000
 51
0.000000
  0
TEXT
  8
1
 62
7
  6
CONTINUOUS
 10
241.540852
 20
111.097254
 40
5.000000
 41
0.500000
  1
8
  7
KANJI
 50
0.000000
 51
0.000000
  0
TEXT
  8
1
 62
7
  6
CONTINUOUS
 10
189.040852
 20
128.267986
 40
5.000000
 41
0.500000
  1
9
  7
KANJI
 50
0.000000
 51
0.000000
  0
TEXT
  8
1
 62
7
  6
CONTINUOUS
 10
206.540852
 20
128.903939
 40
5.000000
 41
0.500000
  1
10
  7
KANJI
 50
0.000000
 51
0.000000
  0
TEXT
  8
1
 62
7
  6
CONTINUOUS
 10
224.040852
 20
128.744951
 40
5.000000
 41
0.500000
  1
11
  7
KANJI
 50
0.000000
 51
0.000000
  0
TEXT
  8
1
 62
7
  6
CONTINUOUS
 10
241.540852
 20
128.744951
 40
5.000000
 41
0.500000
  1
12
  7
KANJI
 50
0.000000
 51
0.000000
  0
TEXT
  8
1
 62
7
  6
CONTINUOUS
 10
187.879605
 20
145.915682
 40
5.000000
 41
0.500000
  1
13
  7
KANJI
 50
0.000000
 51
0.000000
  0
TEXT
  8
1
 62
7
  6
CONTINUOUS
 10
206.063887
 20
145.915682
 40
5.000000
 41
0.500000
  1
14
  7
KANJI
 50
0.000000
 51
0.000000
  0
TEXT
  8
1
 62
7
  6
CONTINUOUS
 10
223.016010
 20
145.518212
 40
5.000000
 41
0.500000
  1
15
  7
KANJI
 50
0.000000
 51
0.000000
  0
TEXT
  8
1
 62
7
  6
CONTINUOUS
 10
240.516010
 20
145.518212
 40
5.000000
 41
0.500000
  1
16
  7
KANJI
 50
0.000000
 51
0.000000
  0
CIRCLE
  8
1
 62
7
  6
CONTINUOUS
 10
27.852281
 20
145.810606
 40
2.000000
  0
CIRCLE
  8
1
 62
7
  6
CONTINUOUS
 10
27.852281
 20
120.810606
 40
2.000000
  0
CIRCLE
  8
1
 62
7
  6
CONTINUOUS
 10
27.852281
 20
95.810606
 40
2.000000
  0
LINE
  8
1
 62
7
  6
CONTINUOUS
 10
32.852281
 20
162.810606
 11
32.852281
 21
78.810606
  0
LINE
  8
1
 62
7
  6
CONTINUOUS
 10
33.852281
 20
161.810606
 11
33.852281
 21
79.810606
  0
CIRCLE
  8
1
 62
7
  6
CONTINUOUS
 10
37.435188
 20
158.449947
 40
2.000000
  0
LINE
  8
1
 62
7
  6
CONTINUOUS
 10
37.143219
 20
159.416262
 11
37.143219
 21
158.741916
  0
ARC
  8
1
 62
7
  6
CONTINUOUS
 10
37.343219
 20
159.416262
 40
0.200000
 50
90.000000
 51
180.000000
  0
LINE
  8
1
 62
7
  6
CONTINUOUS
 10
37.567752
 20
159.616262
 11
37.343219
 21
159.616262
  0
LINE
  8
1
 62
7
  6
CONTINUOUS
 10
37.767752
 20
158.741916
 11
37.767752
 21
159.416262
  0
ARC
  8
1
 62
7
  6
CONTINUOUS
 10
37.567752
 20
159.416262
 40
0.200000
 50
0.000000
 51
90.000000
  0
LINE
  8
1
 62
7
  6
CONTINUOUS
 10
37.767752
 20
157.443037
 11
37.767752
 21
158.167345
  0
ARC
  8
1
 62
7
  6
CONTINUOUS
 10
37.567752
 20
157.443037
 40
0.200000
 50
-90.000000
 51
0.000000
  0
LINE
  8
1
 62
7
  6
CONTINUOUS
 10
37.343219
 20
157.243037
 11
37.567752
 21
157.243037
  0
LINE
  8
1
 62
7
  6
CONTINUOUS
 10
37.143219
 20
158.167345
 11
37.143219
 21
157.443037
  0
ARC
  8
1
 62
7
  6
CONTINUOUS
 10
37.343219
 20
157.443037
 40
0.200000
 50
180.000000
 51
-90.000000
  0
LINE
  8
1
 62
7
  6
CONTINUOUS
 10
38.442098
 20
158.741916
 11
37.767752
 21
158.741916
  0
ARC
  8
1
 62
7
  6
CONTINUOUS
 10
38.442098
 20
158.541916
 40
0.200000
 50
0.000000
 51
90.000000
  0
LINE
  8
1
 62
7
  6
CONTINUOUS
 10
38.642098
 20
158.367345
 11
38.642098
 21
158.541916
  0
LINE
  8
1
 62
7
  6
CONTINUOUS
 10
37.767752
 20
158.167345
 11
38.442098
 21
158.167345
  0
ARC
  8
1
 62
7
  6
CONTINUOUS
 10
38.442098
 20
158.367345
 40
0.200000
 50
-90.000000
 51
0.000000
  0
LINE
  8
1
 62
7
  6
CONTINUOUS
 10
36.343966
 20
158.167345
 11
37.143219
 21
158.167345
  0
ARC
  8
1
 62
7
  6
CONTINUOUS
 10
36.343966
 20
158.367345
 40
0.200000
 50
180.000000
 51
-90.000000
  0
LINE
  8
1
 62
7
  6
CONTINUOUS
 10
36.143966
 20
158.541916
 11
36.143966
 21
158.367345
  0
LINE
  8
1
 62
7
  6
CONTINUOUS
 10
37.143219
 20
158.741916
 11
36.343966
 21
158.741916
  0
ARC
  8
1
 62
7
  6
CONTINUOUS
 10
36.343966
 20
158.541916
 40
0.200000
 50
90.000000
 51
180.000000
  0
CIRCLE
  8
1
 62
7
  6
CONTINUOUS
 10
37.519847
 20
83.407103
 40
2.000000
  0
LINE
  8
1
 62
7
  6
CONTINUOUS
 10
37.227878
 20
84.373418
 11
37.227878
 21
83.699072
  0
ARC
  8
1
 62
7
  6
CONTINUOUS
 10
37.427878
 20
84.373418
 40
0.200000
 50
90.000000
 51
180.000000
  0
LINE
  8
1
 62
7
  6
CONTINUOUS
 10
37.652411
 20
84.573418
 11
37.427878
 21
84.573418
  0
LINE
  8
1
 62
7
  6
CONTINUOUS
 10
37.852411
 20
83.699072
 11
37.852411
 21
84.373418
  0
ARC
  8
1
 62
7
  6
CONTINUOUS
 10
37.652411
 20
84.373418
 40
0.200000
 50
0.000000
 51
90.000000
  0
LINE
  8
1
 62
7
  6
CONTINUOUS
 10
37.852411
 20
82.400193
 11
37.852411
 21
83.124502
  0
ARC
  8
1
 62
7
  6
CONTINUOUS
 10
37.652411
 20
82.400193
 40
0.200000
 50
-90.000000
 51
0.000000
  0
LINE
  8
1
 62
7
  6
CONTINUOUS
 10
37.427878
 20
82.200193
 11
37.652411
 21
82.200193
  0
LINE
  8
1
 62
7
  6
CONTINUOUS
 10
37.227878
 20
83.124502
 11
37.227878
 21
82.400193
  0
ARC
  8
1
 62
7
  6
CONTINUOUS
 10
37.427878
 20
82.400193
 40
0.200000
 50
180.000000
 51
-90.000000
  0
LINE
  8
1
 62
7
  6
CONTINUOUS
 10
38.526757
 20
83.699072
 11
37.852411
 21
83.699072
  0
ARC
  8
1
 62
7
  6
CONTINUOUS
 10
38.526757
 20
83.499072
 40
0.200000
 50
0.000000
 51
90.000000
  0
LINE
  8
1
 62
7
  6
CONTINUOUS
 10
38.726757
 20
83.324502
 11
38.726757
 21
83.499072
  0
LINE
  8
1
 62
7
  6
CONTINUOUS
 10
37.852411
 20
83.124502
 11
38.526757
 21
83.124502
  0
ARC
  8
1
 62
7
  6
CONTINUOUS
 10
38.526757
 20
83.324502
 40
0.200000
 50
-90.000000
 51
0.000000
  0
LINE
  8
1
 62
7
  6
CONTINUOUS
 10
36.428625
 20
83.124502
 11
37.227878
 21
83.124502
  0
ARC
  8
1
 62
7
  6
CONTINUOUS
 10
36.428625
 20
83.324502
 40
0.200000
 50
-180.000000
 51
-90.000000
  0
LINE
  8
1
 62
7
  6
CONTINUOUS
 10
36.228625
 20
83.499072
 11
36.228625
 21
83.324502
  0
LINE
  8
1
 62
7
  6
CONTINUOUS
 10
37.227878
 20
83.699072
 11
36.428625
 21
83.699072
  0
ARC
  8
1
 62
7
  6
CONTINUOUS
 10
36.428625
 20
83.499072
 40
0.200000
 50
90.000000
 51
-180.000000
  0
ARC
  8
1
 62
7
  6
CONTINUOUS
 10
25.852281
 20
159.810606
 40
3.000000
 50
90.000000
 51
180.000000
  0
LINE
  8
1
 62
7
  6
CONTINUOUS
 10
22.852281
 20
159.810606
 11
22.852281
 21
81.810606
  0
ARC
  8
1
 62
7
  6
CONTINUOUS
 10
25.852281
 20
81.810606
 40
3.000000
 50
180.000000
 51
-90.000000
  0
CIRCLE
  8
1
 62
7
  6
CONTINUOUS
 10
121.852281
 20
95.810606
 40
2.000000
  0
CIRCLE
  8
1
 62
7
  6
CONTINUOUS
 10
121.852281
 20
120.810606
 40
2.000000
  0
CIRCLE
  8
1
 62
7
  6
CONTINUOUS
 10
121.852281
 20
145.810606
 40
2.000000
  0
LINE
  8
1
 62
7
  6
CONTINUOUS
 10
116.852281
 20
78.810606
 11
116.852281
 21
162.810606
  0
LINE
  8
1
 62
7
  6
CONTINUOUS
 10
115.852281
 20
79.810606
 11
115.852281
 21
161.810606
  0
LINE
  8
1
 62
7
  6
CONTINUOUS
 10
115.852281
 20
161.810606
 11
33.852281
 21
161.810606
  0
LINE
  8
1
 62
7
  6
CONTINUOUS
 10
33.852281
 20
79.810606
 11
115.852281
 21
79.810606
  0
CIRCLE
  8
1
 62
7
  6
CONTINUOUS
 10
111.695095
 20
158.529054
 40
2.000000
  0
LINE
  8
1
 62
7
  6
CONTINUOUS
 10
111.403126
 20
159.495370
 11
111.403126
 21
158.821023
  0
ARC
  8
1
 62
7
  6
CONTINUOUS
 10
111.603126
 20
159.495370
 40
0.200000
 50
90.000000
 51
180.000000
  0
LINE
  8
1
 62
7
  6
CONTINUOUS
 10
111.827659
 20
159.695370
 11
111.603126
 21
159.695370
  0
LINE
  8
1
 62
7
  6
CONTINUOUS
 10
112.027659
 20
158.821023
 11
112.027659
 21
159.495370
  0
ARC
  8
1
 62
7
  6
CONTINUOUS
 10
111.827659
 20
159.495370
 40
0.200000
 50
0.000000
 51
90.000000
  0
LINE
  8
1
 62
7
  6
CONTINUOUS
 10
112.027659
 20
157.522144
 11
112.027659
 21
158.246453
  0
ARC
  8
1
 62
7
  6
CONTINUOUS
 10
111.827659
 20
157.522144
 40
0.200000
 50
-90.000000
 51
0.000000
  0
LINE
  8
1
 62
7
  6
CONTINUOUS
 10
111.603126
 20
157.322144
 11
111.827659
 21
157.322144
  0
LINE
  8
1
 62
7
  6
CONTINUOUS
 10
111.403126
 20
158.246453
 11
111.403126
 21
157.522144
  0
ARC
  8
1
 62
7
  6
CONTINUOUS
 10
111.603126
 20
157.522144
 40
0.200000
 50
180.000000
 51
-90.000000
  0
LINE
  8
1
 62
7
  6
CONTINUOUS
 10
112.702005
 20
158.821023
 11
112.027659
 21
158.821023
  0
ARC
  8
1
 62
7
  6
CONTINUOUS
 10
112.702005
 20
158.621023
 40
0.200000
 50
0.000000
 51
90.000000
  0
LINE
  8
1
 62
7
  6
CONTINUOUS
 10
112.902005
 20
158.446453
 11
112.902005
 21
158.621023
  0
LINE
  8
1
 62
7
  6
CONTINUOUS
 10
112.027659
 20
158.246453
 11
112.702005
 21
158.246453
  0
ARC
  8
1
 62
7
  6
CONTINUOUS
 10
112.702005
 20
158.446453
 40
0.200000
 50
-90.000000
 51
0.000000
  0
LINE
  8
1
 62
7
  6
CONTINUOUS
 10
110.603873
 20
158.246453
 11
111.403126
 21
158.246453
  0
ARC
  8
1
 62
7
  6
CONTINUOUS
 10
110.603873
 20
158.446453
 40
0.200000
 50
-180.000000
 51
-90.000000
  0
LINE
  8
1
 62
7
  6
CONTINUOUS
 10
110.403873
 20
158.621023
 11
110.403873
 21
158.446453
  0
LINE
  8
1
 62
7
  6
CONTINUOUS
 10
111.403126
 20
158.821023
 11
110.603873
 21
158.821023
  0
ARC
  8
1
 62
7
  6
CONTINUOUS
 10
110.603873
 20
158.621023
 40
0.200000
 50
90.000000
 51
-180.000000
  0
CIRCLE
  8
1
 62
7
  6
CONTINUOUS
 10
111.442159
 20
83.407103
 40
2.000000
  0
LINE
  8
1
 62
7
  6
CONTINUOUS
 10
111.150190
 20
84.373418
 11
111.150190
 21
83.699072
  0
ARC
  8
1
 62
7
  6
CONTINUOUS
 10
111.350190
 20
84.373418
 40
0.200000
 50
90.000000
 51
180.000000
  0
LINE
  8
1
 62
7
  6
CONTINUOUS
 10
111.574723
 20
84.573418
 11
111.350190
 21
84.573418
  0
LINE
  8
1
 62
7
  6
CONTINUOUS
 10
111.774723
 20
83.699072
 11
111.774723
 21
84.373418
  0
ARC
  8
1
 62
7
  6
CONTINUOUS
 10
111.574723
 20
84.373418
 40
0.200000
 50
0.000000
 51
90.000000
  0
LINE
  8
1
 62
7
  6
CONTINUOUS
 10
111.774723
 20
82.400193
 11
111.774723
 21
83.124502
  0
ARC
  8
1
 62
7
  6
CONTINUOUS
 10
111.574723
 20
82.400193
 40
0.200000
 50
-90.000000
 51
0.000000
  0
LINE
  8
1
 62
7
  6
CONTINUOUS
 10
111.350190
 20
82.200193
 11
111.574723
 21
82.200193
  0
LINE
  8
1
 62
7
  6
CONTINUOUS
 10
111.150190
 20
83.124502
 11
111.150190
 21
82.400193
  0
ARC
  8
1
 62
7
  6
CONTINUOUS
 10
111.350190
 20
82.400193
 40
0.200000
 50
180.000000
 51
-90.000000
  0
LINE
  8
1
 62
7
  6
CONTINUOUS
 10
112.449069
 20
83.699072
 11
111.774723
 21
83.699072
  0
ARC
  8
1
 62
7
  6
CONTINUOUS
 10
112.449069
 20
83.499072
 40
0.200000
 50
0.000000
 51
90.000000
  0
LINE
  8
1
 62
7
  6
CONTINUOUS
 10
112.649069
 20
83.324502
 11
112.649069
 21
83.499072
  0
LINE
  8
1
 62
7
  6
CONTINUOUS
 10
111.774723
 20
83.124502
 11
112.449069
 21
83.124502
  0
ARC
  8
1
 62
7
  6
CONTINUOUS
 10
112.449069
 20
83.324502
 40
0.200000
 50
-90.000000
 51
0.000000
  0
LINE
  8
1
 62
7
  6
CONTINUOUS
 10
110.350937
 20
83.124502
 11
111.150190
 21
83.124502
  0
ARC
  8
1
 62
7
  6
CONTINUOUS
 10
110.350937
 20
83.324502
 40
0.200000
 50
-180.000000
 51
-90.000000
  0
LINE
  8
1
 62
7
  6
CONTINUOUS
 10
110.150937
 20
83.499072
 11
110.150937
 21
83.324502
  0
LINE
  8
1
 62
7
  6
CONTINUOUS
 10
111.150190
 20
83.699072
 11
110.350937
 21
83.699072
  0
ARC
  8
1
 62
7
  6
CONTINUOUS
 10
110.350937
 20
83.499072
 40
0.200000
 50
90.000000
 51
-180.000000
  0
LINE
  8
1
 62
7
  6
CONTINUOUS
 10
123.852281
 20
162.810606
 11
25.852281
 21
162.810606
  0
ARC
  8
1
 62
7
  6
CONTINUOUS
 10
123.852281
 20
159.810606
 40
3.000000
 50
0.000000
 51
90.000000
  0
LINE
  8
1
 62
7
  6
CONTINUOUS
 10
126.852281
 20
159.810606
 11
126.852281
 21
81.810606
  0
ARC
  8
1
 62
7
  6
CONTINUOUS
 10
123.852281
 20
81.810606
 40
3.000000
 50
-90.000000
 51
0.000000
  0
LINE
  8
1
 62
7
  6
CONTINUOUS
 10
25.852281
 20
78.810606
 11
123.852281
 21
78.810606
  0
LINE
  8
1
 62
7
  6
CONTINUOUS
 10
105.905044
 20
155.589195
 11
105.311414
 21
155.589195
  0
LINE
  8
1
 62
7
  6
CONTINUOUS
 10
77.873002
 20
155.589195
 11
78.379978
 21
155.589195
  0
LINE
  8
1
 62
7
  6
CONTINUOUS
 10
44.699761
 20
158.719276
 11
44.699761
 21
157.581065
  0
LINE
  8
1
 62
7
  6
CONTINUOUS
 10
44.699761
 20
157.581065
 11
45.837972
 21
157.581065
  0
LINE
  8
1
 62
7
  6
CONTINUOUS
 10
45.837972
 20
157.581065
 11
45.837972
 21
158.719276
  0
LINE
  8
1
 62
7
  6
CONTINUOUS
 10
45.837972
 20
158.719276
 11
44.699761
 21
158.719276
  0
LINE
  8
1
 62
7
  6
CONTINUOUS
 10
47.239761
 20
158.719276
 11
47.239761
 21
157.581065
  0
LINE
  8
1
 62
7
  6
CONTINUOUS
 10
47.239761
 20
157.581065
 11
48.377972
 21
157.581065
  0
LINE
  8
1
 62
7
  6
CONTINUOUS
 10
48.377972
 20
157.581065
 11
48.377972
 21
158.719276
  0
LINE
  8
1
 62
7
  6
CONTINUOUS
 10
48.377972
 20
158.719276
 11
47.239761
 21
158.719276
  0
LINE
  8
1
 62
7
  6
CONTINUOUS
 10
49.779761
 20
158.719276
 11
49.779761
 21
157.581065
  0
LINE
  8
1
 62
7
  6
CONTINUOUS
 10
49.779761
 20
157.581065
 11
50.917972
 21
157.581065
  0
LINE
  8
1
 62
7
  6
CONTINUOUS
 10
50.917972
 20
157.581065
 11
50.917972
 21
158.719276
  0
LINE
  8
1
 62
7
  6
CONTINUOUS
 10
50.917972
 20
158.719276
 11
49.779761
 21
158.719276
  0
LINE
  8
1
 62
7
  6
CONTINUOUS
 10
52.319761
 20
158.719276
 11
52.319761
 21
157.581065
  0
LINE
  8
1
 62
7
  6
CONTINUOUS
 10
52.319761
 20
157.581065
 11
53.457972
 21
157.581065
  0
LINE
  8
1
 62
7
  6
CONTINUOUS
 10
53.457972
 20
157.581065
 11
53.457972
 21
158.719276
  0
LINE
  8
1
 62
7
  6
CONTINUOUS
 10
53.457972
 20
158.719276
 11
52.319761
 21
158.719276
  0
LINE
  8
1
 62
7
  6
CONTINUOUS
 10
54.859761
 20
158.719276
 11
54.859761
 21
157.581065
  0
LINE
  8
1
 62
7
  6
CONTINUOUS
 10
54.859761
 20
157.581065
 11
55.997972
 21
157.581065
  0
LINE
  8
1
 62
7
  6
CONTINUOUS
 10
55.997972
 20
157.581065
 11
55.997972
 21
158.719276
  0
LINE
  8
1
 62
7
  6
CONTINUOUS
 10
55.997972
 20
158.719276
 11
54.859761
 21
158.719276
  0
LINE
  8
1
 62
7
  6
CONTINUOUS
 10
57.399761
 20
158.719276
 11
57.399761
 21
157.581065
  0
LINE
  8
1
 62
7
  6
CONTINUOUS
 10
57.399761
 20
157.581065
 11
58.537972
 21
157.581065
  0
LINE
  8
1
 62
7
  6
CONTINUOUS
 10
58.537972
 20
157.581065
 11
58.537972
 21
158.719276
  0
LINE
  8
1
 62
7
  6
CONTINUOUS
 10
58.537972
 20
158.719276
 11
57.399761
 21
158.719276
  0
LINE
  8
1
 62
7
  6
CONTINUOUS
 10
59.939761
 20
158.719276
 11
59.939761
 21
157.581065
  0
LINE
  8
1
 62
7
  6
CONTINUOUS
 10
59.939761
 20
157.581065
 11
61.077972
 21
157.581065
  0
LINE
  8
1
 62
7
  6
CONTINUOUS
 10
61.077972
 20
157.581065
 11
61.077972
 21
158.719276
  0
LINE
  8
1
 62
7
  6
CONTINUOUS
 10
61.077972
 20
158.719276
 11
59.939761
 21
158.719276
  0
LINE
  8
1
 62
7
  6
CONTINUOUS
 10
62.479761
 20
158.719276
 11
62.479761
 21
157.581065
  0
LINE
  8
1
 62
7
  6
CONTINUOUS
 10
62.479761
 20
157.581065
 11
63.617972
 21
157.581065
  0
LINE
  8
1
 62
7
  6
CONTINUOUS
 10
63.617972
 20
157.581065
 11
63.617972
 21
158.719276
  0
LINE
  8
1
 62
7
  6
CONTINUOUS
 10
63.617972
 20
158.719276
 11
62.479761
 21
158.719276
  0
LINE
  8
1
 62
7
  6
CONTINUOUS
 10
65.019761
 20
158.719276
 11
65.019761
 21
157.581065
  0
LINE
  8
1
 62
7
  6
CONTINUOUS
 10
65.019761
 20
157.581065
 11
66.157972
 21
157.581065
  0
LINE
  8
1
 62
7
  6
CONTINUOUS
 10
66.157972
 20
157.581065
 11
66.157972
 21
158.719276
  0
LINE
  8
1
 62
7
  6
CONTINUOUS
 10
66.157972
 20
158.719276
 11
65.019761
 21
158.719276
  0
LINE
  8
1
 62
7
  6
CONTINUOUS
 10
67.559761
 20
158.719276
 11
67.559761
 21
157.581065
  0
LINE
  8
1
 62
7
  6
CONTINUOUS
 10
67.559761
 20
157.581065
 11
68.697972
 21
157.581065
  0
LINE
  8
1
 62
7
  6
CONTINUOUS
 10
68.697972
 20
157.581065
 11
68.697972
 21
158.719276
  0
LINE
  8
1
 62
7
  6
CONTINUOUS
 10
68.697972
 20
158.719276
 11
67.559761
 21
158.719276
  0
LINE
  8
1
 62
7
  6
CONTINUOUS
 10
70.905044
 20
156.635809
 11
70.905044
 21
155.589195
  0
LINE
  8
1
 62
7
  6
CONTINUOUS
 10
70.905044
 20
155.589195
 11
70.311414
 21
155.589195
  0
LINE
  8
1
 62
7
  6
CONTINUOUS
 10
70.311414
 20
156.635809
 11
70.905044
 21
156.635809
  0
LINE
  8
1
 62
7
  6
CONTINUOUS
 10
70.311414
 20
156.635809
 11
70.311414
 21
160.521444
  0
LINE
  8
1
 62
7
  6
CONTINUOUS
 10
70.305492
 20
160.870143
 11
70.305492
 21
159.783456
  0
LINE
  8
1
 62
7
  6
CONTINUOUS
 10
70.305492
 20
159.783456
 11
72.328979
 21
159.783456
  0
LINE
  8
1
 62
7
  6
CONTINUOUS
 10
72.328979
 20
159.783456
 11
72.328979
 21
160.870143
  0
LINE
  8
1
 62
7
  6
CONTINUOUS
 10
72.328979
 20
160.870143
 11
70.305492
 21
160.870143
  0
LINE
  8
1
 62
7
  6
CONTINUOUS
 10
41.467803
 20
160.804567
 11
41.467803
 21
159.792824
  0
LINE
  8
1
 62
7
  6
CONTINUOUS
 10
41.467803
 20
159.792824
 11
43.379978
 21
159.792824
  0
LINE
  8
1
 62
7
  6
CONTINUOUS
 10
43.379978
 20
159.792824
 11
43.379978
 21
160.804567
  0
LINE
  8
1
 62
7
  6
CONTINUOUS
 10
43.379978
 20
160.804567
 11
41.467803
 21
160.804567
  0
LINE
  8
1
 62
7
  6
CONTINUOUS
 10
42.873002
 20
156.635809
 11
42.873002
 21
155.589195
  0
LINE
  8
1
 62
7
  6
CONTINUOUS
 10
42.873002
 20
155.589195
 11
43.379978
 21
155.589195
  0
LINE
  8
1
 62
7
  6
CONTINUOUS
 10
43.379978
 20
156.635809
 11
42.873002
 21
156.635809
  0
LINE
  8
1
 62
7
  6
CONTINUOUS
 10
43.379978
 20
155.589195
 11
70.311414
 21
155.589195
  0
LINE
  8
1
 62
7
  6
CONTINUOUS
 10
70.311414
 20
160.521444
 11
43.379978
 21
160.521444
  0
LINE
  8
1
 62
7
  6
CONTINUOUS
 10
43.379978
 20
160.521444
 11
43.379978
 21
156.673281
  0
LINE
  8
1
 62
7
  6
CONTINUOUS
 10
79.699761
 20
158.719276
 11
79.699761
 21
157.581065
  0
LINE
  8
1
 62
7
  6
CONTINUOUS
 10
79.699761
 20
157.581065
 11
80.837972
 21
157.581065
  0
LINE
  8
1
 62
7
  6
CONTINUOUS
 10
80.837972
 20
157.581065
 11
80.837972
 21
158.719276
  0
LINE
  8
1
 62
7
  6
CONTINUOUS
 10
80.837972
 20
158.719276
 11
79.699761
 21
158.719276
  0
LINE
  8
1
 62
7
  6
CONTINUOUS
 10
82.239761
 20
158.719276
 11
82.239761
 21
157.581065
  0
LINE
  8
1
 62
7
  6
CONTINUOUS
 10
82.239761
 20
157.581065
 11
83.377972
 21
157.581065
  0
LINE
  8
1
 62
7
  6
CONTINUOUS
 10
83.377972
 20
157.581065
 11
83.377972
 21
158.719276
  0
LINE
  8
1
 62
7
  6
CONTINUOUS
 10
83.377972
 20
158.719276
 11
82.239761
 21
158.719276
  0
LINE
  8
1
 62
7
  6
CONTINUOUS
 10
84.779761
 20
158.719276
 11
84.779761
 21
157.581065
  0
LINE
  8
1
 62
7
  6
CONTINUOUS
 10
84.779761
 20
157.581065
 11
85.917972
 21
157.581065
  0
LINE
  8
1
 62
7
  6
CONTINUOUS
 10
85.917972
 20
157.581065
 11
85.917972
 21
158.719276
  0
LINE
  8
1
 62
7
  6
CONTINUOUS
 10
85.917972
 20
158.719276
 11
84.779761
 21
158.719276
  0
LINE
  8
1
 62
7
  6
CONTINUOUS
 10
87.319761
 20
158.719276
 11
87.319761
 21
157.581065
  0
LINE
  8
1
 62
7
  6
CONTINUOUS
 10
87.319761
 20
157.581065
 11
88.457972
 21
157.581065
  0
LINE
  8
1
 62
7
  6
CONTINUOUS
 10
88.457972
 20
157.581065
 11
88.457972
 21
158.719276
  0
LINE
  8
1
 62
7
  6
CONTINUOUS
 10
88.457972
 20
158.719276
 11
87.319761
 21
158.719276
  0
LINE
  8
1
 62
7
  6
CONTINUOUS
 10
89.859761
 20
158.719276
 11
89.859761
 21
157.581065
  0
LINE
  8
1
 62
7
  6
CONTINUOUS
 10
89.859761
 20
157.581065
 11
90.997972
 21
157.581065
  0
LINE
  8
1
 62
7
  6
CONTINUOUS
 10
90.997972
 20
157.581065
 11
90.997972
 21
158.719276
  0
LINE
  8
1
 62
7
  6
CONTINUOUS
 10
90.997972
 20
158.719276
 11
89.859761
 21
158.719276
  0
LINE
  8
1
 62
7
  6
CONTINUOUS
 10
92.399761
 20
158.719276
 11
92.399761
 21
157.581065
  0
LINE
  8
1
 62
7
  6
CONTINUOUS
 10
92.399761
 20
157.581065
 11
93.537972
 21
157.581065
  0
LINE
  8
1
 62
7
  6
CONTINUOUS
 10
93.537972
 20
157.581065
 11
93.537972
 21
158.719276
  0
LINE
  8
1
 62
7
  6
CONTINUOUS
 10
93.537972
 20
158.719276
 11
92.399761
 21
158.719276
  0
LINE
  8
1
 62
7
  6
CONTINUOUS
 10
94.939761
 20
158.719276
 11
94.939761
 21
157.581065
  0
LINE
  8
1
 62
7
  6
CONTINUOUS
 10
94.939761
 20
157.581065
 11
96.077972
 21
157.581065
  0
LINE
  8
1
 62
7
  6
CONTINUOUS
 10
96.077972
 20
157.581065
 11
96.077972
 21
158.719276
  0
LINE
  8
1
 62
7
  6
CONTINUOUS
 10
96.077972
 20
158.719276
 11
94.939761
 21
158.719276
  0
LINE
  8
1
 62
7
  6
CONTINUOUS
 10
97.479761
 20
158.719276
 11
97.479761
 21
157.581065
  0
LINE
  8
1
 62
7
  6
CONTINUOUS
 10
97.479761
 20
157.581065
 11
98.617972
 21
157.581065
  0
LINE
  8
1
 62
7
  6
CONTINUOUS
 10
98.617972
 20
157.581065
 11
98.617972
 21
158.719276
  0
LINE
  8
1
 62
7
  6
CONTINUOUS
 10
98.617972
 20
158.719276
 11
97.479761
 21
158.719276
  0
LINE
  8
1
 62
7
  6
CONTINUOUS
 10
100.019761
 20
158.719276
 11
100.019761
 21
157.581065
  0
LINE
  8
1
 62
7
  6
CONTINUOUS
 10
100.019761
 20
157.581065
 11
101.157972
 21
157.581065
  0
LINE
  8
1
 62
7
  6
CONTINUOUS
 10
101.157972
 20
157.581065
 11
101.157972
 21
158.719276
  0
LINE
  8
1
 62
7
  6
CONTINUOUS
 10
101.157972
 20
158.719276
 11
100.019761
 21
158.719276
  0
LINE
  8
1
 62
7
  6
CONTINUOUS
 10
102.559761
 20
158.719276
 11
102.559761
 21
157.581065
  0
LINE
  8
1
 62
7
  6
CONTINUOUS
 10
102.559761
 20
157.581065
 11
103.697972
 21
157.581065
  0
LINE
  8
1
 62
7
  6
CONTINUOUS
 10
103.697972
 20
157.581065
 11
103.697972
 21
158.719276
  0
LINE
  8
1
 62
7
  6
CONTINUOUS
 10
103.697972
 20
158.719276
 11
102.559761
 21
158.719276
  0
LINE
  8
1
 62
7
  6
CONTINUOUS
 10
105.905044
 20
156.635809
 11
105.905044
 21
155.589195
  0
LINE
  8
1
 62
7
  6
CONTINUOUS
 10
105.311414
 20
156.635809
 11
105.905044
 21
156.635809
  0
LINE
  8
1
 62
7
  6
CONTINUOUS
 10
105.311414
 20
156.635809
 11
105.311414
 21
160.521444
  0
LINE
  8
1
 62
7
  6
CONTINUOUS
 10
105.305492
 20
160.870143
 11
105.305492
 21
159.783456
  0
LINE
  8
1
 62
7
  6
CONTINUOUS
 10
105.305492
 20
159.783456
 11
107.328979
 21
159.783456
  0
LINE
  8
1
 62
7
  6
CONTINUOUS
 10
107.328979
 20
159.783456
 11
107.328979
 21
160.870143
  0
LINE
  8
1
 62
7
  6
CONTINUOUS
 10
107.328979
 20
160.870143
 11
105.305492
 21
160.870143
  0
LINE
  8
1
 62
7
  6
CONTINUOUS
 10
76.467803
 20
160.804567
 11
76.467803
 21
159.792824
  0
LINE
  8
1
 62
7
  6
CONTINUOUS
 10
76.467803
 20
159.792824
 11
78.379978
 21
159.792824
  0
LINE
  8
1
 62
7
  6
CONTINUOUS
 10
78.379978
 20
159.792824
 11
78.379978
 21
160.804567
  0
LINE
  8
1
 62
7
  6
CONTINUOUS
 10
78.379978
 20
160.804567
 11
76.467803
 21
160.804567
  0
LINE
  8
1
 62
7
  6
CONTINUOUS
 10
77.873002
 20
156.635809
 11
77.873002
 21
155.589195
  0
LINE
  8
1
 62
7
  6
CONTINUOUS
 10
78.379978
 20
156.635809
 11
77.873002
 21
156.635809
  0
LINE
  8
1
 62
7
  6
CONTINUOUS
 10
78.379978
 20
155.589195
 11
105.311414
 21
155.589195
  0
LINE
  8
1
 62
7
  6
CONTINUOUS
 10
105.311414
 20
160.521444
 11
78.379978
 21
160.521444
  0
LINE
  8
1
 62
7
  6
CONTINUOUS
 10
78.379978
 20
160.521444
 11
78.379978
 21
156.673281
  0
TEXT
  8
1
 62
7
  6
CONTINUOUS
 10
68.338380
 20
152.681344
 40
2.000000
 41
0.500000
  1
1
  7
KANJI
 50
0.000000
 51
0.000000
  0
TEXT
  8
1
 62
7
  6
CONTINUOUS
 10
43.531271
 20
152.691005
 40
2.000000
 41
0.500000
  1
1
  7
KANJI
 50
0.000000
 51
0.000000
  0
TEXT
  8
1
 62
7
  6
CONTINUOUS
 10
43.531271
 20
152.817473
 40
2.000000
 41
0.500000
  1
10
  7
KANJI
 50
0.000000
 51
0.000000
  0
TEXT
  8
1
 62
7
  6
CONTINUOUS
 10
103.338380
 20
152.681344
 40
2.000000
 41
0.500000
  1
1
  7
KANJI
 50
0.000000
 51
0.000000
  0
TEXT
  8
1
 62
7
  6
CONTINUOUS
 10
78.531271
 20
152.691005
 40
2.000000
 41
0.500000
  1
1
  7
KANJI
 50
0.000000
 51
0.000000
  0
TEXT
  8
1
 62
7
  6
CONTINUOUS
 10
78.531271
 20
152.817473
 40
2.000000
 41
0.500000
  1
10
  7
KANJI
 50
0.000000
 51
0.000000
  0
CIRCLE
  8
1
 62
7
  6
CONTINUOUS
 10
74.322015
 20
119.545314
 40
2.000000
  0
LINE
  8
1
 62
7
  6
CONTINUOUS
 10
74.030046
 20
120.511630
 11
74.030046
 21
119.837283
  0
ARC
  8
1
 62
7
  6
CONTINUOUS
 10
74.230046
 20
120.511630
 40
0.200000
 50
90.000000
 51
180.000000
  0
LINE
  8
1
 62
7
  6
CONTINUOUS
 10
74.454579
 20
120.711630
 11
74.230046
 21
120.711630
  0
LINE
  8
1
 62
7
  6
CONTINUOUS
 10
74.654579
 20
119.837283
 11
74.654579
 21
120.511630
  0
ARC
  8
1
 62
7
  6
CONTINUOUS
 10
74.454579
 20
120.511630
 40
0.200000
 50
0.000000
 51
90.000000
  0
LINE
  8
1
 62
7
  6
CONTINUOUS
 10
74.654579
 20
118.538404
 11
74.654579
 21
119.262713
  0
ARC
  8
1
 62
7
  6
CONTINUOUS
 10
74.454579
 20
118.538404
 40
0.200000
 50
-90.000000
 51
0.000000
  0
LINE
  8
1
 62
7
  6
CONTINUOUS
 10
74.230046
 20
118.338404
 11
74.454579
 21
118.338404
  0
LINE
  8
1
 62
7
  6
CONTINUOUS
 10
74.030046
 20
119.262713
 11
74.030046
 21
118.538404
  0
ARC
  8
1
 62
7
  6
CONTINUOUS
 10
74.230046
 20
118.538404
 40
0.200000
 50
180.000000
 51
-90.000000
  0
LINE
  8
1
 62
7
  6
CONTINUOUS
 10
75.328925
 20
119.837283
 11
74.654579
 21
119.837283
  0
ARC
  8
1
 62
7
  6
CONTINUOUS
 10
75.328925
 20
119.637283
 40
0.200000
 50
0.000000
 51
90.000000
  0
LINE
  8
1
 62
7
  6
CONTINUOUS
 10
75.528925
 20
119.462713
 11
75.528925
 21
119.637283
  0
LINE
  8
1
 62
7
  6
CONTINUOUS
 10
74.654579
 20
119.262713
 11
75.328925
 21
119.262713
  0
ARC
  8
1
 62
7
  6
CONTINUOUS
 10
75.328925
 20
119.462713
 40
0.200000
 50
-90.000000
 51
0.000000
  0
LINE
  8
1
 62
7
  6
CONTINUOUS
 10
73.230793
 20
119.262713
 11
74.030046
 21
119.262713
  0
ARC
  8
1
 62
7
  6
CONTINUOUS
 10
73.230793
 20
119.462713
 40
0.200000
 50
180.000000
 51
-90.000000
  0
LINE
  8
1
 62
7
  6
CONTINUOUS
 10
73.030793
 20
119.637283
 11
73.030793
 21
119.462713
  0
LINE
  8
1
 62
7
  6
CONTINUOUS
 10
74.030046
 20
119.837283
 11
73.230793
 21
119.837283
  0
ARC
  8
1
 62
7
  6
CONTINUOUS
 10
73.230793
 20
119.637283
 40
0.200000
 50
90.000000
 51
180.000000
  0
TEXT
  8
1
 62
7
  6
CONTINUOUS
 10
68.765818
 20
70.367049
 40
4.000000
 41
1.000000
  1
裏面図
  7
KANJI
 50
0.000000
 51
0.000000
  0
LINE
  8
1
 62
7
  6
CONTINUOUS
 10
88.163997
 20
80.720180
 11
87.570367
 21
80.720180
  0
LINE
  8
1
 62
7
  6
CONTINUOUS
 10
60.131955
 20
80.720180
 11
60.638931
 21
80.720180
  0
LINE
  8
1
 62
7
  6
CONTINUOUS
 10
61.958714
 20
83.850261
 11
61.958714
 21
82.712050
  0
LINE
  8
1
 62
7
  6
CONTINUOUS
 10
61.958714
 20
82.712050
 11
63.096925
 21
82.712050
  0
LINE
  8
1
 62
7
  6
CONTINUOUS
 10
63.096925
 20
82.712050
 11
63.096925
 21
83.850261
  0
LINE
  8
1
 62
7
  6
CONTINUOUS
 10
63.096925
 20
83.850261
 11
61.958714
 21
83.850261
  0
LINE
  8
1
 62
7
  6
CONTINUOUS
 10
64.498714
 20
83.850261
 11
64.498714
 21
82.712050
  0
LINE
  8
1
 62
7
  6
CONTINUOUS
 10
64.498714
 20
82.712050
 11
65.636925
 21
82.712050
  0
LINE
  8
1
 62
7
  6
CONTINUOUS
 10
65.636925
 20
82.712050
 11
65.636925
 21
83.850261
  0
LINE
  8
1
 62
7
  6
CONTINUOUS
 10
65.636925
 20
83.850261
 11
64.498714
 21
83.850261
  0
LINE
  8
1
 62
7
  6
CONTINUOUS
 10
67.038714
 20
83.850261
 11
67.038714
 21
82.712050
  0
LINE
  8
1
 62
7
  6
CONTINUOUS
 10
67.038714
 20
82.712050
 11
68.176925
 21
82.712050
  0
LINE
  8
1
 62
7
  6
CONTINUOUS
 10
68.176925
 20
82.712050
 11
68.176925
 21
83.850261
  0
LINE
  8
1
 62
7
  6
CONTINUOUS
 10
68.176925
 20
83.850261
 11
67.038714
 21
83.850261
  0
LINE
  8
1
 62
7
  6
CONTINUOUS
 10
69.578714
 20
83.850261
 11
69.578714
 21
82.712050
  0
LINE
  8
1
 62
7
  6
CONTINUOUS
 10
69.578714
 20
82.712050
 11
70.716925
 21
82.712050
  0
LINE
  8
1
 62
7
  6
CONTINUOUS
 10
70.716925
 20
82.712050
 11
70.716925
 21
83.850261
  0
LINE
  8
1
 62
7
  6
CONTINUOUS
 10
70.716925
 20
83.850261
 11
69.578714
 21
83.850261
  0
LINE
  8
1
 62
7
  6
CONTINUOUS
 10
72.118714
 20
83.850261
 11
72.118714
 21
82.712050
  0
LINE
  8
1
 62
7
  6
CONTINUOUS
 10
72.118714
 20
82.712050
 11
73.256925
 21
82.712050
  0
LINE
  8
1
 62
7
  6
CONTINUOUS
 10
73.256925
 20
82.712050
 11
73.256925
 21
83.850261
  0
LINE
  8
1
 62
7
  6
CONTINUOUS
 10
73.256925
 20
83.850261
 11
72.118714
 21
83.850261
  0
LINE
  8
1
 62
7
  6
CONTINUOUS
 10
74.658714
 20
83.850261
 11
74.658714
 21
82.712050
  0
LINE
  8
1
 62
7
  6
CONTINUOUS
 10
74.658714
 20
82.712050
 11
75.796925
 21
82.712050
  0
LINE
  8
1
 62
7
  6
CONTINUOUS
 10
75.796925
 20
82.712050
 11
75.796925
 21
83.850261
  0
LINE
  8
1
 62
7
  6
CONTINUOUS
 10
75.796925
 20
83.850261
 11
74.658714
 21
83.850261
  0
LINE
  8
1
 62
7
  6
CONTINUOUS
 10
77.198714
 20
83.850261
 11
77.198714
 21
82.712050
  0
LINE
  8
1
 62
7
  6
CONTINUOUS
 10
77.198714
 20
82.712050
 11
78.336925
 21
82.712050
  0
LINE
  8
1
 62
7
  6
CONTINUOUS
 10
78.336925
 20
82.712050
 11
78.336925
 21
83.850261
  0
LINE
  8
1
 62
7
  6
CONTINUOUS
 10
78.336925
 20
83.850261
 11
77.198714
 21
83.850261
  0
LINE
  8
1
 62
7
  6
CONTINUOUS
 10
79.738714
 20
83.850261
 11
79.738714
 21
82.712050
  0
LINE
  8
1
 62
7
  6
CONTINUOUS
 10
79.738714
 20
82.712050
 11
80.876925
 21
82.712050
  0
LINE
  8
1
 62
7
  6
CONTINUOUS
 10
80.876925
 20
82.712050
 11
80.876925
 21
83.850261
  0
LINE
  8
1
 62
7
  6
CONTINUOUS
 10
80.876925
 20
83.850261
 11
79.738714
 21
83.850261
  0
LINE
  8
1
 62
7
  6
CONTINUOUS
 10
82.278714
 20
83.850261
 11
82.278714
 21
82.712050
  0
LINE
  8
1
 62
7
  6
CONTINUOUS
 10
82.278714
 20
82.712050
 11
83.416925
 21
82.712050
  0
LINE
  8
1
 62
7
  6
CONTINUOUS
 10
83.416925
 20
82.712050
 11
83.416925
 21
83.850261
  0
LINE
  8
1
 62
7
  6
CONTINUOUS
 10
83.416925
 20
83.850261
 11
82.278714
 21
83.850261
  0
LINE
  8
1
 62
7
  6
CONTINUOUS
 10
84.818714
 20
83.850261
 11
84.818714
 21
82.712050
  0
LINE
  8
1
 62
7
  6
CONTINUOUS
 10
84.818714
 20
82.712050
 11
85.956925
 21
82.712050
  0
LINE
  8
1
 62
7
  6
CONTINUOUS
 10
85.956925
 20
82.712050
 11
85.956925
 21
83.850261
  0
LINE
  8
1
 62
7
  6
CONTINUOUS
 10
85.956925
 20
83.850261
 11
84.818714
 21
83.850261
  0
LINE
  8
1
 62
7
  6
CONTINUOUS
 10
88.163997
 20
81.766794
 11
88.163997
 21
80.720180
  0
LINE
  8
1
 62
7
  6
CONTINUOUS
 10
87.570367
 20
81.766794
 11
88.163997
 21
81.766794
  0
LINE
  8
1
 62
7
  6
CONTINUOUS
 10
87.570367
 20
81.766794
 11
87.570367
 21
85.652429
  0
LINE
  8
1
 62
7
  6
CONTINUOUS
 10
87.564445
 20
86.001128
 11
87.564445
 21
84.914440
  0
LINE
  8
1
 62
7
  6
CONTINUOUS
 10
87.564445
 20
84.914440
 11
89.587932
 21
84.914440
  0
LINE
  8
1
 62
7
  6
CONTINUOUS
 10
89.587932
 20
84.914440
 11
89.587932
 21
86.001128
  0
LINE
  8
1
 62
7
  6
CONTINUOUS
 10
89.587932
 20
86.001128
 11
87.564445
 21
86.001128
  0
LINE
  8
1
 62
7
  6
CONTINUOUS
 10
58.726756
 20
85.935552
 11
58.726756
 21
84.923808
  0
LINE
  8
1
 62
7
  6
CONTINUOUS
 10
58.726756
 20
84.923808
 11
60.638931
 21
84.923808
  0
LINE
  8
1
 62
7
  6
CONTINUOUS
 10
60.638931
 20
84.923808
 11
60.638931
 21
85.935552
  0
LINE
  8
1
 62
7
  6
CONTINUOUS
 10
60.638931
 20
85.935552
 11
58.726756
 21
85.935552
  0
LINE
  8
1
 62
7
  6
CONTINUOUS
 10
60.131955
 20
81.766794
 11
60.131955
 21
80.720180
  0
LINE
  8
1
 62
7
  6
CONTINUOUS
 10
60.638931
 20
81.766794
 11
60.131955
 21
81.766794
  0
LINE
  8
1
 62
7
  6
CONTINUOUS
 10
60.638931
 20
80.720180
 11
87.570367
 21
80.720180
  0
LINE
  8
1
 62
7
  6
CONTINUOUS
 10
87.570367
 20
85.652429
 11
60.638931
 21
85.652429
  0
LINE
  8
1
 62
7
  6
CONTINUOUS
 10
60.638931
 20
85.652429
 11
60.638931
 21
81.804266
  0
TEXT
  8
1
 62
7
  6
CONTINUOUS
 10
85.723801
 20
86.538616
 40
2.000000
 41
0.500000
  1
1
  7
KANJI
 50
0.000000
 51
0.000000
  0
TEXT
  8
1
 62
7
  6
CONTINUOUS
 10
60.916692
 20
86.548277
 40
2.000000
 41
0.500000
  1
1
  7
KANJI
 50
0.000000
 51
0.000000
  0
TEXT
  8
1
 62
7
  6
CONTINUOUS
 10
60.916692
 20
86.674745
 40
2.000000
 41
0.500000
  1
10
  7
KANJI
 50
0.000000
 51
0.000000
  0
TEXT
  8
1
 62
7
  6
CONTINUOUS
 10
88.555001
 20
86.445534
 40
3.000000
 41
0.500000
  1
J1
  7
KANJI
 50
0.000000
 51
0.000000
  0
TEXT
  8
1
 62
7
  6
CONTINUOUS
 10
70.360080
 20
152.214869
 40
3.000000
 41
0.500000
  1
J2
  7
KANJI
 50
0.000000
 51
0.000000
  0
TEXT
  8
1
 62
7
  6
CONTINUOUS
 10
105.313831
 20
152.031438
 40
3.000000
 41
0.500000
  1
J3
  7
KANJI
 50
0.000000
 51
0.000000
  0
LINE
  8
1
 62
7
  6
CONTINUOUS
 10
35.731932
 20
103.369758
 11
35.731932
 21
96.418733
  0
LINE
  8
1
 62
7
  6
CONTINUOUS
 10
35.731932
 20
96.418733
 11
40.038635
 21
96.418733
  0
LINE
  8
1
 62
7
  6
CONTINUOUS
 10
40.038635
 20
96.418733
 11
40.038635
 21
103.369758
  0
LINE
  8
1
 62
7
  6
CONTINUOUS
 10
40.038635
 20
103.369758
 11
35.731932
 21
103.369758
  0
LINE
  8
1
 62
7
  6
CONTINUOUS
 10
39.590657
 20
141.465065
 11
36.825897
 21
141.465065
  0
LINE
  8
1
 62
7
  6
CONTINUOUS
 10
36.825897
 20
141.465065
 11
36.825897
 21
140.609306
  0
LINE
  8
1
 62
7
  6
CONTINUOUS
 10
36.825897
 20
140.609306
 11
39.590657
 21
140.609306
  0
LINE
  8
1
 62
7
  6
CONTINUOUS
 10
39.590657
 20
140.609306
 11
39.590657
 21
141.448608
  0
LINE
  8
1
 62
7
  6
CONTINUOUS
 10
39.623570
 20
139.967487
 11
36.858810
 21
139.967487
  0
LINE
  8
1
 62
7
  6
CONTINUOUS
 10
36.858810
 20
139.967487
 11
36.858810
 21
139.095271
  0
LINE
  8
1
 62
7
  6
CONTINUOUS
 10
36.858810
 20
139.095271
 11
37.615828
 21
139.095271
  0
LINE
  8
1
 62
7
  6
CONTINUOUS
 10
37.615828
 20
139.095271
 11
37.615828
 21
138.140770
  0
LINE
  8
1
 62
7
  6
CONTINUOUS
 10
37.615828
 20
138.124314
 11
36.875267
 21
137.729348
  0
LINE
  8
1
 62
7
  6
CONTINUOUS
 10
36.875267
 20
137.729348
 11
36.875267
 21
136.906503
  0
LINE
  8
1
 62
7
  6
CONTINUOUS
 10
39.623570
 20
136.429252
 11
36.858810
 21
136.429252
  0
LINE
  8
1
 62
7
  6
CONTINUOUS
 10
39.623570
 20
134.826780
 11
39.623570
 21
136.429252
  0
ARC
  8
1
 62
7
  6
CONTINUOUS
 10
38.313170
 20
134.826780
 40
1.310400
 50
-90.000000
 51
0.000000
  0
LINE
  8
1
 62
7
  6
CONTINUOUS
 10
38.169210
 20
133.516380
 11
38.313170
 21
133.516380
  0
LINE
  8
1
 62
7
  6
CONTINUOUS
 10
36.858810
 20
136.429252
 11
36.858810
 21
134.826780
  0
ARC
  8
1
 62
7
  6
CONTINUOUS
 10
38.169210
 20
134.826780
 40
1.310400
 50
180.000000
 51
-90.000000
  0
LINE
  8
1
 62
7
  6
CONTINUOUS
 10
38.948837
 20
135.589950
 11
37.550000
 21
135.589950
  0
LINE
  8
1
 62
7
  6
CONTINUOUS
 10
38.948837
 20
135.063298
 11
38.948837
 21
135.589950
  0
ARC
  8
1
 62
7
  6
CONTINUOUS
 10
38.241221
 20
135.063298
 40
0.707616
 50
-90.000000
 51
0.000000
  0
LINE
  8
1
 62
7
  6
CONTINUOUS
 10
38.257616
 20
134.355682
 11
38.241221
 21
134.355682
  0
LINE
  8
1
 62
7
  6
CONTINUOUS
 10
37.550000
 20
135.589950
 11
37.550000
 21
135.063298
  0
ARC
  8
1
 62
7
  6
CONTINUOUS
 10
38.257616
 20
135.063298
 40
0.707616
 50
180.000000
 51
-90.000000
  0
LINE
  8
1
 62
7
  6
CONTINUOUS
 10
39.623570
 20
139.967487
 11
39.623570
 21
137.824398
  0
ARC
  8
1
 62
7
  6
CONTINUOUS
 10
38.837330
 20
137.824398
 40
0.786240
 50
-90.000000
 51
0.000000
  0
LINE
  8
1
 62
7
  6
CONTINUOUS
 10
38.837330
 20
137.038158
 11
38.434982
 21
137.038158
  0
ARC
  8
1
 62
7
  6
CONTINUOUS
 10
38.935457
 20
142.745627
 40
0.655200
 50
-90.000000
 51
0.000000
  0
LINE
  8
1
 62
7
  6
CONTINUOUS
 10
38.935457
 20
142.090427
 11
38.879934
 21
142.090427
  0
LINE
  8
1
 62
7
  6
CONTINUOUS
 10
37.585990
 20
142.041057
 11
37.514010
 21
142.041057
  0
ARC
  8
1
 62
7
  6
CONTINUOUS
 10
37.514010
 20
142.696257
 40
0.655200
 50
180.000000
 51
-90.000000
  0
LINE
  8
1
 62
7
  6
CONTINUOUS
 10
38.981751
 20
144.081713
 11
38.981751
 21
143.109525
  0
ARC
  8
1
 62
7
  6
CONTINUOUS
 10
38.719671
 20
143.109525
 40
0.262080
 50
-90.000000
 51
0.000000
  0
LINE
  8
1
 62
7
  6
CONTINUOUS
 10
38.719671
 20
142.847445
 11
38.783038
 21
142.847445
  0
LINE
  8
1
 62
7
  6
CONTINUOUS
 10
38.520958
 20
143.109525
 11
38.520958
 21
144.081713
  0
ARC
  8
1
 62
7
  6
CONTINUOUS
 10
38.783038
 20
143.109525
 40
0.262080
 50
180.000000
 51
-90.000000
  0
LINE
  8
1
 62
7
  6
CONTINUOUS
 10
37.928509
 20
144.081713
 11
37.928509
 21
143.125982
  0
ARC
  8
1
 62
7
  6
CONTINUOUS
 10
37.666429
 20
143.125982
 40
0.262080
 50
-90.000000
 51
0.000000
  0
LINE
  8
1
 62
7
  6
CONTINUOUS
 10
37.666429
 20
142.863902
 11
37.729796
 21
142.863902
  0
LINE
  8
1
 62
7
  6
CONTINUOUS
 10
37.467716
 20
143.125982
 11
37.467716
 21
144.098170
  0
ARC
  8
1
 62
7
  6
CONTINUOUS
 10
37.729796
 20
143.125982
 40
0.262080
 50
180.000000
 51
-90.000000
  0
LINE
  8
1
 62
7
  6
CONTINUOUS
 10
36.875267
 20
136.906503
 11
37.787227
 21
137.378767
  0
ARC
  8
1
 62
7
  6
CONTINUOUS
 10
38.434982
 20
137.824398
 40
0.786240
 50
-145.473528
 51
-90.000000
  0
LINE
  8
1
 62
7
  6
CONTINUOUS
 10
38.948837
 20
139.095271
 11
38.307018
 21
139.095271
  0
LINE
  8
1
 62
7
  6
CONTINUOUS
 10
38.948837
 20
138.254123
 11
38.948837
 21
139.095271
  0
LINE
  8
1
 62
7
  6
CONTINUOUS
 10
38.307018
 20
139.095271
 11
38.307018
 21
138.254123
  0
ARC
  8
1
 62
7
  6
CONTINUOUS
 10
38.555717
 20
138.254123
 40
0.393120
 50
-79.415507
 51
0.000000
  0
ARC
  8
1
 62
7
  6
CONTINUOUS
 10
38.700138
 20
138.254123
 40
0.393120
 50
180.000000
 51
-100.584493
  0
ARC
  8
1
 62
7
  6
CONTINUOUS
 10
38.879934
 20
142.745627
 40
0.655200
 50
-168.989285
 51
-90.000000
  0
ARC
  8
1
 62
7
  6
CONTINUOUS
 10
37.585990
 20
142.696257
 40
0.655200
 50
-90.000000
 51
-6.640566
  0
LINE
  8
1
 62
7
  6
CONTINUOUS
 10
39.590657
 20
144.986843
 11
39.590657
 21
142.745627
  0
LINE
  8
1
 62
7
  6
CONTINUOUS
 10
36.858810
 20
142.696257
 11
36.858810
 21
144.986843
  0
LINE
  8
1
 62
7
  6
CONTINUOUS
 10
36.882703
 20
144.986843
 11
36.882703
 21
142.520934
  0
LINE
  8
1
 62
7
  6
CONTINUOUS
 10
36.915436
 20
144.986843
 11
36.915436
 21
142.429808
  0
LINE
  8
1
 62
7
  6
CONTINUOUS
 10
36.948168
 20
144.986843
 11
36.948168
 21
142.365940
  0
LINE
  8
1
 62
7
  6
CONTINUOUS
 10
36.980901
 20
144.986843
 11
36.980901
 21
142.315362
  0
LINE
  8
1
 62
7
  6
CONTINUOUS
 10
37.013633
 20
144.986843
 11
37.013633
 21
142.273280
  0
LINE
  8
1
 62
7
  6
CONTINUOUS
 10
37.046365
 20
144.986843
 11
37.046365
 21
142.237350
  0
LINE
  8
1
 62
7
  6
CONTINUOUS
 10
37.079098
 20
144.986843
 11
37.079098
 21
142.206218
  0
LINE
  8
1
 62
7
  6
CONTINUOUS
 10
37.111830
 20
144.986843
 11
37.111830
 21
142.179016
  0
LINE
  8
1
 62
7
  6
CONTINUOUS
 10
37.144563
 20
144.986843
 11
37.144563
 21
142.155151
  0
LINE
  8
1
 62
7
  6
CONTINUOUS
 10
37.177295
 20
144.986843
 11
37.177295
 21
142.134198
  0
LINE
  8
1
 62
7
  6
CONTINUOUS
 10
37.210028
 20
144.986843
 11
37.210028
 21
142.115842
  0
LINE
  8
1
 62
7
  6
CONTINUOUS
 10
37.242760
 20
144.986843
 11
37.242760
 21
142.099842
  0
LINE
  8
1
 62
7
  6
CONTINUOUS
 10
37.275493
 20
144.986843
 11
37.275493
 21
142.086014
  0
LINE
  8
1
 62
7
  6
CONTINUOUS
 10
37.308225
 20
144.986843
 11
37.308225
 21
142.074212
  0
LINE
  8
1
 62
7
  6
CONTINUOUS
 10
37.340957
 20
144.986843
 11
37.340957
 21
142.064323
  0
LINE
  8
1
 62
7
  6
CONTINUOUS
 10
37.373690
 20
144.986843
 11
37.373690
 21
142.056259
  0
LINE
  8
1
 62
7
  6
CONTINUOUS
 10
37.406422
 20
144.986843
 11
37.406422
 21
142.049950
  0
LINE
  8
1
 62
7
  6
CONTINUOUS
 10
37.439155
 20
144.986843
 11
37.439155
 21
142.045347
  0
LINE
  8
1
 62
7
  6
CONTINUOUS
 10
37.471887
 20
144.986843
 11
37.471887
 21
144.098170
  0
LINE
  8
1
 62
7
  6
CONTINUOUS
 10
37.471887
 20
143.079409
 11
37.471887
 21
142.042412
  0
LINE
  8
1
 62
7
  6
CONTINUOUS
 10
37.504620
 20
144.986843
 11
37.504620
 21
144.098170
  0
LINE
  8
1
 62
7
  6
CONTINUOUS
 10
37.504620
 20
142.991887
 11
37.504620
 21
142.041124
  0
LINE
  8
1
 62
7
  6
CONTINUOUS
 10
37.537352
 20
144.986843
 11
37.537352
 21
144.098170
  0
LINE
  8
1
 62
7
  6
CONTINUOUS
 10
37.537352
 20
142.948074
 11
37.537352
 21
142.041473
  0
LINE
  8
1
 62
7
  6
CONTINUOUS
 10
37.570085
 20
144.986843
 11
37.570085
 21
144.098170
  0
LINE
  8
1
 62
7
  6
CONTINUOUS
 10
37.570085
 20
142.918188
 11
37.570085
 21
142.041250
  0
LINE
  8
1
 62
7
  6
CONTINUOUS
 10
37.602817
 20
144.986843
 11
37.602817
 21
144.098170
  0
LINE
  8
1
 62
7
  6
CONTINUOUS
 10
37.602817
 20
142.896717
 11
37.602817
 21
142.041273
  0
LINE
  8
1
 62
7
  6
CONTINUOUS
 10
37.635549
 20
144.986843
 11
37.635549
 21
144.098170
  0
LINE
  8
1
 62
7
  6
CONTINUOUS
 10
37.635549
 20
142.881434
 11
37.635549
 21
142.042934
  0
LINE
  8
1
 62
7
  6
CONTINUOUS
 10
37.668282
 20
144.986843
 11
37.668282
 21
144.098170
  0
LINE
  8
1
 62
7
  6
CONTINUOUS
 10
37.668282
 20
142.871223
 11
37.668282
 21
142.046245
  0
LINE
  8
1
 62
7
  6
CONTINUOUS
 10
37.701014
 20
144.986843
 11
37.701014
 21
144.098170
  0
LINE
  8
1
 62
7
  6
CONTINUOUS
 10
37.701014
 20
142.866194
 11
37.701014
 21
142.051232
  0
LINE
  8
1
 62
7
  6
CONTINUOUS
 10
37.733747
 20
144.986843
 11
37.733747
 21
144.098170
  0
LINE
  8
1
 62
7
  6
CONTINUOUS
 10
37.733747
 20
142.872695
 11
37.733747
 21
142.057935
  0
LINE
  8
1
 62
7
  6
CONTINUOUS
 10
37.766479
 20
144.986843
 11
37.766479
 21
144.098170
  0
LINE
  8
1
 62
7
  6
CONTINUOUS
 10
37.766479
 20
142.883751
 11
37.766479
 21
142.066407
  0
LINE
  8
1
 62
7
  6
CONTINUOUS
 10
37.799212
 20
144.986843
 11
37.799212
 21
144.098170
  0
LINE
  8
1
 62
7
  6
CONTINUOUS
 10
37.799212
 20
142.900029
 11
37.799212
 21
142.076722
  0
LINE
  8
1
 62
7
  6
CONTINUOUS
 10
37.831944
 20
144.986843
 11
37.831944
 21
144.098170
  0
LINE
  8
1
 62
7
  6
CONTINUOUS
 10
37.831944
 20
142.922781
 11
37.831944
 21
142.088973
  0
LINE
  8
1
 62
7
  6
CONTINUOUS
 10
37.864677
 20
144.986843
 11
37.864677
 21
144.098170
  0
LINE
  8
1
 62
7
  6
CONTINUOUS
 10
37.864677
 20
142.954565
 11
37.864677
 21
142.103280
  0
LINE
  8
1
 62
7
  6
CONTINUOUS
 10
37.897409
 20
144.986843
 11
37.897409
 21
144.098170
  0
LINE
  8
1
 62
7
  6
CONTINUOUS
 10
37.897409
 20
143.002150
 11
37.897409
 21
142.119797
  0
LINE
  8
1
 62
7
  6
CONTINUOUS
 10
37.930141
 20
144.986843
 11
37.930141
 21
142.138720
  0
LINE
  8
1
 62
7
  6
CONTINUOUS
 10
37.962874
 20
144.986843
 11
37.962874
 21
142.160304
  0
LINE
  8
1
 62
7
  6
CONTINUOUS
 10
37.995606
 20
144.986843
 11
37.995606
 21
142.184884
  0
LINE
  8
1
 62
7
  6
CONTINUOUS
 10
38.028339
 20
144.986843
 11
38.028339
 21
142.212919
  0
LINE
  8
1
 62
7
  6
CONTINUOUS
 10
38.061071
 20
144.986843
 11
38.061071
 21
142.245053
  0
LINE
  8
1
 62
7
  6
CONTINUOUS
 10
38.093804
 20
144.986843
 11
38.093804
 21
142.282237
  0
LINE
  8
1
 62
7
  6
CONTINUOUS
 10
38.126536
 20
144.986843
 11
38.126536
 21
142.325990
  0
LINE
  8
1
 62
7
  6
CONTINUOUS
 10
38.159269
 20
144.986843
 11
38.159269
 21
142.379020
  0
LINE
  8
1
 62
7
  6
CONTINUOUS
 10
38.192001
 20
144.986843
 11
38.192001
 21
142.447182
  0
LINE
  8
1
 62
7
  6
CONTINUOUS
 10
38.224734
 20
144.986843
 11
38.224734
 21
142.550331
  0
LINE
  8
1
 62
7
  6
CONTINUOUS
 10
38.257466
 20
144.986843
 11
38.257466
 21
142.541125
  0
LINE
  8
1
 62
7
  6
CONTINUOUS
 10
38.290198
 20
144.986843
 11
38.290198
 21
142.460146
  0
LINE
  8
1
 62
7
  6
CONTINUOUS
 10
38.322931
 20
144.986843
 11
38.322931
 21
142.400613
  0
LINE
  8
1
 62
7
  6
CONTINUOUS
 10
38.355663
 20
144.986843
 11
38.355663
 21
142.352654
  0
LINE
  8
1
 62
7
  6
CONTINUOUS
 10
38.388396
 20
144.986843
 11
38.388396
 21
142.312410
  0
LINE
  8
1
 62
7
  6
CONTINUOUS
 10
38.421128
 20
144.986843
 11
38.421128
 21
142.277883
  0
LINE
  8
1
 62
7
  6
CONTINUOUS
 10
38.453861
 20
144.986843
 11
38.453861
 21
142.247884
  0
LINE
  8
1
 62
7
  6
CONTINUOUS
 10
38.486593
 20
144.986843
 11
38.486593
 21
142.221633
  0
LINE
  8
1
 62
7
  6
CONTINUOUS
 10
38.519326
 20
144.986843
 11
38.519326
 21
142.198591
  0
LINE
  8
1
 62
7
  6
CONTINUOUS
 10
38.552058
 20
144.986843
 11
38.552058
 21
144.081713
  0
LINE
  8
1
 62
7
  6
CONTINUOUS
 10
38.552058
 20
142.985693
 11
38.552058
 21
142.178367
  0
LINE
  8
1
 62
7
  6
CONTINUOUS
 10
38.584790
 20
144.986843
 11
38.584790
 21
144.081713
  0
LINE
  8
1
 62
7
  6
CONTINUOUS
 10
38.584790
 20
142.938108
 11
38.584790
 21
142.160668
  0
LINE
  8
1
 62
7
  6
CONTINUOUS
 10
38.617523
 20
144.986843
 11
38.617523
 21
144.081713
  0
LINE
  8
1
 62
7
  6
CONTINUOUS
 10
38.617523
 20
142.906324
 11
38.617523
 21
142.145271
  0
LINE
  8
1
 62
7
  6
CONTINUOUS
 10
38.650255
 20
144.986843
 11
38.650255
 21
144.081713
  0
LINE
  8
1
 62
7
  6
CONTINUOUS
 10
38.650255
 20
142.883572
 11
38.650255
 21
142.132003
  0
LINE
  8
1
 62
7
  6
CONTINUOUS
 10
38.682988
 20
144.986843
 11
38.682988
 21
144.081713
  0
LINE
  8
1
 62
7
  6
CONTINUOUS
 10
38.682988
 20
142.867294
 11
38.682988
 21
142.120728
  0
LINE
  8
1
 62
7
  6
CONTINUOUS
 10
38.715720
 20
144.986843
 11
38.715720
 21
144.081713
  0
LINE
  8
1
 62
7
  6
CONTINUOUS
 10
38.715720
 20
142.856238
 11
38.715720
 21
142.111340
  0
LINE
  8
1
 62
7
  6
CONTINUOUS
 10
38.748453
 20
144.986843
 11
38.748453
 21
144.081713
  0
LINE
  8
1
 62
7
  6
CONTINUOUS
 10
38.748453
 20
142.849737
 11
38.748453
 21
142.103755
  0
LINE
  8
1
 62
7
  6
CONTINUOUS
 10
38.781185
 20
144.986843
 11
38.781185
 21
144.081713
  0
LINE
  8
1
 62
7
  6
CONTINUOUS
 10
38.781185
 20
142.854766
 11
38.781185
 21
142.097912
  0
LINE
  8
1
 62
7
  6
CONTINUOUS
 10
38.813918
 20
144.986843
 11
38.813918
 21
144.081713
  0
LINE
  8
1
 62
7
  6
CONTINUOUS
 10
38.813918
 20
142.864977
 11
38.813918
 21
142.093762
  0
LINE
  8
1
 62
7
  6
CONTINUOUS
 10
38.846650
 20
144.986843
 11
38.846650
 21
144.081713
  0
LINE
  8
1
 62
7
  6
CONTINUOUS
 10
38.846650
 20
142.880260
 11
38.846650
 21
142.091273
  0
LINE
  8
1
 62
7
  6
CONTINUOUS
 10
38.879382
 20
144.986843
 11
38.879382
 21
144.081713
  0
LINE
  8
1
 62
7
  6
CONTINUOUS
 10
38.879382
 20
142.901731
 11
38.879382
 21
142.090428
  0
LINE
  8
1
 62
7
  6
CONTINUOUS
 10
38.912115
 20
144.986843
 11
38.912115
 21
144.081713
  0
LINE
  8
1
 62
7
  6
CONTINUOUS
 10
38.912115
 20
142.931617
 11
38.912115
 21
142.090843
  0
LINE
  8
1
 62
7
  6
CONTINUOUS
 10
38.944847
 20
144.986843
 11
38.944847
 21
144.081713
  0
LINE
  8
1
 62
7
  6
CONTINUOUS
 10
38.944847
 20
142.975430
 11
38.944847
 21
142.090495
  0
LINE
  8
1
 62
7
  6
CONTINUOUS
 10
38.977580
 20
144.986843
 11
38.977580
 21
144.081713
  0
LINE
  8
1
 62
7
  6
CONTINUOUS
 10
38.977580
 20
143.062952
 11
38.977580
 21
142.091783
  0
LINE
  8
1
 62
7
  6
CONTINUOUS
 10
39.010312
 20
144.986843
 11
39.010312
 21
142.094718
  0
LINE
  8
1
 62
7
  6
CONTINUOUS
 10
39.043045
 20
144.986843
 11
39.043045
 21
142.099321
  0
LINE
  8
1
 62
7
  6
CONTINUOUS
 10
39.075777
 20
144.986843
 11
39.075777
 21
142.105630
  0
LINE
  8
1
 62
7
  6
CONTINUOUS
 10
39.108510
 20
144.986843
 11
39.108510
 21
142.113694
  0
LINE
  8
1
 62
7
  6
CONTINUOUS
 10
39.141242
 20
144.986843
 11
39.141242
 21
142.123583
  0
LINE
  8
1
 62
7
  6
CONTINUOUS
 10
39.173974
 20
144.986843
 11
39.173974
 21
142.135385
  0
LINE
  8
1
 62
7
  6
CONTINUOUS
 10
39.206707
 20
144.986843
 11
39.206707
 21
142.149213
  0
LINE
  8
1
 62
7
  6
CONTINUOUS
 10
39.239439
 20
144.986843
 11
39.239439
 21
142.165213
  0
LINE
  8
1
 62
7
  6
CONTINUOUS
 10
39.272172
 20
144.986843
 11
39.272172
 21
142.183569
  0
LINE
  8
1
 62
7
  6
CONTINUOUS
 10
39.304904
 20
144.986843
 11
39.304904
 21
142.204522
  0
LINE
  8
1
 62
7
  6
CONTINUOUS
 10
39.337637
 20
144.986843
 11
39.337637
 21
142.228387
  0
LINE
  8
1
 62
7
  6
CONTINUOUS
 10
39.370369
 20
144.986843
 11
39.370369
 21
142.255589
  0
LINE
  8
1
 62
7
  6
CONTINUOUS
 10
39.403102
 20
144.986843
 11
39.403102
 21
142.286721
  0
LINE
  8
1
 62
7
  6
CONTINUOUS
 10
39.435834
 20
144.986843
 11
39.435834
 21
142.322651
  0
LINE
  8
1
 62
7
  6
CONTINUOUS
 10
39.468567
 20
144.986843
 11
39.468567
 21
142.364733
  0
LINE
  8
1
 62
7
  6
CONTINUOUS
 10
39.501299
 20
144.986843
 11
39.501299
 21
142.415310
  0
LINE
  8
1
 62
7
  6
CONTINUOUS
 10
39.534031
 20
144.986843
 11
39.534031
 21
142.479178
  0
LINE
  8
1
 62
7
  6
CONTINUOUS
 10
39.566764
 20
144.986843
 11
39.566764
 21
142.570305
  0
LINE
  8
1
 62
7
  6
CONTINUOUS
 10
36.833514
 20
141.465065
 11
36.833514
 21
140.609306
  0
LINE
  8
1
 62
7
  6
CONTINUOUS
 10
36.866246
 20
141.465065
 11
36.866246
 21
140.609306
  0
LINE
  8
1
 62
7
  6
CONTINUOUS
 10
36.898979
 20
141.465065
 11
36.898979
 21
140.609306
  0
LINE
  8
1
 62
7
  6
CONTINUOUS
 10
36.931711
 20
141.465065
 11
36.931711
 21
140.609306
  0
LINE
  8
1
 62
7
  6
CONTINUOUS
 10
36.964444
 20
141.465065
 11
36.964444
 21
140.609306
  0
LINE
  8
1
 62
7
  6
CONTINUOUS
 10
36.997176
 20
141.465065
 11
36.997176
 21
140.609306
  0
LINE
  8
1
 62
7
  6
CONTINUOUS
 10
37.029909
 20
141.465065
 11
37.029909
 21
140.609306
  0
LINE
  8
1
 62
7
  6
CONTINUOUS
 10
37.062641
 20
141.465065
 11
37.062641
 21
140.609306
  0
LINE
  8
1
 62
7
  6
CONTINUOUS
 10
37.095373
 20
141.465065
 11
37.095373
 21
140.609306
  0
LINE
  8
1
 62
7
  6
CONTINUOUS
 10
37.128106
 20
141.465065
 11
37.128106
 21
140.609306
  0
LINE
  8
1
 62
7
  6
CONTINUOUS
 10
37.160838
 20
141.465065
 11
37.160838
 21
140.609306
  0
LINE
  8
1
 62
7
  6
CONTINUOUS
 10
37.193571
 20
141.465065
 11
37.193571
 21
140.609306
  0
LINE
  8
1
 62
7
  6
CONTINUOUS
 10
37.226303
 20
141.465065
 11
37.226303
 21
140.609306
  0
LINE
  8
1
 62
7
  6
CONTINUOUS
 10
37.259036
 20
141.465065
 11
37.259036
 21
140.609306
  0
LINE
  8
1
 62
7
  6
CONTINUOUS
 10
37.291768
 20
141.465065
 11
37.291768
 21
140.609306
  0
LINE
  8
1
 62
7
  6
CONTINUOUS
 10
37.324501
 20
141.465065
 11
37.324501
 21
140.609306
  0
LINE
  8
1
 62
7
  6
CONTINUOUS
 10
37.357233
 20
141.465065
 11
37.357233
 21
140.609306
  0
LINE
  8
1
 62
7
  6
CONTINUOUS
 10
37.389965
 20
141.465065
 11
37.389965
 21
140.609306
  0
LINE
  8
1
 62
7
  6
CONTINUOUS
 10
37.422698
 20
141.465065
 11
37.422698
 21
140.609306
  0
LINE
  8
1
 62
7
  6
CONTINUOUS
 10
37.455430
 20
141.465065
 11
37.455430
 21
140.609306
  0
LINE
  8
1
 62
7
  6
CONTINUOUS
 10
37.488163
 20
141.465065
 11
37.488163
 21
140.609306
  0
LINE
  8
1
 62
7
  6
CONTINUOUS
 10
37.520895
 20
141.465065
 11
37.520895
 21
140.609306
  0
LINE
  8
1
 62
7
  6
CONTINUOUS
 10
37.553628
 20
141.465065
 11
37.553628
 21
140.609306
  0
LINE
  8
1
 62
7
  6
CONTINUOUS
 10
37.586360
 20
141.465065
 11
37.586360
 21
140.609306
  0
LINE
  8
1
 62
7
  6
CONTINUOUS
 10
37.619093
 20
141.465065
 11
37.619093
 21
140.609306
  0
LINE
  8
1
 62
7
  6
CONTINUOUS
 10
37.651825
 20
141.465065
 11
37.651825
 21
140.609306
  0
LINE
  8
1
 62
7
  6
CONTINUOUS
 10
37.684557
 20
141.465065
 11
37.684557
 21
140.609306
  0
LINE
  8
1
 62
7
  6
CONTINUOUS
 10
37.717290
 20
141.465065
 11
37.717290
 21
140.609306
  0
LINE
  8
1
 62
7
  6
CONTINUOUS
 10
37.750022
 20
141.465065
 11
37.750022
 21
140.609306
  0
LINE
  8
1
 62
7
  6
CONTINUOUS
 10
37.782755
 20
141.465065
 11
37.782755
 21
140.609306
  0
LINE
  8
1
 62
7
  6
CONTINUOUS
 10
37.815487
 20
141.465065
 11
37.815487
 21
140.609306
  0
LINE
  8
1
 62
7
  6
CONTINUOUS
 10
37.848220
 20
141.465065
 11
37.848220
 21
140.609306
  0
LINE
  8
1
 62
7
  6
CONTINUOUS
 10
37.880952
 20
141.465065
 11
37.880952
 21
140.609306
  0
LINE
  8
1
 62
7
  6
CONTINUOUS
 10
37.913685
 20
141.465065
 11
37.913685
 21
140.609306
  0
LINE
  8
1
 62
7
  6
CONTINUOUS
 10
37.946417
 20
141.465065
 11
37.946417
 21
140.609306
  0
LINE
  8
1
 62
7
  6
CONTINUOUS
 10
37.979149
 20
141.465065
 11
37.979149
 21
140.609306
  0
LINE
  8
1
 62
7
  6
CONTINUOUS
 10
38.011882
 20
141.465065
 11
38.011882
 21
140.609306
  0
LINE
  8
1
 62
7
  6
CONTINUOUS
 10
38.044614
 20
141.465065
 11
38.044614
 21
140.609306
  0
LINE
  8
1
 62
7
  6
CONTINUOUS
 10
38.077347
 20
141.465065
 11
38.077347
 21
140.609306
  0
LINE
  8
1
 62
7
  6
CONTINUOUS
 10
38.110079
 20
141.465065
 11
38.110079
 21
140.609306
  0
LINE
  8
1
 62
7
  6
CONTINUOUS
 10
38.142812
 20
141.465065
 11
38.142812
 21
140.609306
  0
LINE
  8
1
 62
7
  6
CONTINUOUS
 10
38.175544
 20
141.465065
 11
38.175544
 21
140.609306
  0
LINE
  8
1
 62
7
  6
CONTINUOUS
 10
38.208277
 20
141.465065
 11
38.208277
 21
140.609306
  0
LINE
  8
1
 62
7
  6
CONTINUOUS
 10
38.241009
 20
141.465065
 11
38.241009
 21
140.609306
  0
LINE
  8
1
 62
7
  6
CONTINUOUS
 10
38.273742
 20
141.465065
 11
38.273742
 21
140.609306
  0
LINE
  8
1
 62
7
  6
CONTINUOUS
 10
38.306474
 20
141.465065
 11
38.306474
 21
140.609306
  0
LINE
  8
1
 62
7
  6
CONTINUOUS
 10
38.339206
 20
141.465065
 11
38.339206
 21
140.609306
  0
LINE
  8
1
 62
7
  6
CONTINUOUS
 10
38.371939
 20
141.465065
 11
38.371939
 21
140.609306
  0
LINE
  8
1
 62
7
  6
CONTINUOUS
 10
38.404671
 20
141.465065
 11
38.404671
 21
140.609306
  0
LINE
  8
1
 62
7
  6
CONTINUOUS
 10
38.437404
 20
141.465065
 11
38.437404
 21
140.609306
  0
LINE
  8
1
 62
7
  6
CONTINUOUS
 10
38.470136
 20
141.465065
 11
38.470136
 21
140.609306
  0
LINE
  8
1
 62
7
  6
CONTINUOUS
 10
38.502869
 20
141.465065
 11
38.502869
 21
140.609306
  0
LINE
  8
1
 62
7
  6
CONTINUOUS
 10
38.535601
 20
141.465065
 11
38.535601
 21
140.609306
  0
LINE
  8
1
 62
7
  6
CONTINUOUS
 10
38.568334
 20
141.465065
 11
38.568334
 21
140.609306
  0
LINE
  8
1
 62
7
  6
CONTINUOUS
 10
38.601066
 20
141.465065
 11
38.601066
 21
140.609306
  0
LINE
  8
1
 62
7
  6
CONTINUOUS
 10
38.633798
 20
141.465065
 11
38.633798
 21
140.609306
  0
LINE
  8
1
 62
7
  6
CONTINUOUS
 10
38.666531
 20
141.465065
 11
38.666531
 21
140.609306
  0
LINE
  8
1
 62
7
  6
CONTINUOUS
 10
38.699263
 20
141.465065
 11
38.699263
 21
140.609306
  0
LINE
  8
1
 62
7
  6
CONTINUOUS
 10
38.731996
 20
141.465065
 11
38.731996
 21
140.609306
  0
LINE
  8
1
 62
7
  6
CONTINUOUS
 10
38.764728
 20
141.465065
 11
38.764728
 21
140.609306
  0
LINE
  8
1
 62
7
  6
CONTINUOUS
 10
38.797461
 20
141.465065
 11
38.797461
 21
140.609306
  0
LINE
  8
1
 62
7
  6
CONTINUOUS
 10
38.830193
 20
141.465065
 11
38.830193
 21
140.609306
  0
LINE
  8
1
 62
7
  6
CONTINUOUS
 10
38.862926
 20
141.465065
 11
38.862926
 21
140.609306
  0
LINE
  8
1
 62
7
  6
CONTINUOUS
 10
38.895658
 20
141.465065
 11
38.895658
 21
140.609306
  0
LINE
  8
1
 62
7
  6
CONTINUOUS
 10
38.928390
 20
141.465065
 11
38.928390
 21
140.609306
  0
LINE
  8
1
 62
7
  6
CONTINUOUS
 10
38.961123
 20
141.465065
 11
38.961123
 21
140.609306
  0
LINE
  8
1
 62
7
  6
CONTINUOUS
 10
38.993855
 20
141.465065
 11
38.993855
 21
140.609306
  0
LINE
  8
1
 62
7
  6
CONTINUOUS
 10
39.026588
 20
141.465065
 11
39.026588
 21
140.609306
  0
LINE
  8
1
 62
7
  6
CONTINUOUS
 10
39.059320
 20
141.465065
 11
39.059320
 21
140.609306
  0
LINE
  8
1
 62
7
  6
CONTINUOUS
 10
39.092053
 20
141.465065
 11
39.092053
 21
140.609306
  0
LINE
  8
1
 62
7
  6
CONTINUOUS
 10
39.124785
 20
141.465065
 11
39.124785
 21
140.609306
  0
LINE
  8
1
 62
7
  6
CONTINUOUS
 10
39.157518
 20
141.465065
 11
39.157518
 21
140.609306
  0
LINE
  8
1
 62
7
  6
CONTINUOUS
 10
39.190250
 20
141.465065
 11
39.190250
 21
140.609306
  0
LINE
  8
1
 62
7
  6
CONTINUOUS
 10
39.222982
 20
141.465065
 11
39.222982
 21
140.609306
  0
LINE
  8
1
 62
7
  6
CONTINUOUS
 10
39.255715
 20
141.465065
 11
39.255715
 21
140.609306
  0
LINE
  8
1
 62
7
  6
CONTINUOUS
 10
39.288447
 20
141.465065
 11
39.288447
 21
140.609306
  0
LINE
  8
1
 62
7
  6
CONTINUOUS
 10
39.321180
 20
141.465065
 11
39.321180
 21
140.609306
  0
LINE
  8
1
 62
7
  6
CONTINUOUS
 10
39.353912
 20
141.465065
 11
39.353912
 21
140.609306
  0
LINE
  8
1
 62
7
  6
CONTINUOUS
 10
39.386645
 20
141.465065
 11
39.386645
 21
140.609306
  0
LINE
  8
1
 62
7
  6
CONTINUOUS
 10
39.419377
 20
141.465065
 11
39.419377
 21
140.609306
  0
LINE
  8
1
 62
7
  6
CONTINUOUS
 10
39.452110
 20
141.465065
 11
39.452110
 21
140.609306
  0
LINE
  8
1
 62
7
  6
CONTINUOUS
 10
39.484842
 20
141.465065
 11
39.484842
 21
140.609306
  0
LINE
  8
1
 62
7
  6
CONTINUOUS
 10
39.517575
 20
141.465065
 11
39.517575
 21
140.609306
  0
LINE
  8
1
 62
7
  6
CONTINUOUS
 10
39.550307
 20
141.465065
 11
39.550307
 21
140.609306
  0
LINE
  8
1
 62
7
  6
CONTINUOUS
 10
39.583039
 20
141.465065
 11
39.583039
 21
140.609306
  0
LINE
  8
1
 62
7
  6
CONTINUOUS
 10
36.866428
 20
139.967487
 11
36.866428
 21
139.095271
  0
LINE
  8
1
 62
7
  6
CONTINUOUS
 10
36.899160
 20
139.967487
 11
36.899160
 21
139.095271
  0
LINE
  8
1
 62
7
  6
CONTINUOUS
 10
36.899160
 20
137.742091
 11
36.899160
 21
136.918876
  0
LINE
  8
1
 62
7
  6
CONTINUOUS
 10
36.931893
 20
139.967487
 11
36.931893
 21
139.095271
  0
LINE
  8
1
 62
7
  6
CONTINUOUS
 10
36.931893
 20
137.759548
 11
36.931893
 21
136.935826
  0
LINE
  8
1
 62
7
  6
CONTINUOUS
 10
36.964625
 20
139.967487
 11
36.964625
 21
139.095271
  0
LINE
  8
1
 62
7
  6
CONTINUOUS
 10
36.964625
 20
137.777005
 11
36.964625
 21
136.952777
  0
LINE
  8
1
 62
7
  6
CONTINUOUS
 10
36.997357
 20
139.967487
 11
36.997357
 21
139.095271
  0
LINE
  8
1
 62
7
  6
CONTINUOUS
 10
36.997357
 20
137.794463
 11
36.997357
 21
136.969728
  0
LINE
  8
1
 62
7
  6
CONTINUOUS
 10
37.030090
 20
139.967487
 11
37.030090
 21
139.095271
  0
LINE
  8
1
 62
7
  6
CONTINUOUS
 10
37.030090
 20
137.811920
 11
37.030090
 21
136.986679
  0
LINE
  8
1
 62
7
  6
CONTINUOUS
 10
37.062822
 20
139.967487
 11
37.062822
 21
139.095271
  0
LINE
  8
1
 62
7
  6
CONTINUOUS
 10
37.062822
 20
137.829377
 11
37.062822
 21
137.003629
  0
LINE
  8
1
 62
7
  6
CONTINUOUS
 10
37.095555
 20
139.967487
 11
37.095555
 21
139.095271
  0
LINE
  8
1
 62
7
  6
CONTINUOUS
 10
37.095555
 20
137.846834
 11
37.095555
 21
137.020580
  0
LINE
  8
1
 62
7
  6
CONTINUOUS
 10
37.128287
 20
139.967487
 11
37.128287
 21
139.095271
  0
LINE
  8
1
 62
7
  6
CONTINUOUS
 10
37.128287
 20
137.864292
 11
37.128287
 21
137.037531
  0
LINE
  8
1
 62
7
  6
CONTINUOUS
 10
37.161020
 20
139.967487
 11
37.161020
 21
139.095271
  0
LINE
  8
1
 62
7
  6
CONTINUOUS
 10
37.161020
 20
137.881749
 11
37.161020
 21
137.054481
  0
LINE
  8
1
 62
7
  6
CONTINUOUS
 10
37.193752
 20
139.967487
 11
37.193752
 21
139.095271
  0
LINE
  8
1
 62
7
  6
CONTINUOUS
 10
37.193752
 20
137.899206
 11
37.193752
 21
137.071432
  0
LINE
  8
1
 62
7
  6
CONTINUOUS
 10
37.226485
 20
139.967487
 11
37.226485
 21
139.095271
  0
LINE
  8
1
 62
7
  6
CONTINUOUS
 10
37.226485
 20
137.916664
 11
37.226485
 21
137.088383
  0
LINE
  8
1
 62
7
  6
CONTINUOUS
 10
37.259217
 20
139.967487
 11
37.259217
 21
139.095271
  0
LINE
  8
1
 62
7
  6
CONTINUOUS
 10
37.259217
 20
137.934121
 11
37.259217
 21
137.105334
  0
LINE
  8
1
 62
7
  6
CONTINUOUS
 10
37.291949
 20
139.967487
 11
37.291949
 21
139.095271
  0
LINE
  8
1
 62
7
  6
CONTINUOUS
 10
37.291949
 20
137.951578
 11
37.291949
 21
137.122284
  0
LINE
  8
1
 62
7
  6
CONTINUOUS
 10
37.324682
 20
139.967487
 11
37.324682
 21
139.095271
  0
LINE
  8
1
 62
7
  6
CONTINUOUS
 10
37.324682
 20
137.969036
 11
37.324682
 21
137.139235
  0
LINE
  8
1
 62
7
  6
CONTINUOUS
 10
37.357414
 20
139.967487
 11
37.357414
 21
139.095271
  0
LINE
  8
1
 62
7
  6
CONTINUOUS
 10
37.357414
 20
137.986493
 11
37.357414
 21
137.156186
  0
LINE
  8
1
 62
7
  6
CONTINUOUS
 10
37.390147
 20
139.967487
 11
37.390147
 21
139.095271
  0
LINE
  8
1
 62
7
  6
CONTINUOUS
 10
37.390147
 20
138.003950
 11
37.390147
 21
137.173137
  0
LINE
  8
1
 62
7
  6
CONTINUOUS
 10
37.422879
 20
139.967487
 11
37.422879
 21
139.095271
  0
LINE
  8
1
 62
7
  6
CONTINUOUS
 10
37.422879
 20
138.021408
 11
37.422879
 21
137.190087
  0
LINE
  8
1
 62
7
  6
CONTINUOUS
 10
37.455612
 20
139.967487
 11
37.455612
 21
139.095271
  0
LINE
  8
1
 62
7
  6
CONTINUOUS
 10
37.455612
 20
138.038865
 11
37.455612
 21
137.207038
  0
LINE
  8
1
 62
7
  6
CONTINUOUS
 10
37.488344
 20
139.967487
 11
37.488344
 21
139.095271
  0
LINE
  8
1
 62
7
  6
CONTINUOUS
 10
37.488344
 20
138.056322
 11
37.488344
 21
137.223989
  0
LINE
  8
1
 62
7
  6
CONTINUOUS
 10
37.521077
 20
139.967487
 11
37.521077
 21
139.095271
  0
LINE
  8
1
 62
7
  6
CONTINUOUS
 10
37.521077
 20
138.073779
 11
37.521077
 21
137.240940
  0
LINE
  8
1
 62
7
  6
CONTINUOUS
 10
37.553809
 20
139.967487
 11
37.553809
 21
139.095271
  0
LINE
  8
1
 62
7
  6
CONTINUOUS
 10
37.553809
 20
138.091237
 11
37.553809
 21
137.257890
  0
LINE
  8
1
 62
7
  6
CONTINUOUS
 10
37.586541
 20
139.967487
 11
37.586541
 21
139.095271
  0
LINE
  8
1
 62
7
  6
CONTINUOUS
 10
37.586541
 20
138.108694
 11
37.586541
 21
137.274841
  0
LINE
  8
1
 62
7
  6
CONTINUOUS
 10
37.619274
 20
139.967487
 11
37.619274
 21
137.291792
  0
LINE
  8
1
 62
7
  6
CONTINUOUS
 10
37.652006
 20
139.967487
 11
37.652006
 21
137.308742
  0
LINE
  8
1
 62
7
  6
CONTINUOUS
 10
37.684739
 20
139.967487
 11
37.684739
 21
137.325693
  0
LINE
  8
1
 62
7
  6
CONTINUOUS
 10
37.717471
 20
139.967487
 11
37.717471
 21
137.342644
  0
LINE
  8
1
 62
7
  6
CONTINUOUS
 10
37.750204
 20
139.967487
 11
37.750204
 21
137.359595
  0
LINE
  8
1
 62
7
  6
CONTINUOUS
 10
37.782936
 20
139.967487
 11
37.782936
 21
137.376545
  0
LINE
  8
1
 62
7
  6
CONTINUOUS
 10
37.815669
 20
139.967487
 11
37.815669
 21
137.340017
  0
LINE
  8
1
 62
7
  6
CONTINUOUS
 10
37.848401
 20
139.967487
 11
37.848401
 21
137.300856
  0
LINE
  8
1
 62
7
  6
CONTINUOUS
 10
37.881133
 20
139.967487
 11
37.881133
 21
137.266343
  0
LINE
  8
1
 62
7
  6
CONTINUOUS
 10
37.913866
 20
139.967487
 11
37.913866
 21
137.235661
  0
LINE
  8
1
 62
7
  6
CONTINUOUS
 10
37.946598
 20
139.967487
 11
37.946598
 21
137.208236
  0
LINE
  8
1
 62
7
  6
CONTINUOUS
 10
37.979331
 20
139.967487
 11
37.979331
 21
137.183652
  0
LINE
  8
1
 62
7
  6
CONTINUOUS
 10
38.012063
 20
139.967487
 11
38.012063
 21
137.161591
  0
LINE
  8
1
 62
7
  6
CONTINUOUS
 10
38.044796
 20
139.967487
 11
38.044796
 21
137.141809
  0
LINE
  8
1
 62
7
  6
CONTINUOUS
 10
38.077528
 20
139.967487
 11
38.077528
 21
137.124112
  0
LINE
  8
1
 62
7
  6
CONTINUOUS
 10
38.110261
 20
139.967487
 11
38.110261
 21
137.108347
  0
LINE
  8
1
 62
7
  6
CONTINUOUS
 10
38.142993
 20
139.967487
 11
38.142993
 21
137.094387
  0
LINE
  8
1
 62
7
  6
CONTINUOUS
 10
38.175726
 20
139.967487
 11
38.175726
 21
137.082131
  0
LINE
  8
1
 62
7
  6
CONTINUOUS
 10
38.208458
 20
139.967487
 11
38.208458
 21
137.071497
  0
LINE
  8
1
 62
7
  6
CONTINUOUS
 10
38.241190
 20
139.967487
 11
38.241190
 21
137.062415
  0
LINE
  8
1
 62
7
  6
CONTINUOUS
 10
38.273923
 20
139.967487
 11
38.273923
 21
137.054831
  0
LINE
  8
1
 62
7
  6
CONTINUOUS
 10
38.306655
 20
139.967487
 11
38.306655
 21
137.048701
  0
LINE
  8
1
 62
7
  6
CONTINUOUS
 10
38.339388
 20
139.967487
 11
38.339388
 21
139.095271
  0
LINE
  8
1
 62
7
  6
CONTINUOUS
 10
38.339388
 20
138.097910
 11
38.339388
 21
137.043991
  0
LINE
  8
1
 62
7
  6
CONTINUOUS
 10
38.372120
 20
139.967487
 11
38.372120
 21
139.095271
  0
LINE
  8
1
 62
7
  6
CONTINUOUS
 10
38.372120
 20
138.037449
 11
38.372120
 21
137.040675
  0
LINE
  8
1
 62
7
  6
CONTINUOUS
 10
38.404853
 20
139.967487
 11
38.404853
 21
139.095271
  0
LINE
  8
1
 62
7
  6
CONTINUOUS
 10
38.404853
 20
137.994605
 11
38.404853
 21
137.038735
  0
LINE
  8
1
 62
7
  6
CONTINUOUS
 10
38.437585
 20
139.967487
 11
38.437585
 21
139.095271
  0
LINE
  8
1
 62
7
  6
CONTINUOUS
 10
38.437585
 20
137.961532
 11
38.437585
 21
137.038158
  0
LINE
  8
1
 62
7
  6
CONTINUOUS
 10
38.470318
 20
139.967487
 11
38.470318
 21
139.095271
  0
LINE
  8
1
 62
7
  6
CONTINUOUS
 10
38.470318
 20
137.935178
 11
38.470318
 21
137.038158
  0
LINE
  8
1
 62
7
  6
CONTINUOUS
 10
38.503050
 20
139.967487
 11
38.503050
 21
139.095271
  0
LINE
  8
1
 62
7
  6
CONTINUOUS
 10
38.503050
 20
137.913977
 11
38.503050
 21
137.038158
  0
LINE
  8
1
 62
7
  6
CONTINUOUS
 10
38.535782
 20
139.967487
 11
38.535782
 21
139.095271
  0
LINE
  8
1
 62
7
  6
CONTINUOUS
 10
38.535782
 20
137.897009
 11
38.535782
 21
137.038158
  0
LINE
  8
1
 62
7
  6
CONTINUOUS
 10
38.568515
 20
139.967487
 11
38.568515
 21
139.095271
  0
LINE
  8
1
 62
7
  6
CONTINUOUS
 10
38.568515
 20
137.883693
 11
38.568515
 21
137.038158
  0
LINE
  8
1
 62
7
  6
CONTINUOUS
 10
38.601247
 20
139.967487
 11
38.601247
 21
139.095271
  0
LINE
  8
1
 62
7
  6
CONTINUOUS
 10
38.601247
 20
137.873644
 11
38.601247
 21
137.038158
  0
LINE
  8
1
 62
7
  6
CONTINUOUS
 10
38.633980
 20
139.967487
 11
38.633980
 21
139.095271
  0
LINE
  8
1
 62
7
  6
CONTINUOUS
 10
38.633980
 20
137.868872
 11
38.633980
 21
137.038158
  0
LINE
  8
1
 62
7
  6
CONTINUOUS
 10
38.666712
 20
139.967487
 11
38.666712
 21
139.095271
  0
LINE
  8
1
 62
7
  6
CONTINUOUS
 10
38.666712
 20
137.876998
 11
38.666712
 21
137.038158
  0
LINE
  8
1
 62
7
  6
CONTINUOUS
 10
38.699445
 20
139.967487
 11
38.699445
 21
139.095271
  0
LINE
  8
1
 62
7
  6
CONTINUOUS
 10
38.699445
 20
137.888219
 11
38.699445
 21
137.038158
  0
LINE
  8
1
 62
7
  6
CONTINUOUS
 10
38.732177
 20
139.967487
 11
38.732177
 21
139.095271
  0
LINE
  8
1
 62
7
  6
CONTINUOUS
 10
38.732177
 20
137.902832
 11
38.732177
 21
137.038158
  0
LINE
  8
1
 62
7
  6
CONTINUOUS
 10
38.764910
 20
139.967487
 11
38.764910
 21
139.095271
  0
LINE
  8
1
 62
7
  6
CONTINUOUS
 10
38.764910
 20
137.921284
 11
38.764910
 21
137.038158
  0
LINE
  8
1
 62
7
  6
CONTINUOUS
 10
38.797642
 20
139.967487
 11
38.797642
 21
139.095271
  0
LINE
  8
1
 62
7
  6
CONTINUOUS
 10
38.797642
 20
137.944259
 11
38.797642
 21
137.038158
  0
LINE
  8
1
 62
7
  6
CONTINUOUS
 10
38.830374
 20
139.967487
 11
38.830374
 21
139.095271
  0
LINE
  8
1
 62
7
  6
CONTINUOUS
 10
38.830374
 20
137.972864
 11
38.830374
 21
137.038158
  0
LINE
  8
1
 62
7
  6
CONTINUOUS
 10
38.863107
 20
139.967487
 11
38.863107
 21
139.095271
  0
LINE
  8
1
 62
7
  6
CONTINUOUS
 10
38.863107
 20
138.009062
 11
38.863107
 21
137.038581
  0
LINE
  8
1
 62
7
  6
CONTINUOUS
 10
38.895839
 20
139.967487
 11
38.895839
 21
139.095271
  0
LINE
  8
1
 62
7
  6
CONTINUOUS
 10
38.895839
 20
138.056993
 11
38.895839
 21
137.040338
  0
LINE
  8
1
 62
7
  6
CONTINUOUS
 10
38.928572
 20
139.967487
 11
38.928572
 21
139.095271
  0
LINE
  8
1
 62
7
  6
CONTINUOUS
 10
38.928572
 20
138.129532
 11
38.928572
 21
137.043470
  0
LINE
  8
1
 62
7
  6
CONTINUOUS
 10
38.961304
 20
139.967487
 11
38.961304
 21
137.047993
  0
LINE
  8
1
 62
7
  6
CONTINUOUS
 10
38.994037
 20
139.967487
 11
38.994037
 21
137.053933
  0
LINE
  8
1
 62
7
  6
CONTINUOUS
 10
39.026769
 20
139.967487
 11
39.026769
 21
137.061321
  0
LINE
  8
1
 62
7
  6
CONTINUOUS
 10
39.059502
 20
139.967487
 11
39.059502
 21
137.070201
  0
LINE
  8
1
 62
7
  6
CONTINUOUS
 10
39.092234
 20
139.967487
 11
39.092234
 21
137.080625
  0
LINE
  8
1
 62
7
  6
CONTINUOUS
 10
39.124966
 20
139.967487
 11
39.124966
 21
137.092661
  0
LINE
  8
1
 62
7
  6
CONTINUOUS
 10
39.157699
 20
139.967487
 11
39.157699
 21
137.106389
  0
LINE
  8
1
 62
7
  6
CONTINUOUS
 10
39.190431
 20
139.967487
 11
39.190431
 21
137.121907
  0
LINE
  8
1
 62
7
  6
CONTINUOUS
 10
39.223164
 20
139.967487
 11
39.223164
 21
137.139339
  0
LINE
  8
1
 62
7
  6
CONTINUOUS
 10
39.255896
 20
139.967487
 11
39.255896
 21
137.158834
  0
LINE
  8
1
 62
7
  6
CONTINUOUS
 10
39.288629
 20
139.967487
 11
39.288629
 21
137.180579
  0
LINE
  8
1
 62
7
  6
CONTINUOUS
 10
39.321361
 20
139.967487
 11
39.321361
 21
137.204811
  0
LINE
  8
1
 62
7
  6
CONTINUOUS
 10
39.354094
 20
139.967487
 11
39.354094
 21
137.231836
  0
LINE
  8
1
 62
7
  6
CONTINUOUS
 10
39.386826
 20
139.967487
 11
39.386826
 21
137.262057
  0
LINE
  8
1
 62
7
  6
CONTINUOUS
 10
39.419559
 20
139.967487
 11
39.419559
 21
137.296019
  0
LINE
  8
1
 62
7
  6
CONTINUOUS
 10
39.452291
 20
139.967487
 11
39.452291
 21
137.334503
  0
LINE
  8
1
 62
7
  6
CONTINUOUS
 10
39.485023
 20
139.967487
 11
39.485023
 21
137.378677
  0
LINE
  8
1
 62
7
  6
CONTINUOUS
 10
39.517756
 20
139.967487
 11
39.517756
 21
137.430451
  0
LINE
  8
1
 62
7
  6
CONTINUOUS
 10
39.550488
 20
139.967487
 11
39.550488
 21
137.493371
  0
LINE
  8
1
 62
7
  6
CONTINUOUS
 10
39.583221
 20
139.967487
 11
39.583221
 21
137.575760
  0
LINE
  8
1
 62
7
  6
CONTINUOUS
 10
39.615953
 20
139.967487
 11
39.615953
 21
137.715220
  0
LINE
  8
1
 62
7
  6
CONTINUOUS
 10
36.866428
 20
136.429252
 11
36.866428
 21
134.685695
  0
LINE
  8
1
 62
7
  6
CONTINUOUS
 10
36.899160
 20
136.429252
 11
36.899160
 21
134.504104
  0
LINE
  8
1
 62
7
  6
CONTINUOUS
 10
36.931893
 20
136.429252
 11
36.931893
 21
134.395280
  0
LINE
  8
1
 62
7
  6
CONTINUOUS
 10
36.964625
 20
136.429252
 11
36.964625
 21
134.310910
  0
LINE
  8
1
 62
7
  6
CONTINUOUS
 10
36.997357
 20
136.429252
 11
36.997357
 21
134.240343
  0
LINE
  8
1
 62
7
  6
CONTINUOUS
 10
37.030090
 20
136.429252
 11
37.030090
 21
134.179052
  0
LINE
  8
1
 62
7
  6
CONTINUOUS
 10
37.062822
 20
136.429252
 11
37.062822
 21
134.124603
  0
LINE
  8
1
 62
7
  6
CONTINUOUS
 10
37.095555
 20
136.429252
 11
37.095555
 21
134.075507
  0
LINE
  8
1
 62
7
  6
CONTINUOUS
 10
37.128287
 20
136.429252
 11
37.128287
 21
134.030774
  0
LINE
  8
1
 62
7
  6
CONTINUOUS
 10
37.161020
 20
136.429252
 11
37.161020
 21
133.989702
  0
LINE
  8
1
 62
7
  6
CONTINUOUS
 10
37.193752
 20
136.429252
 11
37.193752
 21
133.951778
  0
LINE
  8
1
 62
7
  6
CONTINUOUS
 10
37.226485
 20
136.429252
 11
37.226485
 21
133.916607
  0
LINE
  8
1
 62
7
  6
CONTINUOUS
 10
37.259217
 20
136.429252
 11
37.259217
 21
133.883881
  0
LINE
  8
1
 62
7
  6
CONTINUOUS
 10
37.291949
 20
136.429252
 11
37.291949
 21
133.853353
  0
LINE
  8
1
 62
7
  6
CONTINUOUS
 10
37.324682
 20
136.429252
 11
37.324682
 21
133.824822
  0
LINE
  8
1
 62
7
  6
CONTINUOUS
 10
37.357414
 20
136.429252
 11
37.357414
 21
133.798123
  0
LINE
  8
1
 62
7
  6
CONTINUOUS
 10
37.390147
 20
136.429252
 11
37.390147
 21
133.773116
  0
LINE
  8
1
 62
7
  6
CONTINUOUS
 10
37.422879
 20
136.429252
 11
37.422879
 21
133.749683
  0
LINE
  8
1
 62
7
  6
CONTINUOUS
 10
37.455612
 20
136.429252
 11
37.455612
 21
133.727724
  0
LINE
  8
1
 62
7
  6
CONTINUOUS
 10
37.488344
 20
136.429252
 11
37.488344
 21
133.707151
  0
LINE
  8
1
 62
7
  6
CONTINUOUS
 10
37.521077
 20
136.429252
 11
37.521077
 21
133.687890
  0
LINE
  8
1
 62
7
  6
CONTINUOUS
 10
37.553809
 20
136.429252
 11
37.553809
 21
135.589950
  0
LINE
  8
1
 62
7
  6
CONTINUOUS
 10
37.553809
 20
134.989981
 11
37.553809
 21
133.669875
  0
LINE
  8
1
 62
7
  6
CONTINUOUS
 10
37.586541
 20
136.429252
 11
37.586541
 21
135.589950
  0
LINE
  8
1
 62
7
  6
CONTINUOUS
 10
37.586541
 20
134.838846
 11
37.586541
 21
133.653049
  0
LINE
  8
1
 62
7
  6
CONTINUOUS
 10
37.619274
 20
136.429252
 11
37.619274
 21
135.589950
  0
LINE
  8
1
 62
7
  6
CONTINUOUS
 10
37.619274
 20
134.757948
 11
37.619274
 21
133.637361
  0
LINE
  8
1
 62
7
  6
CONTINUOUS
 10
37.652006
 20
136.429252
 11
37.652006
 21
135.589950
  0
LINE
  8
1
 62
7
  6
CONTINUOUS
 10
37.652006
 20
134.697297
 11
37.652006
 21
133.622767
  0
LINE
  8
1
 62
7
  6
CONTINUOUS
 10
37.684739
 20
136.429252
 11
37.684739
 21
135.589950
  0
LINE
  8
1
 62
7
  6
CONTINUOUS
 10
37.684739
 20
134.647929
 11
37.684739
 21
133.609227
  0
LINE
  8
1
 62
7
  6
CONTINUOUS
 10
37.717471
 20
136.429252
 11
37.717471
 21
135.589950
  0
LINE
  8
1
 62
7
  6
CONTINUOUS
 10
37.717471
 20
134.606173
 11
37.717471
 21
133.596707
  0
LINE
  8
1
 62
7
  6
CONTINUOUS
 10
37.750204
 20
136.429252
 11
37.750204
 21
135.589950
  0
LINE
  8
1
 62
7
  6
CONTINUOUS
 10
37.750204
 20
134.570092
 11
37.750204
 21
133.585176
  0
LINE
  8
1
 62
7
  6
CONTINUOUS
 10
37.782936
 20
136.429252
 11
37.782936
 21
135.589950
  0
LINE
  8
1
 62
7
  6
CONTINUOUS
 10
37.782936
 20
134.538514
 11
37.782936
 21
133.574606
  0
LINE
  8
1
 62
7
  6
CONTINUOUS
 10
37.815669
 20
136.429252
 11
37.815669
 21
135.589950
  0
LINE
  8
1
 62
7
  6
CONTINUOUS
 10
37.815669
 20
134.510666
 11
37.815669
 21
133.564974
  0
LINE
  8
1
 62
7
  6
CONTINUOUS
 10
37.848401
 20
136.429252
 11
37.848401
 21
135.589950
  0
LINE
  8
1
 62
7
  6
CONTINUOUS
 10
37.848401
 20
134.486009
 11
37.848401
 21
133.556257
  0
LINE
  8
1
 62
7
  6
CONTINUOUS
 10
37.881133
 20
136.429252
 11
37.881133
 21
135.589950
  0
LINE
  8
1
 62
7
  6
CONTINUOUS
 10
37.881133
 20
134.464148
 11
37.881133
 21
133.548438
  0
LINE
  8
1
 62
7
  6
CONTINUOUS
 10
37.913866
 20
136.429252
 11
37.913866
 21
135.589950
  0
LINE
  8
1
 62
7
  6
CONTINUOUS
 10
37.913866
 20
134.444787
 11
37.913866
 21
133.541499
  0
LINE
  8
1
 62
7
  6
CONTINUOUS
 10
37.946598
 20
136.429252
 11
37.946598
 21
135.589950
  0
LINE
  8
1
 62
7
  6
CONTINUOUS
 10
37.946598
 20
134.427698
 11
37.946598
 21
133.535428
  0
LINE
  8
1
 62
7
  6
CONTINUOUS
 10
37.979331
 20
136.429252
 11
37.979331
 21
135.589950
  0
LINE
  8
1
 62
7
  6
CONTINUOUS
 10
37.979331
 20
134.412701
 11
37.979331
 21
133.530210
  0
LINE
  8
1
 62
7
  6
CONTINUOUS
 10
38.012063
 20
136.429252
 11
38.012063
 21
135.589950
  0
LINE
  8
1
 62
7
  6
CONTINUOUS
 10
38.012063
 20
134.399654
 11
38.012063
 21
133.525837
  0
LINE
  8
1
 62
7
  6
CONTINUOUS
 10
38.044796
 20
136.429252
 11
38.044796
 21
135.589950
  0
LINE
  8
1
 62
7
  6
CONTINUOUS
 10
38.044796
 20
134.388445
 11
38.044796
 21
133.522300
  0
LINE
  8
1
 62
7
  6
CONTINUOUS
 10
38.077528
 20
136.429252
 11
38.077528
 21
135.589950
  0
LINE
  8
1
 62
7
  6
CONTINUOUS
 10
38.077528
 20
134.378982
 11
38.077528
 21
133.519592
  0
LINE
  8
1
 62
7
  6
CONTINUOUS
 10
38.110261
 20
136.429252
 11
38.110261
 21
135.589950
  0
LINE
  8
1
 62
7
  6
CONTINUOUS
 10
38.110261
 20
134.371195
 11
38.110261
 21
133.517707
  0
LINE
  8
1
 62
7
  6
CONTINUOUS
 10
38.142993
 20
136.429252
 11
38.142993
 21
135.589950
  0
LINE
  8
1
 62
7
  6
CONTINUOUS
 10
38.142993
 20
134.365028
 11
38.142993
 21
133.516643
  0
LINE
  8
1
 62
7
  6
CONTINUOUS
 10
38.175726
 20
136.429252
 11
38.175726
 21
135.589950
  0
LINE
  8
1
 62
7
  6
CONTINUOUS
 10
38.175726
 20
134.360437
 11
38.175726
 21
133.516380
  0
LINE
  8
1
 62
7
  6
CONTINUOUS
 10
38.208458
 20
136.429252
 11
38.208458
 21
135.589950
  0
LINE
  8
1
 62
7
  6
CONTINUOUS
 10
38.208458
 20
134.357392
 11
38.208458
 21
133.516380
  0
LINE
  8
1
 62
7
  6
CONTINUOUS
 10
38.241190
 20
136.429252
 11
38.241190
 21
135.589950
  0
LINE
  8
1
 62
7
  6
CONTINUOUS
 10
38.241190
 20
134.355873
 11
38.241190
 21
133.516380
  0
LINE
  8
1
 62
7
  6
CONTINUOUS
 10
38.273923
 20
136.429252
 11
38.273923
 21
135.589950
  0
LINE
  8
1
 62
7
  6
CONTINUOUS
 10
38.273923
 20
134.356439
 11
38.273923
 21
133.516380
  0
LINE
  8
1
 62
7
  6
CONTINUOUS
 10
38.306655
 20
136.429252
 11
38.306655
 21
135.589950
  0
LINE
  8
1
 62
7
  6
CONTINUOUS
 10
38.306655
 20
134.358714
 11
38.306655
 21
133.516380
  0
LINE
  8
1
 62
7
  6
CONTINUOUS
 10
38.339388
 20
136.429252
 11
38.339388
 21
135.589950
  0
LINE
  8
1
 62
7
  6
CONTINUOUS
 10
38.339388
 20
134.362525
 11
38.339388
 21
133.516643
  0
LINE
  8
1
 62
7
  6
CONTINUOUS
 10
38.372120
 20
136.429252
 11
38.372120
 21
135.589950
  0
LINE
  8
1
 62
7
  6
CONTINUOUS
 10
38.372120
 20
134.367895
 11
38.372120
 21
133.517707
  0
LINE
  8
1
 62
7
  6
CONTINUOUS
 10
38.404853
 20
136.429252
 11
38.404853
 21
135.589950
  0
LINE
  8
1
 62
7
  6
CONTINUOUS
 10
38.404853
 20
134.374862
 11
38.404853
 21
133.519592
  0
LINE
  8
1
 62
7
  6
CONTINUOUS
 10
38.437585
 20
136.429252
 11
38.437585
 21
135.589950
  0
LINE
  8
1
 62
7
  6
CONTINUOUS
 10
38.437585
 20
134.383474
 11
38.437585
 21
133.522300
  0
LINE
  8
1
 62
7
  6
CONTINUOUS
 10
38.470318
 20
136.429252
 11
38.470318
 21
135.589950
  0
LINE
  8
1
 62
7
  6
CONTINUOUS
 10
38.470318
 20
134.393795
 11
38.470318
 21
133.525837
  0
LINE
  8
1
 62
7
  6
CONTINUOUS
 10
38.503050
 20
136.429252
 11
38.503050
 21
135.589950
  0
LINE
  8
1
 62
7
  6
CONTINUOUS
 10
38.503050
 20
134.405905
 11
38.503050
 21
133.530210
  0
LINE
  8
1
 62
7
  6
CONTINUOUS
 10
38.535782
 20
136.429252
 11
38.535782
 21
135.589950
  0
LINE
  8
1
 62
7
  6
CONTINUOUS
 10
38.535782
 20
134.419906
 11
38.535782
 21
133.535428
  0
LINE
  8
1
 62
7
  6
CONTINUOUS
 10
38.568515
 20
136.429252
 11
38.568515
 21
135.589950
  0
LINE
  8
1
 62
7
  6
CONTINUOUS
 10
38.568515
 20
134.435924
 11
38.568515
 21
133.541499
  0
LINE
  8
1
 62
7
  6
CONTINUOUS
 10
38.601247
 20
136.429252
 11
38.601247
 21
135.589950
  0
LINE
  8
1
 62
7
  6
CONTINUOUS
 10
38.601247
 20
134.454117
 11
38.601247
 21
133.548438
  0
LINE
  8
1
 62
7
  6
CONTINUOUS
 10
38.633980
 20
136.429252
 11
38.633980
 21
135.589950
  0
LINE
  8
1
 62
7
  6
CONTINUOUS
 10
38.633980
 20
134.474689
 11
38.633980
 21
133.556257
  0
LINE
  8
1
 62
7
  6
CONTINUOUS
 10
38.666712
 20
136.429252
 11
38.666712
 21
135.589950
  0
LINE
  8
1
 62
7
  6
CONTINUOUS
 10
38.666712
 20
134.497898
 11
38.666712
 21
133.564974
  0
LINE
  8
1
 62
7
  6
CONTINUOUS
 10
38.699445
 20
136.429252
 11
38.699445
 21
135.589950
  0
LINE
  8
1
 62
7
  6
CONTINUOUS
 10
38.699445
 20
134.524084
 11
38.699445
 21
133.574606
  0
LINE
  8
1
 62
7
  6
CONTINUOUS
 10
38.732177
 20
136.429252
 11
38.732177
 21
135.589950
  0
LINE
  8
1
 62
7
  6
CONTINUOUS
 10
38.732177
 20
134.553708
 11
38.732177
 21
133.585176
  0
LINE
  8
1
 62
7
  6
CONTINUOUS
 10
38.764910
 20
136.429252
 11
38.764910
 21
135.589950
  0
LINE
  8
1
 62
7
  6
CONTINUOUS
 10
38.764910
 20
134.587409
 11
38.764910
 21
133.596707
  0
LINE
  8
1
 62
7
  6
CONTINUOUS
 10
38.797642
 20
136.429252
 11
38.797642
 21
135.589950
  0
LINE
  8
1
 62
7
  6
CONTINUOUS
 10
38.797642
 20
134.626130
 11
38.797642
 21
133.609227
  0
LINE
  8
1
 62
7
  6
CONTINUOUS
 10
38.830374
 20
136.429252
 11
38.830374
 21
135.589950
  0
LINE
  8
1
 62
7
  6
CONTINUOUS
 10
38.830374
 20
134.671356
 11
38.830374
 21
133.622767
  0
LINE
  8
1
 62
7
  6
CONTINUOUS
 10
38.863107
 20
136.429252
 11
38.863107
 21
135.589950
  0
LINE
  8
1
 62
7
  6
CONTINUOUS
 10
38.863107
 20
134.725691
 11
38.863107
 21
133.637361
  0
LINE
  8
1
 62
7
  6
CONTINUOUS
 10
38.895839
 20
136.429252
 11
38.895839
 21
135.589950
  0
LINE
  8
1
 62
7
  6
CONTINUOUS
 10
38.895839
 20
134.794606
 11
38.895839
 21
133.653049
  0
LINE
  8
1
 62
7
  6
CONTINUOUS
 10
38.928572
 20
136.429252
 11
38.928572
 21
135.589950
  0
LINE
  8
1
 62
7
  6
CONTINUOUS
 10
38.928572
 20
134.895163
 11
38.928572
 21
133.669875
  0
LINE
  8
1
 62
7
  6
CONTINUOUS
 10
38.961304
 20
136.429252
 11
38.961304
 21
133.687890
  0
LINE
  8
1
 62
7
  6
CONTINUOUS
 10
38.994037
 20
136.429252
 11
38.994037
 21
133.707151
  0
LINE
  8
1
 62
7
  6
CONTINUOUS
 10
39.026769
 20
136.429252
 11
39.026769
 21
133.727724
  0
LINE
  8
1
 62
7
  6
CONTINUOUS
 10
39.059502
 20
136.429252
 11
39.059502
 21
133.749683
  0
LINE
  8
1
 62
7
  6
CONTINUOUS
 10
39.092234
 20
136.429252
 11
39.092234
 21
133.773116
  0
LINE
  8
1
 62
7
  6
CONTINUOUS
 10
39.124966
 20
136.429252
 11
39.124966
 21
133.798123
  0
LINE
  8
1
 62
7
  6
CONTINUOUS
 10
39.157699
 20
136.429252
 11
39.157699
 21
133.824822
  0
LINE
  8
1
 62
7
  6
CONTINUOUS
 10
39.190431
 20
136.429252
 11
39.190431
 21
133.853353
  0
LINE
  8
1
 62
7
  6
CONTINUOUS
 10
39.223164
 20
136.429252
 11
39.223164
 21
133.883881
  0
LINE
  8
1
 62
7
  6
CONTINUOUS
 10
39.255896
 20
136.429252
 11
39.255896
 21
133.916607
  0
LINE
  8
1
 62
7
  6
CONTINUOUS
 10
39.288629
 20
136.429252
 11
39.288629
 21
133.951778
  0
LINE
  8
1
 62
7
  6
CONTINUOUS
 10
39.321361
 20
136.429252
 11
39.321361
 21
133.989702
  0
LINE
  8
1
 62
7
  6
CONTINUOUS
 10
39.354094
 20
136.429252
 11
39.354094
 21
134.030774
  0
LINE
  8
1
 62
7
  6
CONTINUOUS
 10
39.386826
 20
136.429252
 11
39.386826
 21
134.075507
  0
LINE
  8
1
 62
7
  6
CONTINUOUS
 10
39.419559
 20
136.429252
 11
39.419559
 21
134.124603
  0
LINE
  8
1
 62
7
  6
CONTINUOUS
 10
39.452291
 20
136.429252
 11
39.452291
 21
134.179052
  0
LINE
  8
1
 62
7
  6
CONTINUOUS
 10
39.485023
 20
136.429252
 11
39.485023
 21
134.240343
  0
LINE
  8
1
 62
7
  6
CONTINUOUS
 10
39.517756
 20
136.429252
 11
39.517756
 21
134.310910
  0
LINE
  8
1
 62
7
  6
CONTINUOUS
 10
39.550488
 20
136.429252
 11
39.550488
 21
134.395280
  0
LINE
  8
1
 62
7
  6
CONTINUOUS
 10
39.583221
 20
136.429252
 11
39.583221
 21
134.504104
  0
LINE
  8
1
 62
7
  6
CONTINUOUS
 10
39.615953
 20
136.429252
 11
39.615953
 21
134.685695
  0
TEXT
  8
1
 62
7
  6
CONTINUOUS
 10
35.731932
 20
121.369758
 40
4.000000
 41
0.500000
  1
LFB-16MS-
  7
KANJI
 50
-90.000000
 51
0.000000
  0
DIMENSION
  8
1
 62
7
  6
CONTINUOUS
  2
*D11
 10
149.256198
 20
81.124656
 11
149.256198
 21
123.124656
 70
     0
  1
84
 13
162.540852
 23
81.124656
 14
162.540852
 24
165.124656
 50
90.000000
  0
ENDSEC
  0
EOF
