  0
SECTION
  2
HEADER
  9
$ACADVER
  1
AC1009
  9
$INSBASE
 10
0.000000
 20
0.000000
  9
$EXTMIN
 10
0.000000
 20
0.000000
  9
$EXTMAX
 10
297.000000
 20
210.000000
  9
$LIMMIN
 10
0.000000
 20
0.000000
  9
$LIMMAX
 10
297.000000
 20
210.000000
  9
$VIEWCTR
 10
148.500000
 20
105.000000
  9
$VIEWSIZE
 40
210.000000
  9
$PEXTMIN
 10
0.000000
 20
0.000000
 30
0.000000
  9
$PEXTMAX
 10
297.000000
 20
210.000000
 30
0.000000
  9
$SNAPMODE
 70
     0
  9
$SNAPUNIT
 10
1.000000
 20
1.000000
  9
$SNAPBASE
 10
0.000000
 20
0.000000
  9
$SNAPANG
 50
0.000000
  9
$SNAPISOPAIR
 70
     0
  9
$SNAPSTYLE
 70
     0
  9
$GRIDMODE
 70
     0
  9
$GRIDUNIT
 10
0.000000
 20
0.000000
  9
$ORTHOMODE
 70
     0
  9
$REGENMODE
 70
     1
  9
$FILLMODE
 70
     1
  9
$QTEXTMODE
 70
     0
  9
$DRAGMODE
 70
     2
  9
$LTSCALE
 40
0.250000
  9
$OSMODE
 70
     0
  9
$ATTMODE
 70
     1
  9
$TEXTSIZE
 40
2.000000
  9
$TRACEWID
 40
0.050000
  9
$TEXTSTYLE
  7
STANDARD
  9
$CLAYER
  8
0
  9
$CELTYPE
  6
BYLAYER
  9
$CECOLOR
 62
   256
  9
$DIMSCALE
 40
1.000000
  9
$DIMASZ
 40
1.000000
  9
$DIMEXO
 40
0.000000
  9
$DIMDLI
 40
0.500000
  9
$DIMRND
 40
0.000000
  9
$DIMDLE
 40
0.000000
  9
$DIMEXE
 40
0.000000
  9
$DIMTP
 40
0.000000
  9
$DIMTM
 40
0.000000
  9
$DIMTXT
 40
3.000000
  9
$DIMCEN
 40
0.000000
  9
$DIMTSZ
 40
0.000000
  9
$DIMTOL
 70
     0
  9
$DIMLIM
 70
     0
  9
$DIMTIH
 70
     1
  9
$DIMTOH
 70
     1
  9
$DIMSE1
 70
     0
  9
$DIMSE2
 70
     0
  9
$DIMTAD
 70
     0
  9
$DIMZIN
 70
     0
  9
$DIMBLK
  1

  9
$DIMASO
 70
     0
  9
$DIMSHO
 70
     0
  9
$DIMPOST
  1

  9
$DIMAPOST
  1

  9
$DIMALT
 70
     0
  9
$DIMALTD
 70
     0
  9
$DIMALTF
 40
25.400000
  9
$DIMLFAC
 40
1.000000
  9
$DIMTOFL
 70
     0
  9
$DIMTVP
 40
0.000000
  9
$DIMTIX
 70
     0
  9
$DIMSOXD
 70
     0
  9
$DIMSAH
 70
     0
  9
$DIMBLKL
  1

  9
$DIMBLKR
  1

  9
$LUNITS
 70
     2
  9
$LUPREC
 70
     2
  9
$AXISMODE
 70
     0
  9
$AXISUNIT
 10
1.000000
 20
1.000000
  9
$SKETCHINC
 40
0.000000
  9
$FILLETRAD
 40
0.000000
  9
$AUNITS
 70
     1
  9
$AUPREC
 70
     2
  9
$MENU
  1
ACAD
  9
$ELEVATION
 40
0.000000
  9
$THICKNESS
 40
0.000000
  9
$VIEWDIR
 10
0.000000
 20
0.000000
 30
1.000000
  9
$LIMCHECK
 70
     1
  9
$BLIPMODE
 70
     1
  9
$CHAMFERA
 40
0.000000
  9
$CHAMFERB
 40
0.000000
  9
$FASTZOOM
 70
     1
  9
$SKPOLY
 70
     0
  9
$TDCREATE
 40
0.000000
  9
$TDUPDATE
 40
0.000000
  9
$TDINDWG
 40
0.000000
  9
$TDUSRTIMER
 40
0.000000
  9
$USRTIMER
 70
     1
  9
$ANGBASE
 50
0.000000
  9
$ANGDIR
 70
     0
  9
$PDMODE
 70
     0
  9
$PDSIZE
 40
0.000000
  9
$PLINEWID
 40
0.000000
  9
$COORDS
 70
     2
  9
$USERI1
 70
     0
  9
$USERI2
 70
     0
  9
$USERI3
 70
     0
  9
$USERI4
 70
     0
  9
$USERI5
 70
     0
  9
$USERR1
 40
0.000000
  9
$USERR2
 40
0.000000
  9
$USERR3
 40
0.000000
  9
$USERR4
 40
0.000000
  9
$USERR5
 40
0.000000
  0
ENDSEC
  0
SECTION
  2
TABLES
  0
TABLE
  2
LTYPE
 70
     5
  0
LTYPE
  2
CONTINUOUS
 70
    64
  3
Solid line
 72
    65
 73
     0
 40
0.0
  0
LTYPE
  2
HIDDEN
 70
    64
  3
------------------------
 72
    65
 73
     2
 40
12.6
 49
8.4
 49
-4.2
  0
LTYPE
  2
DOT
 70
    64
  3
････････････････････････
 72
    65
 73
     2
 40
8.0
 49
6.0
 49
-2.0
  0
LTYPE
  2
DASHDOT
 70
    64
  3
--･--･--･--･--･--･--･--
 72
    65
 73
     4
 40
50.5
 49
30.0
 49
-9.0
 49
2.5
 49
-9.0
  0
LTYPE
  2
DIVIDE
 70
    64
  3
--･･--･･--･･--･･--･･--
 72
    65
 73
     6
 40
58.0
 49
30.0
 49
-9.0
 49
2.5
 49
-5.0
 49
2.5
 49
-9.0
  0
LTYPE
  2
ACAD_ISO06W100
 70
    64
  3
____ ... ____ ... ____
 72
    65
 73
     8
 40
37.5
 49
24.0
 49
-3.0
 49
0.5
 49
-3.0
 49
0.5
 49
-3.0
 49
0.5
 49
-3.0
  0
LTYPE
  2
ACAD_ISO14W100
 70
    64
  3
__ . . . __ . . . __ . . . 
 72
    65
 73
     8
 40
25.5
 49
12.0
 49
-3.0
 49
0.5
 49
-3.0
 49
0.5
 49
-3.0
 49
0.5
 49
-3.0
  0
ENDTAB
  0
TABLE
  2
LAYER
 70
1
  0
LAYER
  2
1
 70
64
 62
7
  6
CONTINUOUS
  0
ENDTAB
  0
TABLE
  2
STYLE
 70
     2
  0
STYLE
  2
STANDARD
 70
    64
 40
0.0
 41
1.0
 50
0.0
 71
     0
 42
0.2
  3
TXT
  4

  0
STYLE
  2
KANJI
 70
    64
 40
0.0
 41
1.0
 50
0.0
 71
     0
 42
0.2
  3
TXT
  4
BIGFONT
  0
ENDTAB
  0
TABLE
  2
VIEW
 70
     0
  0
ENDTAB
  0
ENDSEC
  0
SECTION
  2
BLOCKS
  0
BLOCK
  8
1
 62
7
  6
CONTINUOUS
  2
*D1
 70
    65
 10
0.0
 20
0.0
  0
LINE
  8
1
 62
7
  6
CONTINUOUS
 10
332.431911
 20
109.301152
 11
323.231911
 21
109.301152
  0
LINE
  8
1
 62
7
  6
CONTINUOUS
 10
328.431911
 20
107.301152
 11
328.431911
 21
117.213076
  0
LINE
  8
1
 62
7
  6
CONTINUOUS
 10
327.231911
 20
107.301152
 11
327.231911
 21
117.213076
  0
LINE
  8
1
 62
7
  6
CONTINUOUS
 10
328.431911
 20
109.301152
 11
330.846725
 21
109.948199
  0
LINE
  8
1
 62
7
  6
CONTINUOUS
 10
328.431911
 20
109.301152
 11
330.846725
 21
108.654104
  0
LINE
  8
1
 62
7
  6
CONTINUOUS
 10
327.231911
 20
109.301152
 11
324.817096
 21
108.654104
  0
LINE
  8
1
 62
7
  6
CONTINUOUS
 10
327.231911
 20
109.301152
 11
324.817096
 21
109.948199
  0
TEXT
  8
1
 62
7
  6
CONTINUOUS
 10
325.581911
 20
109.301152
 40
3.000000
 41
0.500000
  1
1.2
  7
KANJI
 50
0.000000
 51
30.000000
  0
ENDBLK
  0
BLOCK
  8
1
 62
7
  6
CONTINUOUS
  2
*D2
 70
    65
 10
0.0
 20
0.0
  0
LINE
  8
1
 62
7
  6
CONTINUOUS
 10
328.431911
 20
104.293022
 11
316.931911
 21
104.293022
  0
LINE
  8
1
 62
7
  6
CONTINUOUS
 10
328.431911
 20
102.293022
 11
328.431911
 21
117.213076
  0
LINE
  8
1
 62
7
  6
CONTINUOUS
 10
316.931911
 20
102.293022
 11
316.931911
 21
129.599255
  0
LINE
  8
1
 62
7
  6
CONTINUOUS
 10
328.431911
 20
104.293022
 11
326.017096
 21
103.645974
  0
LINE
  8
1
 62
7
  6
CONTINUOUS
 10
328.431911
 20
104.293022
 11
326.017096
 21
104.940069
  0
LINE
  8
1
 62
7
  6
CONTINUOUS
 10
316.931911
 20
104.293022
 11
319.346725
 21
104.940069
  0
LINE
  8
1
 62
7
  6
CONTINUOUS
 10
316.931911
 20
104.293022
 11
319.346725
 21
103.645974
  0
TEXT
  8
1
 62
7
  6
CONTINUOUS
 10
319.681911
 20
104.293022
 40
3.000000
 41
0.500000
  1
11.5
  7
KANJI
 50
0.000000
 51
30.000000
  0
ENDBLK
  0
BLOCK
  8
1
 62
7
  6
CONTINUOUS
  2
*D3
 70
    65
 10
0.0
 20
0.0
  0
LINE
  8
1
 62
7
  6
CONTINUOUS
 10
321.431911
 20
109.181911
 11
312.931911
 21
109.181911
  0
LINE
  8
1
 62
7
  6
CONTINUOUS
 10
317.431911
 20
107.181911
 11
317.431911
 21
129.213076
  0
LINE
  8
1
 62
7
  6
CONTINUOUS
 10
316.931911
 20
107.181911
 11
316.931911
 21
129.213076
  0
LINE
  8
1
 62
7
  6
CONTINUOUS
 10
317.431911
 20
109.181911
 11
319.846725
 21
109.828958
  0
LINE
  8
1
 62
7
  6
CONTINUOUS
 10
317.431911
 20
109.181911
 11
319.846725
 21
108.534863
  0
LINE
  8
1
 62
7
  6
CONTINUOUS
 10
316.931911
 20
109.181911
 11
314.517096
 21
108.534863
  0
LINE
  8
1
 62
7
  6
CONTINUOUS
 10
316.931911
 20
109.181911
 11
314.517096
 21
109.828958
  0
TEXT
  8
1
 62
7
  6
CONTINUOUS
 10
314.931911
 20
109.181911
 40
3.000000
 41
0.500000
  1
0.5
  7
KANJI
 50
0.000000
 51
30.000000
  0
ENDBLK
  0
BLOCK
  8
1
 62
7
  6
CONTINUOUS
  2
*D4
 70
    65
 10
0.0
 20
0.0
  0
LINE
  8
1
 62
7
  6
CONTINUOUS
 10
347.431911
 20
104.293022
 11
328.431911
 21
104.293022
  0
LINE
  8
1
 62
7
  6
CONTINUOUS
 10
347.431911
 20
102.293022
 11
347.431911
 21
118.782533
  0
LINE
  8
1
 62
7
  6
CONTINUOUS
 10
328.431911
 20
102.293022
 11
328.431911
 21
117.213076
  0
LINE
  8
1
 62
7
  6
CONTINUOUS
 10
347.431911
 20
104.293022
 11
345.017096
 21
103.645974
  0
LINE
  8
1
 62
7
  6
CONTINUOUS
 10
347.431911
 20
104.293022
 11
345.017096
 21
104.940069
  0
LINE
  8
1
 62
7
  6
CONTINUOUS
 10
328.431911
 20
104.293022
 11
330.846725
 21
104.940069
  0
LINE
  8
1
 62
7
  6
CONTINUOUS
 10
328.431911
 20
104.293022
 11
330.846725
 21
103.645974
  0
TEXT
  8
1
 62
7
  6
CONTINUOUS
 10
336.431911
 20
104.293022
 40
3.000000
 41
0.500000
  1
19
  7
KANJI
 50
0.000000
 51
30.000000
  0
ENDBLK
  0
BLOCK
  8
1
 62
7
  6
CONTINUOUS
  2
*D5
 70
    65
 10
0.0
 20
0.0
  0
LINE
  8
1
 62
7
  6
CONTINUOUS
 10
65.528455
 20
190.916667
 11
83.028455
 21
190.916667
  0
LINE
  8
1
 62
7
  6
CONTINUOUS
 10
65.528455
 20
192.916667
 11
65.528455
 21
180.396341
  0
LINE
  8
1
 62
7
  6
CONTINUOUS
 10
83.028455
 20
192.916667
 11
83.028455
 21
179.502033
  0
LINE
  8
1
 62
7
  6
CONTINUOUS
 10
65.528455
 20
190.916667
 11
67.943270
 21
191.563714
  0
LINE
  8
1
 62
7
  6
CONTINUOUS
 10
65.528455
 20
190.916667
 11
67.943270
 21
190.269619
  0
LINE
  8
1
 62
7
  6
CONTINUOUS
 10
83.028455
 20
190.916667
 11
80.613641
 21
190.269619
  0
LINE
  8
1
 62
7
  6
CONTINUOUS
 10
83.028455
 20
190.916667
 11
80.613641
 21
191.563714
  0
TEXT
  8
1
 62
7
  6
CONTINUOUS
 10
71.278455
 20
190.916667
 40
3.000000
 41
0.500000
  1
17.5
  7
KANJI
 50
0.000000
 51
30.000000
  0
ENDBLK
  0
BLOCK
  8
1
 62
7
  6
CONTINUOUS
  2
*D6
 70
    65
 10
0.0
 20
0.0
  0
LINE
  8
1
 62
7
  6
CONTINUOUS
 10
30.711382
 20
143.083333
 11
30.711382
 21
168.083333
  0
LINE
  8
1
 62
7
  6
CONTINUOUS
 10
28.711382
 20
143.083333
 11
40.028455
 21
143.083333
  0
LINE
  8
1
 62
7
  6
CONTINUOUS
 10
28.711382
 20
168.083333
 11
40.028455
 21
168.083333
  0
LINE
  8
1
 62
7
  6
CONTINUOUS
 10
30.711382
 20
143.083333
 11
30.064335
 21
145.498148
  0
LINE
  8
1
 62
7
  6
CONTINUOUS
 10
30.711382
 20
143.083333
 11
31.358430
 21
145.498148
  0
LINE
  8
1
 62
7
  6
CONTINUOUS
 10
30.711382
 20
168.083333
 11
31.358430
 21
165.668519
  0
LINE
  8
1
 62
7
  6
CONTINUOUS
 10
30.711382
 20
168.083333
 11
30.064335
 21
165.668519
  0
TEXT
  8
1
 62
7
  6
CONTINUOUS
 10
30.711382
 20
154.083333
 40
3.000000
 41
0.500000
  1
25
  7
KANJI
 50
90.000000
 51
30.000000
  0
ENDBLK
  0
BLOCK
  8
1
 62
7
  6
CONTINUOUS
  2
*D7
 70
    65
 10
0.0
 20
0.0
  0
LINE
  8
1
 62
7
  6
CONTINUOUS
 10
30.711382
 20
118.083333
 11
30.711382
 21
143.083333
  0
LINE
  8
1
 62
7
  6
CONTINUOUS
 10
28.711382
 20
118.083333
 11
40.028455
 21
118.083333
  0
LINE
  8
1
 62
7
  6
CONTINUOUS
 10
28.711382
 20
143.083333
 11
40.028455
 21
143.083333
  0
LINE
  8
1
 62
7
  6
CONTINUOUS
 10
30.711382
 20
118.083333
 11
30.064335
 21
120.498148
  0
LINE
  8
1
 62
7
  6
CONTINUOUS
 10
30.711382
 20
118.083333
 11
31.358430
 21
120.498148
  0
LINE
  8
1
 62
7
  6
CONTINUOUS
 10
30.711382
 20
143.083333
 11
31.358430
 21
140.668519
  0
LINE
  8
1
 62
7
  6
CONTINUOUS
 10
30.711382
 20
143.083333
 11
30.064335
 21
140.668519
  0
TEXT
  8
1
 62
7
  6
CONTINUOUS
 10
30.711382
 20
129.083333
 40
3.000000
 41
0.500000
  1
25
  7
KANJI
 50
90.000000
 51
30.000000
  0
ENDBLK
  0
BLOCK
  8
1
 62
7
  6
CONTINUOUS
  2
*D8
 70
    65
 10
0.0
 20
0.0
  0
LINE
  8
1
 62
7
  6
CONTINUOUS
 10
25.703252
 20
103.083333
 11
25.703252
 21
183.083333
  0
LINE
  8
1
 62
7
  6
CONTINUOUS
 10
23.703252
 20
103.083333
 11
37.028455
 21
103.083333
  0
LINE
  8
1
 62
7
  6
CONTINUOUS
 10
23.703252
 20
183.083333
 11
37.028455
 21
183.083333
  0
LINE
  8
1
 62
7
  6
CONTINUOUS
 10
25.703252
 20
103.083333
 11
25.056204
 21
105.498148
  0
LINE
  8
1
 62
7
  6
CONTINUOUS
 10
25.703252
 20
103.083333
 11
26.350300
 21
105.498148
  0
LINE
  8
1
 62
7
  6
CONTINUOUS
 10
25.703252
 20
183.083333
 11
26.350300
 21
180.668519
  0
LINE
  8
1
 62
7
  6
CONTINUOUS
 10
25.703252
 20
183.083333
 11
25.056204
 21
180.668519
  0
TEXT
  8
1
 62
7
  6
CONTINUOUS
 10
25.703252
 20
141.583333
 40
3.000000
 41
0.500000
  1
80
  7
KANJI
 50
90.000000
 51
30.000000
  0
ENDBLK
  0
BLOCK
  8
1
 62
7
  6
CONTINUOUS
  2
*D9
 70
    65
 10
0.0
 20
0.0
  0
LINE
  8
1
 62
7
  6
CONTINUOUS
 10
21.231707
 20
101.083333
 11
21.231707
 21
185.083333
  0
LINE
  8
1
 62
7
  6
CONTINUOUS
 10
19.231707
 20
101.083333
 11
39.028455
 21
101.083333
  0
LINE
  8
1
 62
7
  6
CONTINUOUS
 10
19.231707
 20
185.083333
 11
39.028455
 21
185.083333
  0
LINE
  8
1
 62
7
  6
CONTINUOUS
 10
21.231707
 20
101.083333
 11
20.584660
 21
103.498148
  0
LINE
  8
1
 62
7
  6
CONTINUOUS
 10
21.231707
 20
101.083333
 11
21.878755
 21
103.498148
  0
LINE
  8
1
 62
7
  6
CONTINUOUS
 10
21.231707
 20
185.083333
 11
21.878755
 21
182.668519
  0
LINE
  8
1
 62
7
  6
CONTINUOUS
 10
21.231707
 20
185.083333
 11
20.584660
 21
182.668519
  0
TEXT
  8
1
 62
7
  6
CONTINUOUS
 10
21.231707
 20
141.583333
 40
3.000000
 41
0.500000
  1
84
  7
KANJI
 50
90.000000
 51
30.000000
  0
ENDBLK
  0
BLOCK
  8
1
 62
7
  6
CONTINUOUS
  2
*D10
 70
    65
 10
0.0
 20
0.0
  0
LINE
  8
1
 62
7
  6
CONTINUOUS
 10
51.028455
 20
94.062541
 11
131.028455
 21
94.062541
  0
LINE
  8
1
 62
7
  6
CONTINUOUS
 10
51.028455
 20
92.062541
 11
51.028455
 21
101.083333
  0
LINE
  8
1
 62
7
  6
CONTINUOUS
 10
131.028455
 20
92.062541
 11
131.028455
 21
101.083333
  0
LINE
  8
1
 62
7
  6
CONTINUOUS
 10
51.028455
 20
94.062541
 11
53.443270
 21
94.709588
  0
LINE
  8
1
 62
7
  6
CONTINUOUS
 10
51.028455
 20
94.062541
 11
53.443270
 21
93.415493
  0
LINE
  8
1
 62
7
  6
CONTINUOUS
 10
131.028455
 20
94.062541
 11
128.613641
 21
93.415493
  0
LINE
  8
1
 62
7
  6
CONTINUOUS
 10
131.028455
 20
94.062541
 11
128.613641
 21
94.709588
  0
TEXT
  8
1
 62
7
  6
CONTINUOUS
 10
89.528455
 20
94.062541
 40
3.000000
 41
0.500000
  1
80
  7
KANJI
 50
0.000000
 51
30.000000
  0
ENDBLK
  0
BLOCK
  8
1
 62
7
  6
CONTINUOUS
  2
*D11
 70
    65
 10
0.0
 20
0.0
  0
LINE
  8
1
 62
7
  6
CONTINUOUS
 10
49.028455
 20
89.889099
 11
133.028455
 21
89.889099
  0
LINE
  8
1
 62
7
  6
CONTINUOUS
 10
49.028455
 20
87.889099
 11
49.028455
 21
99.083333
  0
LINE
  8
1
 62
7
  6
CONTINUOUS
 10
133.028455
 20
87.889099
 11
133.028455
 21
99.083333
  0
LINE
  8
1
 62
7
  6
CONTINUOUS
 10
49.028455
 20
89.889099
 11
51.443270
 21
90.536147
  0
LINE
  8
1
 62
7
  6
CONTINUOUS
 10
49.028455
 20
89.889099
 11
51.443270
 21
89.242051
  0
LINE
  8
1
 62
7
  6
CONTINUOUS
 10
133.028455
 20
89.889099
 11
130.613641
 21
89.242051
  0
LINE
  8
1
 62
7
  6
CONTINUOUS
 10
133.028455
 20
89.889099
 11
130.613641
 21
90.536147
  0
TEXT
  8
1
 62
7
  6
CONTINUOUS
 10
89.528455
 20
89.889099
 40
3.000000
 41
0.500000
  1
84
  7
KANJI
 50
0.000000
 51
30.000000
  0
ENDBLK
  0
BLOCK
  8
1
 62
7
  6
CONTINUOUS
  2
*D12
 70
    65
 10
0.0
 20
0.0
  0
LINE
  8
1
 62
7
  6
CONTINUOUS
 10
44.028455
 20
84.956850
 11
138.028455
 21
84.956850
  0
LINE
  8
1
 62
7
  6
CONTINUOUS
 10
44.028455
 20
82.956850
 11
44.028455
 21
112.184959
  0
LINE
  8
1
 62
7
  6
CONTINUOUS
 10
138.028455
 20
82.956850
 11
138.028455
 21
112.363821
  0
LINE
  8
1
 62
7
  6
CONTINUOUS
 10
44.028455
 20
84.956850
 11
46.443270
 21
85.603897
  0
LINE
  8
1
 62
7
  6
CONTINUOUS
 10
44.028455
 20
84.956850
 11
46.443270
 21
84.309802
  0
LINE
  8
1
 62
7
  6
CONTINUOUS
 10
138.028455
 20
84.956850
 11
135.613641
 21
84.309802
  0
LINE
  8
1
 62
7
  6
CONTINUOUS
 10
138.028455
 20
84.956850
 11
135.613641
 21
85.603897
  0
TEXT
  8
1
 62
7
  6
CONTINUOUS
 10
89.528455
 20
84.956850
 40
3.000000
 41
0.500000
  1
94
  7
KANJI
 50
0.000000
 51
30.000000
  0
ENDBLK
  0
BLOCK
  8
1
 62
7
  6
CONTINUOUS
  2
*D13
 70
    65
 10
0.0
 20
0.0
  0
LINE
  8
1
 62
7
  6
CONTINUOUS
 10
39.028455
 20
80.214302
 11
143.028455
 21
80.214302
  0
LINE
  8
1
 62
7
  6
CONTINUOUS
 10
39.028455
 20
78.214302
 11
39.028455
 21
101.083333
  0
LINE
  8
1
 62
7
  6
CONTINUOUS
 10
143.028455
 20
78.214302
 11
143.028455
 21
101.083333
  0
LINE
  8
1
 62
7
  6
CONTINUOUS
 10
39.028455
 20
80.214302
 11
41.443270
 21
80.861350
  0
LINE
  8
1
 62
7
  6
CONTINUOUS
 10
39.028455
 20
80.214302
 11
41.443270
 21
79.567255
  0
LINE
  8
1
 62
7
  6
CONTINUOUS
 10
143.028455
 20
80.214302
 11
140.613641
 21
79.567255
  0
LINE
  8
1
 62
7
  6
CONTINUOUS
 10
143.028455
 20
80.214302
 11
140.613641
 21
80.861350
  0
TEXT
  8
1
 62
7
  6
CONTINUOUS
 10
88.778455
 20
80.214302
 40
3.000000
 41
0.500000
  1
104
  7
KANJI
 50
0.000000
 51
30.000000
  0
ENDBLK
  0
BLOCK
  8
1
 62
7
  6
CONTINUOUS
  2
*D14
 70
    65
 10
0.0
 20
0.0
  0
LINE
  8
1
 62
7
  6
CONTINUOUS
 10
152.060976
 20
116.833333
 11
152.060976
 21
134.333333
  0
LINE
  8
1
 62
7
  6
CONTINUOUS
 10
154.060976
 20
116.833333
 11
128.701897
 21
116.833333
  0
LINE
  8
1
 62
7
  6
CONTINUOUS
 10
154.060976
 20
134.333333
 11
128.880759
 21
134.333333
  0
LINE
  8
1
 62
7
  6
CONTINUOUS
 10
152.060976
 20
116.833333
 11
151.413928
 21
119.248148
  0
LINE
  8
1
 62
7
  6
CONTINUOUS
 10
152.060976
 20
116.833333
 11
152.708023
 21
119.248148
  0
LINE
  8
1
 62
7
  6
CONTINUOUS
 10
152.060976
 20
134.333333
 11
152.708023
 21
131.918519
  0
LINE
  8
1
 62
7
  6
CONTINUOUS
 10
152.060976
 20
134.333333
 11
151.413928
 21
131.918519
  0
TEXT
  8
1
 62
7
  6
CONTINUOUS
 10
152.060976
 20
122.583333
 40
3.000000
 41
0.500000
  1
17.5
  7
KANJI
 50
90.000000
 51
30.000000
  0
ENDBLK
  0
BLOCK
  8
1
 62
7
  6
CONTINUOUS
  2
*D15
 70
    65
 10
0.0
 20
0.0
  0
LINE
  8
1
 62
7
  6
CONTINUOUS
 10
152.060976
 20
134.333333
 11
152.060976
 21
151.833333
  0
LINE
  8
1
 62
7
  6
CONTINUOUS
 10
154.060976
 20
134.333333
 11
128.880759
 21
134.333333
  0
LINE
  8
1
 62
7
  6
CONTINUOUS
 10
154.060976
 20
151.833333
 11
129.417344
 21
151.833333
  0
LINE
  8
1
 62
7
  6
CONTINUOUS
 10
152.060976
 20
134.333333
 11
151.413928
 21
136.748148
  0
LINE
  8
1
 62
7
  6
CONTINUOUS
 10
152.060976
 20
134.333333
 11
152.708023
 21
136.748148
  0
LINE
  8
1
 62
7
  6
CONTINUOUS
 10
152.060976
 20
151.833333
 11
152.708023
 21
149.418519
  0
LINE
  8
1
 62
7
  6
CONTINUOUS
 10
152.060976
 20
151.833333
 11
151.413928
 21
149.418519
  0
TEXT
  8
1
 62
7
  6
CONTINUOUS
 10
152.060976
 20
140.083333
 40
3.000000
 41
0.500000
  1
17.5
  7
KANJI
 50
90.000000
 51
30.000000
  0
ENDBLK
  0
BLOCK
  8
1
 62
7
  6
CONTINUOUS
  2
*D16
 70
    65
 10
0.0
 20
0.0
  0
LINE
  8
1
 62
7
  6
CONTINUOUS
 10
152.060976
 20
151.833333
 11
152.060976
 21
169.333333
  0
LINE
  8
1
 62
7
  6
CONTINUOUS
 10
154.060976
 20
151.833333
 11
129.417344
 21
151.833333
  0
LINE
  8
1
 62
7
  6
CONTINUOUS
 10
154.060976
 20
169.333333
 11
128.344173
 21
169.333333
  0
LINE
  8
1
 62
7
  6
CONTINUOUS
 10
152.060976
 20
151.833333
 11
151.413928
 21
154.248148
  0
LINE
  8
1
 62
7
  6
CONTINUOUS
 10
152.060976
 20
151.833333
 11
152.708023
 21
154.248148
  0
LINE
  8
1
 62
7
  6
CONTINUOUS
 10
152.060976
 20
169.333333
 11
152.708023
 21
166.918519
  0
LINE
  8
1
 62
7
  6
CONTINUOUS
 10
152.060976
 20
169.333333
 11
151.413928
 21
166.918519
  0
TEXT
  8
1
 62
7
  6
CONTINUOUS
 10
152.060976
 20
157.583333
 40
3.000000
 41
0.500000
  1
17.5
  7
KANJI
 50
90.000000
 51
30.000000
  0
ENDBLK
  0
BLOCK
  8
1
 62
7
  6
CONTINUOUS
  2
*D17
 70
    65
 10
0.0
 20
0.0
  0
LINE
  8
1
 62
7
  6
CONTINUOUS
 10
83.028455
 20
190.916667
 11
100.528455
 21
190.916667
  0
LINE
  8
1
 62
7
  6
CONTINUOUS
 10
83.028455
 20
192.916667
 11
83.028455
 21
181.502033
  0
LINE
  8
1
 62
7
  6
CONTINUOUS
 10
100.528455
 20
192.916667
 11
100.528455
 21
179.719061
  0
LINE
  8
1
 62
7
  6
CONTINUOUS
 10
83.028455
 20
190.916667
 11
85.443270
 21
191.563714
  0
LINE
  8
1
 62
7
  6
CONTINUOUS
 10
83.028455
 20
190.916667
 11
85.443270
 21
190.269619
  0
LINE
  8
1
 62
7
  6
CONTINUOUS
 10
100.528455
 20
190.916667
 11
98.113641
 21
190.269619
  0
LINE
  8
1
 62
7
  6
CONTINUOUS
 10
100.528455
 20
190.916667
 11
98.113641
 21
191.563714
  0
TEXT
  8
1
 62
7
  6
CONTINUOUS
 10
88.778455
 20
190.916667
 40
3.000000
 41
0.500000
  1
17.5
  7
KANJI
 50
0.000000
 51
30.000000
  0
ENDBLK
  0
BLOCK
  8
1
 62
7
  6
CONTINUOUS
  2
*D18
 70
    65
 10
0.0
 20
0.0
  0
LINE
  8
1
 62
7
  6
CONTINUOUS
 10
100.528455
 20
190.916667
 11
118.028455
 21
190.916667
  0
LINE
  8
1
 62
7
  6
CONTINUOUS
 10
100.528455
 20
192.916667
 11
100.528455
 21
179.719061
  0
LINE
  8
1
 62
7
  6
CONTINUOUS
 10
118.028455
 20
192.916667
 11
118.028455
 21
179.719061
  0
LINE
  8
1
 62
7
  6
CONTINUOUS
 10
100.528455
 20
190.916667
 11
102.943270
 21
191.563714
  0
LINE
  8
1
 62
7
  6
CONTINUOUS
 10
100.528455
 20
190.916667
 11
102.943270
 21
190.269619
  0
LINE
  8
1
 62
7
  6
CONTINUOUS
 10
118.028455
 20
190.916667
 11
115.613641
 21
190.269619
  0
LINE
  8
1
 62
7
  6
CONTINUOUS
 10
118.028455
 20
190.916667
 11
115.613641
 21
191.563714
  0
TEXT
  8
1
 62
7
  6
CONTINUOUS
 10
106.278455
 20
190.916667
 40
3.000000
 41
0.500000
  1
17.5
  7
KANJI
 50
0.000000
 51
30.000000
  0
ENDBLK
  0
ENDSEC
  0
SECTION
  2
ENTITIES
  0
LINE
  8
1
 62
7
  6
CONTINUOUS
 10
324.959011
 20
124.213076
 11
330.682588
 21
124.213076
  0
LINE
  8
1
 62
7
  6
CONTINUOUS
 10
324.839770
 20
202.213076
 11
330.444106
 21
202.213076
  0
ARC
  8
1
 62
7
  6
CONTINUOUS
 10
327.031911
 20
197.413076
 40
0.200000
 50
-90.000000
 51
-0.000000
  0
LINE
  8
1
 62
7
  6
CONTINUOUS
 10
327.231911
 20
197.413076
 11
327.231911
 21
207.213076
  0
ARC
  8
1
 62
7
  6
CONTINUOUS
 10
327.031911
 20
129.013076
 40
0.200000
 50
0.000000
 51
90.000000
  0
LINE
  8
1
 62
7
  6
CONTINUOUS
 10
327.231911
 20
119.213076
 11
327.231911
 21
129.013076
  0
LINE
  8
1
 62
7
  6
CONTINUOUS
 10
327.231911
 20
207.213076
 11
328.431911
 21
207.213076
  0
LINE
  8
1
 62
7
  6
CONTINUOUS
 10
327.231911
 20
119.213076
 11
328.431911
 21
119.213076
  0
LINE
  8
1
 62
7
  6
CONTINUOUS
 10
328.431911
 20
119.213076
 11
328.431911
 21
207.213076
  0
LINE
  8
1
 62
7
  6
CONTINUOUS
 10
318.431911
 20
129.213076
 11
327.031911
 21
129.213076
  0
ARC
  8
1
 62
7
  6
CONTINUOUS
 10
318.431911
 20
130.213076
 40
1.000000
 50
180.000000
 51
-90.000000
  0
LINE
  8
1
 62
7
  6
CONTINUOUS
 10
317.431911
 20
130.213076
 11
317.431911
 21
196.213076
  0
LINE
  8
1
 62
7
  6
CONTINUOUS
 10
318.431911
 20
197.213076
 11
327.031911
 21
197.213076
  0
ARC
  8
1
 62
7
  6
CONTINUOUS
 10
318.431911
 20
196.213076
 40
1.000000
 50
90.000000
 51
180.000000
  0
DIMENSION
  8
1
 62
7
  6
CONTINUOUS
  2
*D1
 10
328.431911
 20
109.301152
 11
327.831911
 21
109.301152
 70
     0
  1
1.2
 13
328.431911
 23
117.213076
 14
327.231911
 24
117.213076
 50
180.000000
  0
LINE
  8
1
 62
7
  6
CONTINUOUS
 10
316.931911
 20
131.213076
 11
316.931911
 21
195.213076
  0
LINE
  8
1
 62
7
  6
CONTINUOUS
 10
316.931911
 20
195.213076
 11
317.431911
 21
195.213076
  0
LINE
  8
1
 62
7
  6
CONTINUOUS
 10
316.931911
 20
131.213076
 11
317.431911
 21
131.213076
  0
DIMENSION
  8
1
 62
7
  6
CONTINUOUS
  2
*D2
 10
328.431911
 20
104.293022
 11
322.681911
 21
104.293022
 70
     0
  1
11.5
 13
328.431911
 23
117.213076
 14
316.931911
 24
129.599255
 50
180.000000
  0
DIMENSION
  8
1
 62
7
  6
CONTINUOUS
  2
*D3
 10
317.431911
 20
109.181911
 11
317.181911
 21
109.181911
 70
     0
  1
0.5
 13
317.431911
 23
129.213076
 14
316.931911
 24
129.213076
 50
180.000000
  0
LINE
  8
1
 62
7
  6
CONTINUOUS
 10
314.194181
 20
163.213076
 11
330.901498
 21
163.213076
  0
LINE
  8
1
 62
7
  6
CONTINUOUS
 10
328.431911
 20
144.213076
 11
328.431911
 21
182.211269
  0
LINE
  8
1
 62
7
  6
CONTINUOUS
 10
329.794653
 20
145.908951
 11
329.794653
 21
180.621387
  0
LINE
  8
1
 62
7
  6
CONTINUOUS
 10
328.431911
 20
145.908951
 11
331.943503
 21
145.908951
  0
LINE
  8
1
 62
7
  6
CONTINUOUS
 10
331.996500
 20
182.211269
 11
328.378914
 21
182.211269
  0
LINE
  8
1
 62
7
  6
CONTINUOUS
 10
331.996500
 20
180.621387
 11
331.996500
 21
182.211269
  0
LINE
  8
1
 62
7
  6
CONTINUOUS
 10
328.431911
 20
180.621387
 11
331.996500
 21
180.621387
  0
LINE
  8
1
 62
7
  6
CONTINUOUS
 10
331.943503
 20
144.213076
 11
328.431911
 21
144.213076
  0
LINE
  8
1
 62
7
  6
CONTINUOUS
 10
331.943503
 20
145.908951
 11
331.943503
 21
144.213076
  0
LINE
  8
1
 62
7
  6
CONTINUOUS
 10
329.794653
 20
177.778994
 11
332.014165
 21
177.778994
  0
LINE
  8
1
 62
7
  6
CONTINUOUS
 10
332.014165
 20
177.778994
 11
332.014165
 21
179.120457
  0
LINE
  8
1
 62
7
  6
CONTINUOUS
 10
332.014165
 20
179.120457
 11
329.794653
 21
179.120457
  0
LINE
  8
1
 62
7
  6
CONTINUOUS
 10
329.794653
 20
179.120457
 11
329.794653
 21
177.778994
  0
LINE
  8
1
 62
7
  6
CONTINUOUS
 10
329.794653
 20
175.238994
 11
332.014165
 21
175.238994
  0
LINE
  8
1
 62
7
  6
CONTINUOUS
 10
332.014165
 20
175.238994
 11
332.014165
 21
176.580457
  0
LINE
  8
1
 62
7
  6
CONTINUOUS
 10
332.014165
 20
176.580457
 11
329.794653
 21
176.580457
  0
LINE
  8
1
 62
7
  6
CONTINUOUS
 10
329.794653
 20
176.580457
 11
329.794653
 21
175.238994
  0
LINE
  8
1
 62
7
  6
CONTINUOUS
 10
329.794653
 20
172.698994
 11
332.014165
 21
172.698994
  0
LINE
  8
1
 62
7
  6
CONTINUOUS
 10
332.014165
 20
172.698994
 11
332.014165
 21
174.040457
  0
LINE
  8
1
 62
7
  6
CONTINUOUS
 10
332.014165
 20
174.040457
 11
329.794653
 21
174.040457
  0
LINE
  8
1
 62
7
  6
CONTINUOUS
 10
329.794653
 20
174.040457
 11
329.794653
 21
172.698994
  0
LINE
  8
1
 62
7
  6
CONTINUOUS
 10
329.794653
 20
170.158994
 11
332.014165
 21
170.158994
  0
LINE
  8
1
 62
7
  6
CONTINUOUS
 10
332.014165
 20
170.158994
 11
332.014165
 21
171.500457
  0
LINE
  8
1
 62
7
  6
CONTINUOUS
 10
332.014165
 20
171.500457
 11
329.794653
 21
171.500457
  0
LINE
  8
1
 62
7
  6
CONTINUOUS
 10
329.794653
 20
171.500457
 11
329.794653
 21
170.158994
  0
LINE
  8
1
 62
7
  6
CONTINUOUS
 10
329.794653
 20
167.618994
 11
332.014165
 21
167.618994
  0
LINE
  8
1
 62
7
  6
CONTINUOUS
 10
332.014165
 20
167.618994
 11
332.014165
 21
168.960457
  0
LINE
  8
1
 62
7
  6
CONTINUOUS
 10
332.014165
 20
168.960457
 11
329.794653
 21
168.960457
  0
LINE
  8
1
 62
7
  6
CONTINUOUS
 10
329.794653
 20
168.960457
 11
329.794653
 21
167.618994
  0
LINE
  8
1
 62
7
  6
CONTINUOUS
 10
329.794653
 20
165.078994
 11
332.014165
 21
165.078994
  0
LINE
  8
1
 62
7
  6
CONTINUOUS
 10
332.014165
 20
165.078994
 11
332.014165
 21
166.420457
  0
LINE
  8
1
 62
7
  6
CONTINUOUS
 10
332.014165
 20
166.420457
 11
329.794653
 21
166.420457
  0
LINE
  8
1
 62
7
  6
CONTINUOUS
 10
329.794653
 20
166.420457
 11
329.794653
 21
165.078994
  0
LINE
  8
1
 62
7
  6
CONTINUOUS
 10
329.794653
 20
162.538994
 11
332.014165
 21
162.538994
  0
LINE
  8
1
 62
7
  6
CONTINUOUS
 10
332.014165
 20
162.538994
 11
332.014165
 21
163.880457
  0
LINE
  8
1
 62
7
  6
CONTINUOUS
 10
332.014165
 20
163.880457
 11
329.794653
 21
163.880457
  0
LINE
  8
1
 62
7
  6
CONTINUOUS
 10
329.794653
 20
163.880457
 11
329.794653
 21
162.538994
  0
LINE
  8
1
 62
7
  6
CONTINUOUS
 10
329.794653
 20
159.998994
 11
332.014165
 21
159.998994
  0
LINE
  8
1
 62
7
  6
CONTINUOUS
 10
332.014165
 20
159.998994
 11
332.014165
 21
161.340457
  0
LINE
  8
1
 62
7
  6
CONTINUOUS
 10
332.014165
 20
161.340457
 11
329.794653
 21
161.340457
  0
LINE
  8
1
 62
7
  6
CONTINUOUS
 10
329.794653
 20
161.340457
 11
329.794653
 21
159.998994
  0
LINE
  8
1
 62
7
  6
CONTINUOUS
 10
329.794653
 20
157.458994
 11
332.014165
 21
157.458994
  0
LINE
  8
1
 62
7
  6
CONTINUOUS
 10
332.014165
 20
157.458994
 11
332.014165
 21
158.800457
  0
LINE
  8
1
 62
7
  6
CONTINUOUS
 10
332.014165
 20
158.800457
 11
329.794653
 21
158.800457
  0
LINE
  8
1
 62
7
  6
CONTINUOUS
 10
329.794653
 20
158.800457
 11
329.794653
 21
157.458994
  0
LINE
  8
1
 62
7
  6
CONTINUOUS
 10
329.794653
 20
154.918994
 11
332.014165
 21
154.918994
  0
LINE
  8
1
 62
7
  6
CONTINUOUS
 10
332.014165
 20
154.918994
 11
332.014165
 21
156.260457
  0
LINE
  8
1
 62
7
  6
CONTINUOUS
 10
332.014165
 20
156.260457
 11
329.794653
 21
156.260457
  0
LINE
  8
1
 62
7
  6
CONTINUOUS
 10
329.794653
 20
156.260457
 11
329.794653
 21
154.918994
  0
LINE
  8
1
 62
7
  6
CONTINUOUS
 10
329.794653
 20
152.378994
 11
332.014165
 21
152.378994
  0
LINE
  8
1
 62
7
  6
CONTINUOUS
 10
332.014165
 20
152.378994
 11
332.014165
 21
153.720457
  0
LINE
  8
1
 62
7
  6
CONTINUOUS
 10
332.014165
 20
153.720457
 11
329.794653
 21
153.720457
  0
LINE
  8
1
 62
7
  6
CONTINUOUS
 10
329.794653
 20
153.720457
 11
329.794653
 21
152.378994
  0
LINE
  8
1
 62
7
  6
CONTINUOUS
 10
329.794653
 20
149.838994
 11
332.014165
 21
149.838994
  0
LINE
  8
1
 62
7
  6
CONTINUOUS
 10
332.014165
 20
149.838994
 11
332.014165
 21
151.180457
  0
LINE
  8
1
 62
7
  6
CONTINUOUS
 10
332.014165
 20
151.180457
 11
329.794653
 21
151.180457
  0
LINE
  8
1
 62
7
  6
CONTINUOUS
 10
329.794653
 20
151.180457
 11
329.794653
 21
149.838994
  0
LINE
  8
1
 62
7
  6
CONTINUOUS
 10
329.794653
 20
147.298994
 11
332.014165
 21
147.298994
  0
LINE
  8
1
 62
7
  6
CONTINUOUS
 10
332.014165
 20
147.298994
 11
332.014165
 21
148.640457
  0
LINE
  8
1
 62
7
  6
CONTINUOUS
 10
332.014165
 20
148.640457
 11
329.794653
 21
148.640457
  0
LINE
  8
1
 62
7
  6
CONTINUOUS
 10
329.794653
 20
148.640457
 11
329.794653
 21
147.298994
  0
LINE
  8
1
 62
7
  6
DOT
 10
342.545983
 20
143.583747
 11
342.545983
 21
178.296183
  0
ARC
  8
1
 62
7
  6
DOT
 10
337.937600
 20
175.621387
 40
5.000000
 50
4.667927
 51
90.000000
  0
LINE
  8
1
 62
7
  6
DOT
 10
331.996500
 20
180.621387
 11
337.937600
 21
180.621387
  0
LINE
  8
1
 62
7
  6
DOT
 10
347.431911
 20
120.782533
 11
342.921016
 21
176.028290
  0
ARC
  8
1
 62
7
  6
DOT
 10
337.898934
 20
140.908951
 40
5.000000
 50
4.190634
 51
90.000000
  0
LINE
  8
1
 62
7
  6
DOT
 10
331.943503
 20
145.908951
 11
337.898934
 21
145.908951
  0
LINE
  8
1
 62
7
  6
DOT
 10
342.885566
 20
141.274326
 11
344.334601
 21
121.497980
  0
DIMENSION
  8
1
 62
7
  6
CONTINUOUS
  2
*D4
 10
347.431911
 20
104.293022
 11
337.931911
 21
104.293022
 70
     0
  1
19
 13
347.431911
 23
118.782533
 14
328.431911
 24
117.213076
 50
180.000000
  0
LINE
  8
1
 62
7
  6
CONTINUOUS
 10
318.905224
 20
51.528455
 11
316.361412
 21
51.528455
  0
LINE
  8
1
 62
7
  6
CONTINUOUS
 10
317.754065
 20
50.205059
 11
317.754065
 21
52.801867
  0
ARC
  8
1
 62
7
  6
CONTINUOUS
 10
312.754065
 20
46.528455
 40
1.000000
 50
180.000000
 51
-90.000000
  0
LINE
  8
1
 62
7
  6
CONTINUOUS
 10
311.754065
 20
56.528455
 11
311.754065
 21
46.528455
  0
ARC
  8
1
 62
7
  6
CONTINUOUS
 10
312.754065
 20
56.528455
 40
1.000000
 50
90.000000
 51
180.000000
  0
LINE
  8
1
 62
7
  6
CONTINUOUS
 10
322.754065
 20
57.528455
 11
312.754065
 21
57.528455
  0
ARC
  8
1
 62
7
  6
CONTINUOUS
 10
322.754065
 20
56.528455
 40
1.000000
 50
0.000000
 51
90.000000
  0
LINE
  8
1
 62
7
  6
CONTINUOUS
 10
323.754065
 20
46.528455
 11
323.754065
 21
56.528455
  0
LINE
  8
1
 62
7
  6
CONTINUOUS
 10
312.754065
 20
45.528455
 11
322.754065
 21
45.528455
  0
ARC
  8
1
 62
7
  6
CONTINUOUS
 10
322.754065
 20
46.528455
 40
1.000000
 50
-90.000000
 51
0.000000
  0
LINE
  8
1
 62
7
  6
CONTINUOUS
 10
312.408085
 20
56.336871
 11
312.408085
 21
55.170958
  0
LINE
  8
1
 62
7
  6
CONTINUOUS
 10
312.408085
 20
55.170958
 11
315.534854
 21
55.170958
  0
LINE
  8
1
 62
7
  6
CONTINUOUS
 10
315.534854
 20
55.170958
 11
315.534854
 21
56.336871
  0
LINE
  8
1
 62
7
  6
CONTINUOUS
 10
315.534854
 20
56.336871
 11
312.408085
 21
56.336871
  0
TEXT
  8
1
 62
7
  6
CONTINUOUS
 10
317.754065
 20
48.381587
 40
5.000000
 41
0.500000
  1
1
  7
KANJI
 50
0.000000
 51
0.000000
  0
CIRCLE
  8
1
 62
7
  6
CONTINUOUS
 10
307.503609
 20
32.454898
 40
2.000000
  0
LINE
  8
1
 62
7
  6
CONTINUOUS
 10
307.211640
 20
33.421213
 11
307.211640
 21
32.746867
  0
ARC
  8
1
 62
7
  6
CONTINUOUS
 10
307.411640
 20
33.421213
 40
0.200000
 50
90.000000
 51
180.000000
  0
LINE
  8
1
 62
7
  6
CONTINUOUS
 10
307.636173
 20
33.621213
 11
307.411640
 21
33.621213
  0
LINE
  8
1
 62
7
  6
CONTINUOUS
 10
307.836173
 20
32.746867
 11
307.836173
 21
33.421213
  0
ARC
  8
1
 62
7
  6
CONTINUOUS
 10
307.636173
 20
33.421213
 40
0.200000
 50
0.000000
 51
90.000000
  0
LINE
  8
1
 62
7
  6
CONTINUOUS
 10
307.836173
 20
31.447988
 11
307.836173
 21
32.172297
  0
ARC
  8
1
 62
7
  6
CONTINUOUS
 10
307.636173
 20
31.447988
 40
0.200000
 50
-90.000000
 51
0.000000
  0
LINE
  8
1
 62
7
  6
CONTINUOUS
 10
307.411640
 20
31.247988
 11
307.636173
 21
31.247988
  0
LINE
  8
1
 62
7
  6
CONTINUOUS
 10
307.211640
 20
32.172297
 11
307.211640
 21
31.447988
  0
ARC
  8
1
 62
7
  6
CONTINUOUS
 10
307.411640
 20
31.447988
 40
0.200000
 50
180.000000
 51
-90.000000
  0
LINE
  8
1
 62
7
  6
CONTINUOUS
 10
308.510519
 20
32.746867
 11
307.836173
 21
32.746867
  0
ARC
  8
1
 62
7
  6
CONTINUOUS
 10
308.510519
 20
32.546867
 40
0.200000
 50
0.000000
 51
90.000000
  0
LINE
  8
1
 62
7
  6
CONTINUOUS
 10
308.710519
 20
32.372297
 11
308.710519
 21
32.546867
  0
LINE
  8
1
 62
7
  6
CONTINUOUS
 10
307.836173
 20
32.172297
 11
308.510519
 21
32.172297
  0
ARC
  8
1
 62
7
  6
CONTINUOUS
 10
308.510519
 20
32.372297
 40
0.200000
 50
-90.000000
 51
0.000000
  0
LINE
  8
1
 62
7
  6
CONTINUOUS
 10
306.412387
 20
32.172297
 11
307.211640
 21
32.172297
  0
ARC
  8
1
 62
7
  6
CONTINUOUS
 10
306.412387
 20
32.372297
 40
0.200000
 50
-180.000000
 51
-90.000000
  0
LINE
  8
1
 62
7
  6
CONTINUOUS
 10
306.212387
 20
32.546867
 11
306.212387
 21
32.372297
  0
LINE
  8
1
 62
7
  6
CONTINUOUS
 10
307.211640
 20
32.746867
 11
306.412387
 21
32.746867
  0
ARC
  8
1
 62
7
  6
CONTINUOUS
 10
306.412387
 20
32.546867
 40
0.200000
 50
90.000000
 51
-180.000000
  0
LINE
  8
1
 62
7
  6
CONTINUOUS
 10
261.382301
 20
219.618071
 11
261.382301
 21
215.068171
  0
LINE
  8
1
 62
7
  6
CONTINUOUS
 10
261.382301
 20
228.043814
 11
261.382301
 21
223.072626
  0
LINE
  8
1
 62
7
  6
CONTINUOUS
 10
259.023094
 20
219.618071
 11
263.741509
 21
219.618071
  0
LINE
  8
1
 62
7
  6
CONTINUOUS
 10
257.337945
 20
223.072626
 11
265.595172
 21
223.072626
  0
LINE
  8
1
 62
7
  6
CONTINUOUS
 10
271.429972
 20
224.640712
 11
270.271412
 21
222.574092
  0
LINE
  8
1
 62
7
  6
CONTINUOUS
 10
271.465758
 20
224.685444
 11
269.183422
 21
224.685444
  0
LINE
  8
1
 62
7
  6
CONTINUOUS
 10
270.302724
 20
222.542779
 11
269.183422
 21
224.685444
  0
LINE
  8
1
 62
7
  6
CONTINUOUS
 10
271.273410
 20
222.574092
 11
269.238102
 21
222.574092
  0
LINE
  8
1
 62
7
  6
CONTINUOUS
 10
270.260080
 20
226.135136
 11
270.260080
 21
224.683305
  0
LINE
  8
1
 62
7
  6
CONTINUOUS
 10
270.260080
 20
222.574092
 11
270.260080
 21
220.985020
  0
LINE
  8
1
 62
7
  6
CONTINUOUS
 10
276.591770
 20
224.474764
 11
275.433210
 21
222.408144
  0
LINE
  8
1
 62
7
  6
CONTINUOUS
 10
276.627555
 20
224.519496
 11
274.345220
 21
224.519496
  0
LINE
  8
1
 62
7
  6
CONTINUOUS
 10
275.464522
 20
222.376831
 11
274.345220
 21
224.519496
  0
CIRCLE
  8
1
 62
7
  6
CONTINUOUS
 10
275.440516
 20
223.677374
 40
2.010718
  0
LINE
  8
1
 62
7
  6
CONTINUOUS
 10
276.435207
 20
222.408144
 11
274.399900
 21
222.408144
  0
LINE
  8
1
 62
7
  6
CONTINUOUS
 10
275.447154
 20
220.648347
 11
275.447154
 21
222.408144
  0
LINE
  8
1
 62
7
  6
CONTINUOUS
 10
275.447154
 20
224.532466
 11
275.447154
 21
226.568800
  0
LINE
  8
1
 62
7
  6
CONTINUOUS
 10
280.779757
 20
221.587605
 11
280.130702
 21
221.939502
  0
LINE
  8
1
 62
7
  6
CONTINUOUS
 10
280.130702
 20
221.939502
 11
281.419757
 21
222.588558
  0
LINE
  8
1
 62
7
  6
CONTINUOUS
 10
281.419757
 20
222.588558
 11
280.139757
 21
223.221973
  0
LINE
  8
1
 62
7
  6
CONTINUOUS
 10
280.139757
 20
223.221973
 11
281.419757
 21
223.863208
  0
LINE
  8
1
 62
7
  6
CONTINUOUS
 10
281.419757
 20
223.863208
 11
280.139757
 21
224.496624
  0
LINE
  8
1
 62
7
  6
CONTINUOUS
 10
280.139757
 20
224.496624
 11
281.419757
 21
225.137859
  0
LINE
  8
1
 62
7
  6
CONTINUOUS
 10
281.419757
 20
225.137859
 11
280.779757
 21
225.474117
  0
LINE
  8
1
 62
7
  6
CONTINUOUS
 10
280.779757
 20
225.474117
 11
280.779757
 21
227.582238
  0
LINE
  8
1
 62
7
  6
CONTINUOUS
 10
280.779757
 20
219.484297
 11
280.779757
 21
221.534530
  0
LINE
  8
1
 62
7
  6
CONTINUOUS
 10
284.561991
 20
224.156305
 11
287.328341
 21
224.156305
  0
LINE
  8
1
 62
7
  6
CONTINUOUS
 10
287.328341
 20
222.810513
 11
284.561991
 21
222.810513
  0
LINE
  8
1
 62
7
  6
CONTINUOUS
 10
285.932254
 20
224.176506
 11
285.932254
 21
226.070566
  0
LINE
  8
1
 62
7
  6
CONTINUOUS
 10
285.932254
 20
220.513014
 11
285.932254
 21
222.810513
  0
LINE
  8
1
 62
7
  6
CONTINUOUS
 10
290.150836
 20
224.769518
 11
293.312379
 21
224.769518
  0
LINE
  8
1
 62
7
  6
CONTINUOUS
 10
293.312379
 20
223.231470
 11
290.150836
 21
223.231470
  0
LINE
  8
1
 62
7
  6
CONTINUOUS
 10
291.716851
 20
224.792605
 11
291.716851
 21
226.957245
  0
LINE
  8
1
 62
7
  6
CONTINUOUS
 10
291.716851
 20
220.605757
 11
291.716851
 21
223.231470
  0
TEXT
  8
1
 62
7
  6
CONTINUOUS
 10
292.180361
 20
225.055837
 40
2.048000
 41
0.500000
  1
+
  7
KANJI
 50
0.000000
 51
0.000000
  0
LINE
  8
1
 62
7
  6
CONTINUOUS
 10
290.484990
 20
224.761964
 11
290.141558
 21
223.233554
  0
LINE
  8
1
 62
7
  6
CONTINUOUS
 10
290.900698
 20
224.761964
 11
290.556799
 21
223.231470
  0
LINE
  8
1
 62
7
  6
CONTINUOUS
 10
291.300698
 20
224.761964
 11
290.956799
 21
223.231470
  0
LINE
  8
1
 62
7
  6
CONTINUOUS
 10
291.700698
 20
224.761964
 11
291.356799
 21
223.231470
  0
LINE
  8
1
 62
7
  6
CONTINUOUS
 10
292.100698
 20
224.761964
 11
291.756799
 21
223.231470
  0
LINE
  8
1
 62
7
  6
CONTINUOUS
 10
292.500698
 20
224.761964
 11
292.156799
 21
223.231470
  0
LINE
  8
1
 62
7
  6
CONTINUOUS
 10
292.900698
 20
224.761964
 11
292.556799
 21
223.231470
  0
LINE
  8
1
 62
7
  6
CONTINUOUS
 10
293.300698
 20
224.761964
 11
292.956799
 21
223.231470
  0
LINE
  8
1
 62
7
  6
CONTINUOUS
 10
47.335592
 20
143.083333
 11
41.028455
 21
143.083333
  0
LINE
  8
1
 62
7
  6
CONTINUOUS
 10
47.415086
 20
118.083333
 11
41.028455
 21
118.083333
  0
LINE
  8
1
 62
7
  6
CONTINUOUS
 10
47.494580
 20
168.083333
 11
41.028455
 21
168.083333
  0
LINE
  8
1
 62
7
  6
CONTINUOUS
 10
44.028455
 20
171.778455
 11
44.028455
 21
164.484869
  0
LINE
  8
1
 62
7
  6
CONTINUOUS
 10
44.028455
 20
146.598690
 11
44.028455
 21
139.841689
  0
LINE
  8
1
 62
7
  6
CONTINUOUS
 10
44.028455
 20
121.637534
 11
44.028455
 21
114.184959
  0
CIRCLE
  8
1
 62
7
  6
CONTINUOUS
 10
44.028455
 20
118.083333
 40
2.000000
  0
CIRCLE
  8
1
 62
7
  6
CONTINUOUS
 10
44.028455
 20
143.083333
 40
2.000000
  0
CIRCLE
  8
1
 62
7
  6
CONTINUOUS
 10
44.028455
 20
168.083333
 40
2.000000
  0
LINE
  8
1
 62
7
  6
CONTINUOUS
 10
49.028455
 20
101.083333
 11
49.028455
 21
185.083333
  0
ARC
  8
1
 62
7
  6
CONTINUOUS
 10
60.528455
 20
139.333333
 40
1.000000
 50
90.000000
 51
180.000000
  0
LINE
  8
1
 62
7
  6
CONTINUOUS
 10
70.528455
 20
140.333333
 11
60.528455
 21
140.333333
  0
ARC
  8
1
 62
7
  6
CONTINUOUS
 10
70.528455
 20
139.333333
 40
1.000000
 50
0.000000
 51
90.000000
  0
LINE
  8
1
 62
7
  6
CONTINUOUS
 10
71.528455
 20
129.333333
 11
71.528455
 21
139.333333
  0
ARC
  8
1
 62
7
  6
CONTINUOUS
 10
70.528455
 20
129.333333
 40
1.000000
 50
-90.000000
 51
0.000000
  0
LINE
  8
1
 62
7
  6
CONTINUOUS
 10
60.528455
 20
128.333333
 11
70.528455
 21
128.333333
  0
LINE
  8
1
 62
7
  6
CONTINUOUS
 10
59.528455
 20
139.333333
 11
59.528455
 21
129.333333
  0
ARC
  8
1
 62
7
  6
CONTINUOUS
 10
60.528455
 20
129.333333
 40
1.000000
 50
180.000000
 51
-90.000000
  0
ARC
  8
1
 62
7
  6
CONTINUOUS
 10
78.028455
 20
139.333333
 40
1.000000
 50
90.000000
 51
180.000000
  0
LINE
  8
1
 62
7
  6
CONTINUOUS
 10
88.028455
 20
140.333333
 11
78.028455
 21
140.333333
  0
ARC
  8
1
 62
7
  6
CONTINUOUS
 10
88.028455
 20
139.333333
 40
1.000000
 50
0.000000
 51
90.000000
  0
LINE
  8
1
 62
7
  6
CONTINUOUS
 10
89.028455
 20
129.333333
 11
89.028455
 21
139.333333
  0
ARC
  8
1
 62
7
  6
CONTINUOUS
 10
88.028455
 20
129.333333
 40
1.000000
 50
-90.000000
 51
0.000000
  0
LINE
  8
1
 62
7
  6
CONTINUOUS
 10
78.028455
 20
128.333333
 11
88.028455
 21
128.333333
  0
LINE
  8
1
 62
7
  6
CONTINUOUS
 10
77.028455
 20
139.333333
 11
77.028455
 21
129.333333
  0
ARC
  8
1
 62
7
  6
CONTINUOUS
 10
78.028455
 20
129.333333
 40
1.000000
 50
180.000000
 51
-90.000000
  0
ARC
  8
1
 62
7
  6
CONTINUOUS
 10
60.528455
 20
121.833333
 40
1.000000
 50
90.000000
 51
180.000000
  0
LINE
  8
1
 62
7
  6
CONTINUOUS
 10
70.528455
 20
122.833333
 11
60.528455
 21
122.833333
  0
ARC
  8
1
 62
7
  6
CONTINUOUS
 10
70.528455
 20
121.833333
 40
1.000000
 50
0.000000
 51
90.000000
  0
LINE
  8
1
 62
7
  6
CONTINUOUS
 10
71.528455
 20
111.833333
 11
71.528455
 21
121.833333
  0
ARC
  8
1
 62
7
  6
CONTINUOUS
 10
70.528455
 20
111.833333
 40
1.000000
 50
-90.000000
 51
0.000000
  0
LINE
  8
1
 62
7
  6
CONTINUOUS
 10
60.528455
 20
110.833333
 11
70.528455
 21
110.833333
  0
LINE
  8
1
 62
7
  6
CONTINUOUS
 10
59.528455
 20
121.833333
 11
59.528455
 21
111.833333
  0
ARC
  8
1
 62
7
  6
CONTINUOUS
 10
60.528455
 20
111.833333
 40
1.000000
 50
180.000000
 51
-90.000000
  0
ARC
  8
1
 62
7
  6
CONTINUOUS
 10
78.028455
 20
121.833333
 40
1.000000
 50
90.000000
 51
180.000000
  0
LINE
  8
1
 62
7
  6
CONTINUOUS
 10
88.028455
 20
122.833333
 11
78.028455
 21
122.833333
  0
ARC
  8
1
 62
7
  6
CONTINUOUS
 10
88.028455
 20
121.833333
 40
1.000000
 50
0.000000
 51
90.000000
  0
LINE
  8
1
 62
7
  6
CONTINUOUS
 10
89.028455
 20
111.833333
 11
89.028455
 21
121.833333
  0
ARC
  8
1
 62
7
  6
CONTINUOUS
 10
88.028455
 20
111.833333
 40
1.000000
 50
-90.000000
 51
0.000000
  0
LINE
  8
1
 62
7
  6
CONTINUOUS
 10
78.028455
 20
110.833333
 11
88.028455
 21
110.833333
  0
LINE
  8
1
 62
7
  6
CONTINUOUS
 10
77.028455
 20
121.833333
 11
77.028455
 21
111.833333
  0
ARC
  8
1
 62
7
  6
CONTINUOUS
 10
78.028455
 20
111.833333
 40
1.000000
 50
180.000000
 51
-90.000000
  0
ARC
  8
1
 62
7
  6
CONTINUOUS
 10
60.528455
 20
156.833333
 40
1.000000
 50
90.000000
 51
180.000000
  0
LINE
  8
1
 62
7
  6
CONTINUOUS
 10
70.528455
 20
157.833333
 11
60.528455
 21
157.833333
  0
ARC
  8
1
 62
7
  6
CONTINUOUS
 10
70.528455
 20
156.833333
 40
1.000000
 50
0.000000
 51
90.000000
  0
LINE
  8
1
 62
7
  6
CONTINUOUS
 10
71.528455
 20
146.833333
 11
71.528455
 21
156.833333
  0
ARC
  8
1
 62
7
  6
CONTINUOUS
 10
70.528455
 20
146.833333
 40
1.000000
 50
-90.000000
 51
0.000000
  0
LINE
  8
1
 62
7
  6
CONTINUOUS
 10
60.528455
 20
145.833333
 11
70.528455
 21
145.833333
  0
LINE
  8
1
 62
7
  6
CONTINUOUS
 10
59.528455
 20
156.833333
 11
59.528455
 21
146.833333
  0
ARC
  8
1
 62
7
  6
CONTINUOUS
 10
60.528455
 20
146.833333
 40
1.000000
 50
180.000000
 51
-90.000000
  0
ARC
  8
1
 62
7
  6
CONTINUOUS
 10
78.028455
 20
156.833333
 40
1.000000
 50
90.000000
 51
180.000000
  0
LINE
  8
1
 62
7
  6
CONTINUOUS
 10
88.028455
 20
157.833333
 11
78.028455
 21
157.833333
  0
ARC
  8
1
 62
7
  6
CONTINUOUS
 10
88.028455
 20
156.833333
 40
1.000000
 50
0.000000
 51
90.000000
  0
LINE
  8
1
 62
7
  6
CONTINUOUS
 10
89.028455
 20
146.833333
 11
89.028455
 21
156.833333
  0
ARC
  8
1
 62
7
  6
CONTINUOUS
 10
88.028455
 20
146.833333
 40
1.000000
 50
-90.000000
 51
0.000000
  0
LINE
  8
1
 62
7
  6
CONTINUOUS
 10
78.028455
 20
145.833333
 11
88.028455
 21
145.833333
  0
LINE
  8
1
 62
7
  6
CONTINUOUS
 10
77.028455
 20
156.833333
 11
77.028455
 21
146.833333
  0
ARC
  8
1
 62
7
  6
CONTINUOUS
 10
78.028455
 20
146.833333
 40
1.000000
 50
180.000000
 51
-90.000000
  0
ARC
  8
1
 62
7
  6
CONTINUOUS
 10
60.528455
 20
174.333333
 40
1.000000
 50
90.000000
 51
180.000000
  0
LINE
  8
1
 62
7
  6
CONTINUOUS
 10
70.528455
 20
175.333333
 11
60.528455
 21
175.333333
  0
ARC
  8
1
 62
7
  6
CONTINUOUS
 10
70.528455
 20
174.333333
 40
1.000000
 50
0.000000
 51
90.000000
  0
LINE
  8
1
 62
7
  6
CONTINUOUS
 10
71.528455
 20
164.333333
 11
71.528455
 21
174.333333
  0
ARC
  8
1
 62
7
  6
CONTINUOUS
 10
70.528455
 20
164.333333
 40
1.000000
 50
-90.000000
 51
0.000000
  0
LINE
  8
1
 62
7
  6
CONTINUOUS
 10
60.528455
 20
163.333333
 11
70.528455
 21
163.333333
  0
LINE
  8
1
 62
7
  6
CONTINUOUS
 10
59.528455
 20
174.333333
 11
59.528455
 21
164.333333
  0
ARC
  8
1
 62
7
  6
CONTINUOUS
 10
60.528455
 20
164.333333
 40
1.000000
 50
180.000000
 51
-90.000000
  0
ARC
  8
1
 62
7
  6
CONTINUOUS
 10
78.028455
 20
174.333333
 40
1.000000
 50
90.000000
 51
180.000000
  0
LINE
  8
1
 62
7
  6
CONTINUOUS
 10
88.028455
 20
175.333333
 11
78.028455
 21
175.333333
  0
ARC
  8
1
 62
7
  6
CONTINUOUS
 10
88.028455
 20
174.333333
 40
1.000000
 50
0.000000
 51
90.000000
  0
LINE
  8
1
 62
7
  6
CONTINUOUS
 10
89.028455
 20
164.333333
 11
89.028455
 21
174.333333
  0
ARC
  8
1
 62
7
  6
CONTINUOUS
 10
88.028455
 20
164.333333
 40
1.000000
 50
-90.000000
 51
0.000000
  0
LINE
  8
1
 62
7
  6
CONTINUOUS
 10
78.028455
 20
163.333333
 11
88.028455
 21
163.333333
  0
LINE
  8
1
 62
7
  6
CONTINUOUS
 10
77.028455
 20
174.333333
 11
77.028455
 21
164.333333
  0
ARC
  8
1
 62
7
  6
CONTINUOUS
 10
78.028455
 20
164.333333
 40
1.000000
 50
180.000000
 51
-90.000000
  0
DIMENSION
  8
1
 62
7
  6
CONTINUOUS
  2
*D5
 10
65.528455
 20
190.916667
 11
74.278455
 21
190.916667
 70
     0
  1
17.5
 13
65.528455
 23
180.396341
 14
83.028455
 24
179.502033
 50
0.000000
  0
DIMENSION
  8
1
 62
7
  6
CONTINUOUS
  2
*D6
 10
30.711382
 20
143.083333
 11
30.711382
 21
155.583333
 70
     0
  1
25
 13
40.028455
 23
143.083333
 14
40.028455
 24
168.083333
 50
90.000000
  0
DIMENSION
  8
1
 62
7
  6
CONTINUOUS
  2
*D7
 10
30.711382
 20
118.083333
 11
30.711382
 21
130.583333
 70
     0
  1
25
 13
40.028455
 23
118.083333
 14
40.028455
 24
143.083333
 50
90.000000
  0
DIMENSION
  8
1
 62
7
  6
CONTINUOUS
  2
*D8
 10
25.703252
 20
103.083333
 11
25.703252
 21
143.083333
 70
     0
  1
80
 13
37.028455
 23
103.083333
 14
37.028455
 24
183.083333
 50
90.000000
  0
DIMENSION
  8
1
 62
7
  6
CONTINUOUS
  2
*D9
 10
21.231707
 20
101.083333
 11
21.231707
 21
143.083333
 70
     0
  1
84
 13
39.028455
 23
101.083333
 14
39.028455
 24
185.083333
 50
90.000000
  0
LINE
  8
1
 62
7
  6
CONTINUOUS
 10
51.028455
 20
103.083333
 11
51.028455
 21
183.083333
  0
LINE
  8
1
 62
7
  6
CONTINUOUS
 10
77.682475
 20
174.141749
 11
77.682475
 21
172.975836
  0
LINE
  8
1
 62
7
  6
CONTINUOUS
 10
77.682475
 20
172.975836
 11
80.809244
 21
172.975836
  0
LINE
  8
1
 62
7
  6
CONTINUOUS
 10
80.809244
 20
172.975836
 11
80.809244
 21
174.141749
  0
LINE
  8
1
 62
7
  6
CONTINUOUS
 10
80.809244
 20
174.141749
 11
77.682475
 21
174.141749
  0
LINE
  8
1
 62
7
  6
CONTINUOUS
 10
60.182475
 20
174.141749
 11
60.182475
 21
172.975836
  0
LINE
  8
1
 62
7
  6
CONTINUOUS
 10
60.182475
 20
172.975836
 11
63.309244
 21
172.975836
  0
LINE
  8
1
 62
7
  6
CONTINUOUS
 10
63.309244
 20
172.975836
 11
63.309244
 21
174.141749
  0
LINE
  8
1
 62
7
  6
CONTINUOUS
 10
63.309244
 20
174.141749
 11
60.182475
 21
174.141749
  0
LINE
  8
1
 62
7
  6
CONTINUOUS
 10
77.682475
 20
156.641749
 11
77.682475
 21
155.475836
  0
LINE
  8
1
 62
7
  6
CONTINUOUS
 10
77.682475
 20
155.475836
 11
80.809244
 21
155.475836
  0
LINE
  8
1
 62
7
  6
CONTINUOUS
 10
80.809244
 20
155.475836
 11
80.809244
 21
156.641749
  0
LINE
  8
1
 62
7
  6
CONTINUOUS
 10
80.809244
 20
156.641749
 11
77.682475
 21
156.641749
  0
LINE
  8
1
 62
7
  6
CONTINUOUS
 10
60.182475
 20
156.641749
 11
60.182475
 21
155.475836
  0
LINE
  8
1
 62
7
  6
CONTINUOUS
 10
60.182475
 20
155.475836
 11
63.309244
 21
155.475836
  0
LINE
  8
1
 62
7
  6
CONTINUOUS
 10
63.309244
 20
155.475836
 11
63.309244
 21
156.641749
  0
LINE
  8
1
 62
7
  6
CONTINUOUS
 10
63.309244
 20
156.641749
 11
60.182475
 21
156.641749
  0
LINE
  8
1
 62
7
  6
CONTINUOUS
 10
60.182475
 20
139.141749
 11
60.182475
 21
137.975836
  0
LINE
  8
1
 62
7
  6
CONTINUOUS
 10
60.182475
 20
137.975836
 11
63.309244
 21
137.975836
  0
LINE
  8
1
 62
7
  6
CONTINUOUS
 10
63.309244
 20
137.975836
 11
63.309244
 21
139.141749
  0
LINE
  8
1
 62
7
  6
CONTINUOUS
 10
63.309244
 20
139.141749
 11
60.182475
 21
139.141749
  0
LINE
  8
1
 62
7
  6
CONTINUOUS
 10
77.682475
 20
139.141749
 11
77.682475
 21
137.975836
  0
LINE
  8
1
 62
7
  6
CONTINUOUS
 10
77.682475
 20
137.975836
 11
80.809244
 21
137.975836
  0
LINE
  8
1
 62
7
  6
CONTINUOUS
 10
80.809244
 20
137.975836
 11
80.809244
 21
139.141749
  0
LINE
  8
1
 62
7
  6
CONTINUOUS
 10
80.809244
 20
139.141749
 11
77.682475
 21
139.141749
  0
LINE
  8
1
 62
7
  6
CONTINUOUS
 10
77.682475
 20
121.641749
 11
77.682475
 21
120.475836
  0
LINE
  8
1
 62
7
  6
CONTINUOUS
 10
77.682475
 20
120.475836
 11
80.809244
 21
120.475836
  0
LINE
  8
1
 62
7
  6
CONTINUOUS
 10
80.809244
 20
120.475836
 11
80.809244
 21
121.641749
  0
LINE
  8
1
 62
7
  6
CONTINUOUS
 10
80.809244
 20
121.641749
 11
77.682475
 21
121.641749
  0
LINE
  8
1
 62
7
  6
CONTINUOUS
 10
60.182475
 20
121.641749
 11
60.182475
 21
120.475836
  0
LINE
  8
1
 62
7
  6
CONTINUOUS
 10
60.182475
 20
120.475836
 11
63.309244
 21
120.475836
  0
LINE
  8
1
 62
7
  6
CONTINUOUS
 10
63.309244
 20
120.475836
 11
63.309244
 21
121.641749
  0
LINE
  8
1
 62
7
  6
CONTINUOUS
 10
63.309244
 20
121.641749
 11
60.182475
 21
121.641749
  0
TEXT
  8
1
 62
7
  6
CONTINUOUS
 10
83.028455
 20
114.282671
 40
5.000000
 41
0.500000
  1
2
  7
KANJI
 50
0.000000
 51
0.000000
  0
TEXT
  8
1
 62
7
  6
CONTINUOUS
 10
65.528455
 20
113.686465
 40
5.000000
 41
0.500000
  1
1
  7
KANJI
 50
0.000000
 51
0.000000
  0
ARC
  8
1
 62
7
  6
CONTINUOUS
 10
42.028455
 20
182.083333
 40
3.000000
 50
90.000000
 51
180.000000
  0
LINE
  8
1
 62
7
  6
CONTINUOUS
 10
39.028455
 20
182.083333
 11
39.028455
 21
104.083333
  0
ARC
  8
1
 62
7
  6
CONTINUOUS
 10
42.028455
 20
104.083333
 40
3.000000
 50
180.000000
 51
-90.000000
  0
LINE
  8
1
 62
7
  6
CONTINUOUS
 10
141.028455
 20
168.083333
 11
134.621951
 21
168.083333
  0
LINE
  8
1
 62
7
  6
CONTINUOUS
 10
141.028455
 20
143.083333
 11
134.482836
 21
143.083333
  0
LINE
  8
1
 62
7
  6
CONTINUOUS
 10
141.028455
 20
118.083333
 11
135.118790
 21
118.083333
  0
LINE
  8
1
 62
7
  6
CONTINUOUS
 10
138.028455
 20
171.778455
 11
138.028455
 21
164.961834
  0
LINE
  8
1
 62
7
  6
CONTINUOUS
 10
138.028455
 20
146.201220
 11
138.028455
 21
140.000678
  0
LINE
  8
1
 62
7
  6
CONTINUOUS
 10
138.028455
 20
121.478546
 11
138.028455
 21
114.363821
  0
CIRCLE
  8
1
 62
7
  6
CONTINUOUS
 10
138.028455
 20
168.083333
 40
2.000000
  0
CIRCLE
  8
1
 62
7
  6
CONTINUOUS
 10
138.028455
 20
143.083333
 40
2.000000
  0
CIRCLE
  8
1
 62
7
  6
CONTINUOUS
 10
138.028455
 20
118.083333
 40
2.000000
  0
LINE
  8
1
 62
7
  6
CONTINUOUS
 10
133.028455
 20
185.083333
 11
133.028455
 21
101.083333
  0
LINE
  8
1
 62
7
  6
CONTINUOUS
 10
131.028455
 20
103.083333
 11
51.028455
 21
103.083333
  0
LINE
  8
1
 62
7
  6
CONTINUOUS
 10
131.028455
 20
183.083333
 11
131.028455
 21
103.083333
  0
LINE
  8
1
 62
7
  6
CONTINUOUS
 10
51.028455
 20
183.083333
 11
131.028455
 21
183.083333
  0
DIMENSION
  8
1
 62
7
  6
CONTINUOUS
  2
*D10
 10
51.028455
 20
94.062541
 11
91.028455
 21
94.062541
 70
     0
  1
80
 13
51.028455
 23
101.083333
 14
131.028455
 24
101.083333
 50
0.000000
  0
DIMENSION
  8
1
 62
7
  6
CONTINUOUS
  2
*D11
 10
49.028455
 20
89.889099
 11
91.028455
 21
89.889099
 70
     0
  1
84
 13
49.028455
 23
99.083333
 14
133.028455
 24
99.083333
 50
0.000000
  0
DIMENSION
  8
1
 62
7
  6
CONTINUOUS
  2
*D12
 10
44.028455
 20
84.956850
 11
91.028455
 21
84.956850
 70
     0
  1
94
 13
44.028455
 23
112.184959
 14
138.028455
 24
112.363821
 50
0.000000
  0
DIMENSION
  8
1
 62
7
  6
CONTINUOUS
  2
*D13
 10
39.028455
 20
80.214302
 11
91.028455
 21
80.214302
 70
     0
  1
104
 13
39.028455
 23
101.083333
 14
143.028455
 24
101.083333
 50
0.000000
  0
ARC
  8
1
 62
7
  6
CONTINUOUS
 10
140.028455
 20
104.083333
 40
3.000000
 50
-90.000000
 51
0.000000
  0
LINE
  8
1
 62
7
  6
CONTINUOUS
 10
143.028455
 20
182.083333
 11
143.028455
 21
104.083333
  0
ARC
  8
1
 62
7
  6
CONTINUOUS
 10
140.028455
 20
182.083333
 40
3.000000
 50
-0.000000
 51
90.000000
  0
LINE
  8
1
 62
7
  6
CONTINUOUS
 10
42.028455
 20
185.083333
 11
140.028455
 21
185.083333
  0
LINE
  8
1
 62
7
  6
CONTINUOUS
 10
140.028455
 20
101.083333
 11
42.028455
 21
101.083333
  0
LINE
  8
1
 62
7
  6
CONTINUOUS
 10
139.292525
 20
169.633213
 11
147.833785
 21
184.579946
  0
LINE
  8
1
 62
7
  6
CONTINUOUS
 10
147.833785
 20
184.579946
 11
156.439062
 21
184.579946
  0
TEXT
  8
1
 62
7
  6
CONTINUOUS
 10
150.189062
 20
184.579946
 40
3.000000
 41
0.520833
  1
6-φ4
  7
KANJI
 50
0.000000
 51
30.000000
  0
LINE
  8
1
 62
7
  6
CONTINUOUS
 10
139.292525
 20
169.633213
 11
139.928847
 21
172.050876
  0
LINE
  8
1
 62
7
  6
CONTINUOUS
 10
139.292525
 20
169.633213
 11
141.052427
 21
171.408810
  0
ARC
  8
1
 62
7
  6
CONTINUOUS
 10
113.028455
 20
139.333333
 40
1.000000
 50
90.000000
 51
180.000000
  0
LINE
  8
1
 62
7
  6
CONTINUOUS
 10
123.028455
 20
140.333333
 11
113.028455
 21
140.333333
  0
ARC
  8
1
 62
7
  6
CONTINUOUS
 10
123.028455
 20
139.333333
 40
1.000000
 50
0.000000
 51
90.000000
  0
LINE
  8
1
 62
7
  6
CONTINUOUS
 10
124.028455
 20
129.333333
 11
124.028455
 21
139.333333
  0
ARC
  8
1
 62
7
  6
CONTINUOUS
 10
123.028455
 20
129.333333
 40
1.000000
 50
-90.000000
 51
0.000000
  0
LINE
  8
1
 62
7
  6
CONTINUOUS
 10
113.028455
 20
128.333333
 11
123.028455
 21
128.333333
  0
LINE
  8
1
 62
7
  6
CONTINUOUS
 10
112.028455
 20
139.333333
 11
112.028455
 21
129.333333
  0
ARC
  8
1
 62
7
  6
CONTINUOUS
 10
113.028455
 20
129.333333
 40
1.000000
 50
180.000000
 51
-90.000000
  0
ARC
  8
1
 62
7
  6
CONTINUOUS
 10
113.028455
 20
121.833333
 40
1.000000
 50
90.000000
 51
180.000000
  0
LINE
  8
1
 62
7
  6
CONTINUOUS
 10
123.028455
 20
122.833333
 11
113.028455
 21
122.833333
  0
ARC
  8
1
 62
7
  6
CONTINUOUS
 10
123.028455
 20
121.833333
 40
1.000000
 50
0.000000
 51
90.000000
  0
LINE
  8
1
 62
7
  6
CONTINUOUS
 10
124.028455
 20
111.833333
 11
124.028455
 21
121.833333
  0
ARC
  8
1
 62
7
  6
CONTINUOUS
 10
123.028455
 20
111.833333
 40
1.000000
 50
-90.000000
 51
0.000000
  0
LINE
  8
1
 62
7
  6
CONTINUOUS
 10
113.028455
 20
110.833333
 11
123.028455
 21
110.833333
  0
LINE
  8
1
 62
7
  6
CONTINUOUS
 10
112.028455
 20
121.833333
 11
112.028455
 21
111.833333
  0
ARC
  8
1
 62
7
  6
CONTINUOUS
 10
113.028455
 20
111.833333
 40
1.000000
 50
180.000000
 51
-90.000000
  0
ARC
  8
1
 62
7
  6
CONTINUOUS
 10
113.028455
 20
156.833333
 40
1.000000
 50
90.000000
 51
180.000000
  0
LINE
  8
1
 62
7
  6
CONTINUOUS
 10
123.028455
 20
157.833333
 11
113.028455
 21
157.833333
  0
ARC
  8
1
 62
7
  6
CONTINUOUS
 10
123.028455
 20
156.833333
 40
1.000000
 50
0.000000
 51
90.000000
  0
LINE
  8
1
 62
7
  6
CONTINUOUS
 10
124.028455
 20
146.833333
 11
124.028455
 21
156.833333
  0
ARC
  8
1
 62
7
  6
CONTINUOUS
 10
123.028455
 20
146.833333
 40
1.000000
 50
-90.000000
 51
0.000000
  0
LINE
  8
1
 62
7
  6
CONTINUOUS
 10
113.028455
 20
145.833333
 11
123.028455
 21
145.833333
  0
LINE
  8
1
 62
7
  6
CONTINUOUS
 10
112.028455
 20
156.833333
 11
112.028455
 21
146.833333
  0
ARC
  8
1
 62
7
  6
CONTINUOUS
 10
113.028455
 20
146.833333
 40
1.000000
 50
180.000000
 51
-90.000000
  0
ARC
  8
1
 62
7
  6
CONTINUOUS
 10
113.028455
 20
174.333333
 40
1.000000
 50
90.000000
 51
180.000000
  0
LINE
  8
1
 62
7
  6
CONTINUOUS
 10
123.028455
 20
175.333333
 11
113.028455
 21
175.333333
  0
ARC
  8
1
 62
7
  6
CONTINUOUS
 10
123.028455
 20
174.333333
 40
1.000000
 50
0.000000
 51
90.000000
  0
LINE
  8
1
 62
7
  6
CONTINUOUS
 10
124.028455
 20
164.333333
 11
124.028455
 21
174.333333
  0
ARC
  8
1
 62
7
  6
CONTINUOUS
 10
123.028455
 20
164.333333
 40
1.000000
 50
-90.000000
 51
0.000000
  0
LINE
  8
1
 62
7
  6
CONTINUOUS
 10
113.028455
 20
163.333333
 11
123.028455
 21
163.333333
  0
LINE
  8
1
 62
7
  6
CONTINUOUS
 10
112.028455
 20
174.333333
 11
112.028455
 21
164.333333
  0
ARC
  8
1
 62
7
  6
CONTINUOUS
 10
113.028455
 20
164.333333
 40
1.000000
 50
180.000000
 51
-90.000000
  0
LINE
  8
1
 62
7
  6
CONTINUOUS
 10
112.682475
 20
174.141749
 11
112.682475
 21
172.975836
  0
LINE
  8
1
 62
7
  6
CONTINUOUS
 10
112.682475
 20
172.975836
 11
115.809244
 21
172.975836
  0
LINE
  8
1
 62
7
  6
CONTINUOUS
 10
115.809244
 20
172.975836
 11
115.809244
 21
174.141749
  0
LINE
  8
1
 62
7
  6
CONTINUOUS
 10
115.809244
 20
174.141749
 11
112.682475
 21
174.141749
  0
LINE
  8
1
 62
7
  6
CONTINUOUS
 10
112.682475
 20
156.641749
 11
112.682475
 21
155.475836
  0
LINE
  8
1
 62
7
  6
CONTINUOUS
 10
112.682475
 20
155.475836
 11
115.809244
 21
155.475836
  0
LINE
  8
1
 62
7
  6
CONTINUOUS
 10
115.809244
 20
155.475836
 11
115.809244
 21
156.641749
  0
LINE
  8
1
 62
7
  6
CONTINUOUS
 10
115.809244
 20
156.641749
 11
112.682475
 21
156.641749
  0
LINE
  8
1
 62
7
  6
CONTINUOUS
 10
112.682475
 20
139.141749
 11
112.682475
 21
137.975836
  0
LINE
  8
1
 62
7
  6
CONTINUOUS
 10
112.682475
 20
137.975836
 11
115.809244
 21
137.975836
  0
LINE
  8
1
 62
7
  6
CONTINUOUS
 10
115.809244
 20
137.975836
 11
115.809244
 21
139.141749
  0
LINE
  8
1
 62
7
  6
CONTINUOUS
 10
115.809244
 20
139.141749
 11
112.682475
 21
139.141749
  0
LINE
  8
1
 62
7
  6
CONTINUOUS
 10
112.682475
 20
121.641749
 11
112.682475
 21
120.475836
  0
LINE
  8
1
 62
7
  6
CONTINUOUS
 10
112.682475
 20
120.475836
 11
115.809244
 21
120.475836
  0
LINE
  8
1
 62
7
  6
CONTINUOUS
 10
115.809244
 20
120.475836
 11
115.809244
 21
121.641749
  0
LINE
  8
1
 62
7
  6
CONTINUOUS
 10
115.809244
 20
121.641749
 11
112.682475
 21
121.641749
  0
DIMENSION
  8
1
 62
7
  6
CONTINUOUS
  2
*D14
 10
152.060976
 20
116.833333
 11
152.060976
 21
125.583333
 70
     0
  1
17.5
 13
128.701897
 23
116.833333
 14
128.880759
 24
134.333333
 50
90.000000
  0
DIMENSION
  8
1
 62
7
  6
CONTINUOUS
  2
*D15
 10
152.060976
 20
134.333333
 11
152.060976
 21
143.083333
 70
     0
  1
17.5
 13
128.880759
 23
134.333333
 14
129.417344
 24
151.833333
 50
90.000000
  0
DIMENSION
  8
1
 62
7
  6
CONTINUOUS
  2
*D16
 10
152.060976
 20
151.833333
 11
152.060976
 21
160.583333
 70
     0
  1
17.5
 13
129.417344
 23
151.833333
 14
128.344173
 24
169.333333
 50
90.000000
  0
ARC
  8
1
 62
7
  6
CONTINUOUS
 10
95.528455
 20
139.333333
 40
1.000000
 50
90.000000
 51
180.000000
  0
LINE
  8
1
 62
7
  6
CONTINUOUS
 10
105.528455
 20
140.333333
 11
95.528455
 21
140.333333
  0
ARC
  8
1
 62
7
  6
CONTINUOUS
 10
105.528455
 20
139.333333
 40
1.000000
 50
0.000000
 51
90.000000
  0
LINE
  8
1
 62
7
  6
CONTINUOUS
 10
106.528455
 20
129.333333
 11
106.528455
 21
139.333333
  0
ARC
  8
1
 62
7
  6
CONTINUOUS
 10
105.528455
 20
129.333333
 40
1.000000
 50
-90.000000
 51
0.000000
  0
LINE
  8
1
 62
7
  6
CONTINUOUS
 10
95.528455
 20
128.333333
 11
105.528455
 21
128.333333
  0
LINE
  8
1
 62
7
  6
CONTINUOUS
 10
94.528455
 20
139.333333
 11
94.528455
 21
129.333333
  0
ARC
  8
1
 62
7
  6
CONTINUOUS
 10
95.528455
 20
129.333333
 40
1.000000
 50
180.000000
 51
-90.000000
  0
ARC
  8
1
 62
7
  6
CONTINUOUS
 10
95.528455
 20
121.833333
 40
1.000000
 50
90.000000
 51
180.000000
  0
LINE
  8
1
 62
7
  6
CONTINUOUS
 10
105.528455
 20
122.833333
 11
95.528455
 21
122.833333
  0
ARC
  8
1
 62
7
  6
CONTINUOUS
 10
105.528455
 20
121.833333
 40
1.000000
 50
0.000000
 51
90.000000
  0
LINE
  8
1
 62
7
  6
CONTINUOUS
 10
106.528455
 20
111.833333
 11
106.528455
 21
121.833333
  0
ARC
  8
1
 62
7
  6
CONTINUOUS
 10
105.528455
 20
111.833333
 40
1.000000
 50
-90.000000
 51
0.000000
  0
LINE
  8
1
 62
7
  6
CONTINUOUS
 10
95.528455
 20
110.833333
 11
105.528455
 21
110.833333
  0
LINE
  8
1
 62
7
  6
CONTINUOUS
 10
94.528455
 20
121.833333
 11
94.528455
 21
111.833333
  0
ARC
  8
1
 62
7
  6
CONTINUOUS
 10
95.528455
 20
111.833333
 40
1.000000
 50
180.000000
 51
-90.000000
  0
ARC
  8
1
 62
7
  6
CONTINUOUS
 10
95.528455
 20
156.833333
 40
1.000000
 50
90.000000
 51
180.000000
  0
LINE
  8
1
 62
7
  6
CONTINUOUS
 10
105.528455
 20
157.833333
 11
95.528455
 21
157.833333
  0
ARC
  8
1
 62
7
  6
CONTINUOUS
 10
105.528455
 20
156.833333
 40
1.000000
 50
0.000000
 51
90.000000
  0
LINE
  8
1
 62
7
  6
CONTINUOUS
 10
106.528455
 20
146.833333
 11
106.528455
 21
156.833333
  0
ARC
  8
1
 62
7
  6
CONTINUOUS
 10
105.528455
 20
146.833333
 40
1.000000
 50
-90.000000
 51
0.000000
  0
LINE
  8
1
 62
7
  6
CONTINUOUS
 10
95.528455
 20
145.833333
 11
105.528455
 21
145.833333
  0
LINE
  8
1
 62
7
  6
CONTINUOUS
 10
94.528455
 20
156.833333
 11
94.528455
 21
146.833333
  0
ARC
  8
1
 62
7
  6
CONTINUOUS
 10
95.528455
 20
146.833333
 40
1.000000
 50
180.000000
 51
-90.000000
  0
ARC
  8
1
 62
7
  6
CONTINUOUS
 10
95.528455
 20
174.333333
 40
1.000000
 50
90.000000
 51
180.000000
  0
LINE
  8
1
 62
7
  6
CONTINUOUS
 10
105.528455
 20
175.333333
 11
95.528455
 21
175.333333
  0
ARC
  8
1
 62
7
  6
CONTINUOUS
 10
105.528455
 20
174.333333
 40
1.000000
 50
0.000000
 51
90.000000
  0
LINE
  8
1
 62
7
  6
CONTINUOUS
 10
106.528455
 20
164.333333
 11
106.528455
 21
174.333333
  0
ARC
  8
1
 62
7
  6
CONTINUOUS
 10
105.528455
 20
164.333333
 40
1.000000
 50
-90.000000
 51
0.000000
  0
LINE
  8
1
 62
7
  6
CONTINUOUS
 10
95.528455
 20
163.333333
 11
105.528455
 21
163.333333
  0
LINE
  8
1
 62
7
  6
CONTINUOUS
 10
94.528455
 20
174.333333
 11
94.528455
 21
164.333333
  0
ARC
  8
1
 62
7
  6
CONTINUOUS
 10
95.528455
 20
164.333333
 40
1.000000
 50
180.000000
 51
-90.000000
  0
LINE
  8
1
 62
7
  6
CONTINUOUS
 10
95.182475
 20
174.141749
 11
95.182475
 21
172.975836
  0
LINE
  8
1
 62
7
  6
CONTINUOUS
 10
95.182475
 20
172.975836
 11
98.309244
 21
172.975836
  0
LINE
  8
1
 62
7
  6
CONTINUOUS
 10
98.309244
 20
172.975836
 11
98.309244
 21
174.141749
  0
LINE
  8
1
 62
7
  6
CONTINUOUS
 10
98.309244
 20
174.141749
 11
95.182475
 21
174.141749
  0
LINE
  8
1
 62
7
  6
CONTINUOUS
 10
95.182475
 20
156.641749
 11
95.182475
 21
155.475836
  0
LINE
  8
1
 62
7
  6
CONTINUOUS
 10
95.182475
 20
155.475836
 11
98.309244
 21
155.475836
  0
LINE
  8
1
 62
7
  6
CONTINUOUS
 10
98.309244
 20
155.475836
 11
98.309244
 21
156.641749
  0
LINE
  8
1
 62
7
  6
CONTINUOUS
 10
98.309244
 20
156.641749
 11
95.182475
 21
156.641749
  0
LINE
  8
1
 62
7
  6
CONTINUOUS
 10
95.182475
 20
139.141749
 11
95.182475
 21
137.975836
  0
LINE
  8
1
 62
7
  6
CONTINUOUS
 10
95.182475
 20
137.975836
 11
98.309244
 21
137.975836
  0
LINE
  8
1
 62
7
  6
CONTINUOUS
 10
98.309244
 20
137.975836
 11
98.309244
 21
139.141749
  0
LINE
  8
1
 62
7
  6
CONTINUOUS
 10
98.309244
 20
139.141749
 11
95.182475
 21
139.141749
  0
LINE
  8
1
 62
7
  6
CONTINUOUS
 10
95.182475
 20
121.641749
 11
95.182475
 21
120.475836
  0
LINE
  8
1
 62
7
  6
CONTINUOUS
 10
95.182475
 20
120.475836
 11
98.309244
 21
120.475836
  0
LINE
  8
1
 62
7
  6
CONTINUOUS
 10
98.309244
 20
120.475836
 11
98.309244
 21
121.641749
  0
LINE
  8
1
 62
7
  6
CONTINUOUS
 10
98.309244
 20
121.641749
 11
95.182475
 21
121.641749
  0
TEXT
  8
1
 62
7
  6
CONTINUOUS
 10
100.528455
 20
114.640394
 40
5.000000
 41
0.500000
  1
3
  7
KANJI
 50
0.000000
 51
0.000000
  0
TEXT
  8
1
 62
7
  6
CONTINUOUS
 10
118.028455
 20
114.640394
 40
5.000000
 41
0.500000
  1
4
  7
KANJI
 50
0.000000
 51
0.000000
  0
TEXT
  8
1
 62
7
  6
CONTINUOUS
 10
65.528455
 20
130.976438
 40
5.000000
 41
0.500000
  1
5
  7
KANJI
 50
0.000000
 51
0.000000
  0
TEXT
  8
1
 62
7
  6
CONTINUOUS
 10
83.028455
 20
130.976438
 40
5.000000
 41
0.500000
  1
6
  7
KANJI
 50
0.000000
 51
0.000000
  0
TEXT
  8
1
 62
7
  6
CONTINUOUS
 10
100.528455
 20
131.055932
 40
5.000000
 41
0.500000
  1
7
  7
KANJI
 50
0.000000
 51
0.000000
  0
TEXT
  8
1
 62
7
  6
CONTINUOUS
 10
118.028455
 20
131.055932
 40
5.000000
 41
0.500000
  1
8
  7
KANJI
 50
0.000000
 51
0.000000
  0
TEXT
  8
1
 62
7
  6
CONTINUOUS
 10
65.528455
 20
148.226664
 40
5.000000
 41
0.500000
  1
9
  7
KANJI
 50
0.000000
 51
0.000000
  0
TEXT
  8
1
 62
7
  6
CONTINUOUS
 10
83.028455
 20
148.862617
 40
5.000000
 41
0.500000
  1
10
  7
KANJI
 50
0.000000
 51
0.000000
  0
TEXT
  8
1
 62
7
  6
CONTINUOUS
 10
100.528455
 20
148.703628
 40
5.000000
 41
0.500000
  1
11
  7
KANJI
 50
0.000000
 51
0.000000
  0
TEXT
  8
1
 62
7
  6
CONTINUOUS
 10
118.028455
 20
148.703628
 40
5.000000
 41
0.500000
  1
12
  7
KANJI
 50
0.000000
 51
0.000000
  0
TEXT
  8
1
 62
7
  6
CONTINUOUS
 10
64.367209
 20
165.874360
 40
5.000000
 41
0.500000
  1
13
  7
KANJI
 50
0.000000
 51
0.000000
  0
TEXT
  8
1
 62
7
  6
CONTINUOUS
 10
82.551491
 20
165.874360
 40
5.000000
 41
0.500000
  1
14
  7
KANJI
 50
0.000000
 51
0.000000
  0
TEXT
  8
1
 62
7
  6
CONTINUOUS
 10
99.503613
 20
165.476889
 40
5.000000
 41
0.500000
  1
15
  7
KANJI
 50
0.000000
 51
0.000000
  0
TEXT
  8
1
 62
7
  6
CONTINUOUS
 10
117.003613
 20
165.476889
 40
5.000000
 41
0.500000
  1
16
  7
KANJI
 50
0.000000
 51
0.000000
  0
LINE
  8
1
 62
7
  6
CONTINUOUS
 10
304.843103
 20
88.521438
 11
304.843103
 21
87.509694
  0
LINE
  8
1
 62
7
  6
CONTINUOUS
 10
304.843103
 20
87.509694
 11
306.755279
 21
87.509694
  0
LINE
  8
1
 62
7
  6
CONTINUOUS
 10
306.755279
 20
87.509694
 11
306.755279
 21
88.521438
  0
LINE
  8
1
 62
7
  6
CONTINUOUS
 10
306.755279
 20
88.521438
 11
304.843103
 21
88.521438
  0
TEXT
  8
1
 62
7
  6
CONTINUOUS
 10
307.033040
 20
89.513567
 40
2.000000
 41
0.500000
  1
15
  7
KANJI
 50
0.000000
 51
0.000000
  0
TEXT
  8
1
 62
7
  6
CONTINUOUS
 10
307.033040
 20
89.387099
 40
2.000000
 41
0.500000
  1
1
  7
KANJI
 50
0.000000
 51
0.000000
  0
TEXT
  8
1
 62
7
  6
CONTINUOUS
 10
344.540149
 20
89.377438
 40
2.000000
 41
0.500000
  1
1
  7
KANJI
 50
0.000000
 51
0.000000
  0
LINE
  8
1
 62
7
  6
CONTINUOUS
 10
306.248303
 20
84.352680
 11
306.248303
 21
83.306066
  0
LINE
  8
1
 62
7
  6
CONTINUOUS
 10
306.248303
 20
83.306066
 11
306.755279
 21
83.306066
  0
LINE
  8
1
 62
7
  6
CONTINUOUS
 10
306.755279
 20
84.352680
 11
306.248303
 21
84.352680
  0
LINE
  8
1
 62
7
  6
CONTINUOUS
 10
308.075062
 20
86.436147
 11
308.075062
 21
85.297936
  0
LINE
  8
1
 62
7
  6
CONTINUOUS
 10
308.075062
 20
85.297936
 11
309.213273
 21
85.297936
  0
LINE
  8
1
 62
7
  6
CONTINUOUS
 10
309.213273
 20
85.297936
 11
309.213273
 21
86.436147
  0
LINE
  8
1
 62
7
  6
CONTINUOUS
 10
309.213273
 20
86.436147
 11
308.075062
 21
86.436147
  0
LINE
  8
1
 62
7
  6
CONTINUOUS
 10
310.615062
 20
86.436147
 11
310.615062
 21
85.297936
  0
LINE
  8
1
 62
7
  6
CONTINUOUS
 10
310.615062
 20
85.297936
 11
311.753273
 21
85.297936
  0
LINE
  8
1
 62
7
  6
CONTINUOUS
 10
311.753273
 20
85.297936
 11
311.753273
 21
86.436147
  0
LINE
  8
1
 62
7
  6
CONTINUOUS
 10
311.753273
 20
86.436147
 11
310.615062
 21
86.436147
  0
LINE
  8
1
 62
7
  6
CONTINUOUS
 10
313.155062
 20
86.436147
 11
313.155062
 21
85.297936
  0
LINE
  8
1
 62
7
  6
CONTINUOUS
 10
313.155062
 20
85.297936
 11
314.293273
 21
85.297936
  0
LINE
  8
1
 62
7
  6
CONTINUOUS
 10
314.293273
 20
85.297936
 11
314.293273
 21
86.436147
  0
LINE
  8
1
 62
7
  6
CONTINUOUS
 10
314.293273
 20
86.436147
 11
313.155062
 21
86.436147
  0
LINE
  8
1
 62
7
  6
CONTINUOUS
 10
315.695062
 20
86.436147
 11
315.695062
 21
85.297936
  0
LINE
  8
1
 62
7
  6
CONTINUOUS
 10
315.695062
 20
85.297936
 11
316.833273
 21
85.297936
  0
LINE
  8
1
 62
7
  6
CONTINUOUS
 10
316.833273
 20
85.297936
 11
316.833273
 21
86.436147
  0
LINE
  8
1
 62
7
  6
CONTINUOUS
 10
316.833273
 20
86.436147
 11
315.695062
 21
86.436147
  0
LINE
  8
1
 62
7
  6
CONTINUOUS
 10
318.235062
 20
86.436147
 11
318.235062
 21
85.297936
  0
LINE
  8
1
 62
7
  6
CONTINUOUS
 10
318.235062
 20
85.297936
 11
319.373273
 21
85.297936
  0
LINE
  8
1
 62
7
  6
CONTINUOUS
 10
319.373273
 20
85.297936
 11
319.373273
 21
86.436147
  0
LINE
  8
1
 62
7
  6
CONTINUOUS
 10
319.373273
 20
86.436147
 11
318.235062
 21
86.436147
  0
LINE
  8
1
 62
7
  6
CONTINUOUS
 10
320.775062
 20
86.436147
 11
320.775062
 21
85.297936
  0
LINE
  8
1
 62
7
  6
CONTINUOUS
 10
320.775062
 20
85.297936
 11
321.913273
 21
85.297936
  0
LINE
  8
1
 62
7
  6
CONTINUOUS
 10
321.913273
 20
85.297936
 11
321.913273
 21
86.436147
  0
LINE
  8
1
 62
7
  6
CONTINUOUS
 10
321.913273
 20
86.436147
 11
320.775062
 21
86.436147
  0
LINE
  8
1
 62
7
  6
CONTINUOUS
 10
323.315062
 20
86.436147
 11
323.315062
 21
85.297936
  0
LINE
  8
1
 62
7
  6
CONTINUOUS
 10
323.315062
 20
85.297936
 11
324.453273
 21
85.297936
  0
LINE
  8
1
 62
7
  6
CONTINUOUS
 10
324.453273
 20
85.297936
 11
324.453273
 21
86.436147
  0
LINE
  8
1
 62
7
  6
CONTINUOUS
 10
324.453273
 20
86.436147
 11
323.315062
 21
86.436147
  0
LINE
  8
1
 62
7
  6
CONTINUOUS
 10
325.855062
 20
86.436147
 11
325.855062
 21
85.297936
  0
LINE
  8
1
 62
7
  6
CONTINUOUS
 10
325.855062
 20
85.297936
 11
326.993273
 21
85.297936
  0
LINE
  8
1
 62
7
  6
CONTINUOUS
 10
326.993273
 20
85.297936
 11
326.993273
 21
86.436147
  0
LINE
  8
1
 62
7
  6
CONTINUOUS
 10
326.993273
 20
86.436147
 11
325.855062
 21
86.436147
  0
LINE
  8
1
 62
7
  6
CONTINUOUS
 10
328.395062
 20
86.436147
 11
328.395062
 21
85.297936
  0
LINE
  8
1
 62
7
  6
CONTINUOUS
 10
328.395062
 20
85.297936
 11
329.533273
 21
85.297936
  0
LINE
  8
1
 62
7
  6
CONTINUOUS
 10
329.533273
 20
85.297936
 11
329.533273
 21
86.436147
  0
LINE
  8
1
 62
7
  6
CONTINUOUS
 10
329.533273
 20
86.436147
 11
328.395062
 21
86.436147
  0
LINE
  8
1
 62
7
  6
CONTINUOUS
 10
330.935062
 20
86.436147
 11
330.935062
 21
85.297936
  0
LINE
  8
1
 62
7
  6
CONTINUOUS
 10
330.935062
 20
85.297936
 11
332.073273
 21
85.297936
  0
LINE
  8
1
 62
7
  6
CONTINUOUS
 10
332.073273
 20
85.297936
 11
332.073273
 21
86.436147
  0
LINE
  8
1
 62
7
  6
CONTINUOUS
 10
332.073273
 20
86.436147
 11
330.935062
 21
86.436147
  0
LINE
  8
1
 62
7
  6
CONTINUOUS
 10
333.475062
 20
86.436147
 11
333.475062
 21
85.297936
  0
LINE
  8
1
 62
7
  6
CONTINUOUS
 10
333.475062
 20
85.297936
 11
334.613273
 21
85.297936
  0
LINE
  8
1
 62
7
  6
CONTINUOUS
 10
334.613273
 20
85.297936
 11
334.613273
 21
86.436147
  0
LINE
  8
1
 62
7
  6
CONTINUOUS
 10
334.613273
 20
86.436147
 11
333.475062
 21
86.436147
  0
LINE
  8
1
 62
7
  6
CONTINUOUS
 10
336.015062
 20
86.436147
 11
336.015062
 21
85.297936
  0
LINE
  8
1
 62
7
  6
CONTINUOUS
 10
336.015062
 20
85.297936
 11
337.153273
 21
85.297936
  0
LINE
  8
1
 62
7
  6
CONTINUOUS
 10
337.153273
 20
85.297936
 11
337.153273
 21
86.436147
  0
LINE
  8
1
 62
7
  6
CONTINUOUS
 10
337.153273
 20
86.436147
 11
336.015062
 21
86.436147
  0
LINE
  8
1
 62
7
  6
CONTINUOUS
 10
338.555062
 20
86.436147
 11
338.555062
 21
85.297936
  0
LINE
  8
1
 62
7
  6
CONTINUOUS
 10
338.555062
 20
85.297936
 11
339.693273
 21
85.297936
  0
LINE
  8
1
 62
7
  6
CONTINUOUS
 10
339.693273
 20
85.297936
 11
339.693273
 21
86.436147
  0
LINE
  8
1
 62
7
  6
CONTINUOUS
 10
339.693273
 20
86.436147
 11
338.555062
 21
86.436147
  0
LINE
  8
1
 62
7
  6
CONTINUOUS
 10
341.095062
 20
86.436147
 11
341.095062
 21
85.297936
  0
LINE
  8
1
 62
7
  6
CONTINUOUS
 10
341.095062
 20
85.297936
 11
342.233273
 21
85.297936
  0
LINE
  8
1
 62
7
  6
CONTINUOUS
 10
342.233273
 20
85.297936
 11
342.233273
 21
86.436147
  0
LINE
  8
1
 62
7
  6
CONTINUOUS
 10
342.233273
 20
86.436147
 11
341.095062
 21
86.436147
  0
LINE
  8
1
 62
7
  6
CONTINUOUS
 10
343.635062
 20
86.436147
 11
343.635062
 21
85.297936
  0
LINE
  8
1
 62
7
  6
CONTINUOUS
 10
343.635062
 20
85.297936
 11
344.773273
 21
85.297936
  0
LINE
  8
1
 62
7
  6
CONTINUOUS
 10
344.773273
 20
85.297936
 11
344.773273
 21
86.436147
  0
LINE
  8
1
 62
7
  6
CONTINUOUS
 10
344.773273
 20
86.436147
 11
343.635062
 21
86.436147
  0
LINE
  8
1
 62
7
  6
CONTINUOUS
 10
346.980345
 20
84.352680
 11
346.980345
 21
83.306066
  0
LINE
  8
1
 62
7
  6
CONTINUOUS
 10
346.980345
 20
83.306066
 11
346.386715
 21
83.306066
  0
LINE
  8
1
 62
7
  6
CONTINUOUS
 10
346.386715
 20
84.352680
 11
346.980345
 21
84.352680
  0
LINE
  8
1
 62
7
  6
CONTINUOUS
 10
306.755279
 20
83.306066
 11
346.386715
 21
83.306066
  0
LINE
  8
1
 62
7
  6
CONTINUOUS
 10
346.386715
 20
88.238315
 11
306.755279
 21
88.238315
  0
LINE
  8
1
 62
7
  6
CONTINUOUS
 10
306.755279
 20
88.238315
 11
306.755279
 21
84.390152
  0
LINE
  8
1
 62
7
  6
CONTINUOUS
 10
346.386715
 20
84.352680
 11
346.386715
 21
88.238315
  0
LINE
  8
1
 62
7
  6
CONTINUOUS
 10
346.380793
 20
88.587014
 11
346.380793
 21
87.500326
  0
LINE
  8
1
 62
7
  6
CONTINUOUS
 10
346.380793
 20
87.500326
 11
348.404280
 21
87.500326
  0
LINE
  8
1
 62
7
  6
CONTINUOUS
 10
348.404280
 20
87.500326
 11
348.404280
 21
88.587014
  0
LINE
  8
1
 62
7
  6
CONTINUOUS
 10
348.404280
 20
88.587014
 11
346.380793
 21
88.587014
  0
TEXT
  8
1
 62
7
  6
CONTINUOUS
 10
344.961709
 20
78.079636
 40
2.000000
 41
0.500000
  1
1
  7
KANJI
 50
0.000000
 51
0.000000
  0
TEXT
  8
1
 62
7
  6
CONTINUOUS
 10
320.154599
 20
78.089297
 40
2.000000
 41
0.500000
  1
1
  7
KANJI
 50
0.000000
 51
0.000000
  0
TEXT
  8
1
 62
7
  6
CONTINUOUS
 10
320.154599
 20
78.215765
 40
2.000000
 41
0.500000
  1
10
  7
KANJI
 50
0.000000
 51
0.000000
  0
TEXT
  8
1
 62
7
  6
CONTINUOUS
 10
379.961709
 20
78.079636
 40
2.000000
 41
0.500000
  1
1
  7
KANJI
 50
0.000000
 51
0.000000
  0
LINE
  8
1
 62
7
  6
CONTINUOUS
 10
382.401904
 20
72.008264
 11
381.808275
 21
72.008264
  0
TEXT
  8
1
 62
7
  6
CONTINUOUS
 10
355.154599
 20
78.089297
 40
2.000000
 41
0.500000
  1
1
  7
KANJI
 50
0.000000
 51
0.000000
  0
LINE
  8
1
 62
7
  6
CONTINUOUS
 10
354.369862
 20
72.008264
 11
354.876838
 21
72.008264
  0
TEXT
  8
1
 62
7
  6
CONTINUOUS
 10
355.154599
 20
78.215765
 40
2.000000
 41
0.500000
  1
10
  7
KANJI
 50
0.000000
 51
0.000000
  0
LINE
  8
1
 62
7
  6
CONTINUOUS
 10
321.196621
 20
75.138345
 11
321.196621
 21
74.000134
  0
LINE
  8
1
 62
7
  6
CONTINUOUS
 10
321.196621
 20
74.000134
 11
322.334833
 21
74.000134
  0
LINE
  8
1
 62
7
  6
CONTINUOUS
 10
322.334833
 20
74.000134
 11
322.334833
 21
75.138345
  0
LINE
  8
1
 62
7
  6
CONTINUOUS
 10
322.334833
 20
75.138345
 11
321.196621
 21
75.138345
  0
LINE
  8
1
 62
7
  6
CONTINUOUS
 10
323.736621
 20
75.138345
 11
323.736621
 21
74.000134
  0
LINE
  8
1
 62
7
  6
CONTINUOUS
 10
323.736621
 20
74.000134
 11
324.874833
 21
74.000134
  0
LINE
  8
1
 62
7
  6
CONTINUOUS
 10
324.874833
 20
74.000134
 11
324.874833
 21
75.138345
  0
LINE
  8
1
 62
7
  6
CONTINUOUS
 10
324.874833
 20
75.138345
 11
323.736621
 21
75.138345
  0
LINE
  8
1
 62
7
  6
CONTINUOUS
 10
326.276621
 20
75.138345
 11
326.276621
 21
74.000134
  0
LINE
  8
1
 62
7
  6
CONTINUOUS
 10
326.276621
 20
74.000134
 11
327.414833
 21
74.000134
  0
LINE
  8
1
 62
7
  6
CONTINUOUS
 10
327.414833
 20
74.000134
 11
327.414833
 21
75.138345
  0
LINE
  8
1
 62
7
  6
CONTINUOUS
 10
327.414833
 20
75.138345
 11
326.276621
 21
75.138345
  0
LINE
  8
1
 62
7
  6
CONTINUOUS
 10
328.816621
 20
75.138345
 11
328.816621
 21
74.000134
  0
LINE
  8
1
 62
7
  6
CONTINUOUS
 10
328.816621
 20
74.000134
 11
329.954833
 21
74.000134
  0
LINE
  8
1
 62
7
  6
CONTINUOUS
 10
329.954833
 20
74.000134
 11
329.954833
 21
75.138345
  0
LINE
  8
1
 62
7
  6
CONTINUOUS
 10
329.954833
 20
75.138345
 11
328.816621
 21
75.138345
  0
LINE
  8
1
 62
7
  6
CONTINUOUS
 10
331.356621
 20
75.138345
 11
331.356621
 21
74.000134
  0
LINE
  8
1
 62
7
  6
CONTINUOUS
 10
331.356621
 20
74.000134
 11
332.494833
 21
74.000134
  0
LINE
  8
1
 62
7
  6
CONTINUOUS
 10
332.494833
 20
74.000134
 11
332.494833
 21
75.138345
  0
LINE
  8
1
 62
7
  6
CONTINUOUS
 10
332.494833
 20
75.138345
 11
331.356621
 21
75.138345
  0
LINE
  8
1
 62
7
  6
CONTINUOUS
 10
333.896621
 20
75.138345
 11
333.896621
 21
74.000134
  0
LINE
  8
1
 62
7
  6
CONTINUOUS
 10
333.896621
 20
74.000134
 11
335.034833
 21
74.000134
  0
LINE
  8
1
 62
7
  6
CONTINUOUS
 10
335.034833
 20
74.000134
 11
335.034833
 21
75.138345
  0
LINE
  8
1
 62
7
  6
CONTINUOUS
 10
335.034833
 20
75.138345
 11
333.896621
 21
75.138345
  0
LINE
  8
1
 62
7
  6
CONTINUOUS
 10
336.436621
 20
75.138345
 11
336.436621
 21
74.000134
  0
LINE
  8
1
 62
7
  6
CONTINUOUS
 10
336.436621
 20
74.000134
 11
337.574833
 21
74.000134
  0
LINE
  8
1
 62
7
  6
CONTINUOUS
 10
337.574833
 20
74.000134
 11
337.574833
 21
75.138345
  0
LINE
  8
1
 62
7
  6
CONTINUOUS
 10
337.574833
 20
75.138345
 11
336.436621
 21
75.138345
  0
LINE
  8
1
 62
7
  6
CONTINUOUS
 10
338.976621
 20
75.138345
 11
338.976621
 21
74.000134
  0
LINE
  8
1
 62
7
  6
CONTINUOUS
 10
338.976621
 20
74.000134
 11
340.114833
 21
74.000134
  0
LINE
  8
1
 62
7
  6
CONTINUOUS
 10
340.114833
 20
74.000134
 11
340.114833
 21
75.138345
  0
LINE
  8
1
 62
7
  6
CONTINUOUS
 10
340.114833
 20
75.138345
 11
338.976621
 21
75.138345
  0
LINE
  8
1
 62
7
  6
CONTINUOUS
 10
341.516621
 20
75.138345
 11
341.516621
 21
74.000134
  0
LINE
  8
1
 62
7
  6
CONTINUOUS
 10
341.516621
 20
74.000134
 11
342.654833
 21
74.000134
  0
LINE
  8
1
 62
7
  6
CONTINUOUS
 10
342.654833
 20
74.000134
 11
342.654833
 21
75.138345
  0
LINE
  8
1
 62
7
  6
CONTINUOUS
 10
342.654833
 20
75.138345
 11
341.516621
 21
75.138345
  0
LINE
  8
1
 62
7
  6
CONTINUOUS
 10
344.056621
 20
75.138345
 11
344.056621
 21
74.000134
  0
LINE
  8
1
 62
7
  6
CONTINUOUS
 10
344.056621
 20
74.000134
 11
345.194833
 21
74.000134
  0
LINE
  8
1
 62
7
  6
CONTINUOUS
 10
345.194833
 20
74.000134
 11
345.194833
 21
75.138345
  0
LINE
  8
1
 62
7
  6
CONTINUOUS
 10
345.194833
 20
75.138345
 11
344.056621
 21
75.138345
  0
LINE
  8
1
 62
7
  6
CONTINUOUS
 10
347.401904
 20
73.054878
 11
347.401904
 21
72.008264
  0
LINE
  8
1
 62
7
  6
CONTINUOUS
 10
347.401904
 20
72.008264
 11
346.808275
 21
72.008264
  0
LINE
  8
1
 62
7
  6
CONTINUOUS
 10
346.808275
 20
73.054878
 11
347.401904
 21
73.054878
  0
LINE
  8
1
 62
7
  6
CONTINUOUS
 10
346.808275
 20
73.054878
 11
346.808275
 21
76.940513
  0
LINE
  8
1
 62
7
  6
CONTINUOUS
 10
346.802353
 20
77.289212
 11
346.802353
 21
76.202524
  0
LINE
  8
1
 62
7
  6
CONTINUOUS
 10
346.802353
 20
76.202524
 11
348.825840
 21
76.202524
  0
LINE
  8
1
 62
7
  6
CONTINUOUS
 10
348.825840
 20
76.202524
 11
348.825840
 21
77.289212
  0
LINE
  8
1
 62
7
  6
CONTINUOUS
 10
348.825840
 20
77.289212
 11
346.802353
 21
77.289212
  0
LINE
  8
1
 62
7
  6
CONTINUOUS
 10
317.964663
 20
77.223636
 11
317.964663
 21
76.211892
  0
LINE
  8
1
 62
7
  6
CONTINUOUS
 10
317.964663
 20
76.211892
 11
319.876838
 21
76.211892
  0
LINE
  8
1
 62
7
  6
CONTINUOUS
 10
319.876838
 20
76.211892
 11
319.876838
 21
77.223636
  0
LINE
  8
1
 62
7
  6
CONTINUOUS
 10
319.876838
 20
77.223636
 11
317.964663
 21
77.223636
  0
LINE
  8
1
 62
7
  6
CONTINUOUS
 10
319.369862
 20
73.054878
 11
319.369862
 21
72.008264
  0
LINE
  8
1
 62
7
  6
CONTINUOUS
 10
319.369862
 20
72.008264
 11
319.876838
 21
72.008264
  0
LINE
  8
1
 62
7
  6
CONTINUOUS
 10
319.876838
 20
73.054878
 11
319.369862
 21
73.054878
  0
LINE
  8
1
 62
7
  6
CONTINUOUS
 10
319.876838
 20
72.008264
 11
346.808275
 21
72.008264
  0
LINE
  8
1
 62
7
  6
CONTINUOUS
 10
346.808275
 20
76.940513
 11
319.876838
 21
76.940513
  0
LINE
  8
1
 62
7
  6
CONTINUOUS
 10
319.876838
 20
76.940513
 11
319.876838
 21
73.092350
  0
LINE
  8
1
 62
7
  6
CONTINUOUS
 10
356.196621
 20
75.138345
 11
356.196621
 21
74.000134
  0
LINE
  8
1
 62
7
  6
CONTINUOUS
 10
356.196621
 20
74.000134
 11
357.334833
 21
74.000134
  0
LINE
  8
1
 62
7
  6
CONTINUOUS
 10
357.334833
 20
74.000134
 11
357.334833
 21
75.138345
  0
LINE
  8
1
 62
7
  6
CONTINUOUS
 10
357.334833
 20
75.138345
 11
356.196621
 21
75.138345
  0
LINE
  8
1
 62
7
  6
CONTINUOUS
 10
358.736621
 20
75.138345
 11
358.736621
 21
74.000134
  0
LINE
  8
1
 62
7
  6
CONTINUOUS
 10
358.736621
 20
74.000134
 11
359.874833
 21
74.000134
  0
LINE
  8
1
 62
7
  6
CONTINUOUS
 10
359.874833
 20
74.000134
 11
359.874833
 21
75.138345
  0
LINE
  8
1
 62
7
  6
CONTINUOUS
 10
359.874833
 20
75.138345
 11
358.736621
 21
75.138345
  0
LINE
  8
1
 62
7
  6
CONTINUOUS
 10
361.276621
 20
75.138345
 11
361.276621
 21
74.000134
  0
LINE
  8
1
 62
7
  6
CONTINUOUS
 10
361.276621
 20
74.000134
 11
362.414833
 21
74.000134
  0
LINE
  8
1
 62
7
  6
CONTINUOUS
 10
362.414833
 20
74.000134
 11
362.414833
 21
75.138345
  0
LINE
  8
1
 62
7
  6
CONTINUOUS
 10
362.414833
 20
75.138345
 11
361.276621
 21
75.138345
  0
LINE
  8
1
 62
7
  6
CONTINUOUS
 10
363.816621
 20
75.138345
 11
363.816621
 21
74.000134
  0
LINE
  8
1
 62
7
  6
CONTINUOUS
 10
363.816621
 20
74.000134
 11
364.954833
 21
74.000134
  0
LINE
  8
1
 62
7
  6
CONTINUOUS
 10
364.954833
 20
74.000134
 11
364.954833
 21
75.138345
  0
LINE
  8
1
 62
7
  6
CONTINUOUS
 10
364.954833
 20
75.138345
 11
363.816621
 21
75.138345
  0
LINE
  8
1
 62
7
  6
CONTINUOUS
 10
366.356621
 20
75.138345
 11
366.356621
 21
74.000134
  0
LINE
  8
1
 62
7
  6
CONTINUOUS
 10
366.356621
 20
74.000134
 11
367.494833
 21
74.000134
  0
LINE
  8
1
 62
7
  6
CONTINUOUS
 10
367.494833
 20
74.000134
 11
367.494833
 21
75.138345
  0
LINE
  8
1
 62
7
  6
CONTINUOUS
 10
367.494833
 20
75.138345
 11
366.356621
 21
75.138345
  0
LINE
  8
1
 62
7
  6
CONTINUOUS
 10
368.896621
 20
75.138345
 11
368.896621
 21
74.000134
  0
LINE
  8
1
 62
7
  6
CONTINUOUS
 10
368.896621
 20
74.000134
 11
370.034833
 21
74.000134
  0
LINE
  8
1
 62
7
  6
CONTINUOUS
 10
370.034833
 20
74.000134
 11
370.034833
 21
75.138345
  0
LINE
  8
1
 62
7
  6
CONTINUOUS
 10
370.034833
 20
75.138345
 11
368.896621
 21
75.138345
  0
LINE
  8
1
 62
7
  6
CONTINUOUS
 10
371.436621
 20
75.138345
 11
371.436621
 21
74.000134
  0
LINE
  8
1
 62
7
  6
CONTINUOUS
 10
371.436621
 20
74.000134
 11
372.574833
 21
74.000134
  0
LINE
  8
1
 62
7
  6
CONTINUOUS
 10
372.574833
 20
74.000134
 11
372.574833
 21
75.138345
  0
LINE
  8
1
 62
7
  6
CONTINUOUS
 10
372.574833
 20
75.138345
 11
371.436621
 21
75.138345
  0
LINE
  8
1
 62
7
  6
CONTINUOUS
 10
373.976621
 20
75.138345
 11
373.976621
 21
74.000134
  0
LINE
  8
1
 62
7
  6
CONTINUOUS
 10
373.976621
 20
74.000134
 11
375.114833
 21
74.000134
  0
LINE
  8
1
 62
7
  6
CONTINUOUS
 10
375.114833
 20
74.000134
 11
375.114833
 21
75.138345
  0
LINE
  8
1
 62
7
  6
CONTINUOUS
 10
375.114833
 20
75.138345
 11
373.976621
 21
75.138345
  0
LINE
  8
1
 62
7
  6
CONTINUOUS
 10
376.516621
 20
75.138345
 11
376.516621
 21
74.000134
  0
LINE
  8
1
 62
7
  6
CONTINUOUS
 10
376.516621
 20
74.000134
 11
377.654833
 21
74.000134
  0
LINE
  8
1
 62
7
  6
CONTINUOUS
 10
377.654833
 20
74.000134
 11
377.654833
 21
75.138345
  0
LINE
  8
1
 62
7
  6
CONTINUOUS
 10
377.654833
 20
75.138345
 11
376.516621
 21
75.138345
  0
LINE
  8
1
 62
7
  6
CONTINUOUS
 10
379.056621
 20
75.138345
 11
379.056621
 21
74.000134
  0
LINE
  8
1
 62
7
  6
CONTINUOUS
 10
379.056621
 20
74.000134
 11
380.194833
 21
74.000134
  0
LINE
  8
1
 62
7
  6
CONTINUOUS
 10
380.194833
 20
74.000134
 11
380.194833
 21
75.138345
  0
LINE
  8
1
 62
7
  6
CONTINUOUS
 10
380.194833
 20
75.138345
 11
379.056621
 21
75.138345
  0
LINE
  8
1
 62
7
  6
CONTINUOUS
 10
382.401904
 20
73.054878
 11
382.401904
 21
72.008264
  0
LINE
  8
1
 62
7
  6
CONTINUOUS
 10
381.808275
 20
73.054878
 11
382.401904
 21
73.054878
  0
LINE
  8
1
 62
7
  6
CONTINUOUS
 10
381.808275
 20
73.054878
 11
381.808275
 21
76.940513
  0
LINE
  8
1
 62
7
  6
CONTINUOUS
 10
381.802353
 20
77.289212
 11
381.802353
 21
76.202524
  0
LINE
  8
1
 62
7
  6
CONTINUOUS
 10
381.802353
 20
76.202524
 11
383.825840
 21
76.202524
  0
LINE
  8
1
 62
7
  6
CONTINUOUS
 10
383.825840
 20
76.202524
 11
383.825840
 21
77.289212
  0
LINE
  8
1
 62
7
  6
CONTINUOUS
 10
383.825840
 20
77.289212
 11
381.802353
 21
77.289212
  0
LINE
  8
1
 62
7
  6
CONTINUOUS
 10
352.964663
 20
77.223636
 11
352.964663
 21
76.211892
  0
LINE
  8
1
 62
7
  6
CONTINUOUS
 10
352.964663
 20
76.211892
 11
354.876838
 21
76.211892
  0
LINE
  8
1
 62
7
  6
CONTINUOUS
 10
354.876838
 20
76.211892
 11
354.876838
 21
77.223636
  0
LINE
  8
1
 62
7
  6
CONTINUOUS
 10
354.876838
 20
77.223636
 11
352.964663
 21
77.223636
  0
LINE
  8
1
 62
7
  6
CONTINUOUS
 10
354.369862
 20
73.054878
 11
354.369862
 21
72.008264
  0
LINE
  8
1
 62
7
  6
CONTINUOUS
 10
354.876838
 20
73.054878
 11
354.369862
 21
73.054878
  0
LINE
  8
1
 62
7
  6
CONTINUOUS
 10
354.876838
 20
72.008264
 11
381.808275
 21
72.008264
  0
LINE
  8
1
 62
7
  6
CONTINUOUS
 10
381.808275
 20
76.940513
 11
354.876838
 21
76.940513
  0
LINE
  8
1
 62
7
  6
CONTINUOUS
 10
354.876838
 20
76.940513
 11
354.876838
 21
73.092350
  0
CIRCLE
  8
1
 62
7
  6
CONTINUOUS
 10
177.686992
 20
168.083333
 40
2.000000
  0
CIRCLE
  8
1
 62
7
  6
CONTINUOUS
 10
177.686992
 20
143.083333
 40
2.000000
  0
CIRCLE
  8
1
 62
7
  6
CONTINUOUS
 10
177.686992
 20
118.083333
 40
2.000000
  0
LINE
  8
1
 62
7
  6
CONTINUOUS
 10
182.686992
 20
185.083333
 11
182.686992
 21
101.083333
  0
LINE
  8
1
 62
7
  6
CONTINUOUS
 10
183.686992
 20
184.083333
 11
183.686992
 21
102.083333
  0
CIRCLE
  8
1
 62
7
  6
CONTINUOUS
 10
187.269899
 20
180.722674
 40
2.000000
  0
LINE
  8
1
 62
7
  6
CONTINUOUS
 10
186.977929
 20
181.688989
 11
186.977929
 21
181.014643
  0
ARC
  8
1
 62
7
  6
CONTINUOUS
 10
187.177929
 20
181.688989
 40
0.200000
 50
90.000000
 51
180.000000
  0
LINE
  8
1
 62
7
  6
CONTINUOUS
 10
187.402462
 20
181.888989
 11
187.177929
 21
181.888989
  0
LINE
  8
1
 62
7
  6
CONTINUOUS
 10
187.602462
 20
181.014643
 11
187.602462
 21
181.688989
  0
ARC
  8
1
 62
7
  6
CONTINUOUS
 10
187.402462
 20
181.688989
 40
0.200000
 50
0.000000
 51
90.000000
  0
LINE
  8
1
 62
7
  6
CONTINUOUS
 10
187.602462
 20
179.715764
 11
187.602462
 21
180.440073
  0
ARC
  8
1
 62
7
  6
CONTINUOUS
 10
187.402462
 20
179.715764
 40
0.200000
 50
-90.000000
 51
0.000000
  0
LINE
  8
1
 62
7
  6
CONTINUOUS
 10
187.177929
 20
179.515764
 11
187.402462
 21
179.515764
  0
LINE
  8
1
 62
7
  6
CONTINUOUS
 10
186.977929
 20
180.440073
 11
186.977929
 21
179.715764
  0
ARC
  8
1
 62
7
  6
CONTINUOUS
 10
187.177929
 20
179.715764
 40
0.200000
 50
180.000000
 51
-90.000000
  0
LINE
  8
1
 62
7
  6
CONTINUOUS
 10
188.276809
 20
181.014643
 11
187.602462
 21
181.014643
  0
ARC
  8
1
 62
7
  6
CONTINUOUS
 10
188.276809
 20
180.814643
 40
0.200000
 50
0.000000
 51
90.000000
  0
LINE
  8
1
 62
7
  6
CONTINUOUS
 10
188.476809
 20
180.640073
 11
188.476809
 21
180.814643
  0
LINE
  8
1
 62
7
  6
CONTINUOUS
 10
187.602462
 20
180.440073
 11
188.276809
 21
180.440073
  0
ARC
  8
1
 62
7
  6
CONTINUOUS
 10
188.276809
 20
180.640073
 40
0.200000
 50
-90.000000
 51
0.000000
  0
LINE
  8
1
 62
7
  6
CONTINUOUS
 10
186.178677
 20
180.440073
 11
186.977929
 21
180.440073
  0
ARC
  8
1
 62
7
  6
CONTINUOUS
 10
186.178677
 20
180.640073
 40
0.200000
 50
-180.000000
 51
-90.000000
  0
LINE
  8
1
 62
7
  6
CONTINUOUS
 10
185.978677
 20
180.814643
 11
185.978677
 21
180.640073
  0
LINE
  8
1
 62
7
  6
CONTINUOUS
 10
186.977929
 20
181.014643
 11
186.178677
 21
181.014643
  0
ARC
  8
1
 62
7
  6
CONTINUOUS
 10
186.178677
 20
180.814643
 40
0.200000
 50
90.000000
 51
-180.000000
  0
CIRCLE
  8
1
 62
7
  6
CONTINUOUS
 10
187.354558
 20
105.679830
 40
2.000000
  0
LINE
  8
1
 62
7
  6
CONTINUOUS
 10
187.062588
 20
106.646146
 11
187.062588
 21
105.971799
  0
ARC
  8
1
 62
7
  6
CONTINUOUS
 10
187.262588
 20
106.646146
 40
0.200000
 50
90.000000
 51
180.000000
  0
LINE
  8
1
 62
7
  6
CONTINUOUS
 10
187.487121
 20
106.846146
 11
187.262588
 21
106.846146
  0
LINE
  8
1
 62
7
  6
CONTINUOUS
 10
187.687121
 20
105.971799
 11
187.687121
 21
106.646146
  0
ARC
  8
1
 62
7
  6
CONTINUOUS
 10
187.487121
 20
106.646146
 40
0.200000
 50
0.000000
 51
90.000000
  0
LINE
  8
1
 62
7
  6
CONTINUOUS
 10
187.687121
 20
104.672920
 11
187.687121
 21
105.397229
  0
ARC
  8
1
 62
7
  6
CONTINUOUS
 10
187.487121
 20
104.672920
 40
0.200000
 50
-90.000000
 51
0.000000
  0
LINE
  8
1
 62
7
  6
CONTINUOUS
 10
187.262588
 20
104.472920
 11
187.487121
 21
104.472920
  0
LINE
  8
1
 62
7
  6
CONTINUOUS
 10
187.062588
 20
105.397229
 11
187.062588
 21
104.672920
  0
ARC
  8
1
 62
7
  6
CONTINUOUS
 10
187.262588
 20
104.672920
 40
0.200000
 50
180.000000
 51
-90.000000
  0
LINE
  8
1
 62
7
  6
CONTINUOUS
 10
188.361468
 20
105.971799
 11
187.687121
 21
105.971799
  0
ARC
  8
1
 62
7
  6
CONTINUOUS
 10
188.361468
 20
105.771799
 40
0.200000
 50
0.000000
 51
90.000000
  0
LINE
  8
1
 62
7
  6
CONTINUOUS
 10
188.561468
 20
105.597229
 11
188.561468
 21
105.771799
  0
LINE
  8
1
 62
7
  6
CONTINUOUS
 10
187.687121
 20
105.397229
 11
188.361468
 21
105.397229
  0
ARC
  8
1
 62
7
  6
CONTINUOUS
 10
188.361468
 20
105.597229
 40
0.200000
 50
-90.000000
 51
0.000000
  0
LINE
  8
1
 62
7
  6
CONTINUOUS
 10
186.263336
 20
105.397229
 11
187.062588
 21
105.397229
  0
ARC
  8
1
 62
7
  6
CONTINUOUS
 10
186.263336
 20
105.597229
 40
0.200000
 50
-180.000000
 51
-90.000000
  0
LINE
  8
1
 62
7
  6
CONTINUOUS
 10
186.063336
 20
105.771799
 11
186.063336
 21
105.597229
  0
LINE
  8
1
 62
7
  6
CONTINUOUS
 10
187.062588
 20
105.971799
 11
186.263336
 21
105.971799
  0
ARC
  8
1
 62
7
  6
CONTINUOUS
 10
186.263336
 20
105.771799
 40
0.200000
 50
90.000000
 51
-180.000000
  0
ARC
  8
1
 62
7
  6
CONTINUOUS
 10
175.686992
 20
182.083333
 40
3.000000
 50
90.000000
 51
180.000000
  0
LINE
  8
1
 62
7
  6
CONTINUOUS
 10
172.686992
 20
182.083333
 11
172.686992
 21
104.083333
  0
ARC
  8
1
 62
7
  6
CONTINUOUS
 10
175.686992
 20
104.083333
 40
3.000000
 50
180.000000
 51
-90.000000
  0
CIRCLE
  8
1
 62
7
  6
CONTINUOUS
 10
271.686992
 20
118.083333
 40
2.000000
  0
CIRCLE
  8
1
 62
7
  6
CONTINUOUS
 10
271.686992
 20
143.083333
 40
2.000000
  0
CIRCLE
  8
1
 62
7
  6
CONTINUOUS
 10
271.686992
 20
168.083333
 40
2.000000
  0
LINE
  8
1
 62
7
  6
CONTINUOUS
 10
266.686992
 20
101.083333
 11
266.686992
 21
185.083333
  0
LINE
  8
1
 62
7
  6
CONTINUOUS
 10
265.686992
 20
102.083333
 11
265.686992
 21
184.083333
  0
LINE
  8
1
 62
7
  6
CONTINUOUS
 10
265.686992
 20
184.083333
 11
183.686992
 21
184.083333
  0
LINE
  8
1
 62
7
  6
CONTINUOUS
 10
183.686992
 20
102.083333
 11
265.686992
 21
102.083333
  0
CIRCLE
  8
1
 62
7
  6
CONTINUOUS
 10
261.529806
 20
180.801781
 40
2.000000
  0
LINE
  8
1
 62
7
  6
CONTINUOUS
 10
261.237837
 20
181.768097
 11
261.237837
 21
181.093751
  0
ARC
  8
1
 62
7
  6
CONTINUOUS
 10
261.437837
 20
181.768097
 40
0.200000
 50
90.000000
 51
180.000000
  0
LINE
  8
1
 62
7
  6
CONTINUOUS
 10
261.662370
 20
181.968097
 11
261.437837
 21
181.968097
  0
LINE
  8
1
 62
7
  6
CONTINUOUS
 10
261.862370
 20
181.093751
 11
261.862370
 21
181.768097
  0
ARC
  8
1
 62
7
  6
CONTINUOUS
 10
261.662370
 20
181.768097
 40
0.200000
 50
0.000000
 51
90.000000
  0
LINE
  8
1
 62
7
  6
CONTINUOUS
 10
261.862370
 20
179.794871
 11
261.862370
 21
180.519180
  0
ARC
  8
1
 62
7
  6
CONTINUOUS
 10
261.662370
 20
179.794871
 40
0.200000
 50
-90.000000
 51
0.000000
  0
LINE
  8
1
 62
7
  6
CONTINUOUS
 10
261.437837
 20
179.594871
 11
261.662370
 21
179.594871
  0
LINE
  8
1
 62
7
  6
CONTINUOUS
 10
261.237837
 20
180.519180
 11
261.237837
 21
179.794871
  0
ARC
  8
1
 62
7
  6
CONTINUOUS
 10
261.437837
 20
179.794871
 40
0.200000
 50
180.000000
 51
-90.000000
  0
LINE
  8
1
 62
7
  6
CONTINUOUS
 10
262.536716
 20
181.093751
 11
261.862370
 21
181.093751
  0
ARC
  8
1
 62
7
  6
CONTINUOUS
 10
262.536716
 20
180.893751
 40
0.200000
 50
0.000000
 51
90.000000
  0
LINE
  8
1
 62
7
  6
CONTINUOUS
 10
262.736716
 20
180.719180
 11
262.736716
 21
180.893751
  0
LINE
  8
1
 62
7
  6
CONTINUOUS
 10
261.862370
 20
180.519180
 11
262.536716
 21
180.519180
  0
ARC
  8
1
 62
7
  6
CONTINUOUS
 10
262.536716
 20
180.719180
 40
0.200000
 50
-90.000000
 51
0.000000
  0
LINE
  8
1
 62
7
  6
CONTINUOUS
 10
260.438584
 20
180.519180
 11
261.237837
 21
180.519180
  0
ARC
  8
1
 62
7
  6
CONTINUOUS
 10
260.438584
 20
180.719180
 40
0.200000
 50
-180.000000
 51
-90.000000
  0
LINE
  8
1
 62
7
  6
CONTINUOUS
 10
260.238584
 20
180.893751
 11
260.238584
 21
180.719180
  0
LINE
  8
1
 62
7
  6
CONTINUOUS
 10
261.237837
 20
181.093751
 11
260.438584
 21
181.093751
  0
ARC
  8
1
 62
7
  6
CONTINUOUS
 10
260.438584
 20
180.893751
 40
0.200000
 50
90.000000
 51
-180.000000
  0
CIRCLE
  8
1
 62
7
  6
CONTINUOUS
 10
261.276870
 20
105.679830
 40
2.000000
  0
LINE
  8
1
 62
7
  6
CONTINUOUS
 10
260.984901
 20
106.646146
 11
260.984901
 21
105.971799
  0
ARC
  8
1
 62
7
  6
CONTINUOUS
 10
261.184901
 20
106.646146
 40
0.200000
 50
90.000000
 51
180.000000
  0
LINE
  8
1
 62
7
  6
CONTINUOUS
 10
261.409434
 20
106.846146
 11
261.184901
 21
106.846146
  0
LINE
  8
1
 62
7
  6
CONTINUOUS
 10
261.609434
 20
105.971799
 11
261.609434
 21
106.646146
  0
ARC
  8
1
 62
7
  6
CONTINUOUS
 10
261.409434
 20
106.646146
 40
0.200000
 50
0.000000
 51
90.000000
  0
LINE
  8
1
 62
7
  6
CONTINUOUS
 10
261.609434
 20
104.672920
 11
261.609434
 21
105.397229
  0
ARC
  8
1
 62
7
  6
CONTINUOUS
 10
261.409434
 20
104.672920
 40
0.200000
 50
-90.000000
 51
0.000000
  0
LINE
  8
1
 62
7
  6
CONTINUOUS
 10
261.184901
 20
104.472920
 11
261.409434
 21
104.472920
  0
LINE
  8
1
 62
7
  6
CONTINUOUS
 10
260.984901
 20
105.397229
 11
260.984901
 21
104.672920
  0
ARC
  8
1
 62
7
  6
CONTINUOUS
 10
261.184901
 20
104.672920
 40
0.200000
 50
180.000000
 51
-90.000000
  0
LINE
  8
1
 62
7
  6
CONTINUOUS
 10
262.283780
 20
105.971799
 11
261.609434
 21
105.971799
  0
ARC
  8
1
 62
7
  6
CONTINUOUS
 10
262.283780
 20
105.771799
 40
0.200000
 50
0.000000
 51
90.000000
  0
LINE
  8
1
 62
7
  6
CONTINUOUS
 10
262.483780
 20
105.597229
 11
262.483780
 21
105.771799
  0
LINE
  8
1
 62
7
  6
CONTINUOUS
 10
261.609434
 20
105.397229
 11
262.283780
 21
105.397229
  0
ARC
  8
1
 62
7
  6
CONTINUOUS
 10
262.283780
 20
105.597229
 40
0.200000
 50
-90.000000
 51
0.000000
  0
LINE
  8
1
 62
7
  6
CONTINUOUS
 10
260.185648
 20
105.397229
 11
260.984901
 21
105.397229
  0
ARC
  8
1
 62
7
  6
CONTINUOUS
 10
260.185648
 20
105.597229
 40
0.200000
 50
-180.000000
 51
-90.000000
  0
LINE
  8
1
 62
7
  6
CONTINUOUS
 10
259.985648
 20
105.771799
 11
259.985648
 21
105.597229
  0
LINE
  8
1
 62
7
  6
CONTINUOUS
 10
260.984901
 20
105.971799
 11
260.185648
 21
105.971799
  0
ARC
  8
1
 62
7
  6
CONTINUOUS
 10
260.185648
 20
105.771799
 40
0.200000
 50
90.000000
 51
-180.000000
  0
LINE
  8
1
 62
7
  6
CONTINUOUS
 10
273.686992
 20
185.083333
 11
175.686992
 21
185.083333
  0
ARC
  8
1
 62
7
  6
CONTINUOUS
 10
273.686992
 20
182.083333
 40
3.000000
 50
0.000000
 51
90.000000
  0
LINE
  8
1
 62
7
  6
CONTINUOUS
 10
276.686992
 20
182.083333
 11
276.686992
 21
104.083333
  0
ARC
  8
1
 62
7
  6
CONTINUOUS
 10
273.686992
 20
104.083333
 40
3.000000
 50
-90.000000
 51
0.000000
  0
LINE
  8
1
 62
7
  6
CONTINUOUS
 10
175.686992
 20
101.083333
 11
273.686992
 21
101.083333
  0
LINE
  8
1
 62
7
  6
CONTINUOUS
 10
255.739754
 20
177.861922
 11
255.146125
 21
177.861922
  0
LINE
  8
1
 62
7
  6
CONTINUOUS
 10
227.707713
 20
177.861922
 11
228.214688
 21
177.861922
  0
LINE
  8
1
 62
7
  6
CONTINUOUS
 10
194.534472
 20
180.992004
 11
194.534472
 21
179.853792
  0
LINE
  8
1
 62
7
  6
CONTINUOUS
 10
194.534472
 20
179.853792
 11
195.672683
 21
179.853792
  0
LINE
  8
1
 62
7
  6
CONTINUOUS
 10
195.672683
 20
179.853792
 11
195.672683
 21
180.992004
  0
LINE
  8
1
 62
7
  6
CONTINUOUS
 10
195.672683
 20
180.992004
 11
194.534472
 21
180.992004
  0
LINE
  8
1
 62
7
  6
CONTINUOUS
 10
197.074472
 20
180.992004
 11
197.074472
 21
179.853792
  0
LINE
  8
1
 62
7
  6
CONTINUOUS
 10
197.074472
 20
179.853792
 11
198.212683
 21
179.853792
  0
LINE
  8
1
 62
7
  6
CONTINUOUS
 10
198.212683
 20
179.853792
 11
198.212683
 21
180.992004
  0
LINE
  8
1
 62
7
  6
CONTINUOUS
 10
198.212683
 20
180.992004
 11
197.074472
 21
180.992004
  0
LINE
  8
1
 62
7
  6
CONTINUOUS
 10
199.614472
 20
180.992004
 11
199.614472
 21
179.853792
  0
LINE
  8
1
 62
7
  6
CONTINUOUS
 10
199.614472
 20
179.853792
 11
200.752683
 21
179.853792
  0
LINE
  8
1
 62
7
  6
CONTINUOUS
 10
200.752683
 20
179.853792
 11
200.752683
 21
180.992004
  0
LINE
  8
1
 62
7
  6
CONTINUOUS
 10
200.752683
 20
180.992004
 11
199.614472
 21
180.992004
  0
LINE
  8
1
 62
7
  6
CONTINUOUS
 10
202.154472
 20
180.992004
 11
202.154472
 21
179.853792
  0
LINE
  8
1
 62
7
  6
CONTINUOUS
 10
202.154472
 20
179.853792
 11
203.292683
 21
179.853792
  0
LINE
  8
1
 62
7
  6
CONTINUOUS
 10
203.292683
 20
179.853792
 11
203.292683
 21
180.992004
  0
LINE
  8
1
 62
7
  6
CONTINUOUS
 10
203.292683
 20
180.992004
 11
202.154472
 21
180.992004
  0
LINE
  8
1
 62
7
  6
CONTINUOUS
 10
204.694472
 20
180.992004
 11
204.694472
 21
179.853792
  0
LINE
  8
1
 62
7
  6
CONTINUOUS
 10
204.694472
 20
179.853792
 11
205.832683
 21
179.853792
  0
LINE
  8
1
 62
7
  6
CONTINUOUS
 10
205.832683
 20
179.853792
 11
205.832683
 21
180.992004
  0
LINE
  8
1
 62
7
  6
CONTINUOUS
 10
205.832683
 20
180.992004
 11
204.694472
 21
180.992004
  0
LINE
  8
1
 62
7
  6
CONTINUOUS
 10
207.234472
 20
180.992004
 11
207.234472
 21
179.853792
  0
LINE
  8
1
 62
7
  6
CONTINUOUS
 10
207.234472
 20
179.853792
 11
208.372683
 21
179.853792
  0
LINE
  8
1
 62
7
  6
CONTINUOUS
 10
208.372683
 20
179.853792
 11
208.372683
 21
180.992004
  0
LINE
  8
1
 62
7
  6
CONTINUOUS
 10
208.372683
 20
180.992004
 11
207.234472
 21
180.992004
  0
LINE
  8
1
 62
7
  6
CONTINUOUS
 10
209.774472
 20
180.992004
 11
209.774472
 21
179.853792
  0
LINE
  8
1
 62
7
  6
CONTINUOUS
 10
209.774472
 20
179.853792
 11
210.912683
 21
179.853792
  0
LINE
  8
1
 62
7
  6
CONTINUOUS
 10
210.912683
 20
179.853792
 11
210.912683
 21
180.992004
  0
LINE
  8
1
 62
7
  6
CONTINUOUS
 10
210.912683
 20
180.992004
 11
209.774472
 21
180.992004
  0
LINE
  8
1
 62
7
  6
CONTINUOUS
 10
212.314472
 20
180.992004
 11
212.314472
 21
179.853792
  0
LINE
  8
1
 62
7
  6
CONTINUOUS
 10
212.314472
 20
179.853792
 11
213.452683
 21
179.853792
  0
LINE
  8
1
 62
7
  6
CONTINUOUS
 10
213.452683
 20
179.853792
 11
213.452683
 21
180.992004
  0
LINE
  8
1
 62
7
  6
CONTINUOUS
 10
213.452683
 20
180.992004
 11
212.314472
 21
180.992004
  0
LINE
  8
1
 62
7
  6
CONTINUOUS
 10
214.854472
 20
180.992004
 11
214.854472
 21
179.853792
  0
LINE
  8
1
 62
7
  6
CONTINUOUS
 10
214.854472
 20
179.853792
 11
215.992683
 21
179.853792
  0
LINE
  8
1
 62
7
  6
CONTINUOUS
 10
215.992683
 20
179.853792
 11
215.992683
 21
180.992004
  0
LINE
  8
1
 62
7
  6
CONTINUOUS
 10
215.992683
 20
180.992004
 11
214.854472
 21
180.992004
  0
LINE
  8
1
 62
7
  6
CONTINUOUS
 10
217.394472
 20
180.992004
 11
217.394472
 21
179.853792
  0
LINE
  8
1
 62
7
  6
CONTINUOUS
 10
217.394472
 20
179.853792
 11
218.532683
 21
179.853792
  0
LINE
  8
1
 62
7
  6
CONTINUOUS
 10
218.532683
 20
179.853792
 11
218.532683
 21
180.992004
  0
LINE
  8
1
 62
7
  6
CONTINUOUS
 10
218.532683
 20
180.992004
 11
217.394472
 21
180.992004
  0
LINE
  8
1
 62
7
  6
CONTINUOUS
 10
220.739754
 20
178.908537
 11
220.739754
 21
177.861922
  0
LINE
  8
1
 62
7
  6
CONTINUOUS
 10
220.739754
 20
177.861922
 11
220.146125
 21
177.861922
  0
LINE
  8
1
 62
7
  6
CONTINUOUS
 10
220.146125
 20
178.908537
 11
220.739754
 21
178.908537
  0
LINE
  8
1
 62
7
  6
CONTINUOUS
 10
220.146125
 20
178.908537
 11
220.146125
 21
182.794172
  0
LINE
  8
1
 62
7
  6
CONTINUOUS
 10
220.140203
 20
183.142870
 11
220.140203
 21
182.056183
  0
LINE
  8
1
 62
7
  6
CONTINUOUS
 10
220.140203
 20
182.056183
 11
222.163690
 21
182.056183
  0
LINE
  8
1
 62
7
  6
CONTINUOUS
 10
222.163690
 20
182.056183
 11
222.163690
 21
183.142870
  0
LINE
  8
1
 62
7
  6
CONTINUOUS
 10
222.163690
 20
183.142870
 11
220.140203
 21
183.142870
  0
LINE
  8
1
 62
7
  6
CONTINUOUS
 10
191.302513
 20
183.077294
 11
191.302513
 21
182.065551
  0
LINE
  8
1
 62
7
  6
CONTINUOUS
 10
191.302513
 20
182.065551
 11
193.214688
 21
182.065551
  0
LINE
  8
1
 62
7
  6
CONTINUOUS
 10
193.214688
 20
182.065551
 11
193.214688
 21
183.077294
  0
LINE
  8
1
 62
7
  6
CONTINUOUS
 10
193.214688
 20
183.077294
 11
191.302513
 21
183.077294
  0
LINE
  8
1
 62
7
  6
CONTINUOUS
 10
192.707713
 20
178.908537
 11
192.707713
 21
177.861922
  0
LINE
  8
1
 62
7
  6
CONTINUOUS
 10
192.707713
 20
177.861922
 11
193.214688
 21
177.861922
  0
LINE
  8
1
 62
7
  6
CONTINUOUS
 10
193.214688
 20
178.908537
 11
192.707713
 21
178.908537
  0
LINE
  8
1
 62
7
  6
CONTINUOUS
 10
193.214688
 20
177.861922
 11
220.146125
 21
177.861922
  0
LINE
  8
1
 62
7
  6
CONTINUOUS
 10
220.146125
 20
182.794172
 11
193.214688
 21
182.794172
  0
LINE
  8
1
 62
7
  6
CONTINUOUS
 10
193.214688
 20
182.794172
 11
193.214688
 21
178.946009
  0
LINE
  8
1
 62
7
  6
CONTINUOUS
 10
229.534472
 20
180.992004
 11
229.534472
 21
179.853792
  0
LINE
  8
1
 62
7
  6
CONTINUOUS
 10
229.534472
 20
179.853792
 11
230.672683
 21
179.853792
  0
LINE
  8
1
 62
7
  6
CONTINUOUS
 10
230.672683
 20
179.853792
 11
230.672683
 21
180.992004
  0
LINE
  8
1
 62
7
  6
CONTINUOUS
 10
230.672683
 20
180.992004
 11
229.534472
 21
180.992004
  0
LINE
  8
1
 62
7
  6
CONTINUOUS
 10
232.074472
 20
180.992004
 11
232.074472
 21
179.853792
  0
LINE
  8
1
 62
7
  6
CONTINUOUS
 10
232.074472
 20
179.853792
 11
233.212683
 21
179.853792
  0
LINE
  8
1
 62
7
  6
CONTINUOUS
 10
233.212683
 20
179.853792
 11
233.212683
 21
180.992004
  0
LINE
  8
1
 62
7
  6
CONTINUOUS
 10
233.212683
 20
180.992004
 11
232.074472
 21
180.992004
  0
LINE
  8
1
 62
7
  6
CONTINUOUS
 10
234.614472
 20
180.992004
 11
234.614472
 21
179.853792
  0
LINE
  8
1
 62
7
  6
CONTINUOUS
 10
234.614472
 20
179.853792
 11
235.752683
 21
179.853792
  0
LINE
  8
1
 62
7
  6
CONTINUOUS
 10
235.752683
 20
179.853792
 11
235.752683
 21
180.992004
  0
LINE
  8
1
 62
7
  6
CONTINUOUS
 10
235.752683
 20
180.992004
 11
234.614472
 21
180.992004
  0
LINE
  8
1
 62
7
  6
CONTINUOUS
 10
237.154472
 20
180.992004
 11
237.154472
 21
179.853792
  0
LINE
  8
1
 62
7
  6
CONTINUOUS
 10
237.154472
 20
179.853792
 11
238.292683
 21
179.853792
  0
LINE
  8
1
 62
7
  6
CONTINUOUS
 10
238.292683
 20
179.853792
 11
238.292683
 21
180.992004
  0
LINE
  8
1
 62
7
  6
CONTINUOUS
 10
238.292683
 20
180.992004
 11
237.154472
 21
180.992004
  0
LINE
  8
1
 62
7
  6
CONTINUOUS
 10
239.694472
 20
180.992004
 11
239.694472
 21
179.853792
  0
LINE
  8
1
 62
7
  6
CONTINUOUS
 10
239.694472
 20
179.853792
 11
240.832683
 21
179.853792
  0
LINE
  8
1
 62
7
  6
CONTINUOUS
 10
240.832683
 20
179.853792
 11
240.832683
 21
180.992004
  0
LINE
  8
1
 62
7
  6
CONTINUOUS
 10
240.832683
 20
180.992004
 11
239.694472
 21
180.992004
  0
LINE
  8
1
 62
7
  6
CONTINUOUS
 10
242.234472
 20
180.992004
 11
242.234472
 21
179.853792
  0
LINE
  8
1
 62
7
  6
CONTINUOUS
 10
242.234472
 20
179.853792
 11
243.372683
 21
179.853792
  0
LINE
  8
1
 62
7
  6
CONTINUOUS
 10
243.372683
 20
179.853792
 11
243.372683
 21
180.992004
  0
LINE
  8
1
 62
7
  6
CONTINUOUS
 10
243.372683
 20
180.992004
 11
242.234472
 21
180.992004
  0
LINE
  8
1
 62
7
  6
CONTINUOUS
 10
244.774472
 20
180.992004
 11
244.774472
 21
179.853792
  0
LINE
  8
1
 62
7
  6
CONTINUOUS
 10
244.774472
 20
179.853792
 11
245.912683
 21
179.853792
  0
LINE
  8
1
 62
7
  6
CONTINUOUS
 10
245.912683
 20
179.853792
 11
245.912683
 21
180.992004
  0
LINE
  8
1
 62
7
  6
CONTINUOUS
 10
245.912683
 20
180.992004
 11
244.774472
 21
180.992004
  0
LINE
  8
1
 62
7
  6
CONTINUOUS
 10
247.314472
 20
180.992004
 11
247.314472
 21
179.853792
  0
LINE
  8
1
 62
7
  6
CONTINUOUS
 10
247.314472
 20
179.853792
 11
248.452683
 21
179.853792
  0
LINE
  8
1
 62
7
  6
CONTINUOUS
 10
248.452683
 20
179.853792
 11
248.452683
 21
180.992004
  0
LINE
  8
1
 62
7
  6
CONTINUOUS
 10
248.452683
 20
180.992004
 11
247.314472
 21
180.992004
  0
LINE
  8
1
 62
7
  6
CONTINUOUS
 10
249.854472
 20
180.992004
 11
249.854472
 21
179.853792
  0
LINE
  8
1
 62
7
  6
CONTINUOUS
 10
249.854472
 20
179.853792
 11
250.992683
 21
179.853792
  0
LINE
  8
1
 62
7
  6
CONTINUOUS
 10
250.992683
 20
179.853792
 11
250.992683
 21
180.992004
  0
LINE
  8
1
 62
7
  6
CONTINUOUS
 10
250.992683
 20
180.992004
 11
249.854472
 21
180.992004
  0
LINE
  8
1
 62
7
  6
CONTINUOUS
 10
252.394472
 20
180.992004
 11
252.394472
 21
179.853792
  0
LINE
  8
1
 62
7
  6
CONTINUOUS
 10
252.394472
 20
179.853792
 11
253.532683
 21
179.853792
  0
LINE
  8
1
 62
7
  6
CONTINUOUS
 10
253.532683
 20
179.853792
 11
253.532683
 21
180.992004
  0
LINE
  8
1
 62
7
  6
CONTINUOUS
 10
253.532683
 20
180.992004
 11
252.394472
 21
180.992004
  0
LINE
  8
1
 62
7
  6
CONTINUOUS
 10
255.739754
 20
178.908537
 11
255.739754
 21
177.861922
  0
LINE
  8
1
 62
7
  6
CONTINUOUS
 10
255.146125
 20
178.908537
 11
255.739754
 21
178.908537
  0
LINE
  8
1
 62
7
  6
CONTINUOUS
 10
255.146125
 20
178.908537
 11
255.146125
 21
182.794172
  0
LINE
  8
1
 62
7
  6
CONTINUOUS
 10
255.140203
 20
183.142870
 11
255.140203
 21
182.056183
  0
LINE
  8
1
 62
7
  6
CONTINUOUS
 10
255.140203
 20
182.056183
 11
257.163690
 21
182.056183
  0
LINE
  8
1
 62
7
  6
CONTINUOUS
 10
257.163690
 20
182.056183
 11
257.163690
 21
183.142870
  0
LINE
  8
1
 62
7
  6
CONTINUOUS
 10
257.163690
 20
183.142870
 11
255.140203
 21
183.142870
  0
LINE
  8
1
 62
7
  6
CONTINUOUS
 10
226.302513
 20
183.077294
 11
226.302513
 21
182.065551
  0
LINE
  8
1
 62
7
  6
CONTINUOUS
 10
226.302513
 20
182.065551
 11
228.214688
 21
182.065551
  0
LINE
  8
1
 62
7
  6
CONTINUOUS
 10
228.214688
 20
182.065551
 11
228.214688
 21
183.077294
  0
LINE
  8
1
 62
7
  6
CONTINUOUS
 10
228.214688
 20
183.077294
 11
226.302513
 21
183.077294
  0
LINE
  8
1
 62
7
  6
CONTINUOUS
 10
227.707713
 20
178.908537
 11
227.707713
 21
177.861922
  0
LINE
  8
1
 62
7
  6
CONTINUOUS
 10
228.214688
 20
178.908537
 11
227.707713
 21
178.908537
  0
LINE
  8
1
 62
7
  6
CONTINUOUS
 10
228.214688
 20
177.861922
 11
255.146125
 21
177.861922
  0
LINE
  8
1
 62
7
  6
CONTINUOUS
 10
255.146125
 20
182.794172
 11
228.214688
 21
182.794172
  0
LINE
  8
1
 62
7
  6
CONTINUOUS
 10
228.214688
 20
182.794172
 11
228.214688
 21
178.946009
  0
LINE
  8
1
 62
7
  6
CONTINUOUS
 10
255.739754
 20
102.992907
 11
255.146125
 21
102.992907
  0
LINE
  8
1
 62
7
  6
CONTINUOUS
 10
227.707713
 20
102.992907
 11
228.214688
 21
102.992907
  0
LINE
  8
1
 62
7
  6
CONTINUOUS
 10
194.534472
 20
106.122988
 11
194.534472
 21
104.984777
  0
LINE
  8
1
 62
7
  6
CONTINUOUS
 10
194.534472
 20
104.984777
 11
195.672683
 21
104.984777
  0
LINE
  8
1
 62
7
  6
CONTINUOUS
 10
195.672683
 20
104.984777
 11
195.672683
 21
106.122988
  0
LINE
  8
1
 62
7
  6
CONTINUOUS
 10
195.672683
 20
106.122988
 11
194.534472
 21
106.122988
  0
LINE
  8
1
 62
7
  6
CONTINUOUS
 10
197.074472
 20
106.122988
 11
197.074472
 21
104.984777
  0
LINE
  8
1
 62
7
  6
CONTINUOUS
 10
197.074472
 20
104.984777
 11
198.212683
 21
104.984777
  0
LINE
  8
1
 62
7
  6
CONTINUOUS
 10
198.212683
 20
104.984777
 11
198.212683
 21
106.122988
  0
LINE
  8
1
 62
7
  6
CONTINUOUS
 10
198.212683
 20
106.122988
 11
197.074472
 21
106.122988
  0
LINE
  8
1
 62
7
  6
CONTINUOUS
 10
199.614472
 20
106.122988
 11
199.614472
 21
104.984777
  0
LINE
  8
1
 62
7
  6
CONTINUOUS
 10
199.614472
 20
104.984777
 11
200.752683
 21
104.984777
  0
LINE
  8
1
 62
7
  6
CONTINUOUS
 10
200.752683
 20
104.984777
 11
200.752683
 21
106.122988
  0
LINE
  8
1
 62
7
  6
CONTINUOUS
 10
200.752683
 20
106.122988
 11
199.614472
 21
106.122988
  0
LINE
  8
1
 62
7
  6
CONTINUOUS
 10
202.154472
 20
106.122988
 11
202.154472
 21
104.984777
  0
LINE
  8
1
 62
7
  6
CONTINUOUS
 10
202.154472
 20
104.984777
 11
203.292683
 21
104.984777
  0
LINE
  8
1
 62
7
  6
CONTINUOUS
 10
203.292683
 20
104.984777
 11
203.292683
 21
106.122988
  0
LINE
  8
1
 62
7
  6
CONTINUOUS
 10
203.292683
 20
106.122988
 11
202.154472
 21
106.122988
  0
LINE
  8
1
 62
7
  6
CONTINUOUS
 10
204.694472
 20
106.122988
 11
204.694472
 21
104.984777
  0
LINE
  8
1
 62
7
  6
CONTINUOUS
 10
204.694472
 20
104.984777
 11
205.832683
 21
104.984777
  0
LINE
  8
1
 62
7
  6
CONTINUOUS
 10
205.832683
 20
104.984777
 11
205.832683
 21
106.122988
  0
LINE
  8
1
 62
7
  6
CONTINUOUS
 10
205.832683
 20
106.122988
 11
204.694472
 21
106.122988
  0
LINE
  8
1
 62
7
  6
CONTINUOUS
 10
207.234472
 20
106.122988
 11
207.234472
 21
104.984777
  0
LINE
  8
1
 62
7
  6
CONTINUOUS
 10
207.234472
 20
104.984777
 11
208.372683
 21
104.984777
  0
LINE
  8
1
 62
7
  6
CONTINUOUS
 10
208.372683
 20
104.984777
 11
208.372683
 21
106.122988
  0
LINE
  8
1
 62
7
  6
CONTINUOUS
 10
208.372683
 20
106.122988
 11
207.234472
 21
106.122988
  0
LINE
  8
1
 62
7
  6
CONTINUOUS
 10
209.774472
 20
106.122988
 11
209.774472
 21
104.984777
  0
LINE
  8
1
 62
7
  6
CONTINUOUS
 10
209.774472
 20
104.984777
 11
210.912683
 21
104.984777
  0
LINE
  8
1
 62
7
  6
CONTINUOUS
 10
210.912683
 20
104.984777
 11
210.912683
 21
106.122988
  0
LINE
  8
1
 62
7
  6
CONTINUOUS
 10
210.912683
 20
106.122988
 11
209.774472
 21
106.122988
  0
LINE
  8
1
 62
7
  6
CONTINUOUS
 10
212.314472
 20
106.122988
 11
212.314472
 21
104.984777
  0
LINE
  8
1
 62
7
  6
CONTINUOUS
 10
212.314472
 20
104.984777
 11
213.452683
 21
104.984777
  0
LINE
  8
1
 62
7
  6
CONTINUOUS
 10
213.452683
 20
104.984777
 11
213.452683
 21
106.122988
  0
LINE
  8
1
 62
7
  6
CONTINUOUS
 10
213.452683
 20
106.122988
 11
212.314472
 21
106.122988
  0
LINE
  8
1
 62
7
  6
CONTINUOUS
 10
214.854472
 20
106.122988
 11
214.854472
 21
104.984777
  0
LINE
  8
1
 62
7
  6
CONTINUOUS
 10
214.854472
 20
104.984777
 11
215.992683
 21
104.984777
  0
LINE
  8
1
 62
7
  6
CONTINUOUS
 10
215.992683
 20
104.984777
 11
215.992683
 21
106.122988
  0
LINE
  8
1
 62
7
  6
CONTINUOUS
 10
215.992683
 20
106.122988
 11
214.854472
 21
106.122988
  0
LINE
  8
1
 62
7
  6
CONTINUOUS
 10
217.394472
 20
106.122988
 11
217.394472
 21
104.984777
  0
LINE
  8
1
 62
7
  6
CONTINUOUS
 10
217.394472
 20
104.984777
 11
218.532683
 21
104.984777
  0
LINE
  8
1
 62
7
  6
CONTINUOUS
 10
218.532683
 20
104.984777
 11
218.532683
 21
106.122988
  0
LINE
  8
1
 62
7
  6
CONTINUOUS
 10
218.532683
 20
106.122988
 11
217.394472
 21
106.122988
  0
LINE
  8
1
 62
7
  6
CONTINUOUS
 10
220.739754
 20
104.039521
 11
220.739754
 21
102.992907
  0
LINE
  8
1
 62
7
  6
CONTINUOUS
 10
220.739754
 20
102.992907
 11
220.146125
 21
102.992907
  0
LINE
  8
1
 62
7
  6
CONTINUOUS
 10
220.146125
 20
104.039521
 11
220.739754
 21
104.039521
  0
LINE
  8
1
 62
7
  6
CONTINUOUS
 10
220.146125
 20
104.039521
 11
220.146125
 21
107.925156
  0
LINE
  8
1
 62
7
  6
CONTINUOUS
 10
220.140203
 20
108.273855
 11
220.140203
 21
107.187168
  0
LINE
  8
1
 62
7
  6
CONTINUOUS
 10
220.140203
 20
107.187168
 11
222.163690
 21
107.187168
  0
LINE
  8
1
 62
7
  6
CONTINUOUS
 10
222.163690
 20
107.187168
 11
222.163690
 21
108.273855
  0
LINE
  8
1
 62
7
  6
CONTINUOUS
 10
222.163690
 20
108.273855
 11
220.140203
 21
108.273855
  0
LINE
  8
1
 62
7
  6
CONTINUOUS
 10
191.302513
 20
108.208279
 11
191.302513
 21
107.196536
  0
LINE
  8
1
 62
7
  6
CONTINUOUS
 10
191.302513
 20
107.196536
 11
193.214688
 21
107.196536
  0
LINE
  8
1
 62
7
  6
CONTINUOUS
 10
193.214688
 20
107.196536
 11
193.214688
 21
108.208279
  0
LINE
  8
1
 62
7
  6
CONTINUOUS
 10
193.214688
 20
108.208279
 11
191.302513
 21
108.208279
  0
LINE
  8
1
 62
7
  6
CONTINUOUS
 10
192.707713
 20
104.039521
 11
192.707713
 21
102.992907
  0
LINE
  8
1
 62
7
  6
CONTINUOUS
 10
192.707713
 20
102.992907
 11
193.214688
 21
102.992907
  0
LINE
  8
1
 62
7
  6
CONTINUOUS
 10
193.214688
 20
104.039521
 11
192.707713
 21
104.039521
  0
LINE
  8
1
 62
7
  6
CONTINUOUS
 10
193.214688
 20
102.992907
 11
220.146125
 21
102.992907
  0
LINE
  8
1
 62
7
  6
CONTINUOUS
 10
220.146125
 20
107.925156
 11
193.214688
 21
107.925156
  0
LINE
  8
1
 62
7
  6
CONTINUOUS
 10
193.214688
 20
107.925156
 11
193.214688
 21
104.076993
  0
LINE
  8
1
 62
7
  6
CONTINUOUS
 10
229.534472
 20
106.122988
 11
229.534472
 21
104.984777
  0
LINE
  8
1
 62
7
  6
CONTINUOUS
 10
229.534472
 20
104.984777
 11
230.672683
 21
104.984777
  0
LINE
  8
1
 62
7
  6
CONTINUOUS
 10
230.672683
 20
104.984777
 11
230.672683
 21
106.122988
  0
LINE
  8
1
 62
7
  6
CONTINUOUS
 10
230.672683
 20
106.122988
 11
229.534472
 21
106.122988
  0
LINE
  8
1
 62
7
  6
CONTINUOUS
 10
232.074472
 20
106.122988
 11
232.074472
 21
104.984777
  0
LINE
  8
1
 62
7
  6
CONTINUOUS
 10
232.074472
 20
104.984777
 11
233.212683
 21
104.984777
  0
LINE
  8
1
 62
7
  6
CONTINUOUS
 10
233.212683
 20
104.984777
 11
233.212683
 21
106.122988
  0
LINE
  8
1
 62
7
  6
CONTINUOUS
 10
233.212683
 20
106.122988
 11
232.074472
 21
106.122988
  0
LINE
  8
1
 62
7
  6
CONTINUOUS
 10
234.614472
 20
106.122988
 11
234.614472
 21
104.984777
  0
LINE
  8
1
 62
7
  6
CONTINUOUS
 10
234.614472
 20
104.984777
 11
235.752683
 21
104.984777
  0
LINE
  8
1
 62
7
  6
CONTINUOUS
 10
235.752683
 20
104.984777
 11
235.752683
 21
106.122988
  0
LINE
  8
1
 62
7
  6
CONTINUOUS
 10
235.752683
 20
106.122988
 11
234.614472
 21
106.122988
  0
LINE
  8
1
 62
7
  6
CONTINUOUS
 10
237.154472
 20
106.122988
 11
237.154472
 21
104.984777
  0
LINE
  8
1
 62
7
  6
CONTINUOUS
 10
237.154472
 20
104.984777
 11
238.292683
 21
104.984777
  0
LINE
  8
1
 62
7
  6
CONTINUOUS
 10
238.292683
 20
104.984777
 11
238.292683
 21
106.122988
  0
LINE
  8
1
 62
7
  6
CONTINUOUS
 10
238.292683
 20
106.122988
 11
237.154472
 21
106.122988
  0
LINE
  8
1
 62
7
  6
CONTINUOUS
 10
239.694472
 20
106.122988
 11
239.694472
 21
104.984777
  0
LINE
  8
1
 62
7
  6
CONTINUOUS
 10
239.694472
 20
104.984777
 11
240.832683
 21
104.984777
  0
LINE
  8
1
 62
7
  6
CONTINUOUS
 10
240.832683
 20
104.984777
 11
240.832683
 21
106.122988
  0
LINE
  8
1
 62
7
  6
CONTINUOUS
 10
240.832683
 20
106.122988
 11
239.694472
 21
106.122988
  0
LINE
  8
1
 62
7
  6
CONTINUOUS
 10
242.234472
 20
106.122988
 11
242.234472
 21
104.984777
  0
LINE
  8
1
 62
7
  6
CONTINUOUS
 10
242.234472
 20
104.984777
 11
243.372683
 21
104.984777
  0
LINE
  8
1
 62
7
  6
CONTINUOUS
 10
243.372683
 20
104.984777
 11
243.372683
 21
106.122988
  0
LINE
  8
1
 62
7
  6
CONTINUOUS
 10
243.372683
 20
106.122988
 11
242.234472
 21
106.122988
  0
LINE
  8
1
 62
7
  6
CONTINUOUS
 10
244.774472
 20
106.122988
 11
244.774472
 21
104.984777
  0
LINE
  8
1
 62
7
  6
CONTINUOUS
 10
244.774472
 20
104.984777
 11
245.912683
 21
104.984777
  0
LINE
  8
1
 62
7
  6
CONTINUOUS
 10
245.912683
 20
104.984777
 11
245.912683
 21
106.122988
  0
LINE
  8
1
 62
7
  6
CONTINUOUS
 10
245.912683
 20
106.122988
 11
244.774472
 21
106.122988
  0
LINE
  8
1
 62
7
  6
CONTINUOUS
 10
247.314472
 20
106.122988
 11
247.314472
 21
104.984777
  0
LINE
  8
1
 62
7
  6
CONTINUOUS
 10
247.314472
 20
104.984777
 11
248.452683
 21
104.984777
  0
LINE
  8
1
 62
7
  6
CONTINUOUS
 10
248.452683
 20
104.984777
 11
248.452683
 21
106.122988
  0
LINE
  8
1
 62
7
  6
CONTINUOUS
 10
248.452683
 20
106.122988
 11
247.314472
 21
106.122988
  0
LINE
  8
1
 62
7
  6
CONTINUOUS
 10
249.854472
 20
106.122988
 11
249.854472
 21
104.984777
  0
LINE
  8
1
 62
7
  6
CONTINUOUS
 10
249.854472
 20
104.984777
 11
250.992683
 21
104.984777
  0
LINE
  8
1
 62
7
  6
CONTINUOUS
 10
250.992683
 20
104.984777
 11
250.992683
 21
106.122988
  0
LINE
  8
1
 62
7
  6
CONTINUOUS
 10
250.992683
 20
106.122988
 11
249.854472
 21
106.122988
  0
LINE
  8
1
 62
7
  6
CONTINUOUS
 10
252.394472
 20
106.122988
 11
252.394472
 21
104.984777
  0
LINE
  8
1
 62
7
  6
CONTINUOUS
 10
252.394472
 20
104.984777
 11
253.532683
 21
104.984777
  0
LINE
  8
1
 62
7
  6
CONTINUOUS
 10
253.532683
 20
104.984777
 11
253.532683
 21
106.122988
  0
LINE
  8
1
 62
7
  6
CONTINUOUS
 10
253.532683
 20
106.122988
 11
252.394472
 21
106.122988
  0
LINE
  8
1
 62
7
  6
CONTINUOUS
 10
255.739754
 20
104.039521
 11
255.739754
 21
102.992907
  0
LINE
  8
1
 62
7
  6
CONTINUOUS
 10
255.146125
 20
104.039521
 11
255.739754
 21
104.039521
  0
LINE
  8
1
 62
7
  6
CONTINUOUS
 10
255.146125
 20
104.039521
 11
255.146125
 21
107.925156
  0
LINE
  8
1
 62
7
  6
CONTINUOUS
 10
255.140203
 20
108.273855
 11
255.140203
 21
107.187168
  0
LINE
  8
1
 62
7
  6
CONTINUOUS
 10
255.140203
 20
107.187168
 11
257.163690
 21
107.187168
  0
LINE
  8
1
 62
7
  6
CONTINUOUS
 10
257.163690
 20
107.187168
 11
257.163690
 21
108.273855
  0
LINE
  8
1
 62
7
  6
CONTINUOUS
 10
257.163690
 20
108.273855
 11
255.140203
 21
108.273855
  0
LINE
  8
1
 62
7
  6
CONTINUOUS
 10
226.302513
 20
108.208279
 11
226.302513
 21
107.196536
  0
LINE
  8
1
 62
7
  6
CONTINUOUS
 10
226.302513
 20
107.196536
 11
228.214688
 21
107.196536
  0
LINE
  8
1
 62
7
  6
CONTINUOUS
 10
228.214688
 20
107.196536
 11
228.214688
 21
108.208279
  0
LINE
  8
1
 62
7
  6
CONTINUOUS
 10
228.214688
 20
108.208279
 11
226.302513
 21
108.208279
  0
LINE
  8
1
 62
7
  6
CONTINUOUS
 10
227.707713
 20
104.039521
 11
227.707713
 21
102.992907
  0
LINE
  8
1
 62
7
  6
CONTINUOUS
 10
228.214688
 20
104.039521
 11
227.707713
 21
104.039521
  0
LINE
  8
1
 62
7
  6
CONTINUOUS
 10
228.214688
 20
102.992907
 11
255.146125
 21
102.992907
  0
LINE
  8
1
 62
7
  6
CONTINUOUS
 10
255.146125
 20
107.925156
 11
228.214688
 21
107.925156
  0
LINE
  8
1
 62
7
  6
CONTINUOUS
 10
228.214688
 20
107.925156
 11
228.214688
 21
104.076993
  0
TEXT
  8
1
 62
7
  6
CONTINUOUS
 10
218.299559
 20
108.811344
 40
2.000000
 41
0.500000
  1
1
  7
KANJI
 50
0.000000
 51
0.000000
  0
TEXT
  8
1
 62
7
  6
CONTINUOUS
 10
193.492449
 20
108.821004
 40
2.000000
 41
0.500000
  1
1
  7
KANJI
 50
0.000000
 51
0.000000
  0
TEXT
  8
1
 62
7
  6
CONTINUOUS
 10
193.492449
 20
108.947472
 40
2.000000
 41
0.500000
  1
10
  7
KANJI
 50
0.000000
 51
0.000000
  0
TEXT
  8
1
 62
7
  6
CONTINUOUS
 10
253.299559
 20
108.811344
 40
2.000000
 41
0.500000
  1
1
  7
KANJI
 50
0.000000
 51
0.000000
  0
TEXT
  8
1
 62
7
  6
CONTINUOUS
 10
228.492449
 20
108.821004
 40
2.000000
 41
0.500000
  1
1
  7
KANJI
 50
0.000000
 51
0.000000
  0
TEXT
  8
1
 62
7
  6
CONTINUOUS
 10
228.492449
 20
108.947472
 40
2.000000
 41
0.500000
  1
10
  7
KANJI
 50
0.000000
 51
0.000000
  0
TEXT
  8
1
 62
7
  6
CONTINUOUS
 10
218.173091
 20
174.954072
 40
2.000000
 41
0.500000
  1
1
  7
KANJI
 50
0.000000
 51
0.000000
  0
TEXT
  8
1
 62
7
  6
CONTINUOUS
 10
193.365981
 20
174.963732
 40
2.000000
 41
0.500000
  1
1
  7
KANJI
 50
0.000000
 51
0.000000
  0
TEXT
  8
1
 62
7
  6
CONTINUOUS
 10
193.365981
 20
175.090200
 40
2.000000
 41
0.500000
  1
10
  7
KANJI
 50
0.000000
 51
0.000000
  0
TEXT
  8
1
 62
7
  6
CONTINUOUS
 10
253.173091
 20
174.954072
 40
2.000000
 41
0.500000
  1
1
  7
KANJI
 50
0.000000
 51
0.000000
  0
TEXT
  8
1
 62
7
  6
CONTINUOUS
 10
228.365981
 20
174.963732
 40
2.000000
 41
0.500000
  1
1
  7
KANJI
 50
0.000000
 51
0.000000
  0
TEXT
  8
1
 62
7
  6
CONTINUOUS
 10
228.365981
 20
175.090200
 40
2.000000
 41
0.500000
  1
10
  7
KANJI
 50
0.000000
 51
0.000000
  0
CIRCLE
  8
1
 62
7
  6
CONTINUOUS
 10
224.156726
 20
141.818042
 40
2.000000
  0
LINE
  8
1
 62
7
  6
CONTINUOUS
 10
223.864756
 20
142.784357
 11
223.864756
 21
142.110011
  0
ARC
  8
1
 62
7
  6
CONTINUOUS
 10
224.064756
 20
142.784357
 40
0.200000
 50
90.000000
 51
180.000000
  0
LINE
  8
1
 62
7
  6
CONTINUOUS
 10
224.289289
 20
142.984357
 11
224.064756
 21
142.984357
  0
LINE
  8
1
 62
7
  6
CONTINUOUS
 10
224.489289
 20
142.110011
 11
224.489289
 21
142.784357
  0
ARC
  8
1
 62
7
  6
CONTINUOUS
 10
224.289289
 20
142.784357
 40
0.200000
 50
0.000000
 51
90.000000
  0
LINE
  8
1
 62
7
  6
CONTINUOUS
 10
224.489289
 20
140.811132
 11
224.489289
 21
141.535440
  0
ARC
  8
1
 62
7
  6
CONTINUOUS
 10
224.289289
 20
140.811132
 40
0.200000
 50
-90.000000
 51
0.000000
  0
LINE
  8
1
 62
7
  6
CONTINUOUS
 10
224.064756
 20
140.611132
 11
224.289289
 21
140.611132
  0
LINE
  8
1
 62
7
  6
CONTINUOUS
 10
223.864756
 20
141.535440
 11
223.864756
 21
140.811132
  0
ARC
  8
1
 62
7
  6
CONTINUOUS
 10
224.064756
 20
140.811132
 40
0.200000
 50
180.000000
 51
-90.000000
  0
LINE
  8
1
 62
7
  6
CONTINUOUS
 10
225.163636
 20
142.110011
 11
224.489289
 21
142.110011
  0
ARC
  8
1
 62
7
  6
CONTINUOUS
 10
225.163636
 20
141.910011
 40
0.200000
 50
0.000000
 51
90.000000
  0
LINE
  8
1
 62
7
  6
CONTINUOUS
 10
225.363636
 20
141.735440
 11
225.363636
 21
141.910011
  0
LINE
  8
1
 62
7
  6
CONTINUOUS
 10
224.489289
 20
141.535440
 11
225.163636
 21
141.535440
  0
ARC
  8
1
 62
7
  6
CONTINUOUS
 10
225.163636
 20
141.735440
 40
0.200000
 50
-90.000000
 51
0.000000
  0
LINE
  8
1
 62
7
  6
CONTINUOUS
 10
223.065504
 20
141.535440
 11
223.864756
 21
141.535440
  0
ARC
  8
1
 62
7
  6
CONTINUOUS
 10
223.065504
 20
141.735440
 40
0.200000
 50
180.000000
 51
-90.000000
  0
LINE
  8
1
 62
7
  6
CONTINUOUS
 10
222.865504
 20
141.910011
 11
222.865504
 21
141.735440
  0
LINE
  8
1
 62
7
  6
CONTINUOUS
 10
223.864756
 20
142.110011
 11
223.065504
 21
142.110011
  0
ARC
  8
1
 62
7
  6
CONTINUOUS
 10
223.065504
 20
141.910011
 40
0.200000
 50
90.000000
 51
180.000000
  0
TEXT
  8
1
 62
7
  6
CONTINUOUS
 10
78.592793
 20
31.265683
 40
2.000000
 41
0.500000
  1
10
  7
KANJI
 50
0.000000
 51
0.000000
  0
TEXT
  8
1
 62
7
  6
CONTINUOUS
 10
84.154873
 20
31.321891
 40
2.000000
 41
0.500000
  1
9
  7
KANJI
 50
0.000000
 51
0.000000
  0
TEXT
  8
1
 62
7
  6
CONTINUOUS
 10
89.154873
 20
31.321891
 40
2.000000
 41
0.500000
  1
8
  7
KANJI
 50
0.000000
 51
0.000000
  0
TEXT
  8
1
 62
7
  6
CONTINUOUS
 10
94.154873
 20
31.321891
 40
2.000000
 41
0.500000
  1
7
  7
KANJI
 50
0.000000
 51
0.000000
  0
TEXT
  8
1
 62
7
  6
CONTINUOUS
 10
99.154873
 20
31.321891
 40
2.000000
 41
0.500000
  1
6
  7
KANJI
 50
0.000000
 51
0.000000
  0
TEXT
  8
1
 62
7
  6
CONTINUOUS
 10
104.154873
 20
31.321891
 40
2.000000
 41
0.500000
  1
5
  7
KANJI
 50
0.000000
 51
0.000000
  0
TEXT
  8
1
 62
7
  6
CONTINUOUS
 10
109.154873
 20
31.321891
 40
2.000000
 41
0.500000
  1
4
  7
KANJI
 50
0.000000
 51
0.000000
  0
TEXT
  8
1
 62
7
  6
CONTINUOUS
 10
114.154873
 20
31.321891
 40
2.000000
 41
0.500000
  1
3
  7
KANJI
 50
0.000000
 51
0.000000
  0
TEXT
  8
1
 62
7
  6
CONTINUOUS
 10
119.154873
 20
31.321891
 40
2.000000
 41
0.500000
  1
2
  7
KANJI
 50
0.000000
 51
0.000000
  0
TEXT
  8
1
 62
7
  6
CONTINUOUS
 10
124.154873
 20
31.321891
 40
2.000000
 41
0.500000
  1
1
  7
KANJI
 50
0.000000
 51
0.000000
  0
TEXT
  8
1
 62
7
  6
CONTINUOUS
 10
77.831476
 20
49.448961
 40
2.000000
 41
0.500000
  1
9
  7
KANJI
 50
0.000000
 51
0.000000
  0
TEXT
  8
1
 62
7
  6
CONTINUOUS
 10
82.831476
 20
49.448961
 40
2.000000
 41
0.500000
  1
8
  7
KANJI
 50
0.000000
 51
0.000000
  0
TEXT
  8
1
 62
7
  6
CONTINUOUS
 10
87.831476
 20
49.448961
 40
2.000000
 41
0.500000
  1
7
  7
KANJI
 50
0.000000
 51
0.000000
  0
TEXT
  8
1
 62
7
  6
CONTINUOUS
 10
92.831476
 20
49.448961
 40
2.000000
 41
0.500000
  1
6
  7
KANJI
 50
0.000000
 51
0.000000
  0
TEXT
  8
1
 62
7
  6
CONTINUOUS
 10
97.831476
 20
49.448961
 40
2.000000
 41
0.500000
  1
5
  7
KANJI
 50
0.000000
 51
0.000000
  0
TEXT
  8
1
 62
7
  6
CONTINUOUS
 10
102.831476
 20
49.448961
 40
2.000000
 41
0.500000
  1
4
  7
KANJI
 50
0.000000
 51
0.000000
  0
TEXT
  8
1
 62
7
  6
CONTINUOUS
 10
107.831476
 20
49.448961
 40
2.000000
 41
0.500000
  1
3
  7
KANJI
 50
0.000000
 51
0.000000
  0
TEXT
  8
1
 62
7
  6
CONTINUOUS
 10
112.831476
 20
49.448961
 40
2.000000
 41
0.500000
  1
2
  7
KANJI
 50
0.000000
 51
0.000000
  0
TEXT
  8
1
 62
7
  6
CONTINUOUS
 10
117.831476
 20
49.448961
 40
2.000000
 41
0.500000
  1
1
  7
KANJI
 50
0.000000
 51
0.000000
  0
LINE
  8
1
 62
7
  6
CONTINUOUS
 10
124.552846
 20
36.569106
 11
124.552846
 21
46.104587
  0
LINE
  8
1
 62
7
  6
CONTINUOUS
 10
124.552846
 20
46.104587
 11
124.552846
 21
56.531165
  0
CIRCLE
  8
1
 62
7
  6
CONTINUOUS
 10
124.552846
 20
35.569106
 40
1.000000
  0
LINE
  8
1
 62
7
  6
CONTINUOUS
 10
120.655927
 20
45.907859
 11
121.386631
 21
45.907859
  0
LINE
  8
1
 62
7
  6
CONTINUOUS
 10
120.655927
 20
47.875138
 11
120.655927
 21
44.221620
  0
LINE
  8
1
 62
7
  6
CONTINUOUS
 10
119.552846
 20
48.099970
 11
119.552846
 21
56.531165
  0
LINE
  8
1
 62
7
  6
CONTINUOUS
 10
119.552846
 20
36.569106
 11
119.552846
 21
44.109204
  0
CIRCLE
  8
1
 62
7
  6
CONTINUOUS
 10
119.552846
 20
44.615076
 40
0.505872
  0
CIRCLE
  8
1
 62
7
  6
CONTINUOUS
 10
119.552846
 20
47.594098
 40
0.505872
  0
CIRCLE
  8
1
 62
7
  6
CONTINUOUS
 10
119.552846
 20
35.569106
 40
1.000000
  0
LINE
  8
1
 62
7
  6
CONTINUOUS
 10
115.655927
 20
45.907859
 11
116.386631
 21
45.907859
  0
LINE
  8
1
 62
7
  6
CONTINUOUS
 10
115.655927
 20
47.875138
 11
115.655927
 21
44.221620
  0
LINE
  8
1
 62
7
  6
CONTINUOUS
 10
114.552846
 20
48.099970
 11
114.552846
 21
56.531165
  0
LINE
  8
1
 62
7
  6
CONTINUOUS
 10
114.552846
 20
36.569106
 11
114.552846
 21
44.109204
  0
CIRCLE
  8
1
 62
7
  6
CONTINUOUS
 10
114.552846
 20
44.615076
 40
0.505872
  0
CIRCLE
  8
1
 62
7
  6
CONTINUOUS
 10
114.552846
 20
47.594098
 40
0.505872
  0
CIRCLE
  8
1
 62
7
  6
CONTINUOUS
 10
114.552846
 20
35.569106
 40
1.000000
  0
LINE
  8
1
 62
7
  6
CONTINUOUS
 10
110.655927
 20
45.907859
 11
111.386631
 21
45.907859
  0
LINE
  8
1
 62
7
  6
CONTINUOUS
 10
110.655927
 20
47.875138
 11
110.655927
 21
44.221620
  0
LINE
  8
1
 62
7
  6
CONTINUOUS
 10
109.552846
 20
48.099970
 11
109.552846
 21
56.531165
  0
LINE
  8
1
 62
7
  6
CONTINUOUS
 10
109.552846
 20
36.569106
 11
109.552846
 21
44.109204
  0
CIRCLE
  8
1
 62
7
  6
CONTINUOUS
 10
109.552846
 20
44.615076
 40
0.505872
  0
CIRCLE
  8
1
 62
7
  6
CONTINUOUS
 10
109.552846
 20
47.594098
 40
0.505872
  0
CIRCLE
  8
1
 62
7
  6
CONTINUOUS
 10
109.552846
 20
35.569106
 40
1.000000
  0
LINE
  8
1
 62
7
  6
CONTINUOUS
 10
105.655927
 20
45.907859
 11
106.386631
 21
45.907859
  0
LINE
  8
1
 62
7
  6
CONTINUOUS
 10
105.655927
 20
47.875138
 11
105.655927
 21
44.221620
  0
LINE
  8
1
 62
7
  6
CONTINUOUS
 10
104.552846
 20
48.099970
 11
104.552846
 21
56.531165
  0
LINE
  8
1
 62
7
  6
CONTINUOUS
 10
104.552846
 20
36.569106
 11
104.552846
 21
44.109204
  0
CIRCLE
  8
1
 62
7
  6
CONTINUOUS
 10
104.552846
 20
44.615076
 40
0.505872
  0
CIRCLE
  8
1
 62
7
  6
CONTINUOUS
 10
104.552846
 20
47.594098
 40
0.505872
  0
CIRCLE
  8
1
 62
7
  6
CONTINUOUS
 10
104.552846
 20
35.569106
 40
1.000000
  0
LINE
  8
1
 62
7
  6
CONTINUOUS
 10
100.655927
 20
45.907859
 11
101.386631
 21
45.907859
  0
LINE
  8
1
 62
7
  6
CONTINUOUS
 10
100.655927
 20
47.875138
 11
100.655927
 21
44.221620
  0
LINE
  8
1
 62
7
  6
CONTINUOUS
 10
99.552846
 20
48.099970
 11
99.552846
 21
56.531165
  0
LINE
  8
1
 62
7
  6
CONTINUOUS
 10
99.552846
 20
36.569106
 11
99.552846
 21
44.109204
  0
CIRCLE
  8
1
 62
7
  6
CONTINUOUS
 10
99.552846
 20
44.615076
 40
0.505872
  0
CIRCLE
  8
1
 62
7
  6
CONTINUOUS
 10
99.552846
 20
47.594098
 40
0.505872
  0
CIRCLE
  8
1
 62
7
  6
CONTINUOUS
 10
99.552846
 20
35.569106
 40
1.000000
  0
LINE
  8
1
 62
7
  6
CONTINUOUS
 10
95.655927
 20
45.907859
 11
96.386631
 21
45.907859
  0
LINE
  8
1
 62
7
  6
CONTINUOUS
 10
95.655927
 20
47.875138
 11
95.655927
 21
44.221620
  0
LINE
  8
1
 62
7
  6
CONTINUOUS
 10
94.552846
 20
48.099970
 11
94.552846
 21
56.531165
  0
LINE
  8
1
 62
7
  6
CONTINUOUS
 10
94.552846
 20
36.569106
 11
94.552846
 21
44.109204
  0
CIRCLE
  8
1
 62
7
  6
CONTINUOUS
 10
94.552846
 20
44.615076
 40
0.505872
  0
CIRCLE
  8
1
 62
7
  6
CONTINUOUS
 10
94.552846
 20
47.594098
 40
0.505872
  0
CIRCLE
  8
1
 62
7
  6
CONTINUOUS
 10
94.552846
 20
35.569106
 40
1.000000
  0
LINE
  8
1
 62
7
  6
CONTINUOUS
 10
90.655927
 20
45.907859
 11
91.386631
 21
45.907859
  0
LINE
  8
1
 62
7
  6
CONTINUOUS
 10
90.655927
 20
47.875138
 11
90.655927
 21
44.221620
  0
LINE
  8
1
 62
7
  6
CONTINUOUS
 10
89.552846
 20
48.099970
 11
89.552846
 21
56.531165
  0
LINE
  8
1
 62
7
  6
CONTINUOUS
 10
89.552846
 20
36.569106
 11
89.552846
 21
44.109204
  0
CIRCLE
  8
1
 62
7
  6
CONTINUOUS
 10
89.552846
 20
44.615076
 40
0.505872
  0
CIRCLE
  8
1
 62
7
  6
CONTINUOUS
 10
89.552846
 20
47.594098
 40
0.505872
  0
CIRCLE
  8
1
 62
7
  6
CONTINUOUS
 10
89.552846
 20
35.569106
 40
1.000000
  0
LINE
  8
1
 62
7
  6
CONTINUOUS
 10
85.655927
 20
45.907859
 11
86.386631
 21
45.907859
  0
LINE
  8
1
 62
7
  6
CONTINUOUS
 10
85.655927
 20
47.875138
 11
85.655927
 21
44.221620
  0
LINE
  8
1
 62
7
  6
CONTINUOUS
 10
84.552846
 20
48.099970
 11
84.552846
 21
56.531165
  0
LINE
  8
1
 62
7
  6
CONTINUOUS
 10
84.552846
 20
36.569106
 11
84.552846
 21
44.109204
  0
CIRCLE
  8
1
 62
7
  6
CONTINUOUS
 10
84.552846
 20
44.615076
 40
0.505872
  0
CIRCLE
  8
1
 62
7
  6
CONTINUOUS
 10
84.552846
 20
47.594098
 40
0.505872
  0
CIRCLE
  8
1
 62
7
  6
CONTINUOUS
 10
84.552846
 20
35.569106
 40
1.000000
  0
LINE
  8
1
 62
7
  6
CONTINUOUS
 10
80.655927
 20
45.907859
 11
81.386631
 21
45.907859
  0
LINE
  8
1
 62
7
  6
CONTINUOUS
 10
80.655927
 20
47.875138
 11
80.655927
 21
44.221620
  0
LINE
  8
1
 62
7
  6
CONTINUOUS
 10
79.552846
 20
48.099970
 11
79.552846
 21
56.531165
  0
LINE
  8
1
 62
7
  6
CONTINUOUS
 10
79.552846
 20
36.569106
 11
79.552846
 21
44.109204
  0
CIRCLE
  8
1
 62
7
  6
CONTINUOUS
 10
79.552846
 20
44.615076
 40
0.505872
  0
CIRCLE
  8
1
 62
7
  6
CONTINUOUS
 10
79.552846
 20
47.594098
 40
0.505872
  0
CIRCLE
  8
1
 62
7
  6
CONTINUOUS
 10
79.552846
 20
35.569106
 40
1.000000
  0
CIRCLE
  8
1
 62
7
  6
CONTINUOUS
 10
79.552846
 20
56.531165
 40
0.500000
  0
CIRCLE
  8
1
 62
7
  6
CONTINUOUS
 10
79.552846
 20
56.531165
 40
0.250000
  0
CIRCLE
  8
1
 62
7
  6
CONTINUOUS
 10
84.552846
 20
56.531165
 40
0.500000
  0
CIRCLE
  8
1
 62
7
  6
CONTINUOUS
 10
84.552846
 20
56.531165
 40
0.250000
  0
CIRCLE
  8
1
 62
7
  6
CONTINUOUS
 10
89.552846
 20
56.531165
 40
0.500000
  0
CIRCLE
  8
1
 62
7
  6
CONTINUOUS
 10
89.552846
 20
56.531165
 40
0.250000
  0
CIRCLE
  8
1
 62
7
  6
CONTINUOUS
 10
94.552846
 20
56.531165
 40
0.500000
  0
CIRCLE
  8
1
 62
7
  6
CONTINUOUS
 10
94.552846
 20
56.531165
 40
0.250000
  0
CIRCLE
  8
1
 62
7
  6
CONTINUOUS
 10
99.552846
 20
56.531165
 40
0.500000
  0
CIRCLE
  8
1
 62
7
  6
CONTINUOUS
 10
99.552846
 20
56.531165
 40
0.250000
  0
CIRCLE
  8
1
 62
7
  6
CONTINUOUS
 10
104.552846
 20
56.531165
 40
0.500000
  0
CIRCLE
  8
1
 62
7
  6
CONTINUOUS
 10
104.552846
 20
56.531165
 40
0.250000
  0
CIRCLE
  8
1
 62
7
  6
CONTINUOUS
 10
109.552846
 20
56.531165
 40
0.500000
  0
CIRCLE
  8
1
 62
7
  6
CONTINUOUS
 10
109.552846
 20
56.531165
 40
0.250000
  0
CIRCLE
  8
1
 62
7
  6
CONTINUOUS
 10
114.552846
 20
56.531165
 40
0.500000
  0
CIRCLE
  8
1
 62
7
  6
CONTINUOUS
 10
114.552846
 20
56.531165
 40
0.250000
  0
CIRCLE
  8
1
 62
7
  6
CONTINUOUS
 10
119.552846
 20
56.531165
 40
0.500000
  0
CIRCLE
  8
1
 62
7
  6
CONTINUOUS
 10
119.552846
 20
56.531165
 40
0.250000
  0
TEXT
  8
1
 62
7
  6
CONTINUOUS
 10
127.479675
 20
19.918699
 40
4.000000
 41
1.000000
  1
回路図
  7
KANJI
 50
0.000000
 51
0.000000
  0
LINE
  8
1
 62
7
  6
CONTINUOUS
 10
77.704005
 20
37.269397
 11
77.704005
 21
33.896919
  0
LINE
  8
1
 62
7
  6
CONTINUOUS
 10
77.704005
 20
33.896919
 11
126.814213
 21
33.896919
  0
LINE
  8
1
 62
7
  6
CONTINUOUS
 10
126.814213
 20
33.896919
 11
126.814213
 21
37.269397
  0
LINE
  8
1
 62
7
  6
CONTINUOUS
 10
126.814213
 20
37.269397
 11
77.704005
 21
37.269397
  0
LINE
  8
1
 62
7
  6
CONTINUOUS
 10
70.655927
 20
45.907859
 11
71.386631
 21
45.907859
  0
LINE
  8
1
 62
7
  6
CONTINUOUS
 10
70.655927
 20
47.875138
 11
70.655927
 21
44.221620
  0
LINE
  8
1
 62
7
  6
CONTINUOUS
 10
69.552846
 20
36.569106
 11
69.552846
 21
44.109204
  0
CIRCLE
  8
1
 62
7
  6
CONTINUOUS
 10
69.552846
 20
44.615076
 40
0.505872
  0
CIRCLE
  8
1
 62
7
  6
CONTINUOUS
 10
69.552846
 20
47.594098
 40
0.505872
  0
TEXT
  8
1
 62
7
  6
CONTINUOUS
 10
198.592793
 20
31.265683
 40
2.000000
 41
0.500000
  1
10
  7
KANJI
 50
0.000000
 51
0.000000
  0
TEXT
  8
1
 62
7
  6
CONTINUOUS
 10
204.154873
 20
31.321891
 40
2.000000
 41
0.500000
  1
9
  7
KANJI
 50
0.000000
 51
0.000000
  0
TEXT
  8
1
 62
7
  6
CONTINUOUS
 10
209.154873
 20
31.321891
 40
2.000000
 41
0.500000
  1
8
  7
KANJI
 50
0.000000
 51
0.000000
  0
TEXT
  8
1
 62
7
  6
CONTINUOUS
 10
214.154873
 20
31.321891
 40
2.000000
 41
0.500000
  1
7
  7
KANJI
 50
0.000000
 51
0.000000
  0
TEXT
  8
1
 62
7
  6
CONTINUOUS
 10
219.154873
 20
31.321891
 40
2.000000
 41
0.500000
  1
6
  7
KANJI
 50
0.000000
 51
0.000000
  0
TEXT
  8
1
 62
7
  6
CONTINUOUS
 10
224.154873
 20
31.321891
 40
2.000000
 41
0.500000
  1
5
  7
KANJI
 50
0.000000
 51
0.000000
  0
TEXT
  8
1
 62
7
  6
CONTINUOUS
 10
229.154873
 20
31.321891
 40
2.000000
 41
0.500000
  1
4
  7
KANJI
 50
0.000000
 51
0.000000
  0
TEXT
  8
1
 62
7
  6
CONTINUOUS
 10
234.154873
 20
31.321891
 40
2.000000
 41
0.500000
  1
3
  7
KANJI
 50
0.000000
 51
0.000000
  0
TEXT
  8
1
 62
7
  6
CONTINUOUS
 10
239.154873
 20
31.321891
 40
2.000000
 41
0.500000
  1
2
  7
KANJI
 50
0.000000
 51
0.000000
  0
TEXT
  8
1
 62
7
  6
CONTINUOUS
 10
244.154873
 20
31.321891
 40
2.000000
 41
0.500000
  1
1
  7
KANJI
 50
0.000000
 51
0.000000
  0
TEXT
  8
1
 62
7
  6
CONTINUOUS
 10
197.831476
 20
49.448961
 40
2.000000
 41
0.500000
  1
9
  7
KANJI
 50
0.000000
 51
0.000000
  0
TEXT
  8
1
 62
7
  6
CONTINUOUS
 10
202.831476
 20
49.448961
 40
2.000000
 41
0.500000
  1
8
  7
KANJI
 50
0.000000
 51
0.000000
  0
TEXT
  8
1
 62
7
  6
CONTINUOUS
 10
207.831476
 20
49.448961
 40
2.000000
 41
0.500000
  1
7
  7
KANJI
 50
0.000000
 51
0.000000
  0
TEXT
  8
1
 62
7
  6
CONTINUOUS
 10
212.831476
 20
49.448961
 40
2.000000
 41
0.500000
  1
6
  7
KANJI
 50
0.000000
 51
0.000000
  0
TEXT
  8
1
 62
7
  6
CONTINUOUS
 10
217.831476
 20
49.448961
 40
2.000000
 41
0.500000
  1
5
  7
KANJI
 50
0.000000
 51
0.000000
  0
TEXT
  8
1
 62
7
  6
CONTINUOUS
 10
222.831476
 20
49.448961
 40
2.000000
 41
0.500000
  1
4
  7
KANJI
 50
0.000000
 51
0.000000
  0
TEXT
  8
1
 62
7
  6
CONTINUOUS
 10
227.831476
 20
49.448961
 40
2.000000
 41
0.500000
  1
3
  7
KANJI
 50
0.000000
 51
0.000000
  0
TEXT
  8
1
 62
7
  6
CONTINUOUS
 10
232.831476
 20
49.448961
 40
2.000000
 41
0.500000
  1
2
  7
KANJI
 50
0.000000
 51
0.000000
  0
TEXT
  8
1
 62
7
  6
CONTINUOUS
 10
237.831476
 20
49.448961
 40
2.000000
 41
0.500000
  1
1
  7
KANJI
 50
0.000000
 51
0.000000
  0
LINE
  8
1
 62
7
  6
CONTINUOUS
 10
244.552846
 20
36.569106
 11
244.552846
 21
46.104587
  0
LINE
  8
1
 62
7
  6
CONTINUOUS
 10
244.552846
 20
46.104587
 11
244.552846
 21
56.531165
  0
CIRCLE
  8
1
 62
7
  6
CONTINUOUS
 10
244.552846
 20
35.569106
 40
1.000000
  0
LINE
  8
1
 62
7
  6
CONTINUOUS
 10
239.552846
 20
48.099970
 11
239.552846
 21
56.531165
  0
LINE
  8
1
 62
7
  6
CONTINUOUS
 10
239.552846
 20
36.569106
 11
239.552846
 21
44.109204
  0
CIRCLE
  8
1
 62
7
  6
CONTINUOUS
 10
239.552846
 20
35.569106
 40
1.000000
  0
LINE
  8
1
 62
7
  6
CONTINUOUS
 10
234.552846
 20
48.099970
 11
234.552846
 21
56.531165
  0
LINE
  8
1
 62
7
  6
CONTINUOUS
 10
234.552846
 20
36.569106
 11
234.552846
 21
44.109204
  0
CIRCLE
  8
1
 62
7
  6
CONTINUOUS
 10
234.552846
 20
35.569106
 40
1.000000
  0
LINE
  8
1
 62
7
  6
CONTINUOUS
 10
229.552846
 20
48.099970
 11
229.552846
 21
56.531165
  0
LINE
  8
1
 62
7
  6
CONTINUOUS
 10
229.552846
 20
36.569106
 11
229.552846
 21
44.109204
  0
CIRCLE
  8
1
 62
7
  6
CONTINUOUS
 10
229.552846
 20
35.569106
 40
1.000000
  0
LINE
  8
1
 62
7
  6
CONTINUOUS
 10
224.552846
 20
48.099970
 11
224.552846
 21
56.531165
  0
LINE
  8
1
 62
7
  6
CONTINUOUS
 10
224.552846
 20
36.569106
 11
224.552846
 21
44.109204
  0
CIRCLE
  8
1
 62
7
  6
CONTINUOUS
 10
224.552846
 20
35.569106
 40
1.000000
  0
LINE
  8
1
 62
7
  6
CONTINUOUS
 10
219.552846
 20
48.099970
 11
219.552846
 21
56.531165
  0
LINE
  8
1
 62
7
  6
CONTINUOUS
 10
219.552846
 20
36.569106
 11
219.552846
 21
44.109204
  0
CIRCLE
  8
1
 62
7
  6
CONTINUOUS
 10
219.552846
 20
35.569106
 40
1.000000
  0
LINE
  8
1
 62
7
  6
CONTINUOUS
 10
214.552846
 20
48.099970
 11
214.552846
 21
56.531165
  0
LINE
  8
1
 62
7
  6
CONTINUOUS
 10
214.552846
 20
36.569106
 11
214.552846
 21
44.109204
  0
CIRCLE
  8
1
 62
7
  6
CONTINUOUS
 10
214.552846
 20
35.569106
 40
1.000000
  0
LINE
  8
1
 62
7
  6
CONTINUOUS
 10
209.552846
 20
48.099970
 11
209.552846
 21
56.531165
  0
LINE
  8
1
 62
7
  6
CONTINUOUS
 10
209.552846
 20
36.569106
 11
209.552846
 21
44.109204
  0
CIRCLE
  8
1
 62
7
  6
CONTINUOUS
 10
209.552846
 20
35.569106
 40
1.000000
  0
LINE
  8
1
 62
7
  6
CONTINUOUS
 10
204.552846
 20
48.099970
 11
204.552846
 21
56.531165
  0
LINE
  8
1
 62
7
  6
CONTINUOUS
 10
204.552846
 20
36.569106
 11
204.552846
 21
44.109204
  0
CIRCLE
  8
1
 62
7
  6
CONTINUOUS
 10
204.552846
 20
35.569106
 40
1.000000
  0
LINE
  8
1
 62
7
  6
CONTINUOUS
 10
199.552846
 20
48.099970
 11
199.552846
 21
56.531165
  0
LINE
  8
1
 62
7
  6
CONTINUOUS
 10
199.552846
 20
36.569106
 11
199.552846
 21
44.109204
  0
CIRCLE
  8
1
 62
7
  6
CONTINUOUS
 10
199.552846
 20
35.569106
 40
1.000000
  0
CIRCLE
  8
1
 62
7
  6
CONTINUOUS
 10
199.552846
 20
56.531165
 40
0.500000
  0
CIRCLE
  8
1
 62
7
  6
CONTINUOUS
 10
199.552846
 20
56.531165
 40
0.250000
  0
CIRCLE
  8
1
 62
7
  6
CONTINUOUS
 10
204.552846
 20
56.531165
 40
0.500000
  0
CIRCLE
  8
1
 62
7
  6
CONTINUOUS
 10
204.552846
 20
56.531165
 40
0.250000
  0
CIRCLE
  8
1
 62
7
  6
CONTINUOUS
 10
209.552846
 20
56.531165
 40
0.500000
  0
CIRCLE
  8
1
 62
7
  6
CONTINUOUS
 10
209.552846
 20
56.531165
 40
0.250000
  0
CIRCLE
  8
1
 62
7
  6
CONTINUOUS
 10
214.552846
 20
56.531165
 40
0.500000
  0
CIRCLE
  8
1
 62
7
  6
CONTINUOUS
 10
214.552846
 20
56.531165
 40
0.250000
  0
CIRCLE
  8
1
 62
7
  6
CONTINUOUS
 10
219.552846
 20
56.531165
 40
0.500000
  0
CIRCLE
  8
1
 62
7
  6
CONTINUOUS
 10
219.552846
 20
56.531165
 40
0.250000
  0
CIRCLE
  8
1
 62
7
  6
CONTINUOUS
 10
224.552846
 20
56.531165
 40
0.500000
  0
CIRCLE
  8
1
 62
7
  6
CONTINUOUS
 10
224.552846
 20
56.531165
 40
0.250000
  0
CIRCLE
  8
1
 62
7
  6
CONTINUOUS
 10
229.552846
 20
56.531165
 40
0.500000
  0
CIRCLE
  8
1
 62
7
  6
CONTINUOUS
 10
229.552846
 20
56.531165
 40
0.250000
  0
CIRCLE
  8
1
 62
7
  6
CONTINUOUS
 10
234.552846
 20
56.531165
 40
0.500000
  0
CIRCLE
  8
1
 62
7
  6
CONTINUOUS
 10
234.552846
 20
56.531165
 40
0.250000
  0
CIRCLE
  8
1
 62
7
  6
CONTINUOUS
 10
239.552846
 20
56.531165
 40
0.500000
  0
CIRCLE
  8
1
 62
7
  6
CONTINUOUS
 10
239.552846
 20
56.531165
 40
0.250000
  0
LINE
  8
1
 62
7
  6
CONTINUOUS
 10
200.697461
 20
46.886653
 11
199.538901
 21
44.820033
  0
LINE
  8
1
 62
7
  6
CONTINUOUS
 10
200.733246
 20
46.931385
 11
198.450911
 21
46.931385
  0
LINE
  8
1
 62
7
  6
CONTINUOUS
 10
199.570213
 20
44.788720
 11
198.450911
 21
46.931385
  0
CIRCLE
  8
1
 62
7
  6
CONTINUOUS
 10
199.546207
 20
46.089263
 40
2.010718
  0
LINE
  8
1
 62
7
  6
CONTINUOUS
 10
200.540898
 20
44.820033
 11
198.505591
 21
44.820033
  0
LINE
  8
1
 62
7
  6
CONTINUOUS
 10
199.552846
 20
43.060236
 11
199.552846
 21
44.820033
  0
LINE
  8
1
 62
7
  6
CONTINUOUS
 10
199.552846
 20
46.944354
 11
199.552846
 21
48.980688
  0
LINE
  8
1
 62
7
  6
CONTINUOUS
 10
205.697461
 20
46.886653
 11
204.538901
 21
44.820033
  0
LINE
  8
1
 62
7
  6
CONTINUOUS
 10
205.733246
 20
46.931385
 11
203.450911
 21
46.931385
  0
LINE
  8
1
 62
7
  6
CONTINUOUS
 10
204.570213
 20
44.788720
 11
203.450911
 21
46.931385
  0
CIRCLE
  8
1
 62
7
  6
CONTINUOUS
 10
204.546207
 20
46.089263
 40
2.010718
  0
LINE
  8
1
 62
7
  6
CONTINUOUS
 10
205.540898
 20
44.820033
 11
203.505591
 21
44.820033
  0
LINE
  8
1
 62
7
  6
CONTINUOUS
 10
204.552846
 20
43.060236
 11
204.552846
 21
44.820033
  0
LINE
  8
1
 62
7
  6
CONTINUOUS
 10
204.552846
 20
46.944354
 11
204.552846
 21
48.980688
  0
LINE
  8
1
 62
7
  6
CONTINUOUS
 10
210.697461
 20
46.886653
 11
209.538901
 21
44.820033
  0
LINE
  8
1
 62
7
  6
CONTINUOUS
 10
210.733246
 20
46.931385
 11
208.450911
 21
46.931385
  0
LINE
  8
1
 62
7
  6
CONTINUOUS
 10
209.570213
 20
44.788720
 11
208.450911
 21
46.931385
  0
CIRCLE
  8
1
 62
7
  6
CONTINUOUS
 10
209.546207
 20
46.089263
 40
2.010718
  0
LINE
  8
1
 62
7
  6
CONTINUOUS
 10
210.540898
 20
44.820033
 11
208.505591
 21
44.820033
  0
LINE
  8
1
 62
7
  6
CONTINUOUS
 10
209.552846
 20
43.060236
 11
209.552846
 21
44.820033
  0
LINE
  8
1
 62
7
  6
CONTINUOUS
 10
209.552846
 20
46.944354
 11
209.552846
 21
48.980688
  0
LINE
  8
1
 62
7
  6
CONTINUOUS
 10
215.697461
 20
46.886653
 11
214.538901
 21
44.820033
  0
LINE
  8
1
 62
7
  6
CONTINUOUS
 10
215.733246
 20
46.931385
 11
213.450911
 21
46.931385
  0
LINE
  8
1
 62
7
  6
CONTINUOUS
 10
214.570213
 20
44.788720
 11
213.450911
 21
46.931385
  0
CIRCLE
  8
1
 62
7
  6
CONTINUOUS
 10
214.546207
 20
46.089263
 40
2.010718
  0
LINE
  8
1
 62
7
  6
CONTINUOUS
 10
215.540898
 20
44.820033
 11
213.505591
 21
44.820033
  0
LINE
  8
1
 62
7
  6
CONTINUOUS
 10
214.552846
 20
43.060236
 11
214.552846
 21
44.820033
  0
LINE
  8
1
 62
7
  6
CONTINUOUS
 10
214.552846
 20
46.944354
 11
214.552846
 21
48.980688
  0
LINE
  8
1
 62
7
  6
CONTINUOUS
 10
225.697461
 20
46.886653
 11
224.538901
 21
44.820033
  0
LINE
  8
1
 62
7
  6
CONTINUOUS
 10
225.733246
 20
46.931385
 11
223.450911
 21
46.931385
  0
LINE
  8
1
 62
7
  6
CONTINUOUS
 10
224.570213
 20
44.788720
 11
223.450911
 21
46.931385
  0
CIRCLE
  8
1
 62
7
  6
CONTINUOUS
 10
224.546207
 20
46.089263
 40
2.010718
  0
LINE
  8
1
 62
7
  6
CONTINUOUS
 10
225.540898
 20
44.820033
 11
223.505591
 21
44.820033
  0
LINE
  8
1
 62
7
  6
CONTINUOUS
 10
224.552846
 20
43.060236
 11
224.552846
 21
44.820033
  0
LINE
  8
1
 62
7
  6
CONTINUOUS
 10
224.552846
 20
46.944354
 11
224.552846
 21
48.980688
  0
LINE
  8
1
 62
7
  6
CONTINUOUS
 10
230.697461
 20
46.886653
 11
229.538901
 21
44.820033
  0
LINE
  8
1
 62
7
  6
CONTINUOUS
 10
230.733246
 20
46.931385
 11
228.450911
 21
46.931385
  0
LINE
  8
1
 62
7
  6
CONTINUOUS
 10
229.570213
 20
44.788720
 11
228.450911
 21
46.931385
  0
CIRCLE
  8
1
 62
7
  6
CONTINUOUS
 10
229.546207
 20
46.089263
 40
2.010718
  0
LINE
  8
1
 62
7
  6
CONTINUOUS
 10
230.540898
 20
44.820033
 11
228.505591
 21
44.820033
  0
LINE
  8
1
 62
7
  6
CONTINUOUS
 10
229.552846
 20
43.060236
 11
229.552846
 21
44.820033
  0
LINE
  8
1
 62
7
  6
CONTINUOUS
 10
229.552846
 20
46.944354
 11
229.552846
 21
48.980688
  0
LINE
  8
1
 62
7
  6
CONTINUOUS
 10
235.697461
 20
46.886653
 11
234.538901
 21
44.820033
  0
LINE
  8
1
 62
7
  6
CONTINUOUS
 10
235.733246
 20
46.931385
 11
233.450911
 21
46.931385
  0
LINE
  8
1
 62
7
  6
CONTINUOUS
 10
234.570213
 20
44.788720
 11
233.450911
 21
46.931385
  0
CIRCLE
  8
1
 62
7
  6
CONTINUOUS
 10
234.546207
 20
46.089263
 40
2.010718
  0
LINE
  8
1
 62
7
  6
CONTINUOUS
 10
235.540898
 20
44.820033
 11
233.505591
 21
44.820033
  0
LINE
  8
1
 62
7
  6
CONTINUOUS
 10
234.552846
 20
43.060236
 11
234.552846
 21
44.820033
  0
LINE
  8
1
 62
7
  6
CONTINUOUS
 10
234.552846
 20
46.944354
 11
234.552846
 21
48.980688
  0
LINE
  8
1
 62
7
  6
CONTINUOUS
 10
240.697461
 20
46.886653
 11
239.538901
 21
44.820033
  0
LINE
  8
1
 62
7
  6
CONTINUOUS
 10
240.733246
 20
46.931385
 11
238.450911
 21
46.931385
  0
LINE
  8
1
 62
7
  6
CONTINUOUS
 10
239.570213
 20
44.788720
 11
238.450911
 21
46.931385
  0
CIRCLE
  8
1
 62
7
  6
CONTINUOUS
 10
239.546207
 20
46.089263
 40
2.010718
  0
LINE
  8
1
 62
7
  6
CONTINUOUS
 10
240.540898
 20
44.820033
 11
238.505591
 21
44.820033
  0
LINE
  8
1
 62
7
  6
CONTINUOUS
 10
239.552846
 20
43.060236
 11
239.552846
 21
44.820033
  0
LINE
  8
1
 62
7
  6
CONTINUOUS
 10
239.552846
 20
46.944354
 11
239.552846
 21
48.980688
  0
LINE
  8
1
 62
7
  6
CONTINUOUS
 10
220.697461
 20
46.970965
 11
219.538901
 21
44.904344
  0
LINE
  8
1
 62
7
  6
CONTINUOUS
 10
220.733246
 20
47.015697
 11
218.450911
 21
47.015697
  0
LINE
  8
1
 62
7
  6
CONTINUOUS
 10
219.570213
 20
44.873032
 11
218.450911
 21
47.015697
  0
CIRCLE
  8
1
 62
7
  6
CONTINUOUS
 10
219.546207
 20
46.173575
 40
2.010718
  0
LINE
  8
1
 62
7
  6
CONTINUOUS
 10
220.540898
 20
44.904344
 11
218.505591
 21
44.904344
  0
LINE
  8
1
 62
7
  6
CONTINUOUS
 10
219.552846
 20
43.144548
 11
219.552846
 21
44.904344
  0
LINE
  8
1
 62
7
  6
CONTINUOUS
 10
219.552846
 20
47.028666
 11
219.552846
 21
49.065000
  0
LINE
  8
1
 62
7
  6
CONTINUOUS
 10
197.704005
 20
37.269397
 11
197.704005
 21
33.896919
  0
LINE
  8
1
 62
7
  6
CONTINUOUS
 10
197.704005
 20
33.896919
 11
246.814213
 21
33.896919
  0
LINE
  8
1
 62
7
  6
CONTINUOUS
 10
246.814213
 20
33.896919
 11
246.814213
 21
37.269397
  0
LINE
  8
1
 62
7
  6
CONTINUOUS
 10
246.814213
 20
37.269397
 11
197.704005
 21
37.269397
  0
LINE
  8
1
 62
7
  6
CONTINUOUS
 10
189.552846
 20
36.569106
 11
189.552846
 21
44.109204
  0
LINE
  8
1
 62
7
  6
CONTINUOUS
 10
190.697461
 20
46.886653
 11
189.538901
 21
44.820033
  0
LINE
  8
1
 62
7
  6
CONTINUOUS
 10
190.733246
 20
46.931385
 11
188.450911
 21
46.931385
  0
LINE
  8
1
 62
7
  6
CONTINUOUS
 10
189.570213
 20
44.788720
 11
188.450911
 21
46.931385
  0
CIRCLE
  8
1
 62
7
  6
CONTINUOUS
 10
189.546207
 20
46.089263
 40
2.010718
  0
LINE
  8
1
 62
7
  6
CONTINUOUS
 10
190.540898
 20
44.820033
 11
188.505591
 21
44.820033
  0
LINE
  8
1
 62
7
  6
CONTINUOUS
 10
189.552846
 20
43.060236
 11
189.552846
 21
44.820033
  0
LINE
  8
1
 62
7
  6
CONTINUOUS
 10
189.552846
 20
46.944354
 11
189.552846
 21
48.980688
  0
TEXT
  8
1
 62
7
  6
CONTINUOUS
 10
23.592793
 20
31.265683
 40
2.000000
 41
0.500000
  1
10
  7
KANJI
 50
0.000000
 51
0.000000
  0
TEXT
  8
1
 62
7
  6
CONTINUOUS
 10
29.154873
 20
31.321891
 40
2.000000
 41
0.500000
  1
9
  7
KANJI
 50
0.000000
 51
0.000000
  0
TEXT
  8
1
 62
7
  6
CONTINUOUS
 10
34.154873
 20
31.321891
 40
2.000000
 41
0.500000
  1
8
  7
KANJI
 50
0.000000
 51
0.000000
  0
TEXT
  8
1
 62
7
  6
CONTINUOUS
 10
39.154873
 20
31.321891
 40
2.000000
 41
0.500000
  1
7
  7
KANJI
 50
0.000000
 51
0.000000
  0
TEXT
  8
1
 62
7
  6
CONTINUOUS
 10
44.154873
 20
31.321891
 40
2.000000
 41
0.500000
  1
6
  7
KANJI
 50
0.000000
 51
0.000000
  0
TEXT
  8
1
 62
7
  6
CONTINUOUS
 10
49.154873
 20
31.321891
 40
2.000000
 41
0.500000
  1
5
  7
KANJI
 50
0.000000
 51
0.000000
  0
TEXT
  8
1
 62
7
  6
CONTINUOUS
 10
54.154873
 20
31.321891
 40
2.000000
 41
0.500000
  1
4
  7
KANJI
 50
0.000000
 51
0.000000
  0
TEXT
  8
1
 62
7
  6
CONTINUOUS
 10
59.154873
 20
31.321891
 40
2.000000
 41
0.500000
  1
3
  7
KANJI
 50
0.000000
 51
0.000000
  0
TEXT
  8
1
 62
7
  6
CONTINUOUS
 10
64.154873
 20
31.321891
 40
2.000000
 41
0.500000
  1
2
  7
KANJI
 50
0.000000
 51
0.000000
  0
TEXT
  8
1
 62
7
  6
CONTINUOUS
 10
69.154873
 20
31.321891
 40
2.000000
 41
0.500000
  1
1
  7
KANJI
 50
0.000000
 51
0.000000
  0
CIRCLE
  8
1
 62
7
  6
CONTINUOUS
 10
69.552846
 20
35.569106
 40
1.000000
  0
CIRCLE
  8
1
 62
7
  6
CONTINUOUS
 10
64.552846
 20
35.569106
 40
1.000000
  0
CIRCLE
  8
1
 62
7
  6
CONTINUOUS
 10
59.552846
 20
35.569106
 40
1.000000
  0
CIRCLE
  8
1
 62
7
  6
CONTINUOUS
 10
54.552846
 20
35.569106
 40
1.000000
  0
CIRCLE
  8
1
 62
7
  6
CONTINUOUS
 10
49.552846
 20
35.569106
 40
1.000000
  0
CIRCLE
  8
1
 62
7
  6
CONTINUOUS
 10
44.552846
 20
35.569106
 40
1.000000
  0
CIRCLE
  8
1
 62
7
  6
CONTINUOUS
 10
39.552846
 20
35.569106
 40
1.000000
  0
CIRCLE
  8
1
 62
7
  6
CONTINUOUS
 10
34.552846
 20
35.569106
 40
1.000000
  0
CIRCLE
  8
1
 62
7
  6
CONTINUOUS
 10
29.552846
 20
35.569106
 40
1.000000
  0
CIRCLE
  8
1
 62
7
  6
CONTINUOUS
 10
24.552846
 20
35.569106
 40
1.000000
  0
LINE
  8
1
 62
7
  6
CONTINUOUS
 10
22.704005
 20
37.269397
 11
22.704005
 21
33.896919
  0
LINE
  8
1
 62
7
  6
CONTINUOUS
 10
22.704005
 20
33.896919
 11
71.814213
 21
33.896919
  0
LINE
  8
1
 62
7
  6
CONTINUOUS
 10
71.814213
 20
33.896919
 11
71.814213
 21
37.269397
  0
LINE
  8
1
 62
7
  6
CONTINUOUS
 10
71.814213
 20
37.269397
 11
22.704005
 21
37.269397
  0
TEXT
  8
1
 62
7
  6
CONTINUOUS
 10
143.592793
 20
31.265683
 40
2.000000
 41
0.500000
  1
10
  7
KANJI
 50
0.000000
 51
0.000000
  0
TEXT
  8
1
 62
7
  6
CONTINUOUS
 10
149.154873
 20
31.321891
 40
2.000000
 41
0.500000
  1
9
  7
KANJI
 50
0.000000
 51
0.000000
  0
TEXT
  8
1
 62
7
  6
CONTINUOUS
 10
154.154873
 20
31.321891
 40
2.000000
 41
0.500000
  1
8
  7
KANJI
 50
0.000000
 51
0.000000
  0
TEXT
  8
1
 62
7
  6
CONTINUOUS
 10
159.154873
 20
31.321891
 40
2.000000
 41
0.500000
  1
7
  7
KANJI
 50
0.000000
 51
0.000000
  0
TEXT
  8
1
 62
7
  6
CONTINUOUS
 10
164.154873
 20
31.321891
 40
2.000000
 41
0.500000
  1
6
  7
KANJI
 50
0.000000
 51
0.000000
  0
TEXT
  8
1
 62
7
  6
CONTINUOUS
 10
169.154873
 20
31.321891
 40
2.000000
 41
0.500000
  1
5
  7
KANJI
 50
0.000000
 51
0.000000
  0
TEXT
  8
1
 62
7
  6
CONTINUOUS
 10
174.154873
 20
31.321891
 40
2.000000
 41
0.500000
  1
4
  7
KANJI
 50
0.000000
 51
0.000000
  0
TEXT
  8
1
 62
7
  6
CONTINUOUS
 10
179.154873
 20
31.321891
 40
2.000000
 41
0.500000
  1
3
  7
KANJI
 50
0.000000
 51
0.000000
  0
TEXT
  8
1
 62
7
  6
CONTINUOUS
 10
184.154873
 20
31.321891
 40
2.000000
 41
0.500000
  1
2
  7
KANJI
 50
0.000000
 51
0.000000
  0
TEXT
  8
1
 62
7
  6
CONTINUOUS
 10
189.154873
 20
31.321891
 40
2.000000
 41
0.500000
  1
1
  7
KANJI
 50
0.000000
 51
0.000000
  0
CIRCLE
  8
1
 62
7
  6
CONTINUOUS
 10
189.552846
 20
35.569106
 40
1.000000
  0
CIRCLE
  8
1
 62
7
  6
CONTINUOUS
 10
184.552846
 20
35.569106
 40
1.000000
  0
CIRCLE
  8
1
 62
7
  6
CONTINUOUS
 10
179.552846
 20
35.569106
 40
1.000000
  0
CIRCLE
  8
1
 62
7
  6
CONTINUOUS
 10
174.552846
 20
35.569106
 40
1.000000
  0
CIRCLE
  8
1
 62
7
  6
CONTINUOUS
 10
169.552846
 20
35.569106
 40
1.000000
  0
CIRCLE
  8
1
 62
7
  6
CONTINUOUS
 10
164.552846
 20
35.569106
 40
1.000000
  0
CIRCLE
  8
1
 62
7
  6
CONTINUOUS
 10
159.552846
 20
35.569106
 40
1.000000
  0
CIRCLE
  8
1
 62
7
  6
CONTINUOUS
 10
154.552846
 20
35.569106
 40
1.000000
  0
CIRCLE
  8
1
 62
7
  6
CONTINUOUS
 10
149.552846
 20
35.569106
 40
1.000000
  0
CIRCLE
  8
1
 62
7
  6
CONTINUOUS
 10
144.552846
 20
35.569106
 40
1.000000
  0
LINE
  8
1
 62
7
  6
CONTINUOUS
 10
142.704005
 20
37.269397
 11
142.704005
 21
33.896919
  0
LINE
  8
1
 62
7
  6
CONTINUOUS
 10
142.704005
 20
33.896919
 11
191.814213
 21
33.896919
  0
LINE
  8
1
 62
7
  6
CONTINUOUS
 10
191.814213
 20
33.896919
 11
191.814213
 21
37.269397
  0
LINE
  8
1
 62
7
  6
CONTINUOUS
 10
191.814213
 20
37.269397
 11
142.704005
 21
37.269397
  0
LINE
  8
1
 62
7
  6
CONTINUOUS
 10
189.552846
 20
48.099970
 11
189.552846
 21
56.531165
  0
LINE
  8
1
 62
7
  6
CONTINUOUS
 10
69.552846
 20
48.099970
 11
69.552846
 21
56.531165
  0
TEXT
  8
1
 62
7
  6
CONTINUOUS
 10
66.831276
 20
48.971193
 40
2.000000
 41
0.500000
  1
10
  7
KANJI
 50
0.000000
 51
0.000000
  0
TEXT
  8
1
 62
7
  6
CONTINUOUS
 10
186.217003
 20
48.844725
 40
2.000000
 41
0.500000
  1
10
  7
KANJI
 50
0.000000
 51
0.000000
  0
TEXT
  8
1
 62
7
  6
CONTINUOUS
 10
98.739837
 20
26.178862
 40
3.000000
 41
0.500000
  1
J1-1
  7
KANJI
 50
0.000000
 51
0.000000
  0
TEXT
  8
1
 62
7
  6
CONTINUOUS
 10
218.219512
 20
25.894309
 40
3.000000
 41
0.500000
  1
J2-1
  7
KANJI
 50
0.000000
 51
0.000000
  0
TEXT
  8
1
 62
7
  6
CONTINUOUS
 10
44.674797
 20
26.463415
 40
3.000000
 41
0.500000
  1
J1-2
  7
KANJI
 50
0.000000
 51
0.000000
  0
TEXT
  8
1
 62
7
  6
CONTINUOUS
 10
164.154472
 20
26.178862
 40
3.000000
 41
0.500000
  1
J2-2
  7
KANJI
 50
0.000000
 51
0.000000
  0
LINE
  8
1
 62
7
  6
CONTINUOUS
 10
65.655927
 20
45.907859
 11
66.386631
 21
45.907859
  0
LINE
  8
1
 62
7
  6
CONTINUOUS
 10
65.655927
 20
47.875138
 11
65.655927
 21
44.221620
  0
LINE
  8
1
 62
7
  6
CONTINUOUS
 10
64.552846
 20
36.569106
 11
64.552846
 21
44.109204
  0
CIRCLE
  8
1
 62
7
  6
CONTINUOUS
 10
64.552846
 20
44.615076
 40
0.505872
  0
CIRCLE
  8
1
 62
7
  6
CONTINUOUS
 10
64.552846
 20
47.594098
 40
0.505872
  0
LINE
  8
1
 62
7
  6
CONTINUOUS
 10
184.552846
 20
36.569106
 11
184.552846
 21
44.109204
  0
LINE
  8
1
 62
7
  6
CONTINUOUS
 10
185.697461
 20
46.886653
 11
184.538901
 21
44.820033
  0
LINE
  8
1
 62
7
  6
CONTINUOUS
 10
185.733246
 20
46.931385
 11
183.450911
 21
46.931385
  0
LINE
  8
1
 62
7
  6
CONTINUOUS
 10
184.570213
 20
44.788720
 11
183.450911
 21
46.931385
  0
CIRCLE
  8
1
 62
7
  6
CONTINUOUS
 10
184.546207
 20
46.089263
 40
2.010718
  0
LINE
  8
1
 62
7
  6
CONTINUOUS
 10
185.540898
 20
44.820033
 11
183.505591
 21
44.820033
  0
LINE
  8
1
 62
7
  6
CONTINUOUS
 10
184.552846
 20
43.060236
 11
184.552846
 21
44.820033
  0
LINE
  8
1
 62
7
  6
CONTINUOUS
 10
184.552846
 20
46.944354
 11
184.552846
 21
48.980688
  0
LINE
  8
1
 62
7
  6
CONTINUOUS
 10
184.552846
 20
48.099970
 11
184.552846
 21
56.531165
  0
LINE
  8
1
 62
7
  6
CONTINUOUS
 10
64.552846
 20
48.099970
 11
64.552846
 21
56.531165
  0
LINE
  8
1
 62
7
  6
CONTINUOUS
 10
60.655927
 20
45.907859
 11
61.386631
 21
45.907859
  0
LINE
  8
1
 62
7
  6
CONTINUOUS
 10
60.655927
 20
47.875138
 11
60.655927
 21
44.221620
  0
LINE
  8
1
 62
7
  6
CONTINUOUS
 10
59.552846
 20
36.569106
 11
59.552846
 21
44.109204
  0
CIRCLE
  8
1
 62
7
  6
CONTINUOUS
 10
59.552846
 20
44.615076
 40
0.505872
  0
CIRCLE
  8
1
 62
7
  6
CONTINUOUS
 10
59.552846
 20
47.594098
 40
0.505872
  0
LINE
  8
1
 62
7
  6
CONTINUOUS
 10
179.552846
 20
36.569106
 11
179.552846
 21
44.109204
  0
LINE
  8
1
 62
7
  6
CONTINUOUS
 10
180.697461
 20
46.886653
 11
179.538901
 21
44.820033
  0
LINE
  8
1
 62
7
  6
CONTINUOUS
 10
180.733246
 20
46.931385
 11
178.450911
 21
46.931385
  0
LINE
  8
1
 62
7
  6
CONTINUOUS
 10
179.570213
 20
44.788720
 11
178.450911
 21
46.931385
  0
CIRCLE
  8
1
 62
7
  6
CONTINUOUS
 10
179.546207
 20
46.089263
 40
2.010718
  0
LINE
  8
1
 62
7
  6
CONTINUOUS
 10
180.540898
 20
44.820033
 11
178.505591
 21
44.820033
  0
LINE
  8
1
 62
7
  6
CONTINUOUS
 10
179.552846
 20
43.060236
 11
179.552846
 21
44.820033
  0
LINE
  8
1
 62
7
  6
CONTINUOUS
 10
179.552846
 20
46.944354
 11
179.552846
 21
48.980688
  0
LINE
  8
1
 62
7
  6
CONTINUOUS
 10
179.552846
 20
48.099970
 11
179.552846
 21
56.531165
  0
LINE
  8
1
 62
7
  6
CONTINUOUS
 10
59.552846
 20
48.099970
 11
59.552846
 21
56.531165
  0
LINE
  8
1
 62
7
  6
CONTINUOUS
 10
55.655927
 20
45.907859
 11
56.386631
 21
45.907859
  0
LINE
  8
1
 62
7
  6
CONTINUOUS
 10
55.655927
 20
47.875138
 11
55.655927
 21
44.221620
  0
LINE
  8
1
 62
7
  6
CONTINUOUS
 10
54.552846
 20
36.569106
 11
54.552846
 21
44.109204
  0
CIRCLE
  8
1
 62
7
  6
CONTINUOUS
 10
54.552846
 20
44.615076
 40
0.505872
  0
CIRCLE
  8
1
 62
7
  6
CONTINUOUS
 10
54.552846
 20
47.594098
 40
0.505872
  0
LINE
  8
1
 62
7
  6
CONTINUOUS
 10
174.552846
 20
36.569106
 11
174.552846
 21
44.109204
  0
LINE
  8
1
 62
7
  6
CONTINUOUS
 10
175.697461
 20
46.886653
 11
174.538901
 21
44.820033
  0
LINE
  8
1
 62
7
  6
CONTINUOUS
 10
175.733246
 20
46.931385
 11
173.450911
 21
46.931385
  0
LINE
  8
1
 62
7
  6
CONTINUOUS
 10
174.570213
 20
44.788720
 11
173.450911
 21
46.931385
  0
CIRCLE
  8
1
 62
7
  6
CONTINUOUS
 10
174.546207
 20
46.089263
 40
2.010718
  0
LINE
  8
1
 62
7
  6
CONTINUOUS
 10
175.540898
 20
44.820033
 11
173.505591
 21
44.820033
  0
LINE
  8
1
 62
7
  6
CONTINUOUS
 10
174.552846
 20
43.060236
 11
174.552846
 21
44.820033
  0
LINE
  8
1
 62
7
  6
CONTINUOUS
 10
174.552846
 20
46.944354
 11
174.552846
 21
48.980688
  0
LINE
  8
1
 62
7
  6
CONTINUOUS
 10
174.552846
 20
48.099970
 11
174.552846
 21
56.531165
  0
LINE
  8
1
 62
7
  6
CONTINUOUS
 10
54.552846
 20
48.099970
 11
54.552846
 21
56.531165
  0
LINE
  8
1
 62
7
  6
CONTINUOUS
 10
50.655927
 20
45.907859
 11
51.386631
 21
45.907859
  0
LINE
  8
1
 62
7
  6
CONTINUOUS
 10
50.655927
 20
47.875138
 11
50.655927
 21
44.221620
  0
LINE
  8
1
 62
7
  6
CONTINUOUS
 10
49.552846
 20
36.569106
 11
49.552846
 21
44.109204
  0
CIRCLE
  8
1
 62
7
  6
CONTINUOUS
 10
49.552846
 20
44.615076
 40
0.505872
  0
CIRCLE
  8
1
 62
7
  6
CONTINUOUS
 10
49.552846
 20
47.594098
 40
0.505872
  0
LINE
  8
1
 62
7
  6
CONTINUOUS
 10
169.552846
 20
36.569106
 11
169.552846
 21
44.109204
  0
LINE
  8
1
 62
7
  6
CONTINUOUS
 10
170.697461
 20
46.886653
 11
169.538901
 21
44.820033
  0
LINE
  8
1
 62
7
  6
CONTINUOUS
 10
170.733246
 20
46.931385
 11
168.450911
 21
46.931385
  0
LINE
  8
1
 62
7
  6
CONTINUOUS
 10
169.570213
 20
44.788720
 11
168.450911
 21
46.931385
  0
CIRCLE
  8
1
 62
7
  6
CONTINUOUS
 10
169.546207
 20
46.089263
 40
2.010718
  0
LINE
  8
1
 62
7
  6
CONTINUOUS
 10
170.540898
 20
44.820033
 11
168.505591
 21
44.820033
  0
LINE
  8
1
 62
7
  6
CONTINUOUS
 10
169.552846
 20
43.060236
 11
169.552846
 21
44.820033
  0
LINE
  8
1
 62
7
  6
CONTINUOUS
 10
169.552846
 20
46.944354
 11
169.552846
 21
48.980688
  0
LINE
  8
1
 62
7
  6
CONTINUOUS
 10
169.552846
 20
48.099970
 11
169.552846
 21
56.531165
  0
LINE
  8
1
 62
7
  6
CONTINUOUS
 10
49.552846
 20
48.099970
 11
49.552846
 21
56.531165
  0
LINE
  8
1
 62
7
  6
CONTINUOUS
 10
45.655927
 20
45.907859
 11
46.386631
 21
45.907859
  0
LINE
  8
1
 62
7
  6
CONTINUOUS
 10
45.655927
 20
47.875138
 11
45.655927
 21
44.221620
  0
LINE
  8
1
 62
7
  6
CONTINUOUS
 10
44.552846
 20
36.569106
 11
44.552846
 21
44.109204
  0
CIRCLE
  8
1
 62
7
  6
CONTINUOUS
 10
44.552846
 20
44.615076
 40
0.505872
  0
CIRCLE
  8
1
 62
7
  6
CONTINUOUS
 10
44.552846
 20
47.594098
 40
0.505872
  0
LINE
  8
1
 62
7
  6
CONTINUOUS
 10
164.552846
 20
36.569106
 11
164.552846
 21
44.109204
  0
LINE
  8
1
 62
7
  6
CONTINUOUS
 10
165.697461
 20
46.886653
 11
164.538901
 21
44.820033
  0
LINE
  8
1
 62
7
  6
CONTINUOUS
 10
165.733246
 20
46.931385
 11
163.450911
 21
46.931385
  0
LINE
  8
1
 62
7
  6
CONTINUOUS
 10
164.570213
 20
44.788720
 11
163.450911
 21
46.931385
  0
CIRCLE
  8
1
 62
7
  6
CONTINUOUS
 10
164.546207
 20
46.089263
 40
2.010718
  0
LINE
  8
1
 62
7
  6
CONTINUOUS
 10
165.540898
 20
44.820033
 11
163.505591
 21
44.820033
  0
LINE
  8
1
 62
7
  6
CONTINUOUS
 10
164.552846
 20
43.060236
 11
164.552846
 21
44.820033
  0
LINE
  8
1
 62
7
  6
CONTINUOUS
 10
164.552846
 20
46.944354
 11
164.552846
 21
48.980688
  0
LINE
  8
1
 62
7
  6
CONTINUOUS
 10
164.552846
 20
48.099970
 11
164.552846
 21
56.531165
  0
LINE
  8
1
 62
7
  6
CONTINUOUS
 10
44.552846
 20
48.099970
 11
44.552846
 21
56.531165
  0
LINE
  8
1
 62
7
  6
CONTINUOUS
 10
40.655927
 20
45.907859
 11
41.386631
 21
45.907859
  0
LINE
  8
1
 62
7
  6
CONTINUOUS
 10
40.655927
 20
47.875138
 11
40.655927
 21
44.221620
  0
LINE
  8
1
 62
7
  6
CONTINUOUS
 10
39.552846
 20
36.569106
 11
39.552846
 21
44.109204
  0
CIRCLE
  8
1
 62
7
  6
CONTINUOUS
 10
39.552846
 20
44.615076
 40
0.505872
  0
CIRCLE
  8
1
 62
7
  6
CONTINUOUS
 10
39.552846
 20
47.594098
 40
0.505872
  0
LINE
  8
1
 62
7
  6
CONTINUOUS
 10
159.552846
 20
36.569106
 11
159.552846
 21
44.109204
  0
LINE
  8
1
 62
7
  6
CONTINUOUS
 10
160.697461
 20
46.886653
 11
159.538901
 21
44.820033
  0
LINE
  8
1
 62
7
  6
CONTINUOUS
 10
160.733246
 20
46.931385
 11
158.450911
 21
46.931385
  0
LINE
  8
1
 62
7
  6
CONTINUOUS
 10
159.570213
 20
44.788720
 11
158.450911
 21
46.931385
  0
CIRCLE
  8
1
 62
7
  6
CONTINUOUS
 10
159.546207
 20
46.089263
 40
2.010718
  0
LINE
  8
1
 62
7
  6
CONTINUOUS
 10
160.540898
 20
44.820033
 11
158.505591
 21
44.820033
  0
LINE
  8
1
 62
7
  6
CONTINUOUS
 10
159.552846
 20
43.060236
 11
159.552846
 21
44.820033
  0
LINE
  8
1
 62
7
  6
CONTINUOUS
 10
159.552846
 20
46.944354
 11
159.552846
 21
48.980688
  0
TEXT
  8
1
 62
7
  6
CONTINUOUS
 10
61.831276
 20
48.971193
 40
2.000000
 41
0.500000
  1
11
  7
KANJI
 50
0.000000
 51
0.000000
  0
TEXT
  8
1
 62
7
  6
CONTINUOUS
 10
56.831276
 20
48.971193
 40
2.000000
 41
0.500000
  1
12
  7
KANJI
 50
0.000000
 51
0.000000
  0
TEXT
  8
1
 62
7
  6
CONTINUOUS
 10
51.831276
 20
48.971193
 40
2.000000
 41
0.500000
  1
13
  7
KANJI
 50
0.000000
 51
0.000000
  0
TEXT
  8
1
 62
7
  6
CONTINUOUS
 10
46.831276
 20
48.971193
 40
2.000000
 41
0.500000
  1
14
  7
KANJI
 50
0.000000
 51
0.000000
  0
TEXT
  8
1
 62
7
  6
CONTINUOUS
 10
41.831276
 20
48.971193
 40
2.000000
 41
0.500000
  1
15
  7
KANJI
 50
0.000000
 51
0.000000
  0
TEXT
  8
1
 62
7
  6
CONTINUOUS
 10
36.831276
 20
48.971193
 40
2.000000
 41
0.500000
  1
16
  7
KANJI
 50
0.000000
 51
0.000000
  0
TEXT
  8
1
 62
7
  6
CONTINUOUS
 10
181.217003
 20
48.844725
 40
2.000000
 41
0.500000
  1
11
  7
KANJI
 50
0.000000
 51
0.000000
  0
TEXT
  8
1
 62
7
  6
CONTINUOUS
 10
176.217003
 20
48.844725
 40
2.000000
 41
0.500000
  1
12
  7
KANJI
 50
0.000000
 51
0.000000
  0
TEXT
  8
1
 62
7
  6
CONTINUOUS
 10
171.217003
 20
48.844725
 40
2.000000
 41
0.500000
  1
13
  7
KANJI
 50
0.000000
 51
0.000000
  0
TEXT
  8
1
 62
7
  6
CONTINUOUS
 10
166.217003
 20
48.844725
 40
2.000000
 41
0.500000
  1
14
  7
KANJI
 50
0.000000
 51
0.000000
  0
TEXT
  8
1
 62
7
  6
CONTINUOUS
 10
161.217003
 20
48.844725
 40
2.000000
 41
0.500000
  1
15
  7
KANJI
 50
0.000000
 51
0.000000
  0
TEXT
  8
1
 62
7
  6
CONTINUOUS
 10
156.217003
 20
48.844725
 40
2.000000
 41
0.500000
  1
16
  7
KANJI
 50
0.000000
 51
0.000000
  0
LINE
  8
1
 62
7
  6
CONTINUOUS
 10
39.552846
 20
56.531165
 11
124.552846
 21
56.531165
  0
LINE
  8
1
 62
7
  6
CONTINUOUS
 10
39.552846
 20
48.099970
 11
39.552846
 21
56.531165
  0
LINE
  8
1
 62
7
  6
CONTINUOUS
 10
159.552846
 20
56.531165
 11
244.552846
 21
56.531165
  0
LINE
  8
1
 62
7
  6
CONTINUOUS
 10
159.552846
 20
48.099970
 11
159.552846
 21
56.531165
  0
CIRCLE
  8
1
 62
7
  6
CONTINUOUS
 10
44.552846
 20
56.531165
 40
0.500000
  0
CIRCLE
  8
1
 62
7
  6
CONTINUOUS
 10
44.552846
 20
56.531165
 40
0.250000
  0
CIRCLE
  8
1
 62
7
  6
CONTINUOUS
 10
49.552846
 20
56.531165
 40
0.500000
  0
CIRCLE
  8
1
 62
7
  6
CONTINUOUS
 10
49.552846
 20
56.531165
 40
0.250000
  0
CIRCLE
  8
1
 62
7
  6
CONTINUOUS
 10
54.552846
 20
56.531165
 40
0.500000
  0
CIRCLE
  8
1
 62
7
  6
CONTINUOUS
 10
54.552846
 20
56.531165
 40
0.250000
  0
CIRCLE
  8
1
 62
7
  6
CONTINUOUS
 10
59.552846
 20
56.531165
 40
0.500000
  0
CIRCLE
  8
1
 62
7
  6
CONTINUOUS
 10
59.552846
 20
56.531165
 40
0.250000
  0
CIRCLE
  8
1
 62
7
  6
CONTINUOUS
 10
64.552846
 20
56.531165
 40
0.500000
  0
CIRCLE
  8
1
 62
7
  6
CONTINUOUS
 10
64.552846
 20
56.531165
 40
0.250000
  0
CIRCLE
  8
1
 62
7
  6
CONTINUOUS
 10
69.552846
 20
56.531165
 40
0.500000
  0
CIRCLE
  8
1
 62
7
  6
CONTINUOUS
 10
69.552846
 20
56.531165
 40
0.250000
  0
CIRCLE
  8
1
 62
7
  6
CONTINUOUS
 10
164.552846
 20
56.531165
 40
0.500000
  0
CIRCLE
  8
1
 62
7
  6
CONTINUOUS
 10
164.552846
 20
56.531165
 40
0.250000
  0
CIRCLE
  8
1
 62
7
  6
CONTINUOUS
 10
169.552846
 20
56.531165
 40
0.500000
  0
CIRCLE
  8
1
 62
7
  6
CONTINUOUS
 10
169.552846
 20
56.531165
 40
0.250000
  0
CIRCLE
  8
1
 62
7
  6
CONTINUOUS
 10
174.552846
 20
56.531165
 40
0.500000
  0
CIRCLE
  8
1
 62
7
  6
CONTINUOUS
 10
174.552846
 20
56.531165
 40
0.250000
  0
CIRCLE
  8
1
 62
7
  6
CONTINUOUS
 10
179.552846
 20
56.531165
 40
0.500000
  0
CIRCLE
  8
1
 62
7
  6
CONTINUOUS
 10
179.552846
 20
56.531165
 40
0.250000
  0
CIRCLE
  8
1
 62
7
  6
CONTINUOUS
 10
184.552846
 20
56.531165
 40
0.500000
  0
CIRCLE
  8
1
 62
7
  6
CONTINUOUS
 10
184.552846
 20
56.531165
 40
0.250000
  0
CIRCLE
  8
1
 62
7
  6
CONTINUOUS
 10
189.552846
 20
56.531165
 40
0.500000
  0
CIRCLE
  8
1
 62
7
  6
CONTINUOUS
 10
189.552846
 20
56.531165
 40
0.250000
  0
TEXT
  8
1
 62
7
  6
CONTINUOUS
 10
255.528455
 20
9.959350
 40
4.000000
 41
0.500000
  1
LFB-16SS
  7
KANJI
 50
0.000000
 51
0.000000
  0
TEXT
  8
1
 62
7
  6
CONTINUOUS
 10
218.600529
 20
92.639776
 40
4.000000
 41
1.000000
  1
裏面図
  7
KANJI
 50
0.000000
 51
0.000000
  0
DIMENSION
  8
1
 62
7
  6
CONTINUOUS
  2
*D17
 10
83.028455
 20
190.916667
 11
91.778455
 21
190.916667
 70
     0
  1
17.5
 13
83.028455
 23
181.502033
 14
100.528455
 24
179.719061
 50
0.000000
  0
DIMENSION
  8
1
 62
7
  6
CONTINUOUS
  2
*D18
 10
100.528455
 20
190.916667
 11
109.278455
 21
190.916667
 70
     0
  1
17.5
 13
100.528455
 23
179.719061
 14
118.028455
 24
179.719061
 50
0.000000
  0
TEXT
  8
1
 62
7
  6
CONTINUOUS
 10
238.903945
 20
109.489612
 40
3.000000
 41
0.500000
  1
J1-1
  7
KANJI
 50
0.000000
 51
0.000000
  0
TEXT
  8
1
 62
7
  6
CONTINUOUS
 10
203.619392
 20
109.489612
 40
3.000000
 41
0.500000
  1
J1-2
  7
KANJI
 50
0.000000
 51
0.000000
  0
TEXT
  8
1
 62
7
  6
CONTINUOUS
 10
202.196628
 20
172.944896
 40
3.000000
 41
0.500000
  1
J2-2
  7
KANJI
 50
0.000000
 51
0.000000
  0
TEXT
  8
1
 62
7
  6
CONTINUOUS
 10
238.050286
 20
172.375790
 40
3.000000
 41
0.500000
  1
J2-1
  7
KANJI
 50
0.000000
 51
0.000000
  0
ENDSEC
  0
EOF
