  0
SECTION
  2
HEADER
  9
$ACADVER
  1
AC1009
  9
$INSBASE
 10
0.000000
 20
0.000000
  9
$EXTMIN
 10
0.000000
 20
0.000000
  9
$EXTMAX
 10
420.000000
 20
297.000000
  9
$LIMMIN
 10
0.000000
 20
0.000000
  9
$LIMMAX
 10
420.000000
 20
297.000000
  9
$VIEWCTR
 10
210.000000
 20
148.500000
  9
$VIEWSIZE
 40
297.000000
  9
$PEXTMIN
 10
0.000000
 20
0.000000
 30
0.000000
  9
$PEXTMAX
 10
420.000000
 20
297.000000
 30
0.000000
  9
$SNAPMODE
 70
     0
  9
$SNAPUNIT
 10
1.000000
 20
1.000000
  9
$SNAPBASE
 10
0.000000
 20
0.000000
  9
$SNAPANG
 50
0.000000
  9
$SNAPISOPAIR
 70
     0
  9
$SNAPSTYLE
 70
     0
  9
$GRIDMODE
 70
     0
  9
$GRIDUNIT
 10
0.000000
 20
0.000000
  9
$ORTHOMODE
 70
     0
  9
$REGENMODE
 70
     1
  9
$FILLMODE
 70
     1
  9
$QTEXTMODE
 70
     0
  9
$DRAGMODE
 70
     2
  9
$LTSCALE
 40
0.250000
  9
$OSMODE
 70
     0
  9
$ATTMODE
 70
     1
  9
$TEXTSIZE
 40
2.000000
  9
$TRACEWID
 40
0.050000
  9
$TEXTSTYLE
  7
STANDARD
  9
$CLAYER
  8
0
  9
$CELTYPE
  6
BYLAYER
  9
$CECOLOR
 62
   256
  9
$DIMSCALE
 40
1.000000
  9
$DIMASZ
 40
1.000000
  9
$DIMEXO
 40
0.000000
  9
$DIMDLI
 40
0.500000
  9
$DIMRND
 40
0.000000
  9
$DIMDLE
 40
0.000000
  9
$DIMEXE
 40
0.000000
  9
$DIMTP
 40
0.000000
  9
$DIMTM
 40
0.000000
  9
$DIMTXT
 40
3.000000
  9
$DIMCEN
 40
0.000000
  9
$DIMTSZ
 40
0.000000
  9
$DIMTOL
 70
     0
  9
$DIMLIM
 70
     0
  9
$DIMTIH
 70
     1
  9
$DIMTOH
 70
     1
  9
$DIMSE1
 70
     0
  9
$DIMSE2
 70
     0
  9
$DIMTAD
 70
     0
  9
$DIMZIN
 70
     0
  9
$DIMBLK
  1

  9
$DIMASO
 70
     0
  9
$DIMSHO
 70
     0
  9
$DIMPOST
  1

  9
$DIMAPOST
  1

  9
$DIMALT
 70
     0
  9
$DIMALTD
 70
     0
  9
$DIMALTF
 40
25.400000
  9
$DIMLFAC
 40
1.000000
  9
$DIMTOFL
 70
     0
  9
$DIMTVP
 40
0.000000
  9
$DIMTIX
 70
     0
  9
$DIMSOXD
 70
     0
  9
$DIMSAH
 70
     0
  9
$DIMBLKL
  1

  9
$DIMBLKR
  1

  9
$LUNITS
 70
     2
  9
$LUPREC
 70
     2
  9
$AXISMODE
 70
     0
  9
$AXISUNIT
 10
1.000000
 20
1.000000
  9
$SKETCHINC
 40
0.000000
  9
$FILLETRAD
 40
0.000000
  9
$AUNITS
 70
     1
  9
$AUPREC
 70
     2
  9
$MENU
  1
ACAD
  9
$ELEVATION
 40
0.000000
  9
$THICKNESS
 40
0.000000
  9
$VIEWDIR
 10
0.000000
 20
0.000000
 30
1.000000
  9
$LIMCHECK
 70
     1
  9
$BLIPMODE
 70
     1
  9
$CHAMFERA
 40
0.000000
  9
$CHAMFERB
 40
0.000000
  9
$FASTZOOM
 70
     1
  9
$SKPOLY
 70
     0
  9
$TDCREATE
 40
0.000000
  9
$TDUPDATE
 40
0.000000
  9
$TDINDWG
 40
0.000000
  9
$TDUSRTIMER
 40
0.000000
  9
$USRTIMER
 70
     1
  9
$ANGBASE
 50
0.000000
  9
$ANGDIR
 70
     0
  9
$PDMODE
 70
     0
  9
$PDSIZE
 40
0.000000
  9
$PLINEWID
 40
0.000000
  9
$COORDS
 70
     2
  9
$USERI1
 70
     0
  9
$USERI2
 70
     0
  9
$USERI3
 70
     0
  9
$USERI4
 70
     0
  9
$USERI5
 70
     0
  9
$USERR1
 40
0.000000
  9
$USERR2
 40
0.000000
  9
$USERR3
 40
0.000000
  9
$USERR4
 40
0.000000
  9
$USERR5
 40
0.000000
  0
ENDSEC
  0
SECTION
  2
TABLES
  0
TABLE
  2
LTYPE
 70
     5
  0
LTYPE
  2
CONTINUOUS
 70
    64
  3
Solid line
 72
    65
 73
     0
 40
0.0
  0
LTYPE
  2
HIDDEN
 70
    64
  3
------------------------
 72
    65
 73
     2
 40
12.6
 49
8.4
 49
-4.2
  0
LTYPE
  2
DOT
 70
    64
  3
････････････････････････
 72
    65
 73
     2
 40
8.0
 49
6.0
 49
-2.0
  0
LTYPE
  2
DASHDOT
 70
    64
  3
--･--･--･--･--･--･--･--
 72
    65
 73
     4
 40
50.5
 49
30.0
 49
-9.0
 49
2.5
 49
-9.0
  0
LTYPE
  2
DIVIDE
 70
    64
  3
--･･--･･--･･--･･--･･--
 72
    65
 73
     6
 40
58.0
 49
30.0
 49
-9.0
 49
2.5
 49
-5.0
 49
2.5
 49
-9.0
  0
LTYPE
  2
ACAD_ISO06W100
 70
    64
  3
____ ... ____ ... ____
 72
    65
 73
     8
 40
37.5
 49
24.0
 49
-3.0
 49
0.5
 49
-3.0
 49
0.5
 49
-3.0
 49
0.5
 49
-3.0
  0
LTYPE
  2
ACAD_ISO14W100
 70
    64
  3
__ . . . __ . . . __ . . . 
 72
    65
 73
     8
 40
25.5
 49
12.0
 49
-3.0
 49
0.5
 49
-3.0
 49
0.5
 49
-3.0
 49
0.5
 49
-3.0
  0
ENDTAB
  0
TABLE
  2
LAYER
 70
1
  0
LAYER
  2
1
 70
64
 62
7
  6
CONTINUOUS
  0
ENDTAB
  0
TABLE
  2
STYLE
 70
     2
  0
STYLE
  2
STANDARD
 70
    64
 40
0.0
 41
1.0
 50
0.0
 71
     0
 42
0.2
  3
TXT
  4

  0
STYLE
  2
KANJI
 70
    64
 40
0.0
 41
1.0
 50
0.0
 71
     0
 42
0.2
  3
TXT
  4
BIGFONT
  0
ENDTAB
  0
TABLE
  2
VIEW
 70
     0
  0
ENDTAB
  0
ENDSEC
  0
SECTION
  2
BLOCKS
  0
BLOCK
  8
1
 62
7
  6
CONTINUOUS
  2
*D1
 70
    65
 10
0.0
 20
0.0
  0
LINE
  8
1
 62
7
  6
CONTINUOUS
 10
450.346545
 20
167.654810
 11
441.146545
 21
167.654810
  0
LINE
  8
1
 62
7
  6
CONTINUOUS
 10
446.346545
 20
165.654810
 11
446.346545
 21
175.566734
  0
LINE
  8
1
 62
7
  6
CONTINUOUS
 10
445.146545
 20
165.654810
 11
445.146545
 21
175.566734
  0
LINE
  8
1
 62
7
  6
CONTINUOUS
 10
446.346545
 20
167.654810
 11
448.761359
 21
168.301858
  0
LINE
  8
1
 62
7
  6
CONTINUOUS
 10
446.346545
 20
167.654810
 11
448.761359
 21
167.007763
  0
LINE
  8
1
 62
7
  6
CONTINUOUS
 10
445.146545
 20
167.654810
 11
442.731730
 21
167.007763
  0
LINE
  8
1
 62
7
  6
CONTINUOUS
 10
445.146545
 20
167.654810
 11
442.731730
 21
168.301858
  0
TEXT
  8
1
 62
7
  6
CONTINUOUS
 10
443.496545
 20
167.654810
 40
3.000000
 41
0.500000
  1
1.2
  7
KANJI
 50
0.000000
 51
30.000000
  0
ENDBLK
  0
BLOCK
  8
1
 62
7
  6
CONTINUOUS
  2
*D2
 70
    65
 10
0.0
 20
0.0
  0
LINE
  8
1
 62
7
  6
CONTINUOUS
 10
446.346545
 20
162.646680
 11
434.846545
 21
162.646680
  0
LINE
  8
1
 62
7
  6
CONTINUOUS
 10
446.346545
 20
160.646680
 11
446.346545
 21
175.566734
  0
LINE
  8
1
 62
7
  6
CONTINUOUS
 10
434.846545
 20
160.646680
 11
434.846545
 21
187.952913
  0
LINE
  8
1
 62
7
  6
CONTINUOUS
 10
446.346545
 20
162.646680
 11
443.931730
 21
161.999633
  0
LINE
  8
1
 62
7
  6
CONTINUOUS
 10
446.346545
 20
162.646680
 11
443.931730
 21
163.293728
  0
LINE
  8
1
 62
7
  6
CONTINUOUS
 10
434.846545
 20
162.646680
 11
437.261359
 21
163.293728
  0
LINE
  8
1
 62
7
  6
CONTINUOUS
 10
434.846545
 20
162.646680
 11
437.261359
 21
161.999633
  0
TEXT
  8
1
 62
7
  6
CONTINUOUS
 10
437.596545
 20
162.646680
 40
3.000000
 41
0.500000
  1
11.5
  7
KANJI
 50
0.000000
 51
30.000000
  0
ENDBLK
  0
BLOCK
  8
1
 62
7
  6
CONTINUOUS
  2
*D3
 70
    65
 10
0.0
 20
0.0
  0
LINE
  8
1
 62
7
  6
CONTINUOUS
 10
439.346545
 20
167.535569
 11
430.846545
 21
167.535569
  0
LINE
  8
1
 62
7
  6
CONTINUOUS
 10
435.346545
 20
165.535569
 11
435.346545
 21
187.566734
  0
LINE
  8
1
 62
7
  6
CONTINUOUS
 10
434.846545
 20
165.535569
 11
434.846545
 21
187.566734
  0
LINE
  8
1
 62
7
  6
CONTINUOUS
 10
435.346545
 20
167.535569
 11
437.761359
 21
168.182617
  0
LINE
  8
1
 62
7
  6
CONTINUOUS
 10
435.346545
 20
167.535569
 11
437.761359
 21
166.888521
  0
LINE
  8
1
 62
7
  6
CONTINUOUS
 10
434.846545
 20
167.535569
 11
432.431730
 21
166.888521
  0
LINE
  8
1
 62
7
  6
CONTINUOUS
 10
434.846545
 20
167.535569
 11
432.431730
 21
168.182617
  0
TEXT
  8
1
 62
7
  6
CONTINUOUS
 10
432.846545
 20
167.535569
 40
3.000000
 41
0.500000
  1
0.5
  7
KANJI
 50
0.000000
 51
30.000000
  0
ENDBLK
  0
BLOCK
  8
1
 62
7
  6
CONTINUOUS
  2
*D4
 70
    65
 10
0.0
 20
0.0
  0
LINE
  8
1
 62
7
  6
CONTINUOUS
 10
465.346545
 20
162.646680
 11
446.346545
 21
162.646680
  0
LINE
  8
1
 62
7
  6
CONTINUOUS
 10
465.346545
 20
160.646680
 11
465.346545
 21
177.136191
  0
LINE
  8
1
 62
7
  6
CONTINUOUS
 10
446.346545
 20
160.646680
 11
446.346545
 21
175.566734
  0
LINE
  8
1
 62
7
  6
CONTINUOUS
 10
465.346545
 20
162.646680
 11
462.931730
 21
161.999633
  0
LINE
  8
1
 62
7
  6
CONTINUOUS
 10
465.346545
 20
162.646680
 11
462.931730
 21
163.293728
  0
LINE
  8
1
 62
7
  6
CONTINUOUS
 10
446.346545
 20
162.646680
 11
448.761359
 21
163.293728
  0
LINE
  8
1
 62
7
  6
CONTINUOUS
 10
446.346545
 20
162.646680
 11
448.761359
 21
161.999633
  0
TEXT
  8
1
 62
7
  6
CONTINUOUS
 10
454.346545
 20
162.646680
 40
3.000000
 41
0.500000
  1
19
  7
KANJI
 50
0.000000
 51
30.000000
  0
ENDBLK
  0
BLOCK
  8
1
 62
7
  6
CONTINUOUS
  2
*D5
 70
    65
 10
0.0
 20
0.0
  0
LINE
  8
1
 62
7
  6
CONTINUOUS
 10
236.727355
 20
141.074464
 11
236.727355
 21
225.074464
  0
LINE
  8
1
 62
7
  6
CONTINUOUS
 10
234.727355
 20
141.074464
 11
244.068367
 21
141.074464
  0
LINE
  8
1
 62
7
  6
CONTINUOUS
 10
234.727355
 20
225.074464
 11
244.068367
 21
225.074464
  0
LINE
  8
1
 62
7
  6
CONTINUOUS
 10
236.727355
 20
141.074464
 11
236.080307
 21
143.489279
  0
LINE
  8
1
 62
7
  6
CONTINUOUS
 10
236.727355
 20
141.074464
 11
237.374402
 21
143.489279
  0
LINE
  8
1
 62
7
  6
CONTINUOUS
 10
236.727355
 20
225.074464
 11
237.374402
 21
222.659650
  0
LINE
  8
1
 62
7
  6
CONTINUOUS
 10
236.727355
 20
225.074464
 11
236.080307
 21
222.659650
  0
TEXT
  8
1
 62
7
  6
CONTINUOUS
 10
236.727355
 20
181.574464
 40
3.000000
 41
0.500000
  1
84
  7
KANJI
 50
90.000000
 51
30.000000
  0
ENDBLK
  0
BLOCK
  8
1
 62
7
  6
CONTINUOUS
  2
*D6
 70
    65
 10
0.0
 20
0.0
  0
LINE
  8
1
 62
7
  6
CONTINUOUS
 10
232.153431
 20
136.074464
 11
232.153431
 21
230.074464
  0
LINE
  8
1
 62
7
  6
CONTINUOUS
 10
230.153431
 20
136.074464
 11
260.526813
 21
136.074464
  0
LINE
  8
1
 62
7
  6
CONTINUOUS
 10
230.153431
 20
230.074464
 11
260.818367
 21
230.074464
  0
LINE
  8
1
 62
7
  6
CONTINUOUS
 10
232.153431
 20
136.074464
 11
231.506384
 21
138.489279
  0
LINE
  8
1
 62
7
  6
CONTINUOUS
 10
232.153431
 20
136.074464
 11
232.800479
 21
138.489279
  0
LINE
  8
1
 62
7
  6
CONTINUOUS
 10
232.153431
 20
230.074464
 11
232.800479
 21
227.659650
  0
LINE
  8
1
 62
7
  6
CONTINUOUS
 10
232.153431
 20
230.074464
 11
231.506384
 21
227.659650
  0
TEXT
  8
1
 62
7
  6
CONTINUOUS
 10
232.153431
 20
181.574464
 40
3.000000
 41
0.500000
  1
94
  7
KANJI
 50
90.000000
 51
30.000000
  0
ENDBLK
  0
BLOCK
  8
1
 62
7
  6
CONTINUOUS
  2
*D7
 70
    65
 10
0.0
 20
0.0
  0
LINE
  8
1
 62
7
  6
CONTINUOUS
 10
227.790288
 20
131.074464
 11
227.790288
 21
235.074464
  0
LINE
  8
1
 62
7
  6
CONTINUOUS
 10
225.790288
 20
131.074464
 11
247.068367
 21
131.074464
  0
LINE
  8
1
 62
7
  6
CONTINUOUS
 10
225.790288
 20
235.074464
 11
247.068367
 21
235.074464
  0
LINE
  8
1
 62
7
  6
CONTINUOUS
 10
227.790288
 20
131.074464
 11
227.143240
 21
133.489279
  0
LINE
  8
1
 62
7
  6
CONTINUOUS
 10
227.790288
 20
131.074464
 11
228.437335
 21
133.489279
  0
LINE
  8
1
 62
7
  6
CONTINUOUS
 10
227.790288
 20
235.074464
 11
228.437335
 21
232.659650
  0
LINE
  8
1
 62
7
  6
CONTINUOUS
 10
227.790288
 20
235.074464
 11
227.143240
 21
232.659650
  0
TEXT
  8
1
 62
7
  6
CONTINUOUS
 10
227.790288
 20
180.824464
 40
3.000000
 41
0.500000
  1
104
  7
KANJI
 50
90.000000
 51
30.000000
  0
ENDBLK
  0
BLOCK
  8
1
 62
7
  6
CONTINUOUS
  2
*D8
 70
    65
 10
0.0
 20
0.0
  0
LINE
  8
1
 62
7
  6
CONTINUOUS
 10
246.068367
 20
112.877310
 11
367.068367
 21
112.877310
  0
LINE
  8
1
 62
7
  6
CONTINUOUS
 10
246.068367
 20
110.877310
 11
246.068367
 21
139.074464
  0
LINE
  8
1
 62
7
  6
CONTINUOUS
 10
367.068367
 20
110.877310
 11
367.068367
 21
139.074464
  0
LINE
  8
1
 62
7
  6
CONTINUOUS
 10
246.068367
 20
112.877310
 11
248.483181
 21
113.524357
  0
LINE
  8
1
 62
7
  6
CONTINUOUS
 10
246.068367
 20
112.877310
 11
248.483181
 21
112.230262
  0
LINE
  8
1
 62
7
  6
CONTINUOUS
 10
367.068367
 20
112.877310
 11
364.653552
 21
112.230262
  0
LINE
  8
1
 62
7
  6
CONTINUOUS
 10
367.068367
 20
112.877310
 11
364.653552
 21
113.524357
  0
TEXT
  8
1
 62
7
  6
CONTINUOUS
 10
304.318367
 20
112.877310
 40
3.000000
 41
0.500000
  1
121
  7
KANJI
 50
0.000000
 51
30.000000
  0
ENDBLK
  0
BLOCK
  8
1
 62
7
  6
CONTINUOUS
  2
*D9
 70
    65
 10
0.0
 20
0.0
  0
LINE
  8
1
 62
7
  6
CONTINUOUS
 10
344.568367
 20
124.861050
 11
348.568367
 21
124.861050
  0
LINE
  8
1
 62
7
  6
CONTINUOUS
 10
344.568367
 20
122.861050
 11
344.568367
 21
130.074464
  0
LINE
  8
1
 62
7
  6
CONTINUOUS
 10
348.568367
 20
122.861050
 11
348.568367
 21
130.074464
  0
LINE
  8
1
 62
7
  6
CONTINUOUS
 10
344.568367
 20
124.861050
 11
346.983181
 21
125.508097
  0
LINE
  8
1
 62
7
  6
CONTINUOUS
 10
344.568367
 20
124.861050
 11
346.983181
 21
124.214002
  0
LINE
  8
1
 62
7
  6
CONTINUOUS
 10
348.568367
 20
124.861050
 11
346.153552
 21
124.214002
  0
LINE
  8
1
 62
7
  6
CONTINUOUS
 10
348.568367
 20
124.861050
 11
346.153552
 21
125.508097
  0
TEXT
  8
1
 62
7
  6
CONTINUOUS
 10
345.818367
 20
124.861050
 40
3.000000
 41
0.500000
  1
4
  7
KANJI
 50
0.000000
 51
30.000000
  0
ENDBLK
  0
BLOCK
  8
1
 62
7
  6
CONTINUOUS
  2
*D10
 70
    65
 10
0.0
 20
0.0
  0
LINE
  8
1
 62
7
  6
CONTINUOUS
 10
266.568367
 20
118.287879
 11
306.568367
 21
118.287879
  0
LINE
  8
1
 62
7
  6
CONTINUOUS
 10
266.568367
 20
116.287879
 11
266.568367
 21
131.229613
  0
LINE
  8
1
 62
7
  6
CONTINUOUS
 10
306.568367
 20
116.287879
 11
306.568367
 21
130.850209
  0
LINE
  8
1
 62
7
  6
CONTINUOUS
 10
266.568367
 20
118.287879
 11
268.983181
 21
118.934926
  0
LINE
  8
1
 62
7
  6
CONTINUOUS
 10
266.568367
 20
118.287879
 11
268.983181
 21
117.640831
  0
LINE
  8
1
 62
7
  6
CONTINUOUS
 10
306.568367
 20
118.287879
 11
304.153552
 21
117.640831
  0
LINE
  8
1
 62
7
  6
CONTINUOUS
 10
306.568367
 20
118.287879
 11
304.153552
 21
118.934926
  0
TEXT
  8
1
 62
7
  6
CONTINUOUS
 10
285.068367
 20
118.287879
 40
3.000000
 41
0.500000
  1
40
  7
KANJI
 50
0.000000
 51
30.000000
  0
ENDBLK
  0
BLOCK
  8
1
 62
7
  6
CONTINUOUS
  2
*D11
 70
    65
 10
0.0
 20
0.0
  0
LINE
  8
1
 62
7
  6
CONTINUOUS
 10
306.568367
 20
118.287879
 11
346.568367
 21
118.287879
  0
LINE
  8
1
 62
7
  6
CONTINUOUS
 10
306.568367
 20
116.287879
 11
306.568367
 21
130.850209
  0
LINE
  8
1
 62
7
  6
CONTINUOUS
 10
346.568367
 20
116.287879
 11
346.568367
 21
131.039911
  0
LINE
  8
1
 62
7
  6
CONTINUOUS
 10
306.568367
 20
118.287879
 11
308.983181
 21
118.934926
  0
LINE
  8
1
 62
7
  6
CONTINUOUS
 10
306.568367
 20
118.287879
 11
308.983181
 21
117.640831
  0
LINE
  8
1
 62
7
  6
CONTINUOUS
 10
346.568367
 20
118.287879
 11
344.153552
 21
117.640831
  0
LINE
  8
1
 62
7
  6
CONTINUOUS
 10
346.568367
 20
118.287879
 11
344.153552
 21
118.934926
  0
TEXT
  8
1
 62
7
  6
CONTINUOUS
 10
325.068367
 20
118.287879
 40
3.000000
 41
0.500000
  1
40
  7
KANJI
 50
0.000000
 51
30.000000
  0
ENDBLK
  0
BLOCK
  8
1
 62
7
  6
CONTINUOUS
  2
*D12
 70
    65
 10
0.0
 20
0.0
  0
LINE
  8
1
 62
7
  6
CONTINUOUS
 10
346.568367
 20
118.287879
 11
367.068367
 21
118.287879
  0
LINE
  8
1
 62
7
  6
CONTINUOUS
 10
346.568367
 20
116.287879
 11
346.568367
 21
131.039911
  0
LINE
  8
1
 62
7
  6
CONTINUOUS
 10
367.068367
 20
116.287879
 11
367.068367
 21
132.074464
  0
LINE
  8
1
 62
7
  6
CONTINUOUS
 10
346.568367
 20
118.287879
 11
349.466144
 21
119.064336
  0
LINE
  8
1
 62
7
  6
CONTINUOUS
 10
346.568367
 20
118.287879
 11
349.466144
 21
117.511422
  0
LINE
  8
1
 62
7
  6
CONTINUOUS
 10
367.068367
 20
118.287879
 11
364.170589
 21
117.511422
  0
LINE
  8
1
 62
7
  6
CONTINUOUS
 10
367.068367
 20
118.287879
 11
364.170589
 21
119.064336
  0
TEXT
  8
1
 62
7
  6
CONTINUOUS
 10
353.818367
 20
118.287879
 40
3.000000
 41
0.500000
  1
20.5
  7
KANJI
 50
0.000000
 51
30.000000
  0
ENDBLK
  0
BLOCK
  8
1
 62
7
  6
CONTINUOUS
  2
*D13
 70
    65
 10
0.0
 20
0.0
  0
LINE
  8
1
 62
7
  6
CONTINUOUS
 10
246.068367
 20
118.287879
 11
266.568367
 21
118.287879
  0
LINE
  8
1
 62
7
  6
CONTINUOUS
 10
246.068367
 20
116.287879
 11
246.068367
 21
134.074464
  0
LINE
  8
1
 62
7
  6
CONTINUOUS
 10
266.568367
 20
116.287879
 11
266.568367
 21
131.229613
  0
LINE
  8
1
 62
7
  6
CONTINUOUS
 10
246.068367
 20
118.287879
 11
248.966144
 21
119.064336
  0
LINE
  8
1
 62
7
  6
CONTINUOUS
 10
246.068367
 20
118.287879
 11
248.966144
 21
117.511422
  0
LINE
  8
1
 62
7
  6
CONTINUOUS
 10
266.568367
 20
118.287879
 11
263.670589
 21
117.511422
  0
LINE
  8
1
 62
7
  6
CONTINUOUS
 10
266.568367
 20
118.287879
 11
263.670589
 21
119.064336
  0
TEXT
  8
1
 62
7
  6
CONTINUOUS
 10
253.318367
 20
118.287879
 40
3.000000
 41
0.500000
  1
20.5
  7
KANJI
 50
0.000000
 51
30.000000
  0
ENDBLK
  0
ENDSEC
  0
SECTION
  2
ENTITIES
  0
LINE
  8
1
 62
7
  6
CONTINUOUS
 10
432.821326
 20
290.044901
 11
432.821326
 21
285.495000
  0
LINE
  8
1
 62
7
  6
CONTINUOUS
 10
432.821326
 20
298.470643
 11
432.821326
 21
293.499455
  0
LINE
  8
1
 62
7
  6
CONTINUOUS
 10
430.462118
 20
290.044901
 11
435.180533
 21
290.044901
  0
LINE
  8
1
 62
7
  6
CONTINUOUS
 10
428.776969
 20
293.499455
 11
437.034197
 21
293.499455
  0
LINE
  8
1
 62
7
  6
CONTINUOUS
 10
442.868996
 20
295.067541
 11
441.710436
 21
293.000921
  0
LINE
  8
1
 62
7
  6
CONTINUOUS
 10
442.904782
 20
295.112273
 11
440.622446
 21
295.112273
  0
LINE
  8
1
 62
7
  6
CONTINUOUS
 10
441.741749
 20
292.969608
 11
440.622446
 21
295.112273
  0
LINE
  8
1
 62
7
  6
CONTINUOUS
 10
442.712434
 20
293.000921
 11
440.677126
 21
293.000921
  0
LINE
  8
1
 62
7
  6
CONTINUOUS
 10
441.699104
 20
296.561965
 11
441.699104
 21
295.110134
  0
LINE
  8
1
 62
7
  6
CONTINUOUS
 10
441.699104
 20
293.000921
 11
441.699104
 21
291.411849
  0
LINE
  8
1
 62
7
  6
CONTINUOUS
 10
448.030794
 20
294.901593
 11
446.872234
 21
292.834973
  0
LINE
  8
1
 62
7
  6
CONTINUOUS
 10
448.066580
 20
294.946325
 11
445.784244
 21
294.946325
  0
LINE
  8
1
 62
7
  6
CONTINUOUS
 10
446.903547
 20
292.803661
 11
445.784244
 21
294.946325
  0
CIRCLE
  8
1
 62
7
  6
CONTINUOUS
 10
446.879540
 20
294.104203
 40
2.010718
  0
LINE
  8
1
 62
7
  6
CONTINUOUS
 10
447.874232
 20
292.834973
 11
445.838924
 21
292.834973
  0
LINE
  8
1
 62
7
  6
CONTINUOUS
 10
446.886179
 20
291.075177
 11
446.886179
 21
292.834973
  0
LINE
  8
1
 62
7
  6
CONTINUOUS
 10
446.886179
 20
294.959295
 11
446.886179
 21
296.995629
  0
LINE
  8
1
 62
7
  6
CONTINUOUS
 10
452.218782
 20
292.014434
 11
451.569726
 21
292.366331
  0
LINE
  8
1
 62
7
  6
CONTINUOUS
 10
451.569726
 20
292.366331
 11
452.858782
 21
293.015387
  0
LINE
  8
1
 62
7
  6
CONTINUOUS
 10
452.858782
 20
293.015387
 11
451.578782
 21
293.648802
  0
LINE
  8
1
 62
7
  6
CONTINUOUS
 10
451.578782
 20
293.648802
 11
452.858782
 21
294.290038
  0
LINE
  8
1
 62
7
  6
CONTINUOUS
 10
452.858782
 20
294.290038
 11
451.578782
 21
294.923453
  0
LINE
  8
1
 62
7
  6
CONTINUOUS
 10
451.578782
 20
294.923453
 11
452.858782
 21
295.564689
  0
LINE
  8
1
 62
7
  6
CONTINUOUS
 10
452.858782
 20
295.564689
 11
452.218782
 21
295.900946
  0
LINE
  8
1
 62
7
  6
CONTINUOUS
 10
452.218782
 20
295.900946
 11
452.218782
 21
298.009067
  0
LINE
  8
1
 62
7
  6
CONTINUOUS
 10
452.218782
 20
289.911126
 11
452.218782
 21
291.961359
  0
LINE
  8
1
 62
7
  6
CONTINUOUS
 10
456.001015
 20
294.583134
 11
458.767365
 21
294.583134
  0
LINE
  8
1
 62
7
  6
CONTINUOUS
 10
458.767365
 20
293.237342
 11
456.001015
 21
293.237342
  0
LINE
  8
1
 62
7
  6
CONTINUOUS
 10
457.371278
 20
294.603336
 11
457.371278
 21
296.497395
  0
LINE
  8
1
 62
7
  6
CONTINUOUS
 10
457.371278
 20
290.939843
 11
457.371278
 21
293.237342
  0
LINE
  8
1
 62
7
  6
CONTINUOUS
 10
461.589860
 20
295.196347
 11
464.751404
 21
295.196347
  0
LINE
  8
1
 62
7
  6
CONTINUOUS
 10
464.751404
 20
293.658299
 11
461.589860
 21
293.658299
  0
LINE
  8
1
 62
7
  6
CONTINUOUS
 10
463.155875
 20
295.219435
 11
463.155875
 21
297.384074
  0
LINE
  8
1
 62
7
  6
CONTINUOUS
 10
463.155875
 20
291.032586
 11
463.155875
 21
293.658299
  0
TEXT
  8
1
 62
7
  6
CONTINUOUS
 10
463.619385
 20
295.482667
 40
2.048000
 41
0.500000
  1
+
  7
KANJI
 50
0.000000
 51
0.000000
  0
LINE
  8
1
 62
7
  6
CONTINUOUS
 10
461.924014
 20
295.188794
 11
461.580583
 21
293.660384
  0
LINE
  8
1
 62
7
  6
CONTINUOUS
 10
462.339723
 20
295.188794
 11
461.995823
 21
293.658299
  0
LINE
  8
1
 62
7
  6
CONTINUOUS
 10
462.739723
 20
295.188794
 11
462.395823
 21
293.658299
  0
LINE
  8
1
 62
7
  6
CONTINUOUS
 10
463.139723
 20
295.188794
 11
462.795823
 21
293.658299
  0
LINE
  8
1
 62
7
  6
CONTINUOUS
 10
463.539723
 20
295.188794
 11
463.195823
 21
293.658299
  0
LINE
  8
1
 62
7
  6
CONTINUOUS
 10
463.939723
 20
295.188794
 11
463.595823
 21
293.658299
  0
LINE
  8
1
 62
7
  6
CONTINUOUS
 10
464.339723
 20
295.188794
 11
463.995823
 21
293.658299
  0
LINE
  8
1
 62
7
  6
CONTINUOUS
 10
464.739723
 20
295.188794
 11
464.395823
 21
293.658299
  0
LINE
  8
1
 62
7
  6
CONTINUOUS
 10
442.873645
 20
182.566734
 11
448.597222
 21
182.566734
  0
LINE
  8
1
 62
7
  6
CONTINUOUS
 10
442.754404
 20
260.566734
 11
448.358740
 21
260.566734
  0
ARC
  8
1
 62
7
  6
CONTINUOUS
 10
444.946545
 20
255.766734
 40
0.200000
 50
-90.000000
 51
-0.000000
  0
LINE
  8
1
 62
7
  6
CONTINUOUS
 10
445.146545
 20
255.766734
 11
445.146545
 21
265.566734
  0
ARC
  8
1
 62
7
  6
CONTINUOUS
 10
444.946545
 20
187.366734
 40
0.200000
 50
0.000000
 51
90.000000
  0
LINE
  8
1
 62
7
  6
CONTINUOUS
 10
445.146545
 20
177.566734
 11
445.146545
 21
187.366734
  0
LINE
  8
1
 62
7
  6
CONTINUOUS
 10
445.146545
 20
265.566734
 11
446.346545
 21
265.566734
  0
LINE
  8
1
 62
7
  6
CONTINUOUS
 10
445.146545
 20
177.566734
 11
446.346545
 21
177.566734
  0
LINE
  8
1
 62
7
  6
CONTINUOUS
 10
446.346545
 20
177.566734
 11
446.346545
 21
265.566734
  0
LINE
  8
1
 62
7
  6
CONTINUOUS
 10
436.346545
 20
187.566734
 11
444.946545
 21
187.566734
  0
ARC
  8
1
 62
7
  6
CONTINUOUS
 10
436.346545
 20
188.566734
 40
1.000000
 50
180.000000
 51
-90.000000
  0
LINE
  8
1
 62
7
  6
CONTINUOUS
 10
435.346545
 20
188.566734
 11
435.346545
 21
254.566734
  0
LINE
  8
1
 62
7
  6
CONTINUOUS
 10
436.346545
 20
255.566734
 11
444.946545
 21
255.566734
  0
ARC
  8
1
 62
7
  6
CONTINUOUS
 10
436.346545
 20
254.566734
 40
1.000000
 50
90.000000
 51
180.000000
  0
DIMENSION
  8
1
 62
7
  6
CONTINUOUS
  2
*D1
 10
446.346545
 20
167.654810
 11
445.746545
 21
167.654810
 70
     0
  1
1.2
 13
446.346545
 23
175.566734
 14
445.146545
 24
175.566734
 50
180.000000
  0
LINE
  8
1
 62
7
  6
CONTINUOUS
 10
434.846545
 20
189.566734
 11
434.846545
 21
253.566734
  0
LINE
  8
1
 62
7
  6
CONTINUOUS
 10
434.846545
 20
253.566734
 11
435.346545
 21
253.566734
  0
LINE
  8
1
 62
7
  6
CONTINUOUS
 10
434.846545
 20
189.566734
 11
435.346545
 21
189.566734
  0
DIMENSION
  8
1
 62
7
  6
CONTINUOUS
  2
*D2
 10
446.346545
 20
162.646680
 11
440.596545
 21
162.646680
 70
     0
  1
11.5
 13
446.346545
 23
175.566734
 14
434.846545
 24
187.952913
 50
180.000000
  0
DIMENSION
  8
1
 62
7
  6
CONTINUOUS
  2
*D3
 10
435.346545
 20
167.535569
 11
435.096545
 21
167.535569
 70
     0
  1
0.5
 13
435.346545
 23
187.566734
 14
434.846545
 24
187.566734
 50
180.000000
  0
LINE
  8
1
 62
7
  6
CONTINUOUS
 10
432.108815
 20
221.566734
 11
448.816132
 21
221.566734
  0
LINE
  8
1
 62
7
  6
CONTINUOUS
 10
446.346545
 20
202.566734
 11
446.346545
 21
240.564928
  0
LINE
  8
1
 62
7
  6
CONTINUOUS
 10
447.709287
 20
204.262609
 11
447.709287
 21
238.975045
  0
LINE
  8
1
 62
7
  6
CONTINUOUS
 10
446.346545
 20
204.262609
 11
449.858138
 21
204.262609
  0
LINE
  8
1
 62
7
  6
CONTINUOUS
 10
449.911134
 20
240.564928
 11
446.293549
 21
240.564928
  0
LINE
  8
1
 62
7
  6
CONTINUOUS
 10
449.911134
 20
238.975045
 11
449.911134
 21
240.564928
  0
LINE
  8
1
 62
7
  6
CONTINUOUS
 10
446.346545
 20
238.975045
 11
449.911134
 21
238.975045
  0
LINE
  8
1
 62
7
  6
CONTINUOUS
 10
449.858138
 20
202.566734
 11
446.346545
 21
202.566734
  0
LINE
  8
1
 62
7
  6
CONTINUOUS
 10
449.858138
 20
204.262609
 11
449.858138
 21
202.566734
  0
LINE
  8
1
 62
7
  6
CONTINUOUS
 10
447.709287
 20
236.132652
 11
449.928799
 21
236.132652
  0
LINE
  8
1
 62
7
  6
CONTINUOUS
 10
449.928799
 20
236.132652
 11
449.928799
 21
237.474116
  0
LINE
  8
1
 62
7
  6
CONTINUOUS
 10
449.928799
 20
237.474116
 11
447.709287
 21
237.474116
  0
LINE
  8
1
 62
7
  6
CONTINUOUS
 10
447.709287
 20
237.474116
 11
447.709287
 21
236.132652
  0
LINE
  8
1
 62
7
  6
CONTINUOUS
 10
447.709287
 20
233.592652
 11
449.928799
 21
233.592652
  0
LINE
  8
1
 62
7
  6
CONTINUOUS
 10
449.928799
 20
233.592652
 11
449.928799
 21
234.934116
  0
LINE
  8
1
 62
7
  6
CONTINUOUS
 10
449.928799
 20
234.934116
 11
447.709287
 21
234.934116
  0
LINE
  8
1
 62
7
  6
CONTINUOUS
 10
447.709287
 20
234.934116
 11
447.709287
 21
233.592652
  0
LINE
  8
1
 62
7
  6
CONTINUOUS
 10
447.709287
 20
231.052652
 11
449.928799
 21
231.052652
  0
LINE
  8
1
 62
7
  6
CONTINUOUS
 10
449.928799
 20
231.052652
 11
449.928799
 21
232.394116
  0
LINE
  8
1
 62
7
  6
CONTINUOUS
 10
449.928799
 20
232.394116
 11
447.709287
 21
232.394116
  0
LINE
  8
1
 62
7
  6
CONTINUOUS
 10
447.709287
 20
232.394116
 11
447.709287
 21
231.052652
  0
LINE
  8
1
 62
7
  6
CONTINUOUS
 10
447.709287
 20
228.512652
 11
449.928799
 21
228.512652
  0
LINE
  8
1
 62
7
  6
CONTINUOUS
 10
449.928799
 20
228.512652
 11
449.928799
 21
229.854116
  0
LINE
  8
1
 62
7
  6
CONTINUOUS
 10
449.928799
 20
229.854116
 11
447.709287
 21
229.854116
  0
LINE
  8
1
 62
7
  6
CONTINUOUS
 10
447.709287
 20
229.854116
 11
447.709287
 21
228.512652
  0
LINE
  8
1
 62
7
  6
CONTINUOUS
 10
447.709287
 20
225.972652
 11
449.928799
 21
225.972652
  0
LINE
  8
1
 62
7
  6
CONTINUOUS
 10
449.928799
 20
225.972652
 11
449.928799
 21
227.314116
  0
LINE
  8
1
 62
7
  6
CONTINUOUS
 10
449.928799
 20
227.314116
 11
447.709287
 21
227.314116
  0
LINE
  8
1
 62
7
  6
CONTINUOUS
 10
447.709287
 20
227.314116
 11
447.709287
 21
225.972652
  0
LINE
  8
1
 62
7
  6
CONTINUOUS
 10
447.709287
 20
223.432652
 11
449.928799
 21
223.432652
  0
LINE
  8
1
 62
7
  6
CONTINUOUS
 10
449.928799
 20
223.432652
 11
449.928799
 21
224.774116
  0
LINE
  8
1
 62
7
  6
CONTINUOUS
 10
449.928799
 20
224.774116
 11
447.709287
 21
224.774116
  0
LINE
  8
1
 62
7
  6
CONTINUOUS
 10
447.709287
 20
224.774116
 11
447.709287
 21
223.432652
  0
LINE
  8
1
 62
7
  6
CONTINUOUS
 10
447.709287
 20
220.892652
 11
449.928799
 21
220.892652
  0
LINE
  8
1
 62
7
  6
CONTINUOUS
 10
449.928799
 20
220.892652
 11
449.928799
 21
222.234116
  0
LINE
  8
1
 62
7
  6
CONTINUOUS
 10
449.928799
 20
222.234116
 11
447.709287
 21
222.234116
  0
LINE
  8
1
 62
7
  6
CONTINUOUS
 10
447.709287
 20
222.234116
 11
447.709287
 21
220.892652
  0
LINE
  8
1
 62
7
  6
CONTINUOUS
 10
447.709287
 20
218.352652
 11
449.928799
 21
218.352652
  0
LINE
  8
1
 62
7
  6
CONTINUOUS
 10
449.928799
 20
218.352652
 11
449.928799
 21
219.694116
  0
LINE
  8
1
 62
7
  6
CONTINUOUS
 10
449.928799
 20
219.694116
 11
447.709287
 21
219.694116
  0
LINE
  8
1
 62
7
  6
CONTINUOUS
 10
447.709287
 20
219.694116
 11
447.709287
 21
218.352652
  0
LINE
  8
1
 62
7
  6
CONTINUOUS
 10
447.709287
 20
215.812652
 11
449.928799
 21
215.812652
  0
LINE
  8
1
 62
7
  6
CONTINUOUS
 10
449.928799
 20
215.812652
 11
449.928799
 21
217.154116
  0
LINE
  8
1
 62
7
  6
CONTINUOUS
 10
449.928799
 20
217.154116
 11
447.709287
 21
217.154116
  0
LINE
  8
1
 62
7
  6
CONTINUOUS
 10
447.709287
 20
217.154116
 11
447.709287
 21
215.812652
  0
LINE
  8
1
 62
7
  6
CONTINUOUS
 10
447.709287
 20
213.272652
 11
449.928799
 21
213.272652
  0
LINE
  8
1
 62
7
  6
CONTINUOUS
 10
449.928799
 20
213.272652
 11
449.928799
 21
214.614116
  0
LINE
  8
1
 62
7
  6
CONTINUOUS
 10
449.928799
 20
214.614116
 11
447.709287
 21
214.614116
  0
LINE
  8
1
 62
7
  6
CONTINUOUS
 10
447.709287
 20
214.614116
 11
447.709287
 21
213.272652
  0
LINE
  8
1
 62
7
  6
CONTINUOUS
 10
447.709287
 20
210.732652
 11
449.928799
 21
210.732652
  0
LINE
  8
1
 62
7
  6
CONTINUOUS
 10
449.928799
 20
210.732652
 11
449.928799
 21
212.074116
  0
LINE
  8
1
 62
7
  6
CONTINUOUS
 10
449.928799
 20
212.074116
 11
447.709287
 21
212.074116
  0
LINE
  8
1
 62
7
  6
CONTINUOUS
 10
447.709287
 20
212.074116
 11
447.709287
 21
210.732652
  0
LINE
  8
1
 62
7
  6
CONTINUOUS
 10
447.709287
 20
208.192652
 11
449.928799
 21
208.192652
  0
LINE
  8
1
 62
7
  6
CONTINUOUS
 10
449.928799
 20
208.192652
 11
449.928799
 21
209.534116
  0
LINE
  8
1
 62
7
  6
CONTINUOUS
 10
449.928799
 20
209.534116
 11
447.709287
 21
209.534116
  0
LINE
  8
1
 62
7
  6
CONTINUOUS
 10
447.709287
 20
209.534116
 11
447.709287
 21
208.192652
  0
LINE
  8
1
 62
7
  6
CONTINUOUS
 10
447.709287
 20
205.652652
 11
449.928799
 21
205.652652
  0
LINE
  8
1
 62
7
  6
CONTINUOUS
 10
449.928799
 20
205.652652
 11
449.928799
 21
206.994116
  0
LINE
  8
1
 62
7
  6
CONTINUOUS
 10
449.928799
 20
206.994116
 11
447.709287
 21
206.994116
  0
LINE
  8
1
 62
7
  6
CONTINUOUS
 10
447.709287
 20
206.994116
 11
447.709287
 21
205.652652
  0
LINE
  8
1
 62
7
  6
DOT
 10
460.460617
 20
201.937406
 11
460.460617
 21
236.649842
  0
ARC
  8
1
 62
7
  6
DOT
 10
455.852234
 20
233.975045
 40
5.000000
 50
4.667927
 51
90.000000
  0
LINE
  8
1
 62
7
  6
DOT
 10
449.911134
 20
238.975045
 11
455.852234
 21
238.975045
  0
LINE
  8
1
 62
7
  6
DOT
 10
465.346545
 20
179.136191
 11
460.835650
 21
234.381948
  0
ARC
  8
1
 62
7
  6
DOT
 10
455.813568
 20
199.262609
 40
5.000000
 50
4.190634
 51
90.000000
  0
LINE
  8
1
 62
7
  6
DOT
 10
449.858138
 20
204.262609
 11
455.813568
 21
204.262609
  0
LINE
  8
1
 62
7
  6
DOT
 10
460.800201
 20
199.627985
 11
462.249235
 21
179.851639
  0
DIMENSION
  8
1
 62
7
  6
CONTINUOUS
  2
*D4
 10
465.346545
 20
162.646680
 11
455.846545
 21
162.646680
 70
     0
  1
19
 13
465.346545
 23
177.136191
 14
446.346545
 24
175.566734
 50
180.000000
  0
LINE
  8
1
 62
7
  6
CONTINUOUS
 10
436.819858
 20
109.882114
 11
434.276046
 21
109.882114
  0
LINE
  8
1
 62
7
  6
CONTINUOUS
 10
435.668699
 20
108.558717
 11
435.668699
 21
111.155525
  0
ARC
  8
1
 62
7
  6
CONTINUOUS
 10
430.668699
 20
104.882114
 40
1.000000
 50
180.000000
 51
-90.000000
  0
LINE
  8
1
 62
7
  6
CONTINUOUS
 10
429.668699
 20
114.882114
 11
429.668699
 21
104.882114
  0
ARC
  8
1
 62
7
  6
CONTINUOUS
 10
430.668699
 20
114.882114
 40
1.000000
 50
90.000000
 51
180.000000
  0
LINE
  8
1
 62
7
  6
CONTINUOUS
 10
440.668699
 20
115.882114
 11
430.668699
 21
115.882114
  0
ARC
  8
1
 62
7
  6
CONTINUOUS
 10
440.668699
 20
114.882114
 40
1.000000
 50
0.000000
 51
90.000000
  0
LINE
  8
1
 62
7
  6
CONTINUOUS
 10
441.668699
 20
104.882114
 11
441.668699
 21
114.882114
  0
LINE
  8
1
 62
7
  6
CONTINUOUS
 10
430.668699
 20
103.882114
 11
440.668699
 21
103.882114
  0
ARC
  8
1
 62
7
  6
CONTINUOUS
 10
440.668699
 20
104.882114
 40
1.000000
 50
-90.000000
 51
0.000000
  0
LINE
  8
1
 62
7
  6
CONTINUOUS
 10
430.322719
 20
114.690530
 11
430.322719
 21
113.524616
  0
LINE
  8
1
 62
7
  6
CONTINUOUS
 10
430.322719
 20
113.524616
 11
433.449488
 21
113.524616
  0
LINE
  8
1
 62
7
  6
CONTINUOUS
 10
433.449488
 20
113.524616
 11
433.449488
 21
114.690530
  0
LINE
  8
1
 62
7
  6
CONTINUOUS
 10
433.449488
 20
114.690530
 11
430.322719
 21
114.690530
  0
TEXT
  8
1
 62
7
  6
CONTINUOUS
 10
435.668699
 20
106.735245
 40
5.000000
 41
0.500000
  1
1
  7
KANJI
 50
0.000000
 51
0.000000
  0
CIRCLE
  8
1
 62
7
  6
CONTINUOUS
 10
425.418243
 20
90.808556
 40
2.000000
  0
LINE
  8
1
 62
7
  6
CONTINUOUS
 10
425.126274
 20
91.774872
 11
425.126274
 21
91.100526
  0
ARC
  8
1
 62
7
  6
CONTINUOUS
 10
425.326274
 20
91.774872
 40
0.200000
 50
90.000000
 51
180.000000
  0
LINE
  8
1
 62
7
  6
CONTINUOUS
 10
425.550807
 20
91.974872
 11
425.326274
 21
91.974872
  0
LINE
  8
1
 62
7
  6
CONTINUOUS
 10
425.750807
 20
91.100526
 11
425.750807
 21
91.774872
  0
ARC
  8
1
 62
7
  6
CONTINUOUS
 10
425.550807
 20
91.774872
 40
0.200000
 50
0.000000
 51
90.000000
  0
LINE
  8
1
 62
7
  6
CONTINUOUS
 10
425.750807
 20
89.801646
 11
425.750807
 21
90.525955
  0
ARC
  8
1
 62
7
  6
CONTINUOUS
 10
425.550807
 20
89.801646
 40
0.200000
 50
-90.000000
 51
0.000000
  0
LINE
  8
1
 62
7
  6
CONTINUOUS
 10
425.326274
 20
89.601646
 11
425.550807
 21
89.601646
  0
LINE
  8
1
 62
7
  6
CONTINUOUS
 10
425.126274
 20
90.525955
 11
425.126274
 21
89.801646
  0
ARC
  8
1
 62
7
  6
CONTINUOUS
 10
425.326274
 20
89.801646
 40
0.200000
 50
180.000000
 51
-90.000000
  0
LINE
  8
1
 62
7
  6
CONTINUOUS
 10
426.425153
 20
91.100526
 11
425.750807
 21
91.100526
  0
ARC
  8
1
 62
7
  6
CONTINUOUS
 10
426.425153
 20
90.900526
 40
0.200000
 50
0.000000
 51
90.000000
  0
LINE
  8
1
 62
7
  6
CONTINUOUS
 10
426.625153
 20
90.725955
 11
426.625153
 21
90.900526
  0
LINE
  8
1
 62
7
  6
CONTINUOUS
 10
425.750807
 20
90.525955
 11
426.425153
 21
90.525955
  0
ARC
  8
1
 62
7
  6
CONTINUOUS
 10
426.425153
 20
90.725955
 40
0.200000
 50
-90.000000
 51
0.000000
  0
LINE
  8
1
 62
7
  6
CONTINUOUS
 10
424.327021
 20
90.525955
 11
425.126274
 21
90.525955
  0
ARC
  8
1
 62
7
  6
CONTINUOUS
 10
424.327021
 20
90.725955
 40
0.200000
 50
-180.000000
 51
-90.000000
  0
LINE
  8
1
 62
7
  6
CONTINUOUS
 10
424.127021
 20
90.900526
 11
424.127021
 21
90.725955
  0
LINE
  8
1
 62
7
  6
CONTINUOUS
 10
425.126274
 20
91.100526
 11
424.327021
 21
91.100526
  0
ARC
  8
1
 62
7
  6
CONTINUOUS
 10
424.327021
 20
90.900526
 40
0.200000
 50
90.000000
 51
-180.000000
  0
TEXT
  8
1
 62
7
  6
CONTINUOUS
 10
462.876343
 20
136.433295
 40
2.000000
 41
0.500000
  1
1
  7
KANJI
 50
0.000000
 51
0.000000
  0
TEXT
  8
1
 62
7
  6
CONTINUOUS
 10
438.069233
 20
136.442956
 40
2.000000
 41
0.500000
  1
1
  7
KANJI
 50
0.000000
 51
0.000000
  0
TEXT
  8
1
 62
7
  6
CONTINUOUS
 10
438.069233
 20
136.569424
 40
2.000000
 41
0.500000
  1
10
  7
KANJI
 50
0.000000
 51
0.000000
  0
TEXT
  8
1
 62
7
  6
CONTINUOUS
 10
497.876343
 20
136.433295
 40
2.000000
 41
0.500000
  1
1
  7
KANJI
 50
0.000000
 51
0.000000
  0
LINE
  8
1
 62
7
  6
CONTINUOUS
 10
500.316539
 20
130.361922
 11
499.722909
 21
130.361922
  0
TEXT
  8
1
 62
7
  6
CONTINUOUS
 10
473.069233
 20
136.442956
 40
2.000000
 41
0.500000
  1
1
  7
KANJI
 50
0.000000
 51
0.000000
  0
LINE
  8
1
 62
7
  6
CONTINUOUS
 10
472.284497
 20
130.361922
 11
472.791472
 21
130.361922
  0
TEXT
  8
1
 62
7
  6
CONTINUOUS
 10
473.069233
 20
136.569424
 40
2.000000
 41
0.500000
  1
10
  7
KANJI
 50
0.000000
 51
0.000000
  0
LINE
  8
1
 62
7
  6
CONTINUOUS
 10
439.111256
 20
133.492004
 11
439.111256
 21
132.353792
  0
LINE
  8
1
 62
7
  6
CONTINUOUS
 10
439.111256
 20
132.353792
 11
440.249467
 21
132.353792
  0
LINE
  8
1
 62
7
  6
CONTINUOUS
 10
440.249467
 20
132.353792
 11
440.249467
 21
133.492004
  0
LINE
  8
1
 62
7
  6
CONTINUOUS
 10
440.249467
 20
133.492004
 11
439.111256
 21
133.492004
  0
LINE
  8
1
 62
7
  6
CONTINUOUS
 10
441.651256
 20
133.492004
 11
441.651256
 21
132.353792
  0
LINE
  8
1
 62
7
  6
CONTINUOUS
 10
441.651256
 20
132.353792
 11
442.789467
 21
132.353792
  0
LINE
  8
1
 62
7
  6
CONTINUOUS
 10
442.789467
 20
132.353792
 11
442.789467
 21
133.492004
  0
LINE
  8
1
 62
7
  6
CONTINUOUS
 10
442.789467
 20
133.492004
 11
441.651256
 21
133.492004
  0
LINE
  8
1
 62
7
  6
CONTINUOUS
 10
444.191256
 20
133.492004
 11
444.191256
 21
132.353792
  0
LINE
  8
1
 62
7
  6
CONTINUOUS
 10
444.191256
 20
132.353792
 11
445.329467
 21
132.353792
  0
LINE
  8
1
 62
7
  6
CONTINUOUS
 10
445.329467
 20
132.353792
 11
445.329467
 21
133.492004
  0
LINE
  8
1
 62
7
  6
CONTINUOUS
 10
445.329467
 20
133.492004
 11
444.191256
 21
133.492004
  0
LINE
  8
1
 62
7
  6
CONTINUOUS
 10
446.731256
 20
133.492004
 11
446.731256
 21
132.353792
  0
LINE
  8
1
 62
7
  6
CONTINUOUS
 10
446.731256
 20
132.353792
 11
447.869467
 21
132.353792
  0
LINE
  8
1
 62
7
  6
CONTINUOUS
 10
447.869467
 20
132.353792
 11
447.869467
 21
133.492004
  0
LINE
  8
1
 62
7
  6
CONTINUOUS
 10
447.869467
 20
133.492004
 11
446.731256
 21
133.492004
  0
LINE
  8
1
 62
7
  6
CONTINUOUS
 10
449.271256
 20
133.492004
 11
449.271256
 21
132.353792
  0
LINE
  8
1
 62
7
  6
CONTINUOUS
 10
449.271256
 20
132.353792
 11
450.409467
 21
132.353792
  0
LINE
  8
1
 62
7
  6
CONTINUOUS
 10
450.409467
 20
132.353792
 11
450.409467
 21
133.492004
  0
LINE
  8
1
 62
7
  6
CONTINUOUS
 10
450.409467
 20
133.492004
 11
449.271256
 21
133.492004
  0
LINE
  8
1
 62
7
  6
CONTINUOUS
 10
451.811256
 20
133.492004
 11
451.811256
 21
132.353792
  0
LINE
  8
1
 62
7
  6
CONTINUOUS
 10
451.811256
 20
132.353792
 11
452.949467
 21
132.353792
  0
LINE
  8
1
 62
7
  6
CONTINUOUS
 10
452.949467
 20
132.353792
 11
452.949467
 21
133.492004
  0
LINE
  8
1
 62
7
  6
CONTINUOUS
 10
452.949467
 20
133.492004
 11
451.811256
 21
133.492004
  0
LINE
  8
1
 62
7
  6
CONTINUOUS
 10
454.351256
 20
133.492004
 11
454.351256
 21
132.353792
  0
LINE
  8
1
 62
7
  6
CONTINUOUS
 10
454.351256
 20
132.353792
 11
455.489467
 21
132.353792
  0
LINE
  8
1
 62
7
  6
CONTINUOUS
 10
455.489467
 20
132.353792
 11
455.489467
 21
133.492004
  0
LINE
  8
1
 62
7
  6
CONTINUOUS
 10
455.489467
 20
133.492004
 11
454.351256
 21
133.492004
  0
LINE
  8
1
 62
7
  6
CONTINUOUS
 10
456.891256
 20
133.492004
 11
456.891256
 21
132.353792
  0
LINE
  8
1
 62
7
  6
CONTINUOUS
 10
456.891256
 20
132.353792
 11
458.029467
 21
132.353792
  0
LINE
  8
1
 62
7
  6
CONTINUOUS
 10
458.029467
 20
132.353792
 11
458.029467
 21
133.492004
  0
LINE
  8
1
 62
7
  6
CONTINUOUS
 10
458.029467
 20
133.492004
 11
456.891256
 21
133.492004
  0
LINE
  8
1
 62
7
  6
CONTINUOUS
 10
459.431256
 20
133.492004
 11
459.431256
 21
132.353792
  0
LINE
  8
1
 62
7
  6
CONTINUOUS
 10
459.431256
 20
132.353792
 11
460.569467
 21
132.353792
  0
LINE
  8
1
 62
7
  6
CONTINUOUS
 10
460.569467
 20
132.353792
 11
460.569467
 21
133.492004
  0
LINE
  8
1
 62
7
  6
CONTINUOUS
 10
460.569467
 20
133.492004
 11
459.431256
 21
133.492004
  0
LINE
  8
1
 62
7
  6
CONTINUOUS
 10
461.971256
 20
133.492004
 11
461.971256
 21
132.353792
  0
LINE
  8
1
 62
7
  6
CONTINUOUS
 10
461.971256
 20
132.353792
 11
463.109467
 21
132.353792
  0
LINE
  8
1
 62
7
  6
CONTINUOUS
 10
463.109467
 20
132.353792
 11
463.109467
 21
133.492004
  0
LINE
  8
1
 62
7
  6
CONTINUOUS
 10
463.109467
 20
133.492004
 11
461.971256
 21
133.492004
  0
LINE
  8
1
 62
7
  6
CONTINUOUS
 10
465.316539
 20
131.408537
 11
465.316539
 21
130.361922
  0
LINE
  8
1
 62
7
  6
CONTINUOUS
 10
465.316539
 20
130.361922
 11
464.722909
 21
130.361922
  0
LINE
  8
1
 62
7
  6
CONTINUOUS
 10
464.722909
 20
131.408537
 11
465.316539
 21
131.408537
  0
LINE
  8
1
 62
7
  6
CONTINUOUS
 10
464.722909
 20
131.408537
 11
464.722909
 21
135.294172
  0
LINE
  8
1
 62
7
  6
CONTINUOUS
 10
464.716987
 20
135.642870
 11
464.716987
 21
134.556183
  0
LINE
  8
1
 62
7
  6
CONTINUOUS
 10
464.716987
 20
134.556183
 11
466.740474
 21
134.556183
  0
LINE
  8
1
 62
7
  6
CONTINUOUS
 10
466.740474
 20
134.556183
 11
466.740474
 21
135.642870
  0
LINE
  8
1
 62
7
  6
CONTINUOUS
 10
466.740474
 20
135.642870
 11
464.716987
 21
135.642870
  0
LINE
  8
1
 62
7
  6
CONTINUOUS
 10
435.879297
 20
135.577294
 11
435.879297
 21
134.565551
  0
LINE
  8
1
 62
7
  6
CONTINUOUS
 10
435.879297
 20
134.565551
 11
437.791472
 21
134.565551
  0
LINE
  8
1
 62
7
  6
CONTINUOUS
 10
437.791472
 20
134.565551
 11
437.791472
 21
135.577294
  0
LINE
  8
1
 62
7
  6
CONTINUOUS
 10
437.791472
 20
135.577294
 11
435.879297
 21
135.577294
  0
LINE
  8
1
 62
7
  6
CONTINUOUS
 10
437.284497
 20
131.408537
 11
437.284497
 21
130.361922
  0
LINE
  8
1
 62
7
  6
CONTINUOUS
 10
437.284497
 20
130.361922
 11
437.791472
 21
130.361922
  0
LINE
  8
1
 62
7
  6
CONTINUOUS
 10
437.791472
 20
131.408537
 11
437.284497
 21
131.408537
  0
LINE
  8
1
 62
7
  6
CONTINUOUS
 10
437.791472
 20
130.361922
 11
464.722909
 21
130.361922
  0
LINE
  8
1
 62
7
  6
CONTINUOUS
 10
464.722909
 20
135.294172
 11
437.791472
 21
135.294172
  0
LINE
  8
1
 62
7
  6
CONTINUOUS
 10
437.791472
 20
135.294172
 11
437.791472
 21
131.446009
  0
LINE
  8
1
 62
7
  6
CONTINUOUS
 10
474.111256
 20
133.492004
 11
474.111256
 21
132.353792
  0
LINE
  8
1
 62
7
  6
CONTINUOUS
 10
474.111256
 20
132.353792
 11
475.249467
 21
132.353792
  0
LINE
  8
1
 62
7
  6
CONTINUOUS
 10
475.249467
 20
132.353792
 11
475.249467
 21
133.492004
  0
LINE
  8
1
 62
7
  6
CONTINUOUS
 10
475.249467
 20
133.492004
 11
474.111256
 21
133.492004
  0
LINE
  8
1
 62
7
  6
CONTINUOUS
 10
476.651256
 20
133.492004
 11
476.651256
 21
132.353792
  0
LINE
  8
1
 62
7
  6
CONTINUOUS
 10
476.651256
 20
132.353792
 11
477.789467
 21
132.353792
  0
LINE
  8
1
 62
7
  6
CONTINUOUS
 10
477.789467
 20
132.353792
 11
477.789467
 21
133.492004
  0
LINE
  8
1
 62
7
  6
CONTINUOUS
 10
477.789467
 20
133.492004
 11
476.651256
 21
133.492004
  0
LINE
  8
1
 62
7
  6
CONTINUOUS
 10
479.191256
 20
133.492004
 11
479.191256
 21
132.353792
  0
LINE
  8
1
 62
7
  6
CONTINUOUS
 10
479.191256
 20
132.353792
 11
480.329467
 21
132.353792
  0
LINE
  8
1
 62
7
  6
CONTINUOUS
 10
480.329467
 20
132.353792
 11
480.329467
 21
133.492004
  0
LINE
  8
1
 62
7
  6
CONTINUOUS
 10
480.329467
 20
133.492004
 11
479.191256
 21
133.492004
  0
LINE
  8
1
 62
7
  6
CONTINUOUS
 10
481.731256
 20
133.492004
 11
481.731256
 21
132.353792
  0
LINE
  8
1
 62
7
  6
CONTINUOUS
 10
481.731256
 20
132.353792
 11
482.869467
 21
132.353792
  0
LINE
  8
1
 62
7
  6
CONTINUOUS
 10
482.869467
 20
132.353792
 11
482.869467
 21
133.492004
  0
LINE
  8
1
 62
7
  6
CONTINUOUS
 10
482.869467
 20
133.492004
 11
481.731256
 21
133.492004
  0
LINE
  8
1
 62
7
  6
CONTINUOUS
 10
484.271256
 20
133.492004
 11
484.271256
 21
132.353792
  0
LINE
  8
1
 62
7
  6
CONTINUOUS
 10
484.271256
 20
132.353792
 11
485.409467
 21
132.353792
  0
LINE
  8
1
 62
7
  6
CONTINUOUS
 10
485.409467
 20
132.353792
 11
485.409467
 21
133.492004
  0
LINE
  8
1
 62
7
  6
CONTINUOUS
 10
485.409467
 20
133.492004
 11
484.271256
 21
133.492004
  0
LINE
  8
1
 62
7
  6
CONTINUOUS
 10
486.811256
 20
133.492004
 11
486.811256
 21
132.353792
  0
LINE
  8
1
 62
7
  6
CONTINUOUS
 10
486.811256
 20
132.353792
 11
487.949467
 21
132.353792
  0
LINE
  8
1
 62
7
  6
CONTINUOUS
 10
487.949467
 20
132.353792
 11
487.949467
 21
133.492004
  0
LINE
  8
1
 62
7
  6
CONTINUOUS
 10
487.949467
 20
133.492004
 11
486.811256
 21
133.492004
  0
LINE
  8
1
 62
7
  6
CONTINUOUS
 10
489.351256
 20
133.492004
 11
489.351256
 21
132.353792
  0
LINE
  8
1
 62
7
  6
CONTINUOUS
 10
489.351256
 20
132.353792
 11
490.489467
 21
132.353792
  0
LINE
  8
1
 62
7
  6
CONTINUOUS
 10
490.489467
 20
132.353792
 11
490.489467
 21
133.492004
  0
LINE
  8
1
 62
7
  6
CONTINUOUS
 10
490.489467
 20
133.492004
 11
489.351256
 21
133.492004
  0
LINE
  8
1
 62
7
  6
CONTINUOUS
 10
491.891256
 20
133.492004
 11
491.891256
 21
132.353792
  0
LINE
  8
1
 62
7
  6
CONTINUOUS
 10
491.891256
 20
132.353792
 11
493.029467
 21
132.353792
  0
LINE
  8
1
 62
7
  6
CONTINUOUS
 10
493.029467
 20
132.353792
 11
493.029467
 21
133.492004
  0
LINE
  8
1
 62
7
  6
CONTINUOUS
 10
493.029467
 20
133.492004
 11
491.891256
 21
133.492004
  0
LINE
  8
1
 62
7
  6
CONTINUOUS
 10
494.431256
 20
133.492004
 11
494.431256
 21
132.353792
  0
LINE
  8
1
 62
7
  6
CONTINUOUS
 10
494.431256
 20
132.353792
 11
495.569467
 21
132.353792
  0
LINE
  8
1
 62
7
  6
CONTINUOUS
 10
495.569467
 20
132.353792
 11
495.569467
 21
133.492004
  0
LINE
  8
1
 62
7
  6
CONTINUOUS
 10
495.569467
 20
133.492004
 11
494.431256
 21
133.492004
  0
LINE
  8
1
 62
7
  6
CONTINUOUS
 10
496.971256
 20
133.492004
 11
496.971256
 21
132.353792
  0
LINE
  8
1
 62
7
  6
CONTINUOUS
 10
496.971256
 20
132.353792
 11
498.109467
 21
132.353792
  0
LINE
  8
1
 62
7
  6
CONTINUOUS
 10
498.109467
 20
132.353792
 11
498.109467
 21
133.492004
  0
LINE
  8
1
 62
7
  6
CONTINUOUS
 10
498.109467
 20
133.492004
 11
496.971256
 21
133.492004
  0
LINE
  8
1
 62
7
  6
CONTINUOUS
 10
500.316539
 20
131.408537
 11
500.316539
 21
130.361922
  0
LINE
  8
1
 62
7
  6
CONTINUOUS
 10
499.722909
 20
131.408537
 11
500.316539
 21
131.408537
  0
LINE
  8
1
 62
7
  6
CONTINUOUS
 10
499.722909
 20
131.408537
 11
499.722909
 21
135.294172
  0
LINE
  8
1
 62
7
  6
CONTINUOUS
 10
499.716987
 20
135.642870
 11
499.716987
 21
134.556183
  0
LINE
  8
1
 62
7
  6
CONTINUOUS
 10
499.716987
 20
134.556183
 11
501.740474
 21
134.556183
  0
LINE
  8
1
 62
7
  6
CONTINUOUS
 10
501.740474
 20
134.556183
 11
501.740474
 21
135.642870
  0
LINE
  8
1
 62
7
  6
CONTINUOUS
 10
501.740474
 20
135.642870
 11
499.716987
 21
135.642870
  0
LINE
  8
1
 62
7
  6
CONTINUOUS
 10
470.879297
 20
135.577294
 11
470.879297
 21
134.565551
  0
LINE
  8
1
 62
7
  6
CONTINUOUS
 10
470.879297
 20
134.565551
 11
472.791472
 21
134.565551
  0
LINE
  8
1
 62
7
  6
CONTINUOUS
 10
472.791472
 20
134.565551
 11
472.791472
 21
135.577294
  0
LINE
  8
1
 62
7
  6
CONTINUOUS
 10
472.791472
 20
135.577294
 11
470.879297
 21
135.577294
  0
LINE
  8
1
 62
7
  6
CONTINUOUS
 10
472.284497
 20
131.408537
 11
472.284497
 21
130.361922
  0
LINE
  8
1
 62
7
  6
CONTINUOUS
 10
472.791472
 20
131.408537
 11
472.284497
 21
131.408537
  0
LINE
  8
1
 62
7
  6
CONTINUOUS
 10
472.791472
 20
130.361922
 11
499.722909
 21
130.361922
  0
LINE
  8
1
 62
7
  6
CONTINUOUS
 10
499.722909
 20
135.294172
 11
472.791472
 21
135.294172
  0
LINE
  8
1
 62
7
  6
CONTINUOUS
 10
472.791472
 20
135.294172
 11
472.791472
 21
131.446009
  0
LINE
  8
1
 62
7
  6
CONTINUOUS
 10
478.731707
 20
259.941057
 11
478.731707
 21
175.941057
  0
LINE
  8
1
 62
7
  6
CONTINUOUS
 10
479.731707
 20
258.941057
 11
479.731707
 21
176.941057
  0
CIRCLE
  8
1
 62
7
  6
CONTINUOUS
 10
483.314614
 20
255.580397
 40
2.000000
  0
LINE
  8
1
 62
7
  6
CONTINUOUS
 10
483.022645
 20
256.546713
 11
483.022645
 21
255.872367
  0
ARC
  8
1
 62
7
  6
CONTINUOUS
 10
483.222645
 20
256.546713
 40
0.200000
 50
90.000000
 51
180.000000
  0
LINE
  8
1
 62
7
  6
CONTINUOUS
 10
483.447178
 20
256.746713
 11
483.222645
 21
256.746713
  0
LINE
  8
1
 62
7
  6
CONTINUOUS
 10
483.647178
 20
255.872367
 11
483.647178
 21
256.546713
  0
ARC
  8
1
 62
7
  6
CONTINUOUS
 10
483.447178
 20
256.546713
 40
0.200000
 50
0.000000
 51
90.000000
  0
LINE
  8
1
 62
7
  6
CONTINUOUS
 10
483.647178
 20
254.573487
 11
483.647178
 21
255.297796
  0
ARC
  8
1
 62
7
  6
CONTINUOUS
 10
483.447178
 20
254.573487
 40
0.200000
 50
-90.000000
 51
0.000000
  0
LINE
  8
1
 62
7
  6
CONTINUOUS
 10
483.222645
 20
254.373487
 11
483.447178
 21
254.373487
  0
LINE
  8
1
 62
7
  6
CONTINUOUS
 10
483.022645
 20
255.297796
 11
483.022645
 21
254.573487
  0
ARC
  8
1
 62
7
  6
CONTINUOUS
 10
483.222645
 20
254.573487
 40
0.200000
 50
180.000000
 51
-90.000000
  0
LINE
  8
1
 62
7
  6
CONTINUOUS
 10
484.321524
 20
255.872367
 11
483.647178
 21
255.872367
  0
ARC
  8
1
 62
7
  6
CONTINUOUS
 10
484.321524
 20
255.672367
 40
0.200000
 50
0.000000
 51
90.000000
  0
LINE
  8
1
 62
7
  6
CONTINUOUS
 10
484.521524
 20
255.497796
 11
484.521524
 21
255.672367
  0
LINE
  8
1
 62
7
  6
CONTINUOUS
 10
483.647178
 20
255.297796
 11
484.321524
 21
255.297796
  0
ARC
  8
1
 62
7
  6
CONTINUOUS
 10
484.321524
 20
255.497796
 40
0.200000
 50
-90.000000
 51
0.000000
  0
LINE
  8
1
 62
7
  6
CONTINUOUS
 10
482.223392
 20
255.297796
 11
483.022645
 21
255.297796
  0
ARC
  8
1
 62
7
  6
CONTINUOUS
 10
482.223392
 20
255.497796
 40
0.200000
 50
-180.000000
 51
-90.000000
  0
LINE
  8
1
 62
7
  6
CONTINUOUS
 10
482.023392
 20
255.672367
 11
482.023392
 21
255.497796
  0
LINE
  8
1
 62
7
  6
CONTINUOUS
 10
483.022645
 20
255.872367
 11
482.223392
 21
255.872367
  0
ARC
  8
1
 62
7
  6
CONTINUOUS
 10
482.223392
 20
255.672367
 40
0.200000
 50
90.000000
 51
-180.000000
  0
CIRCLE
  8
1
 62
7
  6
CONTINUOUS
 10
483.399273
 20
180.537554
 40
2.000000
  0
LINE
  8
1
 62
7
  6
CONTINUOUS
 10
483.107304
 20
181.503869
 11
483.107304
 21
180.829523
  0
ARC
  8
1
 62
7
  6
CONTINUOUS
 10
483.307304
 20
181.503869
 40
0.200000
 50
90.000000
 51
180.000000
  0
LINE
  8
1
 62
7
  6
CONTINUOUS
 10
483.531837
 20
181.703869
 11
483.307304
 21
181.703869
  0
LINE
  8
1
 62
7
  6
CONTINUOUS
 10
483.731837
 20
180.829523
 11
483.731837
 21
181.503869
  0
ARC
  8
1
 62
7
  6
CONTINUOUS
 10
483.531837
 20
181.503869
 40
0.200000
 50
0.000000
 51
90.000000
  0
LINE
  8
1
 62
7
  6
CONTINUOUS
 10
483.731837
 20
179.530644
 11
483.731837
 21
180.254953
  0
ARC
  8
1
 62
7
  6
CONTINUOUS
 10
483.531837
 20
179.530644
 40
0.200000
 50
-90.000000
 51
0.000000
  0
LINE
  8
1
 62
7
  6
CONTINUOUS
 10
483.307304
 20
179.330644
 11
483.531837
 21
179.330644
  0
LINE
  8
1
 62
7
  6
CONTINUOUS
 10
483.107304
 20
180.254953
 11
483.107304
 21
179.530644
  0
ARC
  8
1
 62
7
  6
CONTINUOUS
 10
483.307304
 20
179.530644
 40
0.200000
 50
180.000000
 51
-90.000000
  0
LINE
  8
1
 62
7
  6
CONTINUOUS
 10
484.406183
 20
180.829523
 11
483.731837
 21
180.829523
  0
ARC
  8
1
 62
7
  6
CONTINUOUS
 10
484.406183
 20
180.629523
 40
0.200000
 50
0.000000
 51
90.000000
  0
LINE
  8
1
 62
7
  6
CONTINUOUS
 10
484.606183
 20
180.454953
 11
484.606183
 21
180.629523
  0
LINE
  8
1
 62
7
  6
CONTINUOUS
 10
483.731837
 20
180.254953
 11
484.406183
 21
180.254953
  0
ARC
  8
1
 62
7
  6
CONTINUOUS
 10
484.406183
 20
180.454953
 40
0.200000
 50
-90.000000
 51
0.000000
  0
LINE
  8
1
 62
7
  6
CONTINUOUS
 10
482.308051
 20
180.254953
 11
483.107304
 21
180.254953
  0
ARC
  8
1
 62
7
  6
CONTINUOUS
 10
482.308051
 20
180.454953
 40
0.200000
 50
-180.000000
 51
-90.000000
  0
LINE
  8
1
 62
7
  6
CONTINUOUS
 10
482.108051
 20
180.629523
 11
482.108051
 21
180.454953
  0
LINE
  8
1
 62
7
  6
CONTINUOUS
 10
483.107304
 20
180.829523
 11
482.308051
 21
180.829523
  0
ARC
  8
1
 62
7
  6
CONTINUOUS
 10
482.308051
 20
180.629523
 40
0.200000
 50
90.000000
 51
-180.000000
  0
LINE
  8
1
 62
7
  6
CONTINUOUS
 10
562.731707
 20
175.941057
 11
562.731707
 21
259.941057
  0
LINE
  8
1
 62
7
  6
CONTINUOUS
 10
561.731707
 20
176.941057
 11
561.731707
 21
258.941057
  0
LINE
  8
1
 62
7
  6
CONTINUOUS
 10
561.731707
 20
258.941057
 11
479.731707
 21
258.941057
  0
LINE
  8
1
 62
7
  6
CONTINUOUS
 10
479.731707
 20
176.941057
 11
561.731707
 21
176.941057
  0
CIRCLE
  8
1
 62
7
  6
CONTINUOUS
 10
557.574521
 20
255.659505
 40
2.000000
  0
LINE
  8
1
 62
7
  6
CONTINUOUS
 10
557.282552
 20
256.625820
 11
557.282552
 21
255.951474
  0
ARC
  8
1
 62
7
  6
CONTINUOUS
 10
557.482552
 20
256.625820
 40
0.200000
 50
90.000000
 51
180.000000
  0
LINE
  8
1
 62
7
  6
CONTINUOUS
 10
557.707085
 20
256.825820
 11
557.482552
 21
256.825820
  0
LINE
  8
1
 62
7
  6
CONTINUOUS
 10
557.907085
 20
255.951474
 11
557.907085
 21
256.625820
  0
ARC
  8
1
 62
7
  6
CONTINUOUS
 10
557.707085
 20
256.625820
 40
0.200000
 50
0.000000
 51
90.000000
  0
LINE
  8
1
 62
7
  6
CONTINUOUS
 10
557.907085
 20
254.652595
 11
557.907085
 21
255.376904
  0
ARC
  8
1
 62
7
  6
CONTINUOUS
 10
557.707085
 20
254.652595
 40
0.200000
 50
-90.000000
 51
0.000000
  0
LINE
  8
1
 62
7
  6
CONTINUOUS
 10
557.482552
 20
254.452595
 11
557.707085
 21
254.452595
  0
LINE
  8
1
 62
7
  6
CONTINUOUS
 10
557.282552
 20
255.376904
 11
557.282552
 21
254.652595
  0
ARC
  8
1
 62
7
  6
CONTINUOUS
 10
557.482552
 20
254.652595
 40
0.200000
 50
180.000000
 51
-90.000000
  0
LINE
  8
1
 62
7
  6
CONTINUOUS
 10
558.581431
 20
255.951474
 11
557.907085
 21
255.951474
  0
ARC
  8
1
 62
7
  6
CONTINUOUS
 10
558.581431
 20
255.751474
 40
0.200000
 50
0.000000
 51
90.000000
  0
LINE
  8
1
 62
7
  6
CONTINUOUS
 10
558.781431
 20
255.576904
 11
558.781431
 21
255.751474
  0
LINE
  8
1
 62
7
  6
CONTINUOUS
 10
557.907085
 20
255.376904
 11
558.581431
 21
255.376904
  0
ARC
  8
1
 62
7
  6
CONTINUOUS
 10
558.581431
 20
255.576904
 40
0.200000
 50
-90.000000
 51
0.000000
  0
LINE
  8
1
 62
7
  6
CONTINUOUS
 10
556.483299
 20
255.376904
 11
557.282552
 21
255.376904
  0
ARC
  8
1
 62
7
  6
CONTINUOUS
 10
556.483299
 20
255.576904
 40
0.200000
 50
-180.000000
 51
-90.000000
  0
LINE
  8
1
 62
7
  6
CONTINUOUS
 10
556.283299
 20
255.751474
 11
556.283299
 21
255.576904
  0
LINE
  8
1
 62
7
  6
CONTINUOUS
 10
557.282552
 20
255.951474
 11
556.483299
 21
255.951474
  0
ARC
  8
1
 62
7
  6
CONTINUOUS
 10
556.483299
 20
255.751474
 40
0.200000
 50
90.000000
 51
-180.000000
  0
CIRCLE
  8
1
 62
7
  6
CONTINUOUS
 10
557.321586
 20
180.537554
 40
2.000000
  0
LINE
  8
1
 62
7
  6
CONTINUOUS
 10
557.029616
 20
181.503869
 11
557.029616
 21
180.829523
  0
ARC
  8
1
 62
7
  6
CONTINUOUS
 10
557.229616
 20
181.503869
 40
0.200000
 50
90.000000
 51
180.000000
  0
LINE
  8
1
 62
7
  6
CONTINUOUS
 10
557.454149
 20
181.703869
 11
557.229616
 21
181.703869
  0
LINE
  8
1
 62
7
  6
CONTINUOUS
 10
557.654149
 20
180.829523
 11
557.654149
 21
181.503869
  0
ARC
  8
1
 62
7
  6
CONTINUOUS
 10
557.454149
 20
181.503869
 40
0.200000
 50
0.000000
 51
90.000000
  0
LINE
  8
1
 62
7
  6
CONTINUOUS
 10
557.654149
 20
179.530644
 11
557.654149
 21
180.254953
  0
ARC
  8
1
 62
7
  6
CONTINUOUS
 10
557.454149
 20
179.530644
 40
0.200000
 50
-90.000000
 51
0.000000
  0
LINE
  8
1
 62
7
  6
CONTINUOUS
 10
557.229616
 20
179.330644
 11
557.454149
 21
179.330644
  0
LINE
  8
1
 62
7
  6
CONTINUOUS
 10
557.029616
 20
180.254953
 11
557.029616
 21
179.530644
  0
ARC
  8
1
 62
7
  6
CONTINUOUS
 10
557.229616
 20
179.530644
 40
0.200000
 50
180.000000
 51
-90.000000
  0
LINE
  8
1
 62
7
  6
CONTINUOUS
 10
558.328496
 20
180.829523
 11
557.654149
 21
180.829523
  0
ARC
  8
1
 62
7
  6
CONTINUOUS
 10
558.328496
 20
180.629523
 40
0.200000
 50
0.000000
 51
90.000000
  0
LINE
  8
1
 62
7
  6
CONTINUOUS
 10
558.528496
 20
180.454953
 11
558.528496
 21
180.629523
  0
LINE
  8
1
 62
7
  6
CONTINUOUS
 10
557.654149
 20
180.254953
 11
558.328496
 21
180.254953
  0
ARC
  8
1
 62
7
  6
CONTINUOUS
 10
558.328496
 20
180.454953
 40
0.200000
 50
-90.000000
 51
0.000000
  0
LINE
  8
1
 62
7
  6
CONTINUOUS
 10
556.230364
 20
180.254953
 11
557.029616
 21
180.254953
  0
ARC
  8
1
 62
7
  6
CONTINUOUS
 10
556.230364
 20
180.454953
 40
0.200000
 50
-180.000000
 51
-90.000000
  0
LINE
  8
1
 62
7
  6
CONTINUOUS
 10
556.030364
 20
180.629523
 11
556.030364
 21
180.454953
  0
LINE
  8
1
 62
7
  6
CONTINUOUS
 10
557.029616
 20
180.829523
 11
556.230364
 21
180.829523
  0
ARC
  8
1
 62
7
  6
CONTINUOUS
 10
556.230364
 20
180.629523
 40
0.200000
 50
90.000000
 51
-180.000000
  0
LINE
  8
1
 62
7
  6
CONTINUOUS
 10
551.784470
 20
252.719646
 11
551.190840
 21
252.719646
  0
LINE
  8
1
 62
7
  6
CONTINUOUS
 10
523.752428
 20
252.719646
 11
524.259404
 21
252.719646
  0
LINE
  8
1
 62
7
  6
CONTINUOUS
 10
490.579187
 20
255.849727
 11
490.579187
 21
254.711516
  0
LINE
  8
1
 62
7
  6
CONTINUOUS
 10
490.579187
 20
254.711516
 11
491.717398
 21
254.711516
  0
LINE
  8
1
 62
7
  6
CONTINUOUS
 10
491.717398
 20
254.711516
 11
491.717398
 21
255.849727
  0
LINE
  8
1
 62
7
  6
CONTINUOUS
 10
491.717398
 20
255.849727
 11
490.579187
 21
255.849727
  0
LINE
  8
1
 62
7
  6
CONTINUOUS
 10
493.119187
 20
255.849727
 11
493.119187
 21
254.711516
  0
LINE
  8
1
 62
7
  6
CONTINUOUS
 10
493.119187
 20
254.711516
 11
494.257398
 21
254.711516
  0
LINE
  8
1
 62
7
  6
CONTINUOUS
 10
494.257398
 20
254.711516
 11
494.257398
 21
255.849727
  0
LINE
  8
1
 62
7
  6
CONTINUOUS
 10
494.257398
 20
255.849727
 11
493.119187
 21
255.849727
  0
LINE
  8
1
 62
7
  6
CONTINUOUS
 10
495.659187
 20
255.849727
 11
495.659187
 21
254.711516
  0
LINE
  8
1
 62
7
  6
CONTINUOUS
 10
495.659187
 20
254.711516
 11
496.797398
 21
254.711516
  0
LINE
  8
1
 62
7
  6
CONTINUOUS
 10
496.797398
 20
254.711516
 11
496.797398
 21
255.849727
  0
LINE
  8
1
 62
7
  6
CONTINUOUS
 10
496.797398
 20
255.849727
 11
495.659187
 21
255.849727
  0
LINE
  8
1
 62
7
  6
CONTINUOUS
 10
498.199187
 20
255.849727
 11
498.199187
 21
254.711516
  0
LINE
  8
1
 62
7
  6
CONTINUOUS
 10
498.199187
 20
254.711516
 11
499.337398
 21
254.711516
  0
LINE
  8
1
 62
7
  6
CONTINUOUS
 10
499.337398
 20
254.711516
 11
499.337398
 21
255.849727
  0
LINE
  8
1
 62
7
  6
CONTINUOUS
 10
499.337398
 20
255.849727
 11
498.199187
 21
255.849727
  0
LINE
  8
1
 62
7
  6
CONTINUOUS
 10
500.739187
 20
255.849727
 11
500.739187
 21
254.711516
  0
LINE
  8
1
 62
7
  6
CONTINUOUS
 10
500.739187
 20
254.711516
 11
501.877398
 21
254.711516
  0
LINE
  8
1
 62
7
  6
CONTINUOUS
 10
501.877398
 20
254.711516
 11
501.877398
 21
255.849727
  0
LINE
  8
1
 62
7
  6
CONTINUOUS
 10
501.877398
 20
255.849727
 11
500.739187
 21
255.849727
  0
LINE
  8
1
 62
7
  6
CONTINUOUS
 10
503.279187
 20
255.849727
 11
503.279187
 21
254.711516
  0
LINE
  8
1
 62
7
  6
CONTINUOUS
 10
503.279187
 20
254.711516
 11
504.417398
 21
254.711516
  0
LINE
  8
1
 62
7
  6
CONTINUOUS
 10
504.417398
 20
254.711516
 11
504.417398
 21
255.849727
  0
LINE
  8
1
 62
7
  6
CONTINUOUS
 10
504.417398
 20
255.849727
 11
503.279187
 21
255.849727
  0
LINE
  8
1
 62
7
  6
CONTINUOUS
 10
505.819187
 20
255.849727
 11
505.819187
 21
254.711516
  0
LINE
  8
1
 62
7
  6
CONTINUOUS
 10
505.819187
 20
254.711516
 11
506.957398
 21
254.711516
  0
LINE
  8
1
 62
7
  6
CONTINUOUS
 10
506.957398
 20
254.711516
 11
506.957398
 21
255.849727
  0
LINE
  8
1
 62
7
  6
CONTINUOUS
 10
506.957398
 20
255.849727
 11
505.819187
 21
255.849727
  0
LINE
  8
1
 62
7
  6
CONTINUOUS
 10
508.359187
 20
255.849727
 11
508.359187
 21
254.711516
  0
LINE
  8
1
 62
7
  6
CONTINUOUS
 10
508.359187
 20
254.711516
 11
509.497398
 21
254.711516
  0
LINE
  8
1
 62
7
  6
CONTINUOUS
 10
509.497398
 20
254.711516
 11
509.497398
 21
255.849727
  0
LINE
  8
1
 62
7
  6
CONTINUOUS
 10
509.497398
 20
255.849727
 11
508.359187
 21
255.849727
  0
LINE
  8
1
 62
7
  6
CONTINUOUS
 10
510.899187
 20
255.849727
 11
510.899187
 21
254.711516
  0
LINE
  8
1
 62
7
  6
CONTINUOUS
 10
510.899187
 20
254.711516
 11
512.037398
 21
254.711516
  0
LINE
  8
1
 62
7
  6
CONTINUOUS
 10
512.037398
 20
254.711516
 11
512.037398
 21
255.849727
  0
LINE
  8
1
 62
7
  6
CONTINUOUS
 10
512.037398
 20
255.849727
 11
510.899187
 21
255.849727
  0
LINE
  8
1
 62
7
  6
CONTINUOUS
 10
513.439187
 20
255.849727
 11
513.439187
 21
254.711516
  0
LINE
  8
1
 62
7
  6
CONTINUOUS
 10
513.439187
 20
254.711516
 11
514.577398
 21
254.711516
  0
LINE
  8
1
 62
7
  6
CONTINUOUS
 10
514.577398
 20
254.711516
 11
514.577398
 21
255.849727
  0
LINE
  8
1
 62
7
  6
CONTINUOUS
 10
514.577398
 20
255.849727
 11
513.439187
 21
255.849727
  0
LINE
  8
1
 62
7
  6
CONTINUOUS
 10
516.784470
 20
253.766260
 11
516.784470
 21
252.719646
  0
LINE
  8
1
 62
7
  6
CONTINUOUS
 10
516.784470
 20
252.719646
 11
516.190840
 21
252.719646
  0
LINE
  8
1
 62
7
  6
CONTINUOUS
 10
516.190840
 20
253.766260
 11
516.784470
 21
253.766260
  0
LINE
  8
1
 62
7
  6
CONTINUOUS
 10
516.190840
 20
253.766260
 11
516.190840
 21
257.651895
  0
LINE
  8
1
 62
7
  6
CONTINUOUS
 10
516.184918
 20
258.000594
 11
516.184918
 21
256.913906
  0
LINE
  8
1
 62
7
  6
CONTINUOUS
 10
516.184918
 20
256.913906
 11
518.208405
 21
256.913906
  0
LINE
  8
1
 62
7
  6
CONTINUOUS
 10
518.208405
 20
256.913906
 11
518.208405
 21
258.000594
  0
LINE
  8
1
 62
7
  6
CONTINUOUS
 10
518.208405
 20
258.000594
 11
516.184918
 21
258.000594
  0
LINE
  8
1
 62
7
  6
CONTINUOUS
 10
487.347229
 20
257.935018
 11
487.347229
 21
256.923274
  0
LINE
  8
1
 62
7
  6
CONTINUOUS
 10
487.347229
 20
256.923274
 11
489.259404
 21
256.923274
  0
LINE
  8
1
 62
7
  6
CONTINUOUS
 10
489.259404
 20
256.923274
 11
489.259404
 21
257.935018
  0
LINE
  8
1
 62
7
  6
CONTINUOUS
 10
489.259404
 20
257.935018
 11
487.347229
 21
257.935018
  0
LINE
  8
1
 62
7
  6
CONTINUOUS
 10
488.752428
 20
253.766260
 11
488.752428
 21
252.719646
  0
LINE
  8
1
 62
7
  6
CONTINUOUS
 10
488.752428
 20
252.719646
 11
489.259404
 21
252.719646
  0
LINE
  8
1
 62
7
  6
CONTINUOUS
 10
489.259404
 20
253.766260
 11
488.752428
 21
253.766260
  0
LINE
  8
1
 62
7
  6
CONTINUOUS
 10
489.259404
 20
252.719646
 11
516.190840
 21
252.719646
  0
LINE
  8
1
 62
7
  6
CONTINUOUS
 10
516.190840
 20
257.651895
 11
489.259404
 21
257.651895
  0
LINE
  8
1
 62
7
  6
CONTINUOUS
 10
489.259404
 20
257.651895
 11
489.259404
 21
253.803732
  0
LINE
  8
1
 62
7
  6
CONTINUOUS
 10
525.579187
 20
255.849727
 11
525.579187
 21
254.711516
  0
LINE
  8
1
 62
7
  6
CONTINUOUS
 10
525.579187
 20
254.711516
 11
526.717398
 21
254.711516
  0
LINE
  8
1
 62
7
  6
CONTINUOUS
 10
526.717398
 20
254.711516
 11
526.717398
 21
255.849727
  0
LINE
  8
1
 62
7
  6
CONTINUOUS
 10
526.717398
 20
255.849727
 11
525.579187
 21
255.849727
  0
LINE
  8
1
 62
7
  6
CONTINUOUS
 10
528.119187
 20
255.849727
 11
528.119187
 21
254.711516
  0
LINE
  8
1
 62
7
  6
CONTINUOUS
 10
528.119187
 20
254.711516
 11
529.257398
 21
254.711516
  0
LINE
  8
1
 62
7
  6
CONTINUOUS
 10
529.257398
 20
254.711516
 11
529.257398
 21
255.849727
  0
LINE
  8
1
 62
7
  6
CONTINUOUS
 10
529.257398
 20
255.849727
 11
528.119187
 21
255.849727
  0
LINE
  8
1
 62
7
  6
CONTINUOUS
 10
530.659187
 20
255.849727
 11
530.659187
 21
254.711516
  0
LINE
  8
1
 62
7
  6
CONTINUOUS
 10
530.659187
 20
254.711516
 11
531.797398
 21
254.711516
  0
LINE
  8
1
 62
7
  6
CONTINUOUS
 10
531.797398
 20
254.711516
 11
531.797398
 21
255.849727
  0
LINE
  8
1
 62
7
  6
CONTINUOUS
 10
531.797398
 20
255.849727
 11
530.659187
 21
255.849727
  0
LINE
  8
1
 62
7
  6
CONTINUOUS
 10
533.199187
 20
255.849727
 11
533.199187
 21
254.711516
  0
LINE
  8
1
 62
7
  6
CONTINUOUS
 10
533.199187
 20
254.711516
 11
534.337398
 21
254.711516
  0
LINE
  8
1
 62
7
  6
CONTINUOUS
 10
534.337398
 20
254.711516
 11
534.337398
 21
255.849727
  0
LINE
  8
1
 62
7
  6
CONTINUOUS
 10
534.337398
 20
255.849727
 11
533.199187
 21
255.849727
  0
LINE
  8
1
 62
7
  6
CONTINUOUS
 10
535.739187
 20
255.849727
 11
535.739187
 21
254.711516
  0
LINE
  8
1
 62
7
  6
CONTINUOUS
 10
535.739187
 20
254.711516
 11
536.877398
 21
254.711516
  0
LINE
  8
1
 62
7
  6
CONTINUOUS
 10
536.877398
 20
254.711516
 11
536.877398
 21
255.849727
  0
LINE
  8
1
 62
7
  6
CONTINUOUS
 10
536.877398
 20
255.849727
 11
535.739187
 21
255.849727
  0
LINE
  8
1
 62
7
  6
CONTINUOUS
 10
538.279187
 20
255.849727
 11
538.279187
 21
254.711516
  0
LINE
  8
1
 62
7
  6
CONTINUOUS
 10
538.279187
 20
254.711516
 11
539.417398
 21
254.711516
  0
LINE
  8
1
 62
7
  6
CONTINUOUS
 10
539.417398
 20
254.711516
 11
539.417398
 21
255.849727
  0
LINE
  8
1
 62
7
  6
CONTINUOUS
 10
539.417398
 20
255.849727
 11
538.279187
 21
255.849727
  0
LINE
  8
1
 62
7
  6
CONTINUOUS
 10
540.819187
 20
255.849727
 11
540.819187
 21
254.711516
  0
LINE
  8
1
 62
7
  6
CONTINUOUS
 10
540.819187
 20
254.711516
 11
541.957398
 21
254.711516
  0
LINE
  8
1
 62
7
  6
CONTINUOUS
 10
541.957398
 20
254.711516
 11
541.957398
 21
255.849727
  0
LINE
  8
1
 62
7
  6
CONTINUOUS
 10
541.957398
 20
255.849727
 11
540.819187
 21
255.849727
  0
LINE
  8
1
 62
7
  6
CONTINUOUS
 10
543.359187
 20
255.849727
 11
543.359187
 21
254.711516
  0
LINE
  8
1
 62
7
  6
CONTINUOUS
 10
543.359187
 20
254.711516
 11
544.497398
 21
254.711516
  0
LINE
  8
1
 62
7
  6
CONTINUOUS
 10
544.497398
 20
254.711516
 11
544.497398
 21
255.849727
  0
LINE
  8
1
 62
7
  6
CONTINUOUS
 10
544.497398
 20
255.849727
 11
543.359187
 21
255.849727
  0
LINE
  8
1
 62
7
  6
CONTINUOUS
 10
545.899187
 20
255.849727
 11
545.899187
 21
254.711516
  0
LINE
  8
1
 62
7
  6
CONTINUOUS
 10
545.899187
 20
254.711516
 11
547.037398
 21
254.711516
  0
LINE
  8
1
 62
7
  6
CONTINUOUS
 10
547.037398
 20
254.711516
 11
547.037398
 21
255.849727
  0
LINE
  8
1
 62
7
  6
CONTINUOUS
 10
547.037398
 20
255.849727
 11
545.899187
 21
255.849727
  0
LINE
  8
1
 62
7
  6
CONTINUOUS
 10
548.439187
 20
255.849727
 11
548.439187
 21
254.711516
  0
LINE
  8
1
 62
7
  6
CONTINUOUS
 10
548.439187
 20
254.711516
 11
549.577398
 21
254.711516
  0
LINE
  8
1
 62
7
  6
CONTINUOUS
 10
549.577398
 20
254.711516
 11
549.577398
 21
255.849727
  0
LINE
  8
1
 62
7
  6
CONTINUOUS
 10
549.577398
 20
255.849727
 11
548.439187
 21
255.849727
  0
LINE
  8
1
 62
7
  6
CONTINUOUS
 10
551.784470
 20
253.766260
 11
551.784470
 21
252.719646
  0
LINE
  8
1
 62
7
  6
CONTINUOUS
 10
551.190840
 20
253.766260
 11
551.784470
 21
253.766260
  0
LINE
  8
1
 62
7
  6
CONTINUOUS
 10
551.190840
 20
253.766260
 11
551.190840
 21
257.651895
  0
LINE
  8
1
 62
7
  6
CONTINUOUS
 10
551.184918
 20
258.000594
 11
551.184918
 21
256.913906
  0
LINE
  8
1
 62
7
  6
CONTINUOUS
 10
551.184918
 20
256.913906
 11
553.208405
 21
256.913906
  0
LINE
  8
1
 62
7
  6
CONTINUOUS
 10
553.208405
 20
256.913906
 11
553.208405
 21
258.000594
  0
LINE
  8
1
 62
7
  6
CONTINUOUS
 10
553.208405
 20
258.000594
 11
551.184918
 21
258.000594
  0
LINE
  8
1
 62
7
  6
CONTINUOUS
 10
522.347229
 20
257.935018
 11
522.347229
 21
256.923274
  0
LINE
  8
1
 62
7
  6
CONTINUOUS
 10
522.347229
 20
256.923274
 11
524.259404
 21
256.923274
  0
LINE
  8
1
 62
7
  6
CONTINUOUS
 10
524.259404
 20
256.923274
 11
524.259404
 21
257.935018
  0
LINE
  8
1
 62
7
  6
CONTINUOUS
 10
524.259404
 20
257.935018
 11
522.347229
 21
257.935018
  0
LINE
  8
1
 62
7
  6
CONTINUOUS
 10
523.752428
 20
253.766260
 11
523.752428
 21
252.719646
  0
LINE
  8
1
 62
7
  6
CONTINUOUS
 10
524.259404
 20
253.766260
 11
523.752428
 21
253.766260
  0
LINE
  8
1
 62
7
  6
CONTINUOUS
 10
524.259404
 20
252.719646
 11
551.190840
 21
252.719646
  0
LINE
  8
1
 62
7
  6
CONTINUOUS
 10
551.190840
 20
257.651895
 11
524.259404
 21
257.651895
  0
LINE
  8
1
 62
7
  6
CONTINUOUS
 10
524.259404
 20
257.651895
 11
524.259404
 21
253.803732
  0
LINE
  8
1
 62
7
  6
CONTINUOUS
 10
551.784470
 20
177.850631
 11
551.190840
 21
177.850631
  0
LINE
  8
1
 62
7
  6
CONTINUOUS
 10
523.752428
 20
177.850631
 11
524.259404
 21
177.850631
  0
LINE
  8
1
 62
7
  6
CONTINUOUS
 10
490.579187
 20
180.980712
 11
490.579187
 21
179.842501
  0
LINE
  8
1
 62
7
  6
CONTINUOUS
 10
490.579187
 20
179.842501
 11
491.717398
 21
179.842501
  0
LINE
  8
1
 62
7
  6
CONTINUOUS
 10
491.717398
 20
179.842501
 11
491.717398
 21
180.980712
  0
LINE
  8
1
 62
7
  6
CONTINUOUS
 10
491.717398
 20
180.980712
 11
490.579187
 21
180.980712
  0
LINE
  8
1
 62
7
  6
CONTINUOUS
 10
493.119187
 20
180.980712
 11
493.119187
 21
179.842501
  0
LINE
  8
1
 62
7
  6
CONTINUOUS
 10
493.119187
 20
179.842501
 11
494.257398
 21
179.842501
  0
LINE
  8
1
 62
7
  6
CONTINUOUS
 10
494.257398
 20
179.842501
 11
494.257398
 21
180.980712
  0
LINE
  8
1
 62
7
  6
CONTINUOUS
 10
494.257398
 20
180.980712
 11
493.119187
 21
180.980712
  0
LINE
  8
1
 62
7
  6
CONTINUOUS
 10
495.659187
 20
180.980712
 11
495.659187
 21
179.842501
  0
LINE
  8
1
 62
7
  6
CONTINUOUS
 10
495.659187
 20
179.842501
 11
496.797398
 21
179.842501
  0
LINE
  8
1
 62
7
  6
CONTINUOUS
 10
496.797398
 20
179.842501
 11
496.797398
 21
180.980712
  0
LINE
  8
1
 62
7
  6
CONTINUOUS
 10
496.797398
 20
180.980712
 11
495.659187
 21
180.980712
  0
LINE
  8
1
 62
7
  6
CONTINUOUS
 10
498.199187
 20
180.980712
 11
498.199187
 21
179.842501
  0
LINE
  8
1
 62
7
  6
CONTINUOUS
 10
498.199187
 20
179.842501
 11
499.337398
 21
179.842501
  0
LINE
  8
1
 62
7
  6
CONTINUOUS
 10
499.337398
 20
179.842501
 11
499.337398
 21
180.980712
  0
LINE
  8
1
 62
7
  6
CONTINUOUS
 10
499.337398
 20
180.980712
 11
498.199187
 21
180.980712
  0
LINE
  8
1
 62
7
  6
CONTINUOUS
 10
500.739187
 20
180.980712
 11
500.739187
 21
179.842501
  0
LINE
  8
1
 62
7
  6
CONTINUOUS
 10
500.739187
 20
179.842501
 11
501.877398
 21
179.842501
  0
LINE
  8
1
 62
7
  6
CONTINUOUS
 10
501.877398
 20
179.842501
 11
501.877398
 21
180.980712
  0
LINE
  8
1
 62
7
  6
CONTINUOUS
 10
501.877398
 20
180.980712
 11
500.739187
 21
180.980712
  0
LINE
  8
1
 62
7
  6
CONTINUOUS
 10
503.279187
 20
180.980712
 11
503.279187
 21
179.842501
  0
LINE
  8
1
 62
7
  6
CONTINUOUS
 10
503.279187
 20
179.842501
 11
504.417398
 21
179.842501
  0
LINE
  8
1
 62
7
  6
CONTINUOUS
 10
504.417398
 20
179.842501
 11
504.417398
 21
180.980712
  0
LINE
  8
1
 62
7
  6
CONTINUOUS
 10
504.417398
 20
180.980712
 11
503.279187
 21
180.980712
  0
LINE
  8
1
 62
7
  6
CONTINUOUS
 10
505.819187
 20
180.980712
 11
505.819187
 21
179.842501
  0
LINE
  8
1
 62
7
  6
CONTINUOUS
 10
505.819187
 20
179.842501
 11
506.957398
 21
179.842501
  0
LINE
  8
1
 62
7
  6
CONTINUOUS
 10
506.957398
 20
179.842501
 11
506.957398
 21
180.980712
  0
LINE
  8
1
 62
7
  6
CONTINUOUS
 10
506.957398
 20
180.980712
 11
505.819187
 21
180.980712
  0
LINE
  8
1
 62
7
  6
CONTINUOUS
 10
508.359187
 20
180.980712
 11
508.359187
 21
179.842501
  0
LINE
  8
1
 62
7
  6
CONTINUOUS
 10
508.359187
 20
179.842501
 11
509.497398
 21
179.842501
  0
LINE
  8
1
 62
7
  6
CONTINUOUS
 10
509.497398
 20
179.842501
 11
509.497398
 21
180.980712
  0
LINE
  8
1
 62
7
  6
CONTINUOUS
 10
509.497398
 20
180.980712
 11
508.359187
 21
180.980712
  0
LINE
  8
1
 62
7
  6
CONTINUOUS
 10
510.899187
 20
180.980712
 11
510.899187
 21
179.842501
  0
LINE
  8
1
 62
7
  6
CONTINUOUS
 10
510.899187
 20
179.842501
 11
512.037398
 21
179.842501
  0
LINE
  8
1
 62
7
  6
CONTINUOUS
 10
512.037398
 20
179.842501
 11
512.037398
 21
180.980712
  0
LINE
  8
1
 62
7
  6
CONTINUOUS
 10
512.037398
 20
180.980712
 11
510.899187
 21
180.980712
  0
LINE
  8
1
 62
7
  6
CONTINUOUS
 10
513.439187
 20
180.980712
 11
513.439187
 21
179.842501
  0
LINE
  8
1
 62
7
  6
CONTINUOUS
 10
513.439187
 20
179.842501
 11
514.577398
 21
179.842501
  0
LINE
  8
1
 62
7
  6
CONTINUOUS
 10
514.577398
 20
179.842501
 11
514.577398
 21
180.980712
  0
LINE
  8
1
 62
7
  6
CONTINUOUS
 10
514.577398
 20
180.980712
 11
513.439187
 21
180.980712
  0
LINE
  8
1
 62
7
  6
CONTINUOUS
 10
516.784470
 20
178.897245
 11
516.784470
 21
177.850631
  0
LINE
  8
1
 62
7
  6
CONTINUOUS
 10
516.784470
 20
177.850631
 11
516.190840
 21
177.850631
  0
LINE
  8
1
 62
7
  6
CONTINUOUS
 10
516.190840
 20
178.897245
 11
516.784470
 21
178.897245
  0
LINE
  8
1
 62
7
  6
CONTINUOUS
 10
516.190840
 20
178.897245
 11
516.190840
 21
182.782880
  0
LINE
  8
1
 62
7
  6
CONTINUOUS
 10
516.184918
 20
183.131579
 11
516.184918
 21
182.044891
  0
LINE
  8
1
 62
7
  6
CONTINUOUS
 10
516.184918
 20
182.044891
 11
518.208405
 21
182.044891
  0
LINE
  8
1
 62
7
  6
CONTINUOUS
 10
518.208405
 20
182.044891
 11
518.208405
 21
183.131579
  0
LINE
  8
1
 62
7
  6
CONTINUOUS
 10
518.208405
 20
183.131579
 11
516.184918
 21
183.131579
  0
LINE
  8
1
 62
7
  6
CONTINUOUS
 10
487.347229
 20
183.066003
 11
487.347229
 21
182.054259
  0
LINE
  8
1
 62
7
  6
CONTINUOUS
 10
487.347229
 20
182.054259
 11
489.259404
 21
182.054259
  0
LINE
  8
1
 62
7
  6
CONTINUOUS
 10
489.259404
 20
182.054259
 11
489.259404
 21
183.066003
  0
LINE
  8
1
 62
7
  6
CONTINUOUS
 10
489.259404
 20
183.066003
 11
487.347229
 21
183.066003
  0
LINE
  8
1
 62
7
  6
CONTINUOUS
 10
488.752428
 20
178.897245
 11
488.752428
 21
177.850631
  0
LINE
  8
1
 62
7
  6
CONTINUOUS
 10
488.752428
 20
177.850631
 11
489.259404
 21
177.850631
  0
LINE
  8
1
 62
7
  6
CONTINUOUS
 10
489.259404
 20
178.897245
 11
488.752428
 21
178.897245
  0
LINE
  8
1
 62
7
  6
CONTINUOUS
 10
489.259404
 20
177.850631
 11
516.190840
 21
177.850631
  0
LINE
  8
1
 62
7
  6
CONTINUOUS
 10
516.190840
 20
182.782880
 11
489.259404
 21
182.782880
  0
LINE
  8
1
 62
7
  6
CONTINUOUS
 10
489.259404
 20
182.782880
 11
489.259404
 21
178.934717
  0
LINE
  8
1
 62
7
  6
CONTINUOUS
 10
525.579187
 20
180.980712
 11
525.579187
 21
179.842501
  0
LINE
  8
1
 62
7
  6
CONTINUOUS
 10
525.579187
 20
179.842501
 11
526.717398
 21
179.842501
  0
LINE
  8
1
 62
7
  6
CONTINUOUS
 10
526.717398
 20
179.842501
 11
526.717398
 21
180.980712
  0
LINE
  8
1
 62
7
  6
CONTINUOUS
 10
526.717398
 20
180.980712
 11
525.579187
 21
180.980712
  0
LINE
  8
1
 62
7
  6
CONTINUOUS
 10
528.119187
 20
180.980712
 11
528.119187
 21
179.842501
  0
LINE
  8
1
 62
7
  6
CONTINUOUS
 10
528.119187
 20
179.842501
 11
529.257398
 21
179.842501
  0
LINE
  8
1
 62
7
  6
CONTINUOUS
 10
529.257398
 20
179.842501
 11
529.257398
 21
180.980712
  0
LINE
  8
1
 62
7
  6
CONTINUOUS
 10
529.257398
 20
180.980712
 11
528.119187
 21
180.980712
  0
LINE
  8
1
 62
7
  6
CONTINUOUS
 10
530.659187
 20
180.980712
 11
530.659187
 21
179.842501
  0
LINE
  8
1
 62
7
  6
CONTINUOUS
 10
530.659187
 20
179.842501
 11
531.797398
 21
179.842501
  0
LINE
  8
1
 62
7
  6
CONTINUOUS
 10
531.797398
 20
179.842501
 11
531.797398
 21
180.980712
  0
LINE
  8
1
 62
7
  6
CONTINUOUS
 10
531.797398
 20
180.980712
 11
530.659187
 21
180.980712
  0
LINE
  8
1
 62
7
  6
CONTINUOUS
 10
533.199187
 20
180.980712
 11
533.199187
 21
179.842501
  0
LINE
  8
1
 62
7
  6
CONTINUOUS
 10
533.199187
 20
179.842501
 11
534.337398
 21
179.842501
  0
LINE
  8
1
 62
7
  6
CONTINUOUS
 10
534.337398
 20
179.842501
 11
534.337398
 21
180.980712
  0
LINE
  8
1
 62
7
  6
CONTINUOUS
 10
534.337398
 20
180.980712
 11
533.199187
 21
180.980712
  0
LINE
  8
1
 62
7
  6
CONTINUOUS
 10
535.739187
 20
180.980712
 11
535.739187
 21
179.842501
  0
LINE
  8
1
 62
7
  6
CONTINUOUS
 10
535.739187
 20
179.842501
 11
536.877398
 21
179.842501
  0
LINE
  8
1
 62
7
  6
CONTINUOUS
 10
536.877398
 20
179.842501
 11
536.877398
 21
180.980712
  0
LINE
  8
1
 62
7
  6
CONTINUOUS
 10
536.877398
 20
180.980712
 11
535.739187
 21
180.980712
  0
LINE
  8
1
 62
7
  6
CONTINUOUS
 10
538.279187
 20
180.980712
 11
538.279187
 21
179.842501
  0
LINE
  8
1
 62
7
  6
CONTINUOUS
 10
538.279187
 20
179.842501
 11
539.417398
 21
179.842501
  0
LINE
  8
1
 62
7
  6
CONTINUOUS
 10
539.417398
 20
179.842501
 11
539.417398
 21
180.980712
  0
LINE
  8
1
 62
7
  6
CONTINUOUS
 10
539.417398
 20
180.980712
 11
538.279187
 21
180.980712
  0
LINE
  8
1
 62
7
  6
CONTINUOUS
 10
540.819187
 20
180.980712
 11
540.819187
 21
179.842501
  0
LINE
  8
1
 62
7
  6
CONTINUOUS
 10
540.819187
 20
179.842501
 11
541.957398
 21
179.842501
  0
LINE
  8
1
 62
7
  6
CONTINUOUS
 10
541.957398
 20
179.842501
 11
541.957398
 21
180.980712
  0
LINE
  8
1
 62
7
  6
CONTINUOUS
 10
541.957398
 20
180.980712
 11
540.819187
 21
180.980712
  0
LINE
  8
1
 62
7
  6
CONTINUOUS
 10
543.359187
 20
180.980712
 11
543.359187
 21
179.842501
  0
LINE
  8
1
 62
7
  6
CONTINUOUS
 10
543.359187
 20
179.842501
 11
544.497398
 21
179.842501
  0
LINE
  8
1
 62
7
  6
CONTINUOUS
 10
544.497398
 20
179.842501
 11
544.497398
 21
180.980712
  0
LINE
  8
1
 62
7
  6
CONTINUOUS
 10
544.497398
 20
180.980712
 11
543.359187
 21
180.980712
  0
LINE
  8
1
 62
7
  6
CONTINUOUS
 10
545.899187
 20
180.980712
 11
545.899187
 21
179.842501
  0
LINE
  8
1
 62
7
  6
CONTINUOUS
 10
545.899187
 20
179.842501
 11
547.037398
 21
179.842501
  0
LINE
  8
1
 62
7
  6
CONTINUOUS
 10
547.037398
 20
179.842501
 11
547.037398
 21
180.980712
  0
LINE
  8
1
 62
7
  6
CONTINUOUS
 10
547.037398
 20
180.980712
 11
545.899187
 21
180.980712
  0
LINE
  8
1
 62
7
  6
CONTINUOUS
 10
548.439187
 20
180.980712
 11
548.439187
 21
179.842501
  0
LINE
  8
1
 62
7
  6
CONTINUOUS
 10
548.439187
 20
179.842501
 11
549.577398
 21
179.842501
  0
LINE
  8
1
 62
7
  6
CONTINUOUS
 10
549.577398
 20
179.842501
 11
549.577398
 21
180.980712
  0
LINE
  8
1
 62
7
  6
CONTINUOUS
 10
549.577398
 20
180.980712
 11
548.439187
 21
180.980712
  0
LINE
  8
1
 62
7
  6
CONTINUOUS
 10
551.784470
 20
178.897245
 11
551.784470
 21
177.850631
  0
LINE
  8
1
 62
7
  6
CONTINUOUS
 10
551.190840
 20
178.897245
 11
551.784470
 21
178.897245
  0
LINE
  8
1
 62
7
  6
CONTINUOUS
 10
551.190840
 20
178.897245
 11
551.190840
 21
182.782880
  0
LINE
  8
1
 62
7
  6
CONTINUOUS
 10
551.184918
 20
183.131579
 11
551.184918
 21
182.044891
  0
LINE
  8
1
 62
7
  6
CONTINUOUS
 10
551.184918
 20
182.044891
 11
553.208405
 21
182.044891
  0
LINE
  8
1
 62
7
  6
CONTINUOUS
 10
553.208405
 20
182.044891
 11
553.208405
 21
183.131579
  0
LINE
  8
1
 62
7
  6
CONTINUOUS
 10
553.208405
 20
183.131579
 11
551.184918
 21
183.131579
  0
LINE
  8
1
 62
7
  6
CONTINUOUS
 10
522.347229
 20
183.066003
 11
522.347229
 21
182.054259
  0
LINE
  8
1
 62
7
  6
CONTINUOUS
 10
522.347229
 20
182.054259
 11
524.259404
 21
182.054259
  0
LINE
  8
1
 62
7
  6
CONTINUOUS
 10
524.259404
 20
182.054259
 11
524.259404
 21
183.066003
  0
LINE
  8
1
 62
7
  6
CONTINUOUS
 10
524.259404
 20
183.066003
 11
522.347229
 21
183.066003
  0
LINE
  8
1
 62
7
  6
CONTINUOUS
 10
523.752428
 20
178.897245
 11
523.752428
 21
177.850631
  0
LINE
  8
1
 62
7
  6
CONTINUOUS
 10
524.259404
 20
178.897245
 11
523.752428
 21
178.897245
  0
LINE
  8
1
 62
7
  6
CONTINUOUS
 10
524.259404
 20
177.850631
 11
551.190840
 21
177.850631
  0
LINE
  8
1
 62
7
  6
CONTINUOUS
 10
551.190840
 20
182.782880
 11
524.259404
 21
182.782880
  0
LINE
  8
1
 62
7
  6
CONTINUOUS
 10
524.259404
 20
182.782880
 11
524.259404
 21
178.934717
  0
TEXT
  8
1
 62
7
  6
CONTINUOUS
 10
514.344274
 20
183.669067
 40
2.000000
 41
0.500000
  1
1
  7
KANJI
 50
0.000000
 51
0.000000
  0
TEXT
  8
1
 62
7
  6
CONTINUOUS
 10
489.537165
 20
183.678728
 40
2.000000
 41
0.500000
  1
1
  7
KANJI
 50
0.000000
 51
0.000000
  0
TEXT
  8
1
 62
7
  6
CONTINUOUS
 10
489.537165
 20
183.805196
 40
2.000000
 41
0.500000
  1
10
  7
KANJI
 50
0.000000
 51
0.000000
  0
TEXT
  8
1
 62
7
  6
CONTINUOUS
 10
549.344274
 20
183.669067
 40
2.000000
 41
0.500000
  1
1
  7
KANJI
 50
0.000000
 51
0.000000
  0
TEXT
  8
1
 62
7
  6
CONTINUOUS
 10
524.537165
 20
183.678728
 40
2.000000
 41
0.500000
  1
1
  7
KANJI
 50
0.000000
 51
0.000000
  0
TEXT
  8
1
 62
7
  6
CONTINUOUS
 10
524.537165
 20
183.805196
 40
2.000000
 41
0.500000
  1
10
  7
KANJI
 50
0.000000
 51
0.000000
  0
TEXT
  8
1
 62
7
  6
CONTINUOUS
 10
514.217807
 20
249.811795
 40
2.000000
 41
0.500000
  1
1
  7
KANJI
 50
0.000000
 51
0.000000
  0
TEXT
  8
1
 62
7
  6
CONTINUOUS
 10
489.410697
 20
249.821456
 40
2.000000
 41
0.500000
  1
1
  7
KANJI
 50
0.000000
 51
0.000000
  0
TEXT
  8
1
 62
7
  6
CONTINUOUS
 10
489.410697
 20
249.947924
 40
2.000000
 41
0.500000
  1
10
  7
KANJI
 50
0.000000
 51
0.000000
  0
TEXT
  8
1
 62
7
  6
CONTINUOUS
 10
549.217807
 20
249.811795
 40
2.000000
 41
0.500000
  1
1
  7
KANJI
 50
0.000000
 51
0.000000
  0
TEXT
  8
1
 62
7
  6
CONTINUOUS
 10
524.410697
 20
249.821456
 40
2.000000
 41
0.500000
  1
1
  7
KANJI
 50
0.000000
 51
0.000000
  0
TEXT
  8
1
 62
7
  6
CONTINUOUS
 10
524.410697
 20
249.947924
 40
2.000000
 41
0.500000
  1
10
  7
KANJI
 50
0.000000
 51
0.000000
  0
TEXT
  8
1
 62
7
  6
CONTINUOUS
 10
534.095002
 20
247.233514
 40
3.000000
 41
0.500000
  1
J1-1
  7
KANJI
 50
0.000000
 51
0.000000
  0
TEXT
  8
1
 62
7
  6
CONTINUOUS
 10
498.241343
 20
247.802620
 40
3.000000
 41
0.500000
  1
J1-2
  7
KANJI
 50
0.000000
 51
0.000000
  0
TEXT
  8
1
 62
7
  6
CONTINUOUS
 10
499.664107
 20
184.347335
 40
3.000000
 41
0.500000
  1
J2-2
  7
KANJI
 50
0.000000
 51
0.000000
  0
TEXT
  8
1
 62
7
  6
CONTINUOUS
 10
534.948660
 20
184.347335
 40
3.000000
 41
0.500000
  1
J2-1
  7
KANJI
 50
0.000000
 51
0.000000
  0
CIRCLE
  8
1
 62
7
  6
CONTINUOUS
 10
520.201441
 20
216.675765
 40
2.000000
  0
LINE
  8
1
 62
7
  6
CONTINUOUS
 10
519.909472
 20
217.642081
 11
519.909472
 21
216.967734
  0
ARC
  8
1
 62
7
  6
CONTINUOUS
 10
520.109472
 20
217.642081
 40
0.200000
 50
90.000000
 51
180.000000
  0
LINE
  8
1
 62
7
  6
CONTINUOUS
 10
520.334005
 20
217.842081
 11
520.109472
 21
217.842081
  0
LINE
  8
1
 62
7
  6
CONTINUOUS
 10
520.534005
 20
216.967734
 11
520.534005
 21
217.642081
  0
ARC
  8
1
 62
7
  6
CONTINUOUS
 10
520.334005
 20
217.642081
 40
0.200000
 50
0.000000
 51
90.000000
  0
LINE
  8
1
 62
7
  6
CONTINUOUS
 10
520.534005
 20
215.668855
 11
520.534005
 21
216.393164
  0
ARC
  8
1
 62
7
  6
CONTINUOUS
 10
520.334005
 20
215.668855
 40
0.200000
 50
-90.000000
 51
0.000000
  0
LINE
  8
1
 62
7
  6
CONTINUOUS
 10
520.109472
 20
215.468855
 11
520.334005
 21
215.468855
  0
LINE
  8
1
 62
7
  6
CONTINUOUS
 10
519.909472
 20
216.393164
 11
519.909472
 21
215.668855
  0
ARC
  8
1
 62
7
  6
CONTINUOUS
 10
520.109472
 20
215.668855
 40
0.200000
 50
180.000000
 51
-90.000000
  0
LINE
  8
1
 62
7
  6
CONTINUOUS
 10
521.208351
 20
216.967734
 11
520.534005
 21
216.967734
  0
ARC
  8
1
 62
7
  6
CONTINUOUS
 10
521.208351
 20
216.767734
 40
0.200000
 50
0.000000
 51
90.000000
  0
LINE
  8
1
 62
7
  6
CONTINUOUS
 10
521.408351
 20
216.593164
 11
521.408351
 21
216.767734
  0
LINE
  8
1
 62
7
  6
CONTINUOUS
 10
520.534005
 20
216.393164
 11
521.208351
 21
216.393164
  0
ARC
  8
1
 62
7
  6
CONTINUOUS
 10
521.208351
 20
216.593164
 40
0.200000
 50
-90.000000
 51
0.000000
  0
LINE
  8
1
 62
7
  6
CONTINUOUS
 10
519.110219
 20
216.393164
 11
519.909472
 21
216.393164
  0
ARC
  8
1
 62
7
  6
CONTINUOUS
 10
519.110219
 20
216.593164
 40
0.200000
 50
180.000000
 51
-90.000000
  0
LINE
  8
1
 62
7
  6
CONTINUOUS
 10
518.910219
 20
216.767734
 11
518.910219
 21
216.593164
  0
LINE
  8
1
 62
7
  6
CONTINUOUS
 10
519.909472
 20
216.967734
 11
519.110219
 21
216.967734
  0
ARC
  8
1
 62
7
  6
CONTINUOUS
 10
519.110219
 20
216.767734
 40
0.200000
 50
90.000000
 51
180.000000
  0
TEXT
  8
1
 62
7
  6
CONTINUOUS
 10
514.645244
 20
167.497500
 40
4.000000
 41
1.000000
  1
裏面図
  7
KANJI
 50
0.000000
 51
0.000000
  0
LINE
  8
1
 62
7
  6
CONTINUOUS
 10
422.757738
 20
146.875096
 11
422.757738
 21
145.863353
  0
LINE
  8
1
 62
7
  6
CONTINUOUS
 10
422.757738
 20
145.863353
 11
424.669913
 21
145.863353
  0
LINE
  8
1
 62
7
  6
CONTINUOUS
 10
424.669913
 20
145.863353
 11
424.669913
 21
146.875096
  0
LINE
  8
1
 62
7
  6
CONTINUOUS
 10
424.669913
 20
146.875096
 11
422.757738
 21
146.875096
  0
TEXT
  8
1
 62
7
  6
CONTINUOUS
 10
424.947674
 20
147.867225
 40
2.000000
 41
0.500000
  1
15
  7
KANJI
 50
0.000000
 51
0.000000
  0
TEXT
  8
1
 62
7
  6
CONTINUOUS
 10
424.947674
 20
147.740757
 40
2.000000
 41
0.500000
  1
1
  7
KANJI
 50
0.000000
 51
0.000000
  0
TEXT
  8
1
 62
7
  6
CONTINUOUS
 10
462.454783
 20
147.731097
 40
2.000000
 41
0.500000
  1
1
  7
KANJI
 50
0.000000
 51
0.000000
  0
LINE
  8
1
 62
7
  6
CONTINUOUS
 10
424.162937
 20
142.706338
 11
424.162937
 21
141.659724
  0
LINE
  8
1
 62
7
  6
CONTINUOUS
 10
424.162937
 20
141.659724
 11
424.669913
 21
141.659724
  0
LINE
  8
1
 62
7
  6
CONTINUOUS
 10
424.669913
 20
142.706338
 11
424.162937
 21
142.706338
  0
LINE
  8
1
 62
7
  6
CONTINUOUS
 10
425.989696
 20
144.789806
 11
425.989696
 21
143.651594
  0
LINE
  8
1
 62
7
  6
CONTINUOUS
 10
425.989696
 20
143.651594
 11
427.127907
 21
143.651594
  0
LINE
  8
1
 62
7
  6
CONTINUOUS
 10
427.127907
 20
143.651594
 11
427.127907
 21
144.789806
  0
LINE
  8
1
 62
7
  6
CONTINUOUS
 10
427.127907
 20
144.789806
 11
425.989696
 21
144.789806
  0
LINE
  8
1
 62
7
  6
CONTINUOUS
 10
428.529696
 20
144.789806
 11
428.529696
 21
143.651594
  0
LINE
  8
1
 62
7
  6
CONTINUOUS
 10
428.529696
 20
143.651594
 11
429.667907
 21
143.651594
  0
LINE
  8
1
 62
7
  6
CONTINUOUS
 10
429.667907
 20
143.651594
 11
429.667907
 21
144.789806
  0
LINE
  8
1
 62
7
  6
CONTINUOUS
 10
429.667907
 20
144.789806
 11
428.529696
 21
144.789806
  0
LINE
  8
1
 62
7
  6
CONTINUOUS
 10
431.069696
 20
144.789806
 11
431.069696
 21
143.651594
  0
LINE
  8
1
 62
7
  6
CONTINUOUS
 10
431.069696
 20
143.651594
 11
432.207907
 21
143.651594
  0
LINE
  8
1
 62
7
  6
CONTINUOUS
 10
432.207907
 20
143.651594
 11
432.207907
 21
144.789806
  0
LINE
  8
1
 62
7
  6
CONTINUOUS
 10
432.207907
 20
144.789806
 11
431.069696
 21
144.789806
  0
LINE
  8
1
 62
7
  6
CONTINUOUS
 10
433.609696
 20
144.789806
 11
433.609696
 21
143.651594
  0
LINE
  8
1
 62
7
  6
CONTINUOUS
 10
433.609696
 20
143.651594
 11
434.747907
 21
143.651594
  0
LINE
  8
1
 62
7
  6
CONTINUOUS
 10
434.747907
 20
143.651594
 11
434.747907
 21
144.789806
  0
LINE
  8
1
 62
7
  6
CONTINUOUS
 10
434.747907
 20
144.789806
 11
433.609696
 21
144.789806
  0
LINE
  8
1
 62
7
  6
CONTINUOUS
 10
436.149696
 20
144.789806
 11
436.149696
 21
143.651594
  0
LINE
  8
1
 62
7
  6
CONTINUOUS
 10
436.149696
 20
143.651594
 11
437.287907
 21
143.651594
  0
LINE
  8
1
 62
7
  6
CONTINUOUS
 10
437.287907
 20
143.651594
 11
437.287907
 21
144.789806
  0
LINE
  8
1
 62
7
  6
CONTINUOUS
 10
437.287907
 20
144.789806
 11
436.149696
 21
144.789806
  0
LINE
  8
1
 62
7
  6
CONTINUOUS
 10
438.689696
 20
144.789806
 11
438.689696
 21
143.651594
  0
LINE
  8
1
 62
7
  6
CONTINUOUS
 10
438.689696
 20
143.651594
 11
439.827907
 21
143.651594
  0
LINE
  8
1
 62
7
  6
CONTINUOUS
 10
439.827907
 20
143.651594
 11
439.827907
 21
144.789806
  0
LINE
  8
1
 62
7
  6
CONTINUOUS
 10
439.827907
 20
144.789806
 11
438.689696
 21
144.789806
  0
LINE
  8
1
 62
7
  6
CONTINUOUS
 10
441.229696
 20
144.789806
 11
441.229696
 21
143.651594
  0
LINE
  8
1
 62
7
  6
CONTINUOUS
 10
441.229696
 20
143.651594
 11
442.367907
 21
143.651594
  0
LINE
  8
1
 62
7
  6
CONTINUOUS
 10
442.367907
 20
143.651594
 11
442.367907
 21
144.789806
  0
LINE
  8
1
 62
7
  6
CONTINUOUS
 10
442.367907
 20
144.789806
 11
441.229696
 21
144.789806
  0
LINE
  8
1
 62
7
  6
CONTINUOUS
 10
443.769696
 20
144.789806
 11
443.769696
 21
143.651594
  0
LINE
  8
1
 62
7
  6
CONTINUOUS
 10
443.769696
 20
143.651594
 11
444.907907
 21
143.651594
  0
LINE
  8
1
 62
7
  6
CONTINUOUS
 10
444.907907
 20
143.651594
 11
444.907907
 21
144.789806
  0
LINE
  8
1
 62
7
  6
CONTINUOUS
 10
444.907907
 20
144.789806
 11
443.769696
 21
144.789806
  0
LINE
  8
1
 62
7
  6
CONTINUOUS
 10
446.309696
 20
144.789806
 11
446.309696
 21
143.651594
  0
LINE
  8
1
 62
7
  6
CONTINUOUS
 10
446.309696
 20
143.651594
 11
447.447907
 21
143.651594
  0
LINE
  8
1
 62
7
  6
CONTINUOUS
 10
447.447907
 20
143.651594
 11
447.447907
 21
144.789806
  0
LINE
  8
1
 62
7
  6
CONTINUOUS
 10
447.447907
 20
144.789806
 11
446.309696
 21
144.789806
  0
LINE
  8
1
 62
7
  6
CONTINUOUS
 10
448.849696
 20
144.789806
 11
448.849696
 21
143.651594
  0
LINE
  8
1
 62
7
  6
CONTINUOUS
 10
448.849696
 20
143.651594
 11
449.987907
 21
143.651594
  0
LINE
  8
1
 62
7
  6
CONTINUOUS
 10
449.987907
 20
143.651594
 11
449.987907
 21
144.789806
  0
LINE
  8
1
 62
7
  6
CONTINUOUS
 10
449.987907
 20
144.789806
 11
448.849696
 21
144.789806
  0
LINE
  8
1
 62
7
  6
CONTINUOUS
 10
451.389696
 20
144.789806
 11
451.389696
 21
143.651594
  0
LINE
  8
1
 62
7
  6
CONTINUOUS
 10
451.389696
 20
143.651594
 11
452.527907
 21
143.651594
  0
LINE
  8
1
 62
7
  6
CONTINUOUS
 10
452.527907
 20
143.651594
 11
452.527907
 21
144.789806
  0
LINE
  8
1
 62
7
  6
CONTINUOUS
 10
452.527907
 20
144.789806
 11
451.389696
 21
144.789806
  0
LINE
  8
1
 62
7
  6
CONTINUOUS
 10
453.929696
 20
144.789806
 11
453.929696
 21
143.651594
  0
LINE
  8
1
 62
7
  6
CONTINUOUS
 10
453.929696
 20
143.651594
 11
455.067907
 21
143.651594
  0
LINE
  8
1
 62
7
  6
CONTINUOUS
 10
455.067907
 20
143.651594
 11
455.067907
 21
144.789806
  0
LINE
  8
1
 62
7
  6
CONTINUOUS
 10
455.067907
 20
144.789806
 11
453.929696
 21
144.789806
  0
LINE
  8
1
 62
7
  6
CONTINUOUS
 10
456.469696
 20
144.789806
 11
456.469696
 21
143.651594
  0
LINE
  8
1
 62
7
  6
CONTINUOUS
 10
456.469696
 20
143.651594
 11
457.607907
 21
143.651594
  0
LINE
  8
1
 62
7
  6
CONTINUOUS
 10
457.607907
 20
143.651594
 11
457.607907
 21
144.789806
  0
LINE
  8
1
 62
7
  6
CONTINUOUS
 10
457.607907
 20
144.789806
 11
456.469696
 21
144.789806
  0
LINE
  8
1
 62
7
  6
CONTINUOUS
 10
459.009696
 20
144.789806
 11
459.009696
 21
143.651594
  0
LINE
  8
1
 62
7
  6
CONTINUOUS
 10
459.009696
 20
143.651594
 11
460.147907
 21
143.651594
  0
LINE
  8
1
 62
7
  6
CONTINUOUS
 10
460.147907
 20
143.651594
 11
460.147907
 21
144.789806
  0
LINE
  8
1
 62
7
  6
CONTINUOUS
 10
460.147907
 20
144.789806
 11
459.009696
 21
144.789806
  0
LINE
  8
1
 62
7
  6
CONTINUOUS
 10
461.549696
 20
144.789806
 11
461.549696
 21
143.651594
  0
LINE
  8
1
 62
7
  6
CONTINUOUS
 10
461.549696
 20
143.651594
 11
462.687907
 21
143.651594
  0
LINE
  8
1
 62
7
  6
CONTINUOUS
 10
462.687907
 20
143.651594
 11
462.687907
 21
144.789806
  0
LINE
  8
1
 62
7
  6
CONTINUOUS
 10
462.687907
 20
144.789806
 11
461.549696
 21
144.789806
  0
LINE
  8
1
 62
7
  6
CONTINUOUS
 10
464.894979
 20
142.706338
 11
464.894979
 21
141.659724
  0
LINE
  8
1
 62
7
  6
CONTINUOUS
 10
464.894979
 20
141.659724
 11
464.301349
 21
141.659724
  0
LINE
  8
1
 62
7
  6
CONTINUOUS
 10
464.301349
 20
142.706338
 11
464.894979
 21
142.706338
  0
LINE
  8
1
 62
7
  6
CONTINUOUS
 10
424.669913
 20
141.659724
 11
464.301349
 21
141.659724
  0
LINE
  8
1
 62
7
  6
CONTINUOUS
 10
464.301349
 20
146.591974
 11
424.669913
 21
146.591974
  0
LINE
  8
1
 62
7
  6
CONTINUOUS
 10
424.669913
 20
146.591974
 11
424.669913
 21
142.743810
  0
LINE
  8
1
 62
7
  6
CONTINUOUS
 10
464.301349
 20
142.706338
 11
464.301349
 21
146.591974
  0
LINE
  8
1
 62
7
  6
CONTINUOUS
 10
464.295427
 20
146.940672
 11
464.295427
 21
145.853985
  0
LINE
  8
1
 62
7
  6
CONTINUOUS
 10
464.295427
 20
145.853985
 11
466.318914
 21
145.853985
  0
LINE
  8
1
 62
7
  6
CONTINUOUS
 10
466.318914
 20
145.853985
 11
466.318914
 21
146.940672
  0
LINE
  8
1
 62
7
  6
CONTINUOUS
 10
466.318914
 20
146.940672
 11
464.295427
 21
146.940672
  0
TEXT
  8
1
 62
7
  6
CONTINUOUS
 10
376.260163
 20
8.752033
 40
6.000000
 41
0.500000
  1
LFB-24MS
  7
KANJI
 50
0.000000
 51
0.000000
  0
LINE
  8
1
 62
7
  6
CONTINUOUS
 10
196.915004
 20
138.210828
 11
75.915004
 21
138.210828
  0
LINE
  8
1
 62
7
  6
CONTINUOUS
 10
196.915004
 20
222.210828
 11
75.915004
 21
222.210828
  0
ARC
  8
1
 62
7
  6
CONTINUOUS
 10
193.915004
 20
229.210828
 40
3.000000
 50
0.000000
 51
90.000000
  0
ARC
  8
1
 62
7
  6
CONTINUOUS
 10
78.915004
 20
229.210828
 40
3.000000
 50
90.000000
 51
180.000000
  0
LINE
  8
1
 62
7
  6
CONTINUOUS
 10
75.915004
 20
229.210828
 11
75.915004
 21
131.210828
  0
ARC
  8
1
 62
7
  6
CONTINUOUS
 10
78.915004
 20
131.210828
 40
3.000000
 50
180.000000
 51
-90.000000
  0
LINE
  8
1
 62
7
  6
CONTINUOUS
 10
196.915004
 20
131.210828
 11
196.915004
 21
229.210828
  0
ARC
  8
1
 62
7
  6
CONTINUOUS
 10
193.915004
 20
131.210828
 40
3.000000
 50
-90.000000
 51
0.000000
  0
CIRCLE
  8
1
 62
7
  6
CONTINUOUS
 10
136.415004
 20
133.210828
 40
2.000000
  0
CIRCLE
  8
1
 62
7
  6
CONTINUOUS
 10
136.415004
 20
227.210828
 40
2.000000
  0
ARC
  8
1
 62
7
  6
CONTINUOUS
 10
176.415004
 20
227.210828
 40
2.000000
 50
180.000000
 51
0.000000
  0
ARC
  8
1
 62
7
  6
CONTINUOUS
 10
96.415004
 20
227.210828
 40
2.000000
 50
180.000000
 51
0.000000
  0
ARC
  8
1
 62
7
  6
CONTINUOUS
 10
96.415004
 20
133.210828
 40
2.000000
 50
0.000000
 51
180.000000
  0
ARC
  8
1
 62
7
  6
CONTINUOUS
 10
176.415004
 20
133.210828
 40
2.000000
 50
0.000000
 51
180.000000
  0
LINE
  8
1
 62
7
  6
CONTINUOUS
 10
193.915004
 20
232.210828
 11
178.615004
 21
232.210828
  0
LINE
  8
1
 62
7
  6
CONTINUOUS
 10
178.415004
 20
227.210828
 11
178.415004
 21
232.010828
  0
LINE
  8
1
 62
7
  6
CONTINUOUS
 10
178.615004
 20
232.210828
 11
178.415004
 21
232.010828
  0
LINE
  8
1
 62
7
  6
CONTINUOUS
 10
174.415004
 20
227.210828
 11
174.415004
 21
232.010828
  0
LINE
  8
1
 62
7
  6
CONTINUOUS
 10
174.415004
 20
232.010828
 11
174.215004
 21
232.210828
  0
LINE
  8
1
 62
7
  6
CONTINUOUS
 10
174.215004
 20
232.210828
 11
98.615004
 21
232.210828
  0
LINE
  8
1
 62
7
  6
CONTINUOUS
 10
98.415004
 20
227.210828
 11
98.415004
 21
232.010828
  0
LINE
  8
1
 62
7
  6
CONTINUOUS
 10
98.615004
 20
232.210828
 11
98.415004
 21
232.010828
  0
LINE
  8
1
 62
7
  6
CONTINUOUS
 10
94.415004
 20
227.210828
 11
94.415004
 21
232.010828
  0
LINE
  8
1
 62
7
  6
CONTINUOUS
 10
78.915004
 20
232.210828
 11
94.215004
 21
232.210828
  0
LINE
  8
1
 62
7
  6
CONTINUOUS
 10
94.415004
 20
232.010828
 11
94.215004
 21
232.210828
  0
LINE
  8
1
 62
7
  6
CONTINUOUS
 10
98.415004
 20
133.210828
 11
98.415004
 21
128.410828
  0
LINE
  8
1
 62
7
  6
CONTINUOUS
 10
98.615004
 20
128.210828
 11
98.415004
 21
128.410828
  0
LINE
  8
1
 62
7
  6
CONTINUOUS
 10
94.415004
 20
133.210828
 11
94.415004
 21
128.410828
  0
LINE
  8
1
 62
7
  6
CONTINUOUS
 10
78.915004
 20
128.210828
 11
94.215004
 21
128.210828
  0
LINE
  8
1
 62
7
  6
CONTINUOUS
 10
94.415004
 20
128.410828
 11
94.215004
 21
128.210828
  0
LINE
  8
1
 62
7
  6
CONTINUOUS
 10
98.615004
 20
128.210828
 11
174.215004
 21
128.210828
  0
LINE
  8
1
 62
7
  6
CONTINUOUS
 10
174.415004
 20
133.210828
 11
174.415004
 21
128.410828
  0
LINE
  8
1
 62
7
  6
CONTINUOUS
 10
174.215004
 20
128.210828
 11
174.415004
 21
128.410828
  0
LINE
  8
1
 62
7
  6
CONTINUOUS
 10
178.415004
 20
133.210828
 11
178.415004
 21
128.410828
  0
LINE
  8
1
 62
7
  6
CONTINUOUS
 10
193.915004
 20
128.210828
 11
178.615004
 21
128.210828
  0
LINE
  8
1
 62
7
  6
CONTINUOUS
 10
178.415004
 20
128.410828
 11
178.615004
 21
128.210828
  0
LINE
  8
1
 62
7
  6
CONTINUOUS
 10
195.988174
 20
139.018416
 11
195.988174
 21
221.164757
  0
LINE
  8
1
 62
7
  6
CONTINUOUS
 10
76.841833
 20
221.164757
 11
76.841833
 21
139.018416
  0
LINE
  8
1
 62
7
  6
CONTINUOUS
 10
76.841833
 20
139.018416
 11
195.988174
 21
139.018416
  0
LINE
  8
1
 62
7
  6
CONTINUOUS
 10
195.988174
 20
221.164757
 11
76.841833
 21
221.164757
  0
CIRCLE
  8
1
 62
7
  6
CONTINUOUS
 10
80.875537
 20
217.389960
 40
2.000000
  0
LINE
  8
1
 62
7
  6
CONTINUOUS
 10
80.583567
 20
218.356275
 11
80.583567
 21
217.681929
  0
ARC
  8
1
 62
7
  6
CONTINUOUS
 10
80.783567
 20
218.356275
 40
0.200000
 50
90.000000
 51
180.000000
  0
LINE
  8
1
 62
7
  6
CONTINUOUS
 10
81.008100
 20
218.556275
 11
80.783567
 21
218.556275
  0
LINE
  8
1
 62
7
  6
CONTINUOUS
 10
81.208100
 20
217.681929
 11
81.208100
 21
218.356275
  0
ARC
  8
1
 62
7
  6
CONTINUOUS
 10
81.008100
 20
218.356275
 40
0.200000
 50
0.000000
 51
90.000000
  0
LINE
  8
1
 62
7
  6
CONTINUOUS
 10
81.208100
 20
216.383050
 11
81.208100
 21
217.107359
  0
ARC
  8
1
 62
7
  6
CONTINUOUS
 10
81.008100
 20
216.383050
 40
0.200000
 50
-90.000000
 51
0.000000
  0
LINE
  8
1
 62
7
  6
CONTINUOUS
 10
80.783567
 20
216.183050
 11
81.008100
 21
216.183050
  0
LINE
  8
1
 62
7
  6
CONTINUOUS
 10
80.583567
 20
217.107359
 11
80.583567
 21
216.383050
  0
ARC
  8
1
 62
7
  6
CONTINUOUS
 10
80.783567
 20
216.383050
 40
0.200000
 50
180.000000
 51
-90.000000
  0
LINE
  8
1
 62
7
  6
CONTINUOUS
 10
81.882447
 20
217.681929
 11
81.208100
 21
217.681929
  0
ARC
  8
1
 62
7
  6
CONTINUOUS
 10
81.882447
 20
217.481929
 40
0.200000
 50
0.000000
 51
90.000000
  0
LINE
  8
1
 62
7
  6
CONTINUOUS
 10
82.082447
 20
217.307359
 11
82.082447
 21
217.481929
  0
LINE
  8
1
 62
7
  6
CONTINUOUS
 10
81.208100
 20
217.107359
 11
81.882447
 21
217.107359
  0
ARC
  8
1
 62
7
  6
CONTINUOUS
 10
81.882447
 20
217.307359
 40
0.200000
 50
-90.000000
 51
0.000000
  0
LINE
  8
1
 62
7
  6
CONTINUOUS
 10
79.784315
 20
217.107359
 11
80.583567
 21
217.107359
  0
ARC
  8
1
 62
7
  6
CONTINUOUS
 10
79.784315
 20
217.307359
 40
0.200000
 50
-180.000000
 51
-90.000000
  0
LINE
  8
1
 62
7
  6
CONTINUOUS
 10
79.584315
 20
217.481929
 11
79.584315
 21
217.307359
  0
LINE
  8
1
 62
7
  6
CONTINUOUS
 10
80.583567
 20
217.681929
 11
79.784315
 21
217.681929
  0
ARC
  8
1
 62
7
  6
CONTINUOUS
 10
79.784315
 20
217.481929
 40
0.200000
 50
90.000000
 51
-180.000000
  0
CIRCLE
  8
1
 62
7
  6
CONTINUOUS
 10
192.485293
 20
217.389960
 40
2.000000
  0
LINE
  8
1
 62
7
  6
CONTINUOUS
 10
192.193323
 20
218.356275
 11
192.193323
 21
217.681929
  0
ARC
  8
1
 62
7
  6
CONTINUOUS
 10
192.393323
 20
218.356275
 40
0.200000
 50
90.000000
 51
180.000000
  0
LINE
  8
1
 62
7
  6
CONTINUOUS
 10
192.617856
 20
218.556275
 11
192.393323
 21
218.556275
  0
LINE
  8
1
 62
7
  6
CONTINUOUS
 10
192.817856
 20
217.681929
 11
192.817856
 21
218.356275
  0
ARC
  8
1
 62
7
  6
CONTINUOUS
 10
192.617856
 20
218.356275
 40
0.200000
 50
0.000000
 51
90.000000
  0
LINE
  8
1
 62
7
  6
CONTINUOUS
 10
192.817856
 20
216.383050
 11
192.817856
 21
217.107359
  0
ARC
  8
1
 62
7
  6
CONTINUOUS
 10
192.617856
 20
216.383050
 40
0.200000
 50
-90.000000
 51
0.000000
  0
LINE
  8
1
 62
7
  6
CONTINUOUS
 10
192.393323
 20
216.183050
 11
192.617856
 21
216.183050
  0
LINE
  8
1
 62
7
  6
CONTINUOUS
 10
192.193323
 20
217.107359
 11
192.193323
 21
216.383050
  0
ARC
  8
1
 62
7
  6
CONTINUOUS
 10
192.393323
 20
216.383050
 40
0.200000
 50
180.000000
 51
-90.000000
  0
LINE
  8
1
 62
7
  6
CONTINUOUS
 10
193.492203
 20
217.681929
 11
192.817856
 21
217.681929
  0
ARC
  8
1
 62
7
  6
CONTINUOUS
 10
193.492203
 20
217.481929
 40
0.200000
 50
0.000000
 51
90.000000
  0
LINE
  8
1
 62
7
  6
CONTINUOUS
 10
193.692203
 20
217.307359
 11
193.692203
 21
217.481929
  0
LINE
  8
1
 62
7
  6
CONTINUOUS
 10
192.817856
 20
217.107359
 11
193.492203
 21
217.107359
  0
ARC
  8
1
 62
7
  6
CONTINUOUS
 10
193.492203
 20
217.307359
 40
0.200000
 50
-90.000000
 51
0.000000
  0
LINE
  8
1
 62
7
  6
CONTINUOUS
 10
191.394071
 20
217.107359
 11
192.193323
 21
217.107359
  0
ARC
  8
1
 62
7
  6
CONTINUOUS
 10
191.394071
 20
217.307359
 40
0.200000
 50
-180.000000
 51
-90.000000
  0
LINE
  8
1
 62
7
  6
CONTINUOUS
 10
191.194071
 20
217.481929
 11
191.194071
 21
217.307359
  0
LINE
  8
1
 62
7
  6
CONTINUOUS
 10
192.193323
 20
217.681929
 11
191.394071
 21
217.681929
  0
ARC
  8
1
 62
7
  6
CONTINUOUS
 10
191.394071
 20
217.481929
 40
0.200000
 50
90.000000
 51
-180.000000
  0
CIRCLE
  8
1
 62
7
  6
CONTINUOUS
 10
192.485293
 20
142.625732
 40
2.000000
  0
LINE
  8
1
 62
7
  6
CONTINUOUS
 10
192.193323
 20
143.592048
 11
192.193323
 21
142.917702
  0
ARC
  8
1
 62
7
  6
CONTINUOUS
 10
192.393323
 20
143.592048
 40
0.200000
 50
90.000000
 51
180.000000
  0
LINE
  8
1
 62
7
  6
CONTINUOUS
 10
192.617856
 20
143.792048
 11
192.393323
 21
143.792048
  0
LINE
  8
1
 62
7
  6
CONTINUOUS
 10
192.817856
 20
142.917702
 11
192.817856
 21
143.592048
  0
ARC
  8
1
 62
7
  6
CONTINUOUS
 10
192.617856
 20
143.592048
 40
0.200000
 50
0.000000
 51
90.000000
  0
LINE
  8
1
 62
7
  6
CONTINUOUS
 10
192.817856
 20
141.618822
 11
192.817856
 21
142.343131
  0
ARC
  8
1
 62
7
  6
CONTINUOUS
 10
192.617856
 20
141.618822
 40
0.200000
 50
-90.000000
 51
0.000000
  0
LINE
  8
1
 62
7
  6
CONTINUOUS
 10
192.393323
 20
141.418822
 11
192.617856
 21
141.418822
  0
LINE
  8
1
 62
7
  6
CONTINUOUS
 10
192.193323
 20
142.343131
 11
192.193323
 21
141.618822
  0
ARC
  8
1
 62
7
  6
CONTINUOUS
 10
192.393323
 20
141.618822
 40
0.200000
 50
180.000000
 51
-90.000000
  0
LINE
  8
1
 62
7
  6
CONTINUOUS
 10
193.492203
 20
142.917702
 11
192.817856
 21
142.917702
  0
ARC
  8
1
 62
7
  6
CONTINUOUS
 10
193.492203
 20
142.717702
 40
0.200000
 50
0.000000
 51
90.000000
  0
LINE
  8
1
 62
7
  6
CONTINUOUS
 10
193.692203
 20
142.543131
 11
193.692203
 21
142.717702
  0
LINE
  8
1
 62
7
  6
CONTINUOUS
 10
192.817856
 20
142.343131
 11
193.492203
 21
142.343131
  0
ARC
  8
1
 62
7
  6
CONTINUOUS
 10
193.492203
 20
142.543131
 40
0.200000
 50
-90.000000
 51
0.000000
  0
LINE
  8
1
 62
7
  6
CONTINUOUS
 10
191.394071
 20
142.343131
 11
192.193323
 21
142.343131
  0
ARC
  8
1
 62
7
  6
CONTINUOUS
 10
191.394071
 20
142.543131
 40
0.200000
 50
-180.000000
 51
-90.000000
  0
LINE
  8
1
 62
7
  6
CONTINUOUS
 10
191.194071
 20
142.717702
 11
191.194071
 21
142.543131
  0
LINE
  8
1
 62
7
  6
CONTINUOUS
 10
192.193323
 20
142.917702
 11
191.394071
 21
142.917702
  0
ARC
  8
1
 62
7
  6
CONTINUOUS
 10
191.394071
 20
142.717702
 40
0.200000
 50
90.000000
 51
-180.000000
  0
CIRCLE
  8
1
 62
7
  6
CONTINUOUS
 10
80.338951
 20
142.268009
 40
2.000000
  0
LINE
  8
1
 62
7
  6
CONTINUOUS
 10
80.046982
 20
143.234324
 11
80.046982
 21
142.559978
  0
ARC
  8
1
 62
7
  6
CONTINUOUS
 10
80.246982
 20
143.234324
 40
0.200000
 50
90.000000
 51
180.000000
  0
LINE
  8
1
 62
7
  6
CONTINUOUS
 10
80.471515
 20
143.434324
 11
80.246982
 21
143.434324
  0
LINE
  8
1
 62
7
  6
CONTINUOUS
 10
80.671515
 20
142.559978
 11
80.671515
 21
143.234324
  0
ARC
  8
1
 62
7
  6
CONTINUOUS
 10
80.471515
 20
143.234324
 40
0.200000
 50
0.000000
 51
90.000000
  0
LINE
  8
1
 62
7
  6
CONTINUOUS
 10
80.671515
 20
141.261099
 11
80.671515
 21
141.985408
  0
ARC
  8
1
 62
7
  6
CONTINUOUS
 10
80.471515
 20
141.261099
 40
0.200000
 50
-90.000000
 51
0.000000
  0
LINE
  8
1
 62
7
  6
CONTINUOUS
 10
80.246982
 20
141.061099
 11
80.471515
 21
141.061099
  0
LINE
  8
1
 62
7
  6
CONTINUOUS
 10
80.046982
 20
141.985408
 11
80.046982
 21
141.261099
  0
ARC
  8
1
 62
7
  6
CONTINUOUS
 10
80.246982
 20
141.261099
 40
0.200000
 50
180.000000
 51
-90.000000
  0
LINE
  8
1
 62
7
  6
CONTINUOUS
 10
81.345861
 20
142.559978
 11
80.671515
 21
142.559978
  0
ARC
  8
1
 62
7
  6
CONTINUOUS
 10
81.345861
 20
142.359978
 40
0.200000
 50
0.000000
 51
90.000000
  0
LINE
  8
1
 62
7
  6
CONTINUOUS
 10
81.545861
 20
142.185408
 11
81.545861
 21
142.359978
  0
LINE
  8
1
 62
7
  6
CONTINUOUS
 10
80.671515
 20
141.985408
 11
81.345861
 21
141.985408
  0
ARC
  8
1
 62
7
  6
CONTINUOUS
 10
81.345861
 20
142.185408
 40
0.200000
 50
-90.000000
 51
0.000000
  0
LINE
  8
1
 62
7
  6
CONTINUOUS
 10
79.247729
 20
141.985408
 11
80.046982
 21
141.985408
  0
ARC
  8
1
 62
7
  6
CONTINUOUS
 10
79.247729
 20
142.185408
 40
0.200000
 50
-180.000000
 51
-90.000000
  0
LINE
  8
1
 62
7
  6
CONTINUOUS
 10
79.047729
 20
142.359978
 11
79.047729
 21
142.185408
  0
LINE
  8
1
 62
7
  6
CONTINUOUS
 10
80.046982
 20
142.559978
 11
79.247729
 21
142.559978
  0
ARC
  8
1
 62
7
  6
CONTINUOUS
 10
79.247729
 20
142.359978
 40
0.200000
 50
90.000000
 51
-180.000000
  0
CIRCLE
  8
1
 62
7
  6
CONTINUOUS
 10
118.078789
 20
181.438741
 40
2.000000
  0
LINE
  8
1
 62
7
  6
CONTINUOUS
 10
117.786819
 20
182.405056
 11
117.786819
 21
181.730710
  0
ARC
  8
1
 62
7
  6
CONTINUOUS
 10
117.986819
 20
182.405056
 40
0.200000
 50
90.000000
 51
180.000000
  0
LINE
  8
1
 62
7
  6
CONTINUOUS
 10
118.211352
 20
182.605056
 11
117.986819
 21
182.605056
  0
LINE
  8
1
 62
7
  6
CONTINUOUS
 10
118.411352
 20
181.730710
 11
118.411352
 21
182.405056
  0
ARC
  8
1
 62
7
  6
CONTINUOUS
 10
118.211352
 20
182.405056
 40
0.200000
 50
0.000000
 51
90.000000
  0
LINE
  8
1
 62
7
  6
CONTINUOUS
 10
118.411352
 20
180.431831
 11
118.411352
 21
181.156139
  0
ARC
  8
1
 62
7
  6
CONTINUOUS
 10
118.211352
 20
180.431831
 40
0.200000
 50
-90.000000
 51
0.000000
  0
LINE
  8
1
 62
7
  6
CONTINUOUS
 10
117.986819
 20
180.231831
 11
118.211352
 21
180.231831
  0
LINE
  8
1
 62
7
  6
CONTINUOUS
 10
117.786819
 20
181.156139
 11
117.786819
 21
180.431831
  0
ARC
  8
1
 62
7
  6
CONTINUOUS
 10
117.986819
 20
180.431831
 40
0.200000
 50
180.000000
 51
-90.000000
  0
LINE
  8
1
 62
7
  6
CONTINUOUS
 10
119.085699
 20
181.730710
 11
118.411352
 21
181.730710
  0
ARC
  8
1
 62
7
  6
CONTINUOUS
 10
119.085699
 20
181.530710
 40
0.200000
 50
0.000000
 51
90.000000
  0
LINE
  8
1
 62
7
  6
CONTINUOUS
 10
119.285699
 20
181.356139
 11
119.285699
 21
181.530710
  0
LINE
  8
1
 62
7
  6
CONTINUOUS
 10
118.411352
 20
181.156139
 11
119.085699
 21
181.156139
  0
ARC
  8
1
 62
7
  6
CONTINUOUS
 10
119.085699
 20
181.356139
 40
0.200000
 50
-90.000000
 51
0.000000
  0
LINE
  8
1
 62
7
  6
CONTINUOUS
 10
116.987567
 20
181.156139
 11
117.786819
 21
181.156139
  0
ARC
  8
1
 62
7
  6
CONTINUOUS
 10
116.987567
 20
181.356139
 40
0.200000
 50
-180.000000
 51
-90.000000
  0
LINE
  8
1
 62
7
  6
CONTINUOUS
 10
116.787567
 20
181.530710
 11
116.787567
 21
181.356139
  0
LINE
  8
1
 62
7
  6
CONTINUOUS
 10
117.786819
 20
181.730710
 11
116.987567
 21
181.730710
  0
ARC
  8
1
 62
7
  6
CONTINUOUS
 10
116.987567
 20
181.530710
 40
0.200000
 50
90.000000
 51
-180.000000
  0
CIRCLE
  8
1
 62
7
  6
CONTINUOUS
 10
149.379602
 20
181.617602
 40
2.000000
  0
LINE
  8
1
 62
7
  6
CONTINUOUS
 10
149.087632
 20
182.583918
 11
149.087632
 21
181.909571
  0
ARC
  8
1
 62
7
  6
CONTINUOUS
 10
149.287632
 20
182.583918
 40
0.200000
 50
90.000000
 51
180.000000
  0
LINE
  8
1
 62
7
  6
CONTINUOUS
 10
149.512165
 20
182.783918
 11
149.287632
 21
182.783918
  0
LINE
  8
1
 62
7
  6
CONTINUOUS
 10
149.712165
 20
181.909571
 11
149.712165
 21
182.583918
  0
ARC
  8
1
 62
7
  6
CONTINUOUS
 10
149.512165
 20
182.583918
 40
0.200000
 50
0.000000
 51
90.000000
  0
LINE
  8
1
 62
7
  6
CONTINUOUS
 10
149.712165
 20
180.610692
 11
149.712165
 21
181.335001
  0
ARC
  8
1
 62
7
  6
CONTINUOUS
 10
149.512165
 20
180.610692
 40
0.200000
 50
-90.000000
 51
0.000000
  0
LINE
  8
1
 62
7
  6
CONTINUOUS
 10
149.287632
 20
180.410692
 11
149.512165
 21
180.410692
  0
LINE
  8
1
 62
7
  6
CONTINUOUS
 10
149.087632
 20
181.335001
 11
149.087632
 21
180.610692
  0
ARC
  8
1
 62
7
  6
CONTINUOUS
 10
149.287632
 20
180.610692
 40
0.200000
 50
180.000000
 51
-90.000000
  0
LINE
  8
1
 62
7
  6
CONTINUOUS
 10
150.386512
 20
181.909571
 11
149.712165
 21
181.909571
  0
ARC
  8
1
 62
7
  6
CONTINUOUS
 10
150.386512
 20
181.709571
 40
0.200000
 50
0.000000
 51
90.000000
  0
LINE
  8
1
 62
7
  6
CONTINUOUS
 10
150.586512
 20
181.535001
 11
150.586512
 21
181.709571
  0
LINE
  8
1
 62
7
  6
CONTINUOUS
 10
149.712165
 20
181.335001
 11
150.386512
 21
181.335001
  0
ARC
  8
1
 62
7
  6
CONTINUOUS
 10
150.386512
 20
181.535001
 40
0.200000
 50
-90.000000
 51
0.000000
  0
LINE
  8
1
 62
7
  6
CONTINUOUS
 10
148.288380
 20
181.335001
 11
149.087632
 21
181.335001
  0
ARC
  8
1
 62
7
  6
CONTINUOUS
 10
148.288380
 20
181.535001
 40
0.200000
 50
-180.000000
 51
-90.000000
  0
LINE
  8
1
 62
7
  6
CONTINUOUS
 10
148.088380
 20
181.709571
 11
148.088380
 21
181.535001
  0
LINE
  8
1
 62
7
  6
CONTINUOUS
 10
149.087632
 20
181.909571
 11
148.288380
 21
181.909571
  0
ARC
  8
1
 62
7
  6
CONTINUOUS
 10
148.288380
 20
181.709571
 40
0.200000
 50
90.000000
 51
-180.000000
  0
LINE
  8
1
 62
7
  6
CONTINUOUS
 10
179.048615
 20
214.394432
 11
178.454986
 21
214.394432
  0
LINE
  8
1
 62
7
  6
CONTINUOUS
 10
151.016574
 20
214.394432
 11
151.523549
 21
214.394432
  0
LINE
  8
1
 62
7
  6
CONTINUOUS
 10
152.843333
 20
217.524513
 11
152.843333
 21
216.386302
  0
LINE
  8
1
 62
7
  6
CONTINUOUS
 10
152.843333
 20
216.386302
 11
153.981544
 21
216.386302
  0
LINE
  8
1
 62
7
  6
CONTINUOUS
 10
153.981544
 20
216.386302
 11
153.981544
 21
217.524513
  0
LINE
  8
1
 62
7
  6
CONTINUOUS
 10
153.981544
 20
217.524513
 11
152.843333
 21
217.524513
  0
LINE
  8
1
 62
7
  6
CONTINUOUS
 10
155.383333
 20
217.524513
 11
155.383333
 21
216.386302
  0
LINE
  8
1
 62
7
  6
CONTINUOUS
 10
155.383333
 20
216.386302
 11
156.521544
 21
216.386302
  0
LINE
  8
1
 62
7
  6
CONTINUOUS
 10
156.521544
 20
216.386302
 11
156.521544
 21
217.524513
  0
LINE
  8
1
 62
7
  6
CONTINUOUS
 10
156.521544
 20
217.524513
 11
155.383333
 21
217.524513
  0
LINE
  8
1
 62
7
  6
CONTINUOUS
 10
157.923333
 20
217.524513
 11
157.923333
 21
216.386302
  0
LINE
  8
1
 62
7
  6
CONTINUOUS
 10
157.923333
 20
216.386302
 11
159.061544
 21
216.386302
  0
LINE
  8
1
 62
7
  6
CONTINUOUS
 10
159.061544
 20
216.386302
 11
159.061544
 21
217.524513
  0
LINE
  8
1
 62
7
  6
CONTINUOUS
 10
159.061544
 20
217.524513
 11
157.923333
 21
217.524513
  0
LINE
  8
1
 62
7
  6
CONTINUOUS
 10
160.463333
 20
217.524513
 11
160.463333
 21
216.386302
  0
LINE
  8
1
 62
7
  6
CONTINUOUS
 10
160.463333
 20
216.386302
 11
161.601544
 21
216.386302
  0
LINE
  8
1
 62
7
  6
CONTINUOUS
 10
161.601544
 20
216.386302
 11
161.601544
 21
217.524513
  0
LINE
  8
1
 62
7
  6
CONTINUOUS
 10
161.601544
 20
217.524513
 11
160.463333
 21
217.524513
  0
LINE
  8
1
 62
7
  6
CONTINUOUS
 10
163.003333
 20
217.524513
 11
163.003333
 21
216.386302
  0
LINE
  8
1
 62
7
  6
CONTINUOUS
 10
163.003333
 20
216.386302
 11
164.141544
 21
216.386302
  0
LINE
  8
1
 62
7
  6
CONTINUOUS
 10
164.141544
 20
216.386302
 11
164.141544
 21
217.524513
  0
LINE
  8
1
 62
7
  6
CONTINUOUS
 10
164.141544
 20
217.524513
 11
163.003333
 21
217.524513
  0
LINE
  8
1
 62
7
  6
CONTINUOUS
 10
165.543333
 20
217.524513
 11
165.543333
 21
216.386302
  0
LINE
  8
1
 62
7
  6
CONTINUOUS
 10
165.543333
 20
216.386302
 11
166.681544
 21
216.386302
  0
LINE
  8
1
 62
7
  6
CONTINUOUS
 10
166.681544
 20
216.386302
 11
166.681544
 21
217.524513
  0
LINE
  8
1
 62
7
  6
CONTINUOUS
 10
166.681544
 20
217.524513
 11
165.543333
 21
217.524513
  0
LINE
  8
1
 62
7
  6
CONTINUOUS
 10
168.083333
 20
217.524513
 11
168.083333
 21
216.386302
  0
LINE
  8
1
 62
7
  6
CONTINUOUS
 10
168.083333
 20
216.386302
 11
169.221544
 21
216.386302
  0
LINE
  8
1
 62
7
  6
CONTINUOUS
 10
169.221544
 20
216.386302
 11
169.221544
 21
217.524513
  0
LINE
  8
1
 62
7
  6
CONTINUOUS
 10
169.221544
 20
217.524513
 11
168.083333
 21
217.524513
  0
LINE
  8
1
 62
7
  6
CONTINUOUS
 10
170.623333
 20
217.524513
 11
170.623333
 21
216.386302
  0
LINE
  8
1
 62
7
  6
CONTINUOUS
 10
170.623333
 20
216.386302
 11
171.761544
 21
216.386302
  0
LINE
  8
1
 62
7
  6
CONTINUOUS
 10
171.761544
 20
216.386302
 11
171.761544
 21
217.524513
  0
LINE
  8
1
 62
7
  6
CONTINUOUS
 10
171.761544
 20
217.524513
 11
170.623333
 21
217.524513
  0
LINE
  8
1
 62
7
  6
CONTINUOUS
 10
173.163333
 20
217.524513
 11
173.163333
 21
216.386302
  0
LINE
  8
1
 62
7
  6
CONTINUOUS
 10
173.163333
 20
216.386302
 11
174.301544
 21
216.386302
  0
LINE
  8
1
 62
7
  6
CONTINUOUS
 10
174.301544
 20
216.386302
 11
174.301544
 21
217.524513
  0
LINE
  8
1
 62
7
  6
CONTINUOUS
 10
174.301544
 20
217.524513
 11
173.163333
 21
217.524513
  0
LINE
  8
1
 62
7
  6
CONTINUOUS
 10
175.703333
 20
217.524513
 11
175.703333
 21
216.386302
  0
LINE
  8
1
 62
7
  6
CONTINUOUS
 10
175.703333
 20
216.386302
 11
176.841544
 21
216.386302
  0
LINE
  8
1
 62
7
  6
CONTINUOUS
 10
176.841544
 20
216.386302
 11
176.841544
 21
217.524513
  0
LINE
  8
1
 62
7
  6
CONTINUOUS
 10
176.841544
 20
217.524513
 11
175.703333
 21
217.524513
  0
LINE
  8
1
 62
7
  6
CONTINUOUS
 10
179.048615
 20
215.441046
 11
179.048615
 21
214.394432
  0
LINE
  8
1
 62
7
  6
CONTINUOUS
 10
178.454986
 20
215.441046
 11
179.048615
 21
215.441046
  0
LINE
  8
1
 62
7
  6
CONTINUOUS
 10
178.454986
 20
215.441046
 11
178.454986
 21
219.326681
  0
LINE
  8
1
 62
7
  6
CONTINUOUS
 10
178.449064
 20
219.675380
 11
178.449064
 21
218.588693
  0
LINE
  8
1
 62
7
  6
CONTINUOUS
 10
178.449064
 20
218.588693
 11
180.472551
 21
218.588693
  0
LINE
  8
1
 62
7
  6
CONTINUOUS
 10
180.472551
 20
218.588693
 11
180.472551
 21
219.675380
  0
LINE
  8
1
 62
7
  6
CONTINUOUS
 10
180.472551
 20
219.675380
 11
178.449064
 21
219.675380
  0
LINE
  8
1
 62
7
  6
CONTINUOUS
 10
149.611374
 20
219.609804
 11
149.611374
 21
218.598061
  0
LINE
  8
1
 62
7
  6
CONTINUOUS
 10
149.611374
 20
218.598061
 11
151.523549
 21
218.598061
  0
LINE
  8
1
 62
7
  6
CONTINUOUS
 10
151.523549
 20
218.598061
 11
151.523549
 21
219.609804
  0
LINE
  8
1
 62
7
  6
CONTINUOUS
 10
151.523549
 20
219.609804
 11
149.611374
 21
219.609804
  0
LINE
  8
1
 62
7
  6
CONTINUOUS
 10
151.016574
 20
215.441046
 11
151.016574
 21
214.394432
  0
LINE
  8
1
 62
7
  6
CONTINUOUS
 10
151.523549
 20
215.441046
 11
151.016574
 21
215.441046
  0
LINE
  8
1
 62
7
  6
CONTINUOUS
 10
151.523549
 20
214.394432
 11
178.454986
 21
214.394432
  0
LINE
  8
1
 62
7
  6
CONTINUOUS
 10
178.454986
 20
219.326681
 11
151.523549
 21
219.326681
  0
LINE
  8
1
 62
7
  6
CONTINUOUS
 10
151.523549
 20
219.326681
 11
151.523549
 21
215.478518
  0
LINE
  8
1
 62
7
  6
CONTINUOUS
 10
93.325755
 20
219.585414
 11
93.325755
 21
218.573670
  0
LINE
  8
1
 62
7
  6
CONTINUOUS
 10
93.325755
 20
218.573670
 11
95.237931
 21
218.573670
  0
LINE
  8
1
 62
7
  6
CONTINUOUS
 10
95.237931
 20
218.573670
 11
95.237931
 21
219.585414
  0
LINE
  8
1
 62
7
  6
CONTINUOUS
 10
95.237931
 20
219.585414
 11
93.325755
 21
219.585414
  0
LINE
  8
1
 62
7
  6
CONTINUOUS
 10
94.730955
 20
215.416656
 11
94.730955
 21
214.370042
  0
LINE
  8
1
 62
7
  6
CONTINUOUS
 10
94.730955
 20
214.370042
 11
95.237931
 21
214.370042
  0
LINE
  8
1
 62
7
  6
CONTINUOUS
 10
95.237931
 20
215.416656
 11
94.730955
 21
215.416656
  0
LINE
  8
1
 62
7
  6
CONTINUOUS
 10
96.557714
 20
217.500123
 11
96.557714
 21
216.361912
  0
LINE
  8
1
 62
7
  6
CONTINUOUS
 10
96.557714
 20
216.361912
 11
97.695925
 21
216.361912
  0
LINE
  8
1
 62
7
  6
CONTINUOUS
 10
97.695925
 20
216.361912
 11
97.695925
 21
217.500123
  0
LINE
  8
1
 62
7
  6
CONTINUOUS
 10
97.695925
 20
217.500123
 11
96.557714
 21
217.500123
  0
LINE
  8
1
 62
7
  6
CONTINUOUS
 10
99.097714
 20
217.500123
 11
99.097714
 21
216.361912
  0
LINE
  8
1
 62
7
  6
CONTINUOUS
 10
99.097714
 20
216.361912
 11
100.235925
 21
216.361912
  0
LINE
  8
1
 62
7
  6
CONTINUOUS
 10
100.235925
 20
216.361912
 11
100.235925
 21
217.500123
  0
LINE
  8
1
 62
7
  6
CONTINUOUS
 10
100.235925
 20
217.500123
 11
99.097714
 21
217.500123
  0
LINE
  8
1
 62
7
  6
CONTINUOUS
 10
101.637714
 20
217.500123
 11
101.637714
 21
216.361912
  0
LINE
  8
1
 62
7
  6
CONTINUOUS
 10
101.637714
 20
216.361912
 11
102.775925
 21
216.361912
  0
LINE
  8
1
 62
7
  6
CONTINUOUS
 10
102.775925
 20
216.361912
 11
102.775925
 21
217.500123
  0
LINE
  8
1
 62
7
  6
CONTINUOUS
 10
102.775925
 20
217.500123
 11
101.637714
 21
217.500123
  0
LINE
  8
1
 62
7
  6
CONTINUOUS
 10
104.177714
 20
217.500123
 11
104.177714
 21
216.361912
  0
LINE
  8
1
 62
7
  6
CONTINUOUS
 10
104.177714
 20
216.361912
 11
105.315925
 21
216.361912
  0
LINE
  8
1
 62
7
  6
CONTINUOUS
 10
105.315925
 20
216.361912
 11
105.315925
 21
217.500123
  0
LINE
  8
1
 62
7
  6
CONTINUOUS
 10
105.315925
 20
217.500123
 11
104.177714
 21
217.500123
  0
LINE
  8
1
 62
7
  6
CONTINUOUS
 10
106.717714
 20
217.500123
 11
106.717714
 21
216.361912
  0
LINE
  8
1
 62
7
  6
CONTINUOUS
 10
106.717714
 20
216.361912
 11
107.855925
 21
216.361912
  0
LINE
  8
1
 62
7
  6
CONTINUOUS
 10
107.855925
 20
216.361912
 11
107.855925
 21
217.500123
  0
LINE
  8
1
 62
7
  6
CONTINUOUS
 10
107.855925
 20
217.500123
 11
106.717714
 21
217.500123
  0
LINE
  8
1
 62
7
  6
CONTINUOUS
 10
109.257714
 20
217.500123
 11
109.257714
 21
216.361912
  0
LINE
  8
1
 62
7
  6
CONTINUOUS
 10
109.257714
 20
216.361912
 11
110.395925
 21
216.361912
  0
LINE
  8
1
 62
7
  6
CONTINUOUS
 10
110.395925
 20
216.361912
 11
110.395925
 21
217.500123
  0
LINE
  8
1
 62
7
  6
CONTINUOUS
 10
110.395925
 20
217.500123
 11
109.257714
 21
217.500123
  0
LINE
  8
1
 62
7
  6
CONTINUOUS
 10
111.797714
 20
217.500123
 11
111.797714
 21
216.361912
  0
LINE
  8
1
 62
7
  6
CONTINUOUS
 10
111.797714
 20
216.361912
 11
112.935925
 21
216.361912
  0
LINE
  8
1
 62
7
  6
CONTINUOUS
 10
112.935925
 20
216.361912
 11
112.935925
 21
217.500123
  0
LINE
  8
1
 62
7
  6
CONTINUOUS
 10
112.935925
 20
217.500123
 11
111.797714
 21
217.500123
  0
LINE
  8
1
 62
7
  6
CONTINUOUS
 10
114.337714
 20
217.500123
 11
114.337714
 21
216.361912
  0
LINE
  8
1
 62
7
  6
CONTINUOUS
 10
114.337714
 20
216.361912
 11
115.475925
 21
216.361912
  0
LINE
  8
1
 62
7
  6
CONTINUOUS
 10
115.475925
 20
216.361912
 11
115.475925
 21
217.500123
  0
LINE
  8
1
 62
7
  6
CONTINUOUS
 10
115.475925
 20
217.500123
 11
114.337714
 21
217.500123
  0
LINE
  8
1
 62
7
  6
CONTINUOUS
 10
116.877714
 20
217.500123
 11
116.877714
 21
216.361912
  0
LINE
  8
1
 62
7
  6
CONTINUOUS
 10
116.877714
 20
216.361912
 11
118.015925
 21
216.361912
  0
LINE
  8
1
 62
7
  6
CONTINUOUS
 10
118.015925
 20
216.361912
 11
118.015925
 21
217.500123
  0
LINE
  8
1
 62
7
  6
CONTINUOUS
 10
118.015925
 20
217.500123
 11
116.877714
 21
217.500123
  0
LINE
  8
1
 62
7
  6
CONTINUOUS
 10
119.417714
 20
217.500123
 11
119.417714
 21
216.361912
  0
LINE
  8
1
 62
7
  6
CONTINUOUS
 10
119.417714
 20
216.361912
 11
120.555925
 21
216.361912
  0
LINE
  8
1
 62
7
  6
CONTINUOUS
 10
120.555925
 20
216.361912
 11
120.555925
 21
217.500123
  0
LINE
  8
1
 62
7
  6
CONTINUOUS
 10
120.555925
 20
217.500123
 11
119.417714
 21
217.500123
  0
LINE
  8
1
 62
7
  6
CONTINUOUS
 10
121.957714
 20
217.500123
 11
121.957714
 21
216.361912
  0
LINE
  8
1
 62
7
  6
CONTINUOUS
 10
121.957714
 20
216.361912
 11
123.095925
 21
216.361912
  0
LINE
  8
1
 62
7
  6
CONTINUOUS
 10
123.095925
 20
216.361912
 11
123.095925
 21
217.500123
  0
LINE
  8
1
 62
7
  6
CONTINUOUS
 10
123.095925
 20
217.500123
 11
121.957714
 21
217.500123
  0
LINE
  8
1
 62
7
  6
CONTINUOUS
 10
124.497714
 20
217.500123
 11
124.497714
 21
216.361912
  0
LINE
  8
1
 62
7
  6
CONTINUOUS
 10
124.497714
 20
216.361912
 11
125.635925
 21
216.361912
  0
LINE
  8
1
 62
7
  6
CONTINUOUS
 10
125.635925
 20
216.361912
 11
125.635925
 21
217.500123
  0
LINE
  8
1
 62
7
  6
CONTINUOUS
 10
125.635925
 20
217.500123
 11
124.497714
 21
217.500123
  0
LINE
  8
1
 62
7
  6
CONTINUOUS
 10
127.037714
 20
217.500123
 11
127.037714
 21
216.361912
  0
LINE
  8
1
 62
7
  6
CONTINUOUS
 10
127.037714
 20
216.361912
 11
128.175925
 21
216.361912
  0
LINE
  8
1
 62
7
  6
CONTINUOUS
 10
128.175925
 20
216.361912
 11
128.175925
 21
217.500123
  0
LINE
  8
1
 62
7
  6
CONTINUOUS
 10
128.175925
 20
217.500123
 11
127.037714
 21
217.500123
  0
LINE
  8
1
 62
7
  6
CONTINUOUS
 10
129.577714
 20
217.500123
 11
129.577714
 21
216.361912
  0
LINE
  8
1
 62
7
  6
CONTINUOUS
 10
129.577714
 20
216.361912
 11
130.715925
 21
216.361912
  0
LINE
  8
1
 62
7
  6
CONTINUOUS
 10
130.715925
 20
216.361912
 11
130.715925
 21
217.500123
  0
LINE
  8
1
 62
7
  6
CONTINUOUS
 10
130.715925
 20
217.500123
 11
129.577714
 21
217.500123
  0
LINE
  8
1
 62
7
  6
CONTINUOUS
 10
132.117714
 20
217.500123
 11
132.117714
 21
216.361912
  0
LINE
  8
1
 62
7
  6
CONTINUOUS
 10
132.117714
 20
216.361912
 11
133.255925
 21
216.361912
  0
LINE
  8
1
 62
7
  6
CONTINUOUS
 10
133.255925
 20
216.361912
 11
133.255925
 21
217.500123
  0
LINE
  8
1
 62
7
  6
CONTINUOUS
 10
133.255925
 20
217.500123
 11
132.117714
 21
217.500123
  0
LINE
  8
1
 62
7
  6
CONTINUOUS
 10
135.462997
 20
215.416656
 11
135.462997
 21
214.370042
  0
LINE
  8
1
 62
7
  6
CONTINUOUS
 10
135.462997
 20
214.370042
 11
134.869367
 21
214.370042
  0
LINE
  8
1
 62
7
  6
CONTINUOUS
 10
134.869367
 20
215.416656
 11
135.462997
 21
215.416656
  0
LINE
  8
1
 62
7
  6
CONTINUOUS
 10
95.237931
 20
214.370042
 11
134.869367
 21
214.370042
  0
LINE
  8
1
 62
7
  6
CONTINUOUS
 10
134.869367
 20
219.302291
 11
95.237931
 21
219.302291
  0
LINE
  8
1
 62
7
  6
CONTINUOUS
 10
95.237931
 20
219.302291
 11
95.237931
 21
215.454128
  0
LINE
  8
1
 62
7
  6
CONTINUOUS
 10
134.869367
 20
215.416656
 11
134.869367
 21
219.302291
  0
LINE
  8
1
 62
7
  6
CONTINUOUS
 10
134.863445
 20
219.650990
 11
134.863445
 21
218.564302
  0
LINE
  8
1
 62
7
  6
CONTINUOUS
 10
134.863445
 20
218.564302
 11
136.886932
 21
218.564302
  0
LINE
  8
1
 62
7
  6
CONTINUOUS
 10
136.886932
 20
218.564302
 11
136.886932
 21
219.650990
  0
LINE
  8
1
 62
7
  6
CONTINUOUS
 10
136.886932
 20
219.650990
 11
134.863445
 21
219.650990
  0
TEXT
  8
1
 62
7
  6
CONTINUOUS
 10
95.515692
 20
211.634454
 40
2.000000
 41
0.500000
  1
15
  7
KANJI
 50
0.000000
 51
0.000000
  0
TEXT
  8
1
 62
7
  6
CONTINUOUS
 10
95.515692
 20
211.507986
 40
2.000000
 41
0.500000
  1
1
  7
KANJI
 50
0.000000
 51
0.000000
  0
TEXT
  8
1
 62
7
  6
CONTINUOUS
 10
133.022801
 20
211.498325
 40
2.000000
 41
0.500000
  1
1
  7
KANJI
 50
0.000000
 51
0.000000
  0
TEXT
  8
1
 62
7
  6
CONTINUOUS
 10
176.128745
 20
211.419734
 40
2.000000
 41
0.500000
  1
1
  7
KANJI
 50
0.000000
 51
0.000000
  0
TEXT
  8
1
 62
7
  6
CONTINUOUS
 10
151.321636
 20
211.429395
 40
2.000000
 41
0.500000
  1
1
  7
KANJI
 50
0.000000
 51
0.000000
  0
TEXT
  8
1
 62
7
  6
CONTINUOUS
 10
151.321636
 20
211.555863
 40
2.000000
 41
0.500000
  1
10
  7
KANJI
 50
0.000000
 51
0.000000
  0
TEXT
  8
1
 62
7
  6
CONTINUOUS
 10
174.161266
 20
146.492905
 40
2.000000
 41
0.500000
  1
1
  7
KANJI
 50
0.000000
 51
0.000000
  0
TEXT
  8
1
 62
7
  6
CONTINUOUS
 10
149.354156
 20
146.502566
 40
2.000000
 41
0.500000
  1
1
  7
KANJI
 50
0.000000
 51
0.000000
  0
TEXT
  8
1
 62
7
  6
CONTINUOUS
 10
149.354156
 20
146.629033
 40
2.000000
 41
0.500000
  1
10
  7
KANJI
 50
0.000000
 51
0.000000
  0
LINE
  8
1
 62
7
  6
CONTINUOUS
 10
365.068367
 20
223.074464
 11
365.068367
 21
143.074464
  0
LINE
  8
1
 62
7
  6
CONTINUOUS
 10
248.068367
 20
143.074464
 11
248.068367
 21
223.074464
  0
LINE
  8
1
 62
7
  6
CONTINUOUS
 10
365.068367
 20
143.074464
 11
248.068367
 21
143.074464
  0
LINE
  8
1
 62
7
  6
CONTINUOUS
 10
248.068367
 20
223.074464
 11
365.068367
 21
223.074464
  0
ARC
  8
1
 62
7
  6
CONTINUOUS
 10
292.818367
 20
179.324464
 40
1.000000
 50
90.000000
 51
180.000000
  0
LINE
  8
1
 62
7
  6
CONTINUOUS
 10
302.818367
 20
180.324464
 11
292.818367
 21
180.324464
  0
ARC
  8
1
 62
7
  6
CONTINUOUS
 10
302.818367
 20
179.324464
 40
1.000000
 50
0.000000
 51
90.000000
  0
LINE
  8
1
 62
7
  6
CONTINUOUS
 10
303.818367
 20
169.324464
 11
303.818367
 21
179.324464
  0
ARC
  8
1
 62
7
  6
CONTINUOUS
 10
302.818367
 20
169.324464
 40
1.000000
 50
-90.000000
 51
0.000000
  0
LINE
  8
1
 62
7
  6
CONTINUOUS
 10
292.818367
 20
168.324464
 11
302.818367
 21
168.324464
  0
LINE
  8
1
 62
7
  6
CONTINUOUS
 10
291.818367
 20
179.324464
 11
291.818367
 21
169.324464
  0
ARC
  8
1
 62
7
  6
CONTINUOUS
 10
292.818367
 20
169.324464
 40
1.000000
 50
180.000000
 51
-90.000000
  0
ARC
  8
1
 62
7
  6
CONTINUOUS
 10
310.318367
 20
179.324464
 40
1.000000
 50
90.000000
 51
180.000000
  0
LINE
  8
1
 62
7
  6
CONTINUOUS
 10
320.318367
 20
180.324464
 11
310.318367
 21
180.324464
  0
ARC
  8
1
 62
7
  6
CONTINUOUS
 10
320.318367
 20
179.324464
 40
1.000000
 50
0.000000
 51
90.000000
  0
LINE
  8
1
 62
7
  6
CONTINUOUS
 10
321.318367
 20
169.324464
 11
321.318367
 21
179.324464
  0
ARC
  8
1
 62
7
  6
CONTINUOUS
 10
320.318367
 20
169.324464
 40
1.000000
 50
-90.000000
 51
0.000000
  0
LINE
  8
1
 62
7
  6
CONTINUOUS
 10
310.318367
 20
168.324464
 11
320.318367
 21
168.324464
  0
LINE
  8
1
 62
7
  6
CONTINUOUS
 10
309.318367
 20
179.324464
 11
309.318367
 21
169.324464
  0
ARC
  8
1
 62
7
  6
CONTINUOUS
 10
310.318367
 20
169.324464
 40
1.000000
 50
180.000000
 51
-90.000000
  0
ARC
  8
1
 62
7
  6
CONTINUOUS
 10
292.818367
 20
161.824464
 40
1.000000
 50
90.000000
 51
180.000000
  0
LINE
  8
1
 62
7
  6
CONTINUOUS
 10
302.818367
 20
162.824464
 11
292.818367
 21
162.824464
  0
ARC
  8
1
 62
7
  6
CONTINUOUS
 10
302.818367
 20
161.824464
 40
1.000000
 50
0.000000
 51
90.000000
  0
LINE
  8
1
 62
7
  6
CONTINUOUS
 10
303.818367
 20
151.824464
 11
303.818367
 21
161.824464
  0
ARC
  8
1
 62
7
  6
CONTINUOUS
 10
302.818367
 20
151.824464
 40
1.000000
 50
-90.000000
 51
0.000000
  0
LINE
  8
1
 62
7
  6
CONTINUOUS
 10
292.818367
 20
150.824464
 11
302.818367
 21
150.824464
  0
LINE
  8
1
 62
7
  6
CONTINUOUS
 10
291.818367
 20
161.824464
 11
291.818367
 21
151.824464
  0
ARC
  8
1
 62
7
  6
CONTINUOUS
 10
292.818367
 20
151.824464
 40
1.000000
 50
180.000000
 51
-90.000000
  0
ARC
  8
1
 62
7
  6
CONTINUOUS
 10
310.318367
 20
161.824464
 40
1.000000
 50
90.000000
 51
180.000000
  0
LINE
  8
1
 62
7
  6
CONTINUOUS
 10
320.318367
 20
162.824464
 11
310.318367
 21
162.824464
  0
ARC
  8
1
 62
7
  6
CONTINUOUS
 10
320.318367
 20
161.824464
 40
1.000000
 50
0.000000
 51
90.000000
  0
LINE
  8
1
 62
7
  6
CONTINUOUS
 10
321.318367
 20
151.824464
 11
321.318367
 21
161.824464
  0
ARC
  8
1
 62
7
  6
CONTINUOUS
 10
320.318367
 20
151.824464
 40
1.000000
 50
-90.000000
 51
0.000000
  0
LINE
  8
1
 62
7
  6
CONTINUOUS
 10
310.318367
 20
150.824464
 11
320.318367
 21
150.824464
  0
LINE
  8
1
 62
7
  6
CONTINUOUS
 10
309.318367
 20
161.824464
 11
309.318367
 21
151.824464
  0
ARC
  8
1
 62
7
  6
CONTINUOUS
 10
310.318367
 20
151.824464
 40
1.000000
 50
180.000000
 51
-90.000000
  0
ARC
  8
1
 62
7
  6
CONTINUOUS
 10
292.818367
 20
196.824464
 40
1.000000
 50
90.000000
 51
180.000000
  0
LINE
  8
1
 62
7
  6
CONTINUOUS
 10
302.818367
 20
197.824464
 11
292.818367
 21
197.824464
  0
ARC
  8
1
 62
7
  6
CONTINUOUS
 10
302.818367
 20
196.824464
 40
1.000000
 50
0.000000
 51
90.000000
  0
LINE
  8
1
 62
7
  6
CONTINUOUS
 10
303.818367
 20
186.824464
 11
303.818367
 21
196.824464
  0
ARC
  8
1
 62
7
  6
CONTINUOUS
 10
302.818367
 20
186.824464
 40
1.000000
 50
-90.000000
 51
0.000000
  0
LINE
  8
1
 62
7
  6
CONTINUOUS
 10
292.818367
 20
185.824464
 11
302.818367
 21
185.824464
  0
LINE
  8
1
 62
7
  6
CONTINUOUS
 10
291.818367
 20
196.824464
 11
291.818367
 21
186.824464
  0
ARC
  8
1
 62
7
  6
CONTINUOUS
 10
292.818367
 20
186.824464
 40
1.000000
 50
180.000000
 51
-90.000000
  0
ARC
  8
1
 62
7
  6
CONTINUOUS
 10
310.318367
 20
196.824464
 40
1.000000
 50
90.000000
 51
180.000000
  0
LINE
  8
1
 62
7
  6
CONTINUOUS
 10
320.318367
 20
197.824464
 11
310.318367
 21
197.824464
  0
ARC
  8
1
 62
7
  6
CONTINUOUS
 10
320.318367
 20
196.824464
 40
1.000000
 50
0.000000
 51
90.000000
  0
LINE
  8
1
 62
7
  6
CONTINUOUS
 10
321.318367
 20
186.824464
 11
321.318367
 21
196.824464
  0
ARC
  8
1
 62
7
  6
CONTINUOUS
 10
320.318367
 20
186.824464
 40
1.000000
 50
-90.000000
 51
0.000000
  0
LINE
  8
1
 62
7
  6
CONTINUOUS
 10
310.318367
 20
185.824464
 11
320.318367
 21
185.824464
  0
LINE
  8
1
 62
7
  6
CONTINUOUS
 10
309.318367
 20
196.824464
 11
309.318367
 21
186.824464
  0
ARC
  8
1
 62
7
  6
CONTINUOUS
 10
310.318367
 20
186.824464
 40
1.000000
 50
180.000000
 51
-90.000000
  0
ARC
  8
1
 62
7
  6
CONTINUOUS
 10
292.818367
 20
214.324464
 40
1.000000
 50
90.000000
 51
180.000000
  0
LINE
  8
1
 62
7
  6
CONTINUOUS
 10
302.818367
 20
215.324464
 11
292.818367
 21
215.324464
  0
ARC
  8
1
 62
7
  6
CONTINUOUS
 10
302.818367
 20
214.324464
 40
1.000000
 50
0.000000
 51
90.000000
  0
LINE
  8
1
 62
7
  6
CONTINUOUS
 10
303.818367
 20
204.324464
 11
303.818367
 21
214.324464
  0
ARC
  8
1
 62
7
  6
CONTINUOUS
 10
302.818367
 20
204.324464
 40
1.000000
 50
-90.000000
 51
0.000000
  0
LINE
  8
1
 62
7
  6
CONTINUOUS
 10
292.818367
 20
203.324464
 11
302.818367
 21
203.324464
  0
LINE
  8
1
 62
7
  6
CONTINUOUS
 10
291.818367
 20
214.324464
 11
291.818367
 21
204.324464
  0
ARC
  8
1
 62
7
  6
CONTINUOUS
 10
292.818367
 20
204.324464
 40
1.000000
 50
180.000000
 51
-90.000000
  0
ARC
  8
1
 62
7
  6
CONTINUOUS
 10
310.318367
 20
214.324464
 40
1.000000
 50
90.000000
 51
180.000000
  0
LINE
  8
1
 62
7
  6
CONTINUOUS
 10
320.318367
 20
215.324464
 11
310.318367
 21
215.324464
  0
ARC
  8
1
 62
7
  6
CONTINUOUS
 10
320.318367
 20
214.324464
 40
1.000000
 50
0.000000
 51
90.000000
  0
LINE
  8
1
 62
7
  6
CONTINUOUS
 10
321.318367
 20
204.324464
 11
321.318367
 21
214.324464
  0
ARC
  8
1
 62
7
  6
CONTINUOUS
 10
320.318367
 20
204.324464
 40
1.000000
 50
-90.000000
 51
0.000000
  0
LINE
  8
1
 62
7
  6
CONTINUOUS
 10
310.318367
 20
203.324464
 11
320.318367
 21
203.324464
  0
LINE
  8
1
 62
7
  6
CONTINUOUS
 10
309.318367
 20
214.324464
 11
309.318367
 21
204.324464
  0
ARC
  8
1
 62
7
  6
CONTINUOUS
 10
310.318367
 20
204.324464
 40
1.000000
 50
180.000000
 51
-90.000000
  0
LINE
  8
1
 62
7
  6
CONTINUOUS
 10
309.972386
 20
214.132880
 11
309.972386
 21
212.966966
  0
LINE
  8
1
 62
7
  6
CONTINUOUS
 10
309.972386
 20
212.966966
 11
313.099156
 21
212.966966
  0
LINE
  8
1
 62
7
  6
CONTINUOUS
 10
313.099156
 20
212.966966
 11
313.099156
 21
214.132880
  0
LINE
  8
1
 62
7
  6
CONTINUOUS
 10
313.099156
 20
214.132880
 11
309.972386
 21
214.132880
  0
LINE
  8
1
 62
7
  6
CONTINUOUS
 10
292.472386
 20
214.132880
 11
292.472386
 21
212.966966
  0
LINE
  8
1
 62
7
  6
CONTINUOUS
 10
292.472386
 20
212.966966
 11
295.599156
 21
212.966966
  0
LINE
  8
1
 62
7
  6
CONTINUOUS
 10
295.599156
 20
212.966966
 11
295.599156
 21
214.132880
  0
LINE
  8
1
 62
7
  6
CONTINUOUS
 10
295.599156
 20
214.132880
 11
292.472386
 21
214.132880
  0
LINE
  8
1
 62
7
  6
CONTINUOUS
 10
309.972386
 20
196.632880
 11
309.972386
 21
195.466966
  0
LINE
  8
1
 62
7
  6
CONTINUOUS
 10
309.972386
 20
195.466966
 11
313.099156
 21
195.466966
  0
LINE
  8
1
 62
7
  6
CONTINUOUS
 10
313.099156
 20
195.466966
 11
313.099156
 21
196.632880
  0
LINE
  8
1
 62
7
  6
CONTINUOUS
 10
313.099156
 20
196.632880
 11
309.972386
 21
196.632880
  0
LINE
  8
1
 62
7
  6
CONTINUOUS
 10
292.472386
 20
196.632880
 11
292.472386
 21
195.466966
  0
LINE
  8
1
 62
7
  6
CONTINUOUS
 10
292.472386
 20
195.466966
 11
295.599156
 21
195.466966
  0
LINE
  8
1
 62
7
  6
CONTINUOUS
 10
295.599156
 20
195.466966
 11
295.599156
 21
196.632880
  0
LINE
  8
1
 62
7
  6
CONTINUOUS
 10
295.599156
 20
196.632880
 11
292.472386
 21
196.632880
  0
LINE
  8
1
 62
7
  6
CONTINUOUS
 10
292.472386
 20
179.132880
 11
292.472386
 21
177.966966
  0
LINE
  8
1
 62
7
  6
CONTINUOUS
 10
292.472386
 20
177.966966
 11
295.599156
 21
177.966966
  0
LINE
  8
1
 62
7
  6
CONTINUOUS
 10
295.599156
 20
177.966966
 11
295.599156
 21
179.132880
  0
LINE
  8
1
 62
7
  6
CONTINUOUS
 10
295.599156
 20
179.132880
 11
292.472386
 21
179.132880
  0
LINE
  8
1
 62
7
  6
CONTINUOUS
 10
309.972386
 20
179.132880
 11
309.972386
 21
177.966966
  0
LINE
  8
1
 62
7
  6
CONTINUOUS
 10
309.972386
 20
177.966966
 11
313.099156
 21
177.966966
  0
LINE
  8
1
 62
7
  6
CONTINUOUS
 10
313.099156
 20
177.966966
 11
313.099156
 21
179.132880
  0
LINE
  8
1
 62
7
  6
CONTINUOUS
 10
313.099156
 20
179.132880
 11
309.972386
 21
179.132880
  0
LINE
  8
1
 62
7
  6
CONTINUOUS
 10
309.972386
 20
161.632880
 11
309.972386
 21
160.466966
  0
LINE
  8
1
 62
7
  6
CONTINUOUS
 10
309.972386
 20
160.466966
 11
313.099156
 21
160.466966
  0
LINE
  8
1
 62
7
  6
CONTINUOUS
 10
313.099156
 20
160.466966
 11
313.099156
 21
161.632880
  0
LINE
  8
1
 62
7
  6
CONTINUOUS
 10
313.099156
 20
161.632880
 11
309.972386
 21
161.632880
  0
LINE
  8
1
 62
7
  6
CONTINUOUS
 10
292.472386
 20
161.632880
 11
292.472386
 21
160.466966
  0
LINE
  8
1
 62
7
  6
CONTINUOUS
 10
292.472386
 20
160.466966
 11
295.599156
 21
160.466966
  0
LINE
  8
1
 62
7
  6
CONTINUOUS
 10
295.599156
 20
160.466966
 11
295.599156
 21
161.632880
  0
LINE
  8
1
 62
7
  6
CONTINUOUS
 10
295.599156
 20
161.632880
 11
292.472386
 21
161.632880
  0
ARC
  8
1
 62
7
  6
CONTINUOUS
 10
345.318367
 20
179.324464
 40
1.000000
 50
90.000000
 51
180.000000
  0
LINE
  8
1
 62
7
  6
CONTINUOUS
 10
355.318367
 20
180.324464
 11
345.318367
 21
180.324464
  0
ARC
  8
1
 62
7
  6
CONTINUOUS
 10
355.318367
 20
179.324464
 40
1.000000
 50
0.000000
 51
90.000000
  0
LINE
  8
1
 62
7
  6
CONTINUOUS
 10
356.318367
 20
169.324464
 11
356.318367
 21
179.324464
  0
ARC
  8
1
 62
7
  6
CONTINUOUS
 10
355.318367
 20
169.324464
 40
1.000000
 50
-90.000000
 51
0.000000
  0
LINE
  8
1
 62
7
  6
CONTINUOUS
 10
345.318367
 20
168.324464
 11
355.318367
 21
168.324464
  0
LINE
  8
1
 62
7
  6
CONTINUOUS
 10
344.318367
 20
179.324464
 11
344.318367
 21
169.324464
  0
ARC
  8
1
 62
7
  6
CONTINUOUS
 10
345.318367
 20
169.324464
 40
1.000000
 50
180.000000
 51
-90.000000
  0
ARC
  8
1
 62
7
  6
CONTINUOUS
 10
345.318367
 20
161.824464
 40
1.000000
 50
90.000000
 51
180.000000
  0
LINE
  8
1
 62
7
  6
CONTINUOUS
 10
355.318367
 20
162.824464
 11
345.318367
 21
162.824464
  0
ARC
  8
1
 62
7
  6
CONTINUOUS
 10
355.318367
 20
161.824464
 40
1.000000
 50
0.000000
 51
90.000000
  0
LINE
  8
1
 62
7
  6
CONTINUOUS
 10
356.318367
 20
151.824464
 11
356.318367
 21
161.824464
  0
ARC
  8
1
 62
7
  6
CONTINUOUS
 10
355.318367
 20
151.824464
 40
1.000000
 50
-90.000000
 51
0.000000
  0
LINE
  8
1
 62
7
  6
CONTINUOUS
 10
345.318367
 20
150.824464
 11
355.318367
 21
150.824464
  0
LINE
  8
1
 62
7
  6
CONTINUOUS
 10
344.318367
 20
161.824464
 11
344.318367
 21
151.824464
  0
ARC
  8
1
 62
7
  6
CONTINUOUS
 10
345.318367
 20
151.824464
 40
1.000000
 50
180.000000
 51
-90.000000
  0
ARC
  8
1
 62
7
  6
CONTINUOUS
 10
345.318367
 20
196.824464
 40
1.000000
 50
90.000000
 51
180.000000
  0
LINE
  8
1
 62
7
  6
CONTINUOUS
 10
355.318367
 20
197.824464
 11
345.318367
 21
197.824464
  0
ARC
  8
1
 62
7
  6
CONTINUOUS
 10
355.318367
 20
196.824464
 40
1.000000
 50
0.000000
 51
90.000000
  0
LINE
  8
1
 62
7
  6
CONTINUOUS
 10
356.318367
 20
186.824464
 11
356.318367
 21
196.824464
  0
ARC
  8
1
 62
7
  6
CONTINUOUS
 10
355.318367
 20
186.824464
 40
1.000000
 50
-90.000000
 51
0.000000
  0
LINE
  8
1
 62
7
  6
CONTINUOUS
 10
345.318367
 20
185.824464
 11
355.318367
 21
185.824464
  0
LINE
  8
1
 62
7
  6
CONTINUOUS
 10
344.318367
 20
196.824464
 11
344.318367
 21
186.824464
  0
ARC
  8
1
 62
7
  6
CONTINUOUS
 10
345.318367
 20
186.824464
 40
1.000000
 50
180.000000
 51
-90.000000
  0
ARC
  8
1
 62
7
  6
CONTINUOUS
 10
345.318367
 20
214.324464
 40
1.000000
 50
90.000000
 51
180.000000
  0
LINE
  8
1
 62
7
  6
CONTINUOUS
 10
355.318367
 20
215.324464
 11
345.318367
 21
215.324464
  0
ARC
  8
1
 62
7
  6
CONTINUOUS
 10
355.318367
 20
214.324464
 40
1.000000
 50
0.000000
 51
90.000000
  0
LINE
  8
1
 62
7
  6
CONTINUOUS
 10
356.318367
 20
204.324464
 11
356.318367
 21
214.324464
  0
ARC
  8
1
 62
7
  6
CONTINUOUS
 10
355.318367
 20
204.324464
 40
1.000000
 50
-90.000000
 51
0.000000
  0
LINE
  8
1
 62
7
  6
CONTINUOUS
 10
345.318367
 20
203.324464
 11
355.318367
 21
203.324464
  0
LINE
  8
1
 62
7
  6
CONTINUOUS
 10
344.318367
 20
214.324464
 11
344.318367
 21
204.324464
  0
ARC
  8
1
 62
7
  6
CONTINUOUS
 10
345.318367
 20
204.324464
 40
1.000000
 50
180.000000
 51
-90.000000
  0
LINE
  8
1
 62
7
  6
CONTINUOUS
 10
344.972386
 20
214.132880
 11
344.972386
 21
212.966966
  0
LINE
  8
1
 62
7
  6
CONTINUOUS
 10
344.972386
 20
212.966966
 11
348.099156
 21
212.966966
  0
LINE
  8
1
 62
7
  6
CONTINUOUS
 10
348.099156
 20
212.966966
 11
348.099156
 21
214.132880
  0
LINE
  8
1
 62
7
  6
CONTINUOUS
 10
348.099156
 20
214.132880
 11
344.972386
 21
214.132880
  0
LINE
  8
1
 62
7
  6
CONTINUOUS
 10
344.972386
 20
196.632880
 11
344.972386
 21
195.466966
  0
LINE
  8
1
 62
7
  6
CONTINUOUS
 10
344.972386
 20
195.466966
 11
348.099156
 21
195.466966
  0
LINE
  8
1
 62
7
  6
CONTINUOUS
 10
348.099156
 20
195.466966
 11
348.099156
 21
196.632880
  0
LINE
  8
1
 62
7
  6
CONTINUOUS
 10
348.099156
 20
196.632880
 11
344.972386
 21
196.632880
  0
LINE
  8
1
 62
7
  6
CONTINUOUS
 10
344.972386
 20
179.132880
 11
344.972386
 21
177.966966
  0
LINE
  8
1
 62
7
  6
CONTINUOUS
 10
344.972386
 20
177.966966
 11
348.099156
 21
177.966966
  0
LINE
  8
1
 62
7
  6
CONTINUOUS
 10
348.099156
 20
177.966966
 11
348.099156
 21
179.132880
  0
LINE
  8
1
 62
7
  6
CONTINUOUS
 10
348.099156
 20
179.132880
 11
344.972386
 21
179.132880
  0
LINE
  8
1
 62
7
  6
CONTINUOUS
 10
344.972386
 20
161.632880
 11
344.972386
 21
160.466966
  0
LINE
  8
1
 62
7
  6
CONTINUOUS
 10
344.972386
 20
160.466966
 11
348.099156
 21
160.466966
  0
LINE
  8
1
 62
7
  6
CONTINUOUS
 10
348.099156
 20
160.466966
 11
348.099156
 21
161.632880
  0
LINE
  8
1
 62
7
  6
CONTINUOUS
 10
348.099156
 20
161.632880
 11
344.972386
 21
161.632880
  0
ARC
  8
1
 62
7
  6
CONTINUOUS
 10
327.818367
 20
179.324464
 40
1.000000
 50
90.000000
 51
180.000000
  0
LINE
  8
1
 62
7
  6
CONTINUOUS
 10
337.818367
 20
180.324464
 11
327.818367
 21
180.324464
  0
ARC
  8
1
 62
7
  6
CONTINUOUS
 10
337.818367
 20
179.324464
 40
1.000000
 50
0.000000
 51
90.000000
  0
LINE
  8
1
 62
7
  6
CONTINUOUS
 10
338.818367
 20
169.324464
 11
338.818367
 21
179.324464
  0
ARC
  8
1
 62
7
  6
CONTINUOUS
 10
337.818367
 20
169.324464
 40
1.000000
 50
-90.000000
 51
0.000000
  0
LINE
  8
1
 62
7
  6
CONTINUOUS
 10
327.818367
 20
168.324464
 11
337.818367
 21
168.324464
  0
LINE
  8
1
 62
7
  6
CONTINUOUS
 10
326.818367
 20
179.324464
 11
326.818367
 21
169.324464
  0
ARC
  8
1
 62
7
  6
CONTINUOUS
 10
327.818367
 20
169.324464
 40
1.000000
 50
180.000000
 51
-90.000000
  0
ARC
  8
1
 62
7
  6
CONTINUOUS
 10
327.818367
 20
161.824464
 40
1.000000
 50
90.000000
 51
180.000000
  0
LINE
  8
1
 62
7
  6
CONTINUOUS
 10
337.818367
 20
162.824464
 11
327.818367
 21
162.824464
  0
ARC
  8
1
 62
7
  6
CONTINUOUS
 10
337.818367
 20
161.824464
 40
1.000000
 50
0.000000
 51
90.000000
  0
LINE
  8
1
 62
7
  6
CONTINUOUS
 10
338.818367
 20
151.824464
 11
338.818367
 21
161.824464
  0
ARC
  8
1
 62
7
  6
CONTINUOUS
 10
337.818367
 20
151.824464
 40
1.000000
 50
-90.000000
 51
0.000000
  0
LINE
  8
1
 62
7
  6
CONTINUOUS
 10
327.818367
 20
150.824464
 11
337.818367
 21
150.824464
  0
LINE
  8
1
 62
7
  6
CONTINUOUS
 10
326.818367
 20
161.824464
 11
326.818367
 21
151.824464
  0
ARC
  8
1
 62
7
  6
CONTINUOUS
 10
327.818367
 20
151.824464
 40
1.000000
 50
180.000000
 51
-90.000000
  0
ARC
  8
1
 62
7
  6
CONTINUOUS
 10
327.818367
 20
196.824464
 40
1.000000
 50
90.000000
 51
180.000000
  0
LINE
  8
1
 62
7
  6
CONTINUOUS
 10
337.818367
 20
197.824464
 11
327.818367
 21
197.824464
  0
ARC
  8
1
 62
7
  6
CONTINUOUS
 10
337.818367
 20
196.824464
 40
1.000000
 50
0.000000
 51
90.000000
  0
LINE
  8
1
 62
7
  6
CONTINUOUS
 10
338.818367
 20
186.824464
 11
338.818367
 21
196.824464
  0
ARC
  8
1
 62
7
  6
CONTINUOUS
 10
337.818367
 20
186.824464
 40
1.000000
 50
-90.000000
 51
0.000000
  0
LINE
  8
1
 62
7
  6
CONTINUOUS
 10
327.818367
 20
185.824464
 11
337.818367
 21
185.824464
  0
LINE
  8
1
 62
7
  6
CONTINUOUS
 10
326.818367
 20
196.824464
 11
326.818367
 21
186.824464
  0
ARC
  8
1
 62
7
  6
CONTINUOUS
 10
327.818367
 20
186.824464
 40
1.000000
 50
180.000000
 51
-90.000000
  0
ARC
  8
1
 62
7
  6
CONTINUOUS
 10
327.818367
 20
214.324464
 40
1.000000
 50
90.000000
 51
180.000000
  0
LINE
  8
1
 62
7
  6
CONTINUOUS
 10
337.818367
 20
215.324464
 11
327.818367
 21
215.324464
  0
ARC
  8
1
 62
7
  6
CONTINUOUS
 10
337.818367
 20
214.324464
 40
1.000000
 50
0.000000
 51
90.000000
  0
LINE
  8
1
 62
7
  6
CONTINUOUS
 10
338.818367
 20
204.324464
 11
338.818367
 21
214.324464
  0
ARC
  8
1
 62
7
  6
CONTINUOUS
 10
337.818367
 20
204.324464
 40
1.000000
 50
-90.000000
 51
0.000000
  0
LINE
  8
1
 62
7
  6
CONTINUOUS
 10
327.818367
 20
203.324464
 11
337.818367
 21
203.324464
  0
LINE
  8
1
 62
7
  6
CONTINUOUS
 10
326.818367
 20
214.324464
 11
326.818367
 21
204.324464
  0
ARC
  8
1
 62
7
  6
CONTINUOUS
 10
327.818367
 20
204.324464
 40
1.000000
 50
180.000000
 51
-90.000000
  0
LINE
  8
1
 62
7
  6
CONTINUOUS
 10
327.472386
 20
214.132880
 11
327.472386
 21
212.966966
  0
LINE
  8
1
 62
7
  6
CONTINUOUS
 10
327.472386
 20
212.966966
 11
330.599156
 21
212.966966
  0
LINE
  8
1
 62
7
  6
CONTINUOUS
 10
330.599156
 20
212.966966
 11
330.599156
 21
214.132880
  0
LINE
  8
1
 62
7
  6
CONTINUOUS
 10
330.599156
 20
214.132880
 11
327.472386
 21
214.132880
  0
LINE
  8
1
 62
7
  6
CONTINUOUS
 10
327.472386
 20
196.632880
 11
327.472386
 21
195.466966
  0
LINE
  8
1
 62
7
  6
CONTINUOUS
 10
327.472386
 20
195.466966
 11
330.599156
 21
195.466966
  0
LINE
  8
1
 62
7
  6
CONTINUOUS
 10
330.599156
 20
195.466966
 11
330.599156
 21
196.632880
  0
LINE
  8
1
 62
7
  6
CONTINUOUS
 10
330.599156
 20
196.632880
 11
327.472386
 21
196.632880
  0
LINE
  8
1
 62
7
  6
CONTINUOUS
 10
327.472386
 20
179.132880
 11
327.472386
 21
177.966966
  0
LINE
  8
1
 62
7
  6
CONTINUOUS
 10
327.472386
 20
177.966966
 11
330.599156
 21
177.966966
  0
LINE
  8
1
 62
7
  6
CONTINUOUS
 10
330.599156
 20
177.966966
 11
330.599156
 21
179.132880
  0
LINE
  8
1
 62
7
  6
CONTINUOUS
 10
330.599156
 20
179.132880
 11
327.472386
 21
179.132880
  0
LINE
  8
1
 62
7
  6
CONTINUOUS
 10
327.472386
 20
161.632880
 11
327.472386
 21
160.466966
  0
LINE
  8
1
 62
7
  6
CONTINUOUS
 10
327.472386
 20
160.466966
 11
330.599156
 21
160.466966
  0
LINE
  8
1
 62
7
  6
CONTINUOUS
 10
330.599156
 20
160.466966
 11
330.599156
 21
161.632880
  0
LINE
  8
1
 62
7
  6
CONTINUOUS
 10
330.599156
 20
161.632880
 11
327.472386
 21
161.632880
  0
ARC
  8
1
 62
7
  6
CONTINUOUS
 10
275.318367
 20
179.324464
 40
1.000000
 50
90.000000
 51
180.000000
  0
LINE
  8
1
 62
7
  6
CONTINUOUS
 10
285.318367
 20
180.324464
 11
275.318367
 21
180.324464
  0
ARC
  8
1
 62
7
  6
CONTINUOUS
 10
285.318367
 20
179.324464
 40
1.000000
 50
0.000000
 51
90.000000
  0
LINE
  8
1
 62
7
  6
CONTINUOUS
 10
286.318367
 20
169.324464
 11
286.318367
 21
179.324464
  0
ARC
  8
1
 62
7
  6
CONTINUOUS
 10
285.318367
 20
169.324464
 40
1.000000
 50
-90.000000
 51
0.000000
  0
LINE
  8
1
 62
7
  6
CONTINUOUS
 10
275.318367
 20
168.324464
 11
285.318367
 21
168.324464
  0
LINE
  8
1
 62
7
  6
CONTINUOUS
 10
274.318367
 20
179.324464
 11
274.318367
 21
169.324464
  0
ARC
  8
1
 62
7
  6
CONTINUOUS
 10
275.318367
 20
169.324464
 40
1.000000
 50
180.000000
 51
-90.000000
  0
ARC
  8
1
 62
7
  6
CONTINUOUS
 10
275.318367
 20
161.824464
 40
1.000000
 50
90.000000
 51
180.000000
  0
LINE
  8
1
 62
7
  6
CONTINUOUS
 10
285.318367
 20
162.824464
 11
275.318367
 21
162.824464
  0
ARC
  8
1
 62
7
  6
CONTINUOUS
 10
285.318367
 20
161.824464
 40
1.000000
 50
0.000000
 51
90.000000
  0
LINE
  8
1
 62
7
  6
CONTINUOUS
 10
286.318367
 20
151.824464
 11
286.318367
 21
161.824464
  0
ARC
  8
1
 62
7
  6
CONTINUOUS
 10
285.318367
 20
151.824464
 40
1.000000
 50
-90.000000
 51
0.000000
  0
LINE
  8
1
 62
7
  6
CONTINUOUS
 10
275.318367
 20
150.824464
 11
285.318367
 21
150.824464
  0
LINE
  8
1
 62
7
  6
CONTINUOUS
 10
274.318367
 20
161.824464
 11
274.318367
 21
151.824464
  0
ARC
  8
1
 62
7
  6
CONTINUOUS
 10
275.318367
 20
151.824464
 40
1.000000
 50
180.000000
 51
-90.000000
  0
ARC
  8
1
 62
7
  6
CONTINUOUS
 10
275.318367
 20
196.824464
 40
1.000000
 50
90.000000
 51
180.000000
  0
LINE
  8
1
 62
7
  6
CONTINUOUS
 10
285.318367
 20
197.824464
 11
275.318367
 21
197.824464
  0
ARC
  8
1
 62
7
  6
CONTINUOUS
 10
285.318367
 20
196.824464
 40
1.000000
 50
0.000000
 51
90.000000
  0
LINE
  8
1
 62
7
  6
CONTINUOUS
 10
286.318367
 20
186.824464
 11
286.318367
 21
196.824464
  0
ARC
  8
1
 62
7
  6
CONTINUOUS
 10
285.318367
 20
186.824464
 40
1.000000
 50
-90.000000
 51
0.000000
  0
LINE
  8
1
 62
7
  6
CONTINUOUS
 10
275.318367
 20
185.824464
 11
285.318367
 21
185.824464
  0
LINE
  8
1
 62
7
  6
CONTINUOUS
 10
274.318367
 20
196.824464
 11
274.318367
 21
186.824464
  0
ARC
  8
1
 62
7
  6
CONTINUOUS
 10
275.318367
 20
186.824464
 40
1.000000
 50
180.000000
 51
-90.000000
  0
ARC
  8
1
 62
7
  6
CONTINUOUS
 10
275.318367
 20
214.324464
 40
1.000000
 50
90.000000
 51
180.000000
  0
LINE
  8
1
 62
7
  6
CONTINUOUS
 10
285.318367
 20
215.324464
 11
275.318367
 21
215.324464
  0
ARC
  8
1
 62
7
  6
CONTINUOUS
 10
285.318367
 20
214.324464
 40
1.000000
 50
0.000000
 51
90.000000
  0
LINE
  8
1
 62
7
  6
CONTINUOUS
 10
286.318367
 20
204.324464
 11
286.318367
 21
214.324464
  0
ARC
  8
1
 62
7
  6
CONTINUOUS
 10
285.318367
 20
204.324464
 40
1.000000
 50
-90.000000
 51
0.000000
  0
LINE
  8
1
 62
7
  6
CONTINUOUS
 10
275.318367
 20
203.324464
 11
285.318367
 21
203.324464
  0
LINE
  8
1
 62
7
  6
CONTINUOUS
 10
274.318367
 20
214.324464
 11
274.318367
 21
204.324464
  0
ARC
  8
1
 62
7
  6
CONTINUOUS
 10
275.318367
 20
204.324464
 40
1.000000
 50
180.000000
 51
-90.000000
  0
LINE
  8
1
 62
7
  6
CONTINUOUS
 10
274.972386
 20
214.132880
 11
274.972386
 21
212.966966
  0
LINE
  8
1
 62
7
  6
CONTINUOUS
 10
274.972386
 20
212.966966
 11
278.099156
 21
212.966966
  0
LINE
  8
1
 62
7
  6
CONTINUOUS
 10
278.099156
 20
212.966966
 11
278.099156
 21
214.132880
  0
LINE
  8
1
 62
7
  6
CONTINUOUS
 10
278.099156
 20
214.132880
 11
274.972386
 21
214.132880
  0
LINE
  8
1
 62
7
  6
CONTINUOUS
 10
274.972386
 20
196.632880
 11
274.972386
 21
195.466966
  0
LINE
  8
1
 62
7
  6
CONTINUOUS
 10
274.972386
 20
195.466966
 11
278.099156
 21
195.466966
  0
LINE
  8
1
 62
7
  6
CONTINUOUS
 10
278.099156
 20
195.466966
 11
278.099156
 21
196.632880
  0
LINE
  8
1
 62
7
  6
CONTINUOUS
 10
278.099156
 20
196.632880
 11
274.972386
 21
196.632880
  0
LINE
  8
1
 62
7
  6
CONTINUOUS
 10
274.972386
 20
179.132880
 11
274.972386
 21
177.966966
  0
LINE
  8
1
 62
7
  6
CONTINUOUS
 10
274.972386
 20
177.966966
 11
278.099156
 21
177.966966
  0
LINE
  8
1
 62
7
  6
CONTINUOUS
 10
278.099156
 20
177.966966
 11
278.099156
 21
179.132880
  0
LINE
  8
1
 62
7
  6
CONTINUOUS
 10
278.099156
 20
179.132880
 11
274.972386
 21
179.132880
  0
LINE
  8
1
 62
7
  6
CONTINUOUS
 10
274.972386
 20
161.632880
 11
274.972386
 21
160.466966
  0
LINE
  8
1
 62
7
  6
CONTINUOUS
 10
274.972386
 20
160.466966
 11
278.099156
 21
160.466966
  0
LINE
  8
1
 62
7
  6
CONTINUOUS
 10
278.099156
 20
160.466966
 11
278.099156
 21
161.632880
  0
LINE
  8
1
 62
7
  6
CONTINUOUS
 10
278.099156
 20
161.632880
 11
274.972386
 21
161.632880
  0
ARC
  8
1
 62
7
  6
CONTINUOUS
 10
257.818367
 20
179.324464
 40
1.000000
 50
90.000000
 51
180.000000
  0
LINE
  8
1
 62
7
  6
CONTINUOUS
 10
267.818367
 20
180.324464
 11
257.818367
 21
180.324464
  0
ARC
  8
1
 62
7
  6
CONTINUOUS
 10
267.818367
 20
179.324464
 40
1.000000
 50
0.000000
 51
90.000000
  0
LINE
  8
1
 62
7
  6
CONTINUOUS
 10
268.818367
 20
169.324464
 11
268.818367
 21
179.324464
  0
ARC
  8
1
 62
7
  6
CONTINUOUS
 10
267.818367
 20
169.324464
 40
1.000000
 50
-90.000000
 51
0.000000
  0
LINE
  8
1
 62
7
  6
CONTINUOUS
 10
257.818367
 20
168.324464
 11
267.818367
 21
168.324464
  0
LINE
  8
1
 62
7
  6
CONTINUOUS
 10
256.818367
 20
179.324464
 11
256.818367
 21
169.324464
  0
ARC
  8
1
 62
7
  6
CONTINUOUS
 10
257.818367
 20
169.324464
 40
1.000000
 50
180.000000
 51
-90.000000
  0
ARC
  8
1
 62
7
  6
CONTINUOUS
 10
257.818367
 20
161.824464
 40
1.000000
 50
90.000000
 51
180.000000
  0
LINE
  8
1
 62
7
  6
CONTINUOUS
 10
267.818367
 20
162.824464
 11
257.818367
 21
162.824464
  0
ARC
  8
1
 62
7
  6
CONTINUOUS
 10
267.818367
 20
161.824464
 40
1.000000
 50
0.000000
 51
90.000000
  0
LINE
  8
1
 62
7
  6
CONTINUOUS
 10
268.818367
 20
151.824464
 11
268.818367
 21
161.824464
  0
ARC
  8
1
 62
7
  6
CONTINUOUS
 10
267.818367
 20
151.824464
 40
1.000000
 50
-90.000000
 51
0.000000
  0
LINE
  8
1
 62
7
  6
CONTINUOUS
 10
257.818367
 20
150.824464
 11
267.818367
 21
150.824464
  0
LINE
  8
1
 62
7
  6
CONTINUOUS
 10
256.818367
 20
161.824464
 11
256.818367
 21
151.824464
  0
ARC
  8
1
 62
7
  6
CONTINUOUS
 10
257.818367
 20
151.824464
 40
1.000000
 50
180.000000
 51
-90.000000
  0
ARC
  8
1
 62
7
  6
CONTINUOUS
 10
257.818367
 20
196.824464
 40
1.000000
 50
90.000000
 51
180.000000
  0
LINE
  8
1
 62
7
  6
CONTINUOUS
 10
267.818367
 20
197.824464
 11
257.818367
 21
197.824464
  0
ARC
  8
1
 62
7
  6
CONTINUOUS
 10
267.818367
 20
196.824464
 40
1.000000
 50
0.000000
 51
90.000000
  0
LINE
  8
1
 62
7
  6
CONTINUOUS
 10
268.818367
 20
186.824464
 11
268.818367
 21
196.824464
  0
ARC
  8
1
 62
7
  6
CONTINUOUS
 10
267.818367
 20
186.824464
 40
1.000000
 50
-90.000000
 51
0.000000
  0
LINE
  8
1
 62
7
  6
CONTINUOUS
 10
257.818367
 20
185.824464
 11
267.818367
 21
185.824464
  0
LINE
  8
1
 62
7
  6
CONTINUOUS
 10
256.818367
 20
196.824464
 11
256.818367
 21
186.824464
  0
ARC
  8
1
 62
7
  6
CONTINUOUS
 10
257.818367
 20
186.824464
 40
1.000000
 50
180.000000
 51
-90.000000
  0
ARC
  8
1
 62
7
  6
CONTINUOUS
 10
257.818367
 20
214.324464
 40
1.000000
 50
90.000000
 51
180.000000
  0
LINE
  8
1
 62
7
  6
CONTINUOUS
 10
267.818367
 20
215.324464
 11
257.818367
 21
215.324464
  0
ARC
  8
1
 62
7
  6
CONTINUOUS
 10
267.818367
 20
214.324464
 40
1.000000
 50
0.000000
 51
90.000000
  0
LINE
  8
1
 62
7
  6
CONTINUOUS
 10
268.818367
 20
204.324464
 11
268.818367
 21
214.324464
  0
ARC
  8
1
 62
7
  6
CONTINUOUS
 10
267.818367
 20
204.324464
 40
1.000000
 50
-90.000000
 51
0.000000
  0
LINE
  8
1
 62
7
  6
CONTINUOUS
 10
257.818367
 20
203.324464
 11
267.818367
 21
203.324464
  0
LINE
  8
1
 62
7
  6
CONTINUOUS
 10
256.818367
 20
214.324464
 11
256.818367
 21
204.324464
  0
ARC
  8
1
 62
7
  6
CONTINUOUS
 10
257.818367
 20
204.324464
 40
1.000000
 50
180.000000
 51
-90.000000
  0
LINE
  8
1
 62
7
  6
CONTINUOUS
 10
257.472386
 20
214.132880
 11
257.472386
 21
212.966966
  0
LINE
  8
1
 62
7
  6
CONTINUOUS
 10
257.472386
 20
212.966966
 11
260.599156
 21
212.966966
  0
LINE
  8
1
 62
7
  6
CONTINUOUS
 10
260.599156
 20
212.966966
 11
260.599156
 21
214.132880
  0
LINE
  8
1
 62
7
  6
CONTINUOUS
 10
260.599156
 20
214.132880
 11
257.472386
 21
214.132880
  0
LINE
  8
1
 62
7
  6
CONTINUOUS
 10
257.472386
 20
196.632880
 11
257.472386
 21
195.466966
  0
LINE
  8
1
 62
7
  6
CONTINUOUS
 10
257.472386
 20
195.466966
 11
260.599156
 21
195.466966
  0
LINE
  8
1
 62
7
  6
CONTINUOUS
 10
260.599156
 20
195.466966
 11
260.599156
 21
196.632880
  0
LINE
  8
1
 62
7
  6
CONTINUOUS
 10
260.599156
 20
196.632880
 11
257.472386
 21
196.632880
  0
LINE
  8
1
 62
7
  6
CONTINUOUS
 10
257.472386
 20
179.132880
 11
257.472386
 21
177.966966
  0
LINE
  8
1
 62
7
  6
CONTINUOUS
 10
257.472386
 20
177.966966
 11
260.599156
 21
177.966966
  0
LINE
  8
1
 62
7
  6
CONTINUOUS
 10
260.599156
 20
177.966966
 11
260.599156
 21
179.132880
  0
LINE
  8
1
 62
7
  6
CONTINUOUS
 10
260.599156
 20
179.132880
 11
257.472386
 21
179.132880
  0
LINE
  8
1
 62
7
  6
CONTINUOUS
 10
257.472386
 20
161.632880
 11
257.472386
 21
160.466966
  0
LINE
  8
1
 62
7
  6
CONTINUOUS
 10
257.472386
 20
160.466966
 11
260.599156
 21
160.466966
  0
LINE
  8
1
 62
7
  6
CONTINUOUS
 10
260.599156
 20
160.466966
 11
260.599156
 21
161.632880
  0
LINE
  8
1
 62
7
  6
CONTINUOUS
 10
260.599156
 20
161.632880
 11
257.472386
 21
161.632880
  0
TEXT
  8
1
 62
7
  6
CONTINUOUS
 10
262.818367
 20
153.677596
 40
5.000000
 41
0.500000
  1
1
  7
KANJI
 50
0.000000
 51
0.000000
  0
LINE
  8
1
 62
7
  6
CONTINUOUS
 10
246.068367
 20
141.074464
 11
367.068367
 21
141.074464
  0
LINE
  8
1
 62
7
  6
CONTINUOUS
 10
246.068367
 20
225.074464
 11
367.068367
 21
225.074464
  0
DIMENSION
  8
1
 62
7
  6
CONTINUOUS
  2
*D5
 10
236.727355
 20
141.074464
 11
236.727355
 21
183.074464
 70
     0
  1
84
 13
244.068367
 23
141.074464
 14
244.068367
 24
225.074464
 50
90.000000
  0
ARC
  8
1
 62
7
  6
CONTINUOUS
 10
249.068367
 20
232.074464
 40
3.000000
 50
90.000000
 51
180.000000
  0
ARC
  8
1
 62
7
  6
CONTINUOUS
 10
364.068367
 20
232.074464
 40
3.000000
 50
0.000000
 51
90.000000
  0
LINE
  8
1
 62
7
  6
CONTINUOUS
 10
367.068367
 20
232.074464
 11
367.068367
 21
134.074464
  0
ARC
  8
1
 62
7
  6
CONTINUOUS
 10
364.068367
 20
134.074464
 40
3.000000
 50
-90.000000
 51
0.000000
  0
LINE
  8
1
 62
7
  6
CONTINUOUS
 10
246.068367
 20
134.074464
 11
246.068367
 21
232.074464
  0
ARC
  8
1
 62
7
  6
CONTINUOUS
 10
249.068367
 20
134.074464
 40
3.000000
 50
180.000000
 51
-90.000000
  0
CIRCLE
  8
1
 62
7
  6
CONTINUOUS
 10
306.568367
 20
136.074464
 40
2.000000
  0
CIRCLE
  8
1
 62
7
  6
CONTINUOUS
 10
306.568367
 20
230.074464
 40
2.000000
  0
LINE
  8
1
 62
7
  6
CONTINUOUS
 10
262.818367
 20
230.074464
 11
270.683994
 21
230.074464
  0
LINE
  8
1
 62
7
  6
CONTINUOUS
 10
301.984807
 20
230.074464
 11
311.280200
 21
230.074464
  0
LINE
  8
1
 62
7
  6
CONTINUOUS
 10
262.526813
 20
136.074464
 11
270.873696
 21
136.074464
  0
LINE
  8
1
 62
7
  6
CONTINUOUS
 10
302.174509
 20
136.074464
 11
310.900797
 21
136.074464
  0
LINE
  8
1
 62
7
  6
CONTINUOUS
 10
342.960417
 20
136.074464
 11
350.738195
 21
136.074464
  0
LINE
  8
1
 62
7
  6
CONTINUOUS
 10
306.568367
 20
132.850209
 11
306.568367
 21
139.489776
  0
LINE
  8
1
 62
7
  6
CONTINUOUS
 10
266.568367
 20
133.229613
 11
266.568367
 21
139.742712
  0
LINE
  8
1
 62
7
  6
CONTINUOUS
 10
346.568367
 20
133.039911
 11
346.568367
 21
139.742712
  0
LINE
  8
1
 62
7
  6
CONTINUOUS
 10
346.568367
 20
226.162465
 11
346.568367
 21
233.202513
  0
LINE
  8
1
 62
7
  6
CONTINUOUS
 10
342.581013
 20
230.074464
 11
350.318367
 21
230.074464
  0
LINE
  8
1
 62
7
  6
CONTINUOUS
 10
306.568367
 20
226.499713
 11
306.568367
 21
233.392215
  0
LINE
  8
1
 62
7
  6
CONTINUOUS
 10
266.568367
 20
226.415401
 11
266.568367
 21
233.392215
  0
ARC
  8
1
 62
7
  6
CONTINUOUS
 10
266.568367
 20
230.074464
 40
2.000000
 50
180.000000
 51
0.000000
  0
ARC
  8
1
 62
7
  6
CONTINUOUS
 10
346.568367
 20
230.074464
 40
2.000000
 50
180.000000
 51
0.000000
  0
ARC
  8
1
 62
7
  6
CONTINUOUS
 10
346.568367
 20
136.074464
 40
2.000000
 50
0.000000
 51
180.000000
  0
ARC
  8
1
 62
7
  6
CONTINUOUS
 10
266.568367
 20
136.074464
 40
2.000000
 50
0.000000
 51
180.000000
  0
DIMENSION
  8
1
 62
7
  6
CONTINUOUS
  2
*D6
 10
232.153431
 20
136.074464
 11
232.153431
 21
183.074464
 70
     0
  1
94
 13
260.526813
 23
136.074464
 14
260.818367
 24
230.074464
 50
90.000000
  0
DIMENSION
  8
1
 62
7
  6
CONTINUOUS
  2
*D7
 10
227.790288
 20
131.074464
 11
227.790288
 21
183.074464
 70
     0
  1
104
 13
247.068367
 23
131.074464
 14
247.068367
 24
235.074464
 50
90.000000
  0
DIMENSION
  8
1
 62
7
  6
CONTINUOUS
  2
*D8
 10
246.068367
 20
112.877310
 11
306.568367
 21
112.877310
 70
     0
  1
121
 13
246.068367
 23
139.074464
 14
367.068367
 24
139.074464
 50
0.000000
  0
LINE
  8
1
 62
7
  6
CONTINUOUS
 10
307.809187
 20
134.505909
 11
315.019586
 21
125.397635
  0
LINE
  8
1
 62
7
  6
CONTINUOUS
 10
315.019586
 20
125.397635
 11
322.258407
 21
125.397635
  0
TEXT
  8
1
 62
7
  6
CONTINUOUS
 10
316.008407
 20
125.218773
 40
3.000000
 41
0.520833
  1
2-φ4
  7
KANJI
 50
0.000000
 51
30.000000
  0
LINE
  8
1
 62
7
  6
CONTINUOUS
 10
307.809187
 20
134.505909
 11
309.815352
 21
133.014165
  0
LINE
  8
1
 62
7
  6
CONTINUOUS
 10
307.809187
 20
134.505909
 11
308.800705
 21
132.210938
  0
DIMENSION
  8
1
 62
7
  6
CONTINUOUS
  2
*D9
 10
344.568367
 20
124.861050
 11
346.568367
 21
124.861050
 70
     0
  1
4
 13
344.568367
 23
130.074464
 14
348.568367
 24
130.074464
 50
0.000000
  0
LINE
  8
1
 62
7
  6
CONTINUOUS
 10
249.068367
 20
235.074464
 11
264.368367
 21
235.074464
  0
LINE
  8
1
 62
7
  6
CONTINUOUS
 10
264.568367
 20
230.074464
 11
264.568367
 21
234.874464
  0
LINE
  8
1
 62
7
  6
CONTINUOUS
 10
264.368367
 20
235.074464
 11
264.568367
 21
234.874464
  0
LINE
  8
1
 62
7
  6
CONTINUOUS
 10
268.568367
 20
230.074464
 11
268.568367
 21
234.874464
  0
LINE
  8
1
 62
7
  6
CONTINUOUS
 10
268.568367
 20
234.874464
 11
268.768367
 21
235.074464
  0
LINE
  8
1
 62
7
  6
CONTINUOUS
 10
268.768367
 20
235.074464
 11
344.368367
 21
235.074464
  0
LINE
  8
1
 62
7
  6
CONTINUOUS
 10
344.568367
 20
230.074464
 11
344.568367
 21
234.874464
  0
LINE
  8
1
 62
7
  6
CONTINUOUS
 10
344.368367
 20
235.074464
 11
344.568367
 21
234.874464
  0
LINE
  8
1
 62
7
  6
CONTINUOUS
 10
348.568367
 20
230.074464
 11
348.568367
 21
234.874464
  0
LINE
  8
1
 62
7
  6
CONTINUOUS
 10
364.068367
 20
235.074464
 11
348.768367
 21
235.074464
  0
LINE
  8
1
 62
7
  6
CONTINUOUS
 10
348.568367
 20
234.874464
 11
348.768367
 21
235.074464
  0
LINE
  8
1
 62
7
  6
CONTINUOUS
 10
344.568367
 20
136.074464
 11
344.568367
 21
131.274464
  0
LINE
  8
1
 62
7
  6
CONTINUOUS
 10
344.368367
 20
131.074464
 11
344.568367
 21
131.274464
  0
LINE
  8
1
 62
7
  6
CONTINUOUS
 10
348.568367
 20
136.074464
 11
348.568367
 21
131.274464
  0
LINE
  8
1
 62
7
  6
CONTINUOUS
 10
364.068367
 20
131.074464
 11
348.768367
 21
131.074464
  0
LINE
  8
1
 62
7
  6
CONTINUOUS
 10
348.568367
 20
131.274464
 11
348.768367
 21
131.074464
  0
LINE
  8
1
 62
7
  6
CONTINUOUS
 10
344.368367
 20
131.074464
 11
268.768367
 21
131.074464
  0
LINE
  8
1
 62
7
  6
CONTINUOUS
 10
268.568367
 20
136.074464
 11
268.568367
 21
131.274464
  0
LINE
  8
1
 62
7
  6
CONTINUOUS
 10
268.768367
 20
131.074464
 11
268.568367
 21
131.274464
  0
LINE
  8
1
 62
7
  6
CONTINUOUS
 10
264.568367
 20
136.074464
 11
264.568367
 21
131.274464
  0
LINE
  8
1
 62
7
  6
CONTINUOUS
 10
249.068367
 20
131.074464
 11
264.368367
 21
131.074464
  0
LINE
  8
1
 62
7
  6
CONTINUOUS
 10
264.568367
 20
131.274464
 11
264.368367
 21
131.074464
  0
TEXT
  8
1
 62
7
  6
CONTINUOUS
 10
280.318367
 20
153.677596
 40
5.000000
 41
0.500000
  1
2
  7
KANJI
 50
0.000000
 51
0.000000
  0
TEXT
  8
1
 62
7
  6
CONTINUOUS
 10
297.818367
 20
153.677596
 40
5.000000
 41
0.500000
  1
3
  7
KANJI
 50
0.000000
 51
0.000000
  0
TEXT
  8
1
 62
7
  6
CONTINUOUS
 10
315.318367
 20
154.273802
 40
5.000000
 41
0.500000
  1
4
  7
KANJI
 50
0.000000
 51
0.000000
  0
TEXT
  8
1
 62
7
  6
CONTINUOUS
 10
332.818367
 20
154.631525
 40
5.000000
 41
0.500000
  1
5
  7
KANJI
 50
0.000000
 51
0.000000
  0
TEXT
  8
1
 62
7
  6
CONTINUOUS
 10
350.318367
 20
154.631525
 40
5.000000
 41
0.500000
  1
6
  7
KANJI
 50
0.000000
 51
0.000000
  0
TEXT
  8
1
 62
7
  6
CONTINUOUS
 10
262.818367
 20
170.967569
 40
5.000000
 41
0.500000
  1
7
  7
KANJI
 50
0.000000
 51
0.000000
  0
TEXT
  8
1
 62
7
  6
CONTINUOUS
 10
280.318367
 20
170.967569
 40
5.000000
 41
0.500000
  1
8
  7
KANJI
 50
0.000000
 51
0.000000
  0
TEXT
  8
1
 62
7
  6
CONTINUOUS
 10
297.818367
 20
170.967569
 40
5.000000
 41
0.500000
  1
9
  7
KANJI
 50
0.000000
 51
0.000000
  0
TEXT
  8
1
 62
7
  6
CONTINUOUS
 10
315.318367
 20
170.967569
 40
5.000000
 41
0.500000
  1
10
  7
KANJI
 50
0.000000
 51
0.000000
  0
TEXT
  8
1
 62
7
  6
CONTINUOUS
 10
332.818367
 20
171.047063
 40
5.000000
 41
0.500000
  1
11
  7
KANJI
 50
0.000000
 51
0.000000
  0
TEXT
  8
1
 62
7
  6
CONTINUOUS
 10
350.318367
 20
171.047063
 40
5.000000
 41
0.500000
  1
12
  7
KANJI
 50
0.000000
 51
0.000000
  0
TEXT
  8
1
 62
7
  6
CONTINUOUS
 10
262.818367
 20
188.217794
 40
5.000000
 41
0.500000
  1
13
  7
KANJI
 50
0.000000
 51
0.000000
  0
TEXT
  8
1
 62
7
  6
CONTINUOUS
 10
280.318367
 20
188.217794
 40
5.000000
 41
0.500000
  1
14
  7
KANJI
 50
0.000000
 51
0.000000
  0
TEXT
  8
1
 62
7
  6
CONTINUOUS
 10
297.818367
 20
188.217794
 40
5.000000
 41
0.500000
  1
15
  7
KANJI
 50
0.000000
 51
0.000000
  0
TEXT
  8
1
 62
7
  6
CONTINUOUS
 10
315.318367
 20
188.853748
 40
5.000000
 41
0.500000
  1
16
  7
KANJI
 50
0.000000
 51
0.000000
  0
TEXT
  8
1
 62
7
  6
CONTINUOUS
 10
332.818367
 20
188.694759
 40
5.000000
 41
0.500000
  1
17
  7
KANJI
 50
0.000000
 51
0.000000
  0
TEXT
  8
1
 62
7
  6
CONTINUOUS
 10
350.318367
 20
188.694759
 40
5.000000
 41
0.500000
  1
18
  7
KANJI
 50
0.000000
 51
0.000000
  0
TEXT
  8
1
 62
7
  6
CONTINUOUS
 10
261.657120
 20
205.865491
 40
5.000000
 41
0.500000
  1
19
  7
KANJI
 50
0.000000
 51
0.000000
  0
TEXT
  8
1
 62
7
  6
CONTINUOUS
 10
279.157120
 20
205.865491
 40
5.000000
 41
0.500000
  1
20
  7
KANJI
 50
0.000000
 51
0.000000
  0
TEXT
  8
1
 62
7
  6
CONTINUOUS
 10
296.657120
 20
205.865491
 40
5.000000
 41
0.500000
  1
21
  7
KANJI
 50
0.000000
 51
0.000000
  0
TEXT
  8
1
 62
7
  6
CONTINUOUS
 10
314.841402
 20
205.865491
 40
5.000000
 41
0.500000
  1
22
  7
KANJI
 50
0.000000
 51
0.000000
  0
TEXT
  8
1
 62
7
  6
CONTINUOUS
 10
331.793525
 20
205.468020
 40
5.000000
 41
0.500000
  1
23
  7
KANJI
 50
0.000000
 51
0.000000
  0
TEXT
  8
1
 62
7
  6
CONTINUOUS
 10
349.293525
 20
205.468020
 40
5.000000
 41
0.500000
  1
24
  7
KANJI
 50
0.000000
 51
0.000000
  0
LINE
  8
1
 62
7
  6
CONTINUOUS
 10
151.113952
 20
143.419684
 11
151.113952
 21
142.281473
  0
LINE
  8
1
 62
7
  6
CONTINUOUS
 10
151.113952
 20
142.281473
 11
152.252163
 21
142.281473
  0
LINE
  8
1
 62
7
  6
CONTINUOUS
 10
152.252163
 20
142.281473
 11
152.252163
 21
143.419684
  0
LINE
  8
1
 62
7
  6
CONTINUOUS
 10
152.252163
 20
143.419684
 11
151.113952
 21
143.419684
  0
LINE
  8
1
 62
7
  6
CONTINUOUS
 10
153.653952
 20
143.419684
 11
153.653952
 21
142.281473
  0
LINE
  8
1
 62
7
  6
CONTINUOUS
 10
153.653952
 20
142.281473
 11
154.792163
 21
142.281473
  0
LINE
  8
1
 62
7
  6
CONTINUOUS
 10
154.792163
 20
142.281473
 11
154.792163
 21
143.419684
  0
LINE
  8
1
 62
7
  6
CONTINUOUS
 10
154.792163
 20
143.419684
 11
153.653952
 21
143.419684
  0
LINE
  8
1
 62
7
  6
CONTINUOUS
 10
156.193952
 20
143.419684
 11
156.193952
 21
142.281473
  0
LINE
  8
1
 62
7
  6
CONTINUOUS
 10
156.193952
 20
142.281473
 11
157.332163
 21
142.281473
  0
LINE
  8
1
 62
7
  6
CONTINUOUS
 10
157.332163
 20
142.281473
 11
157.332163
 21
143.419684
  0
LINE
  8
1
 62
7
  6
CONTINUOUS
 10
157.332163
 20
143.419684
 11
156.193952
 21
143.419684
  0
LINE
  8
1
 62
7
  6
CONTINUOUS
 10
158.733952
 20
143.419684
 11
158.733952
 21
142.281473
  0
LINE
  8
1
 62
7
  6
CONTINUOUS
 10
158.733952
 20
142.281473
 11
159.872163
 21
142.281473
  0
LINE
  8
1
 62
7
  6
CONTINUOUS
 10
159.872163
 20
142.281473
 11
159.872163
 21
143.419684
  0
LINE
  8
1
 62
7
  6
CONTINUOUS
 10
159.872163
 20
143.419684
 11
158.733952
 21
143.419684
  0
LINE
  8
1
 62
7
  6
CONTINUOUS
 10
161.273952
 20
143.419684
 11
161.273952
 21
142.281473
  0
LINE
  8
1
 62
7
  6
CONTINUOUS
 10
161.273952
 20
142.281473
 11
162.412163
 21
142.281473
  0
LINE
  8
1
 62
7
  6
CONTINUOUS
 10
162.412163
 20
142.281473
 11
162.412163
 21
143.419684
  0
LINE
  8
1
 62
7
  6
CONTINUOUS
 10
162.412163
 20
143.419684
 11
161.273952
 21
143.419684
  0
LINE
  8
1
 62
7
  6
CONTINUOUS
 10
163.813952
 20
143.419684
 11
163.813952
 21
142.281473
  0
LINE
  8
1
 62
7
  6
CONTINUOUS
 10
163.813952
 20
142.281473
 11
164.952163
 21
142.281473
  0
LINE
  8
1
 62
7
  6
CONTINUOUS
 10
164.952163
 20
142.281473
 11
164.952163
 21
143.419684
  0
LINE
  8
1
 62
7
  6
CONTINUOUS
 10
164.952163
 20
143.419684
 11
163.813952
 21
143.419684
  0
LINE
  8
1
 62
7
  6
CONTINUOUS
 10
166.353952
 20
143.419684
 11
166.353952
 21
142.281473
  0
LINE
  8
1
 62
7
  6
CONTINUOUS
 10
166.353952
 20
142.281473
 11
167.492163
 21
142.281473
  0
LINE
  8
1
 62
7
  6
CONTINUOUS
 10
167.492163
 20
142.281473
 11
167.492163
 21
143.419684
  0
LINE
  8
1
 62
7
  6
CONTINUOUS
 10
167.492163
 20
143.419684
 11
166.353952
 21
143.419684
  0
LINE
  8
1
 62
7
  6
CONTINUOUS
 10
168.893952
 20
143.419684
 11
168.893952
 21
142.281473
  0
LINE
  8
1
 62
7
  6
CONTINUOUS
 10
168.893952
 20
142.281473
 11
170.032163
 21
142.281473
  0
LINE
  8
1
 62
7
  6
CONTINUOUS
 10
170.032163
 20
142.281473
 11
170.032163
 21
143.419684
  0
LINE
  8
1
 62
7
  6
CONTINUOUS
 10
170.032163
 20
143.419684
 11
168.893952
 21
143.419684
  0
LINE
  8
1
 62
7
  6
CONTINUOUS
 10
171.433952
 20
143.419684
 11
171.433952
 21
142.281473
  0
LINE
  8
1
 62
7
  6
CONTINUOUS
 10
171.433952
 20
142.281473
 11
172.572163
 21
142.281473
  0
LINE
  8
1
 62
7
  6
CONTINUOUS
 10
172.572163
 20
142.281473
 11
172.572163
 21
143.419684
  0
LINE
  8
1
 62
7
  6
CONTINUOUS
 10
172.572163
 20
143.419684
 11
171.433952
 21
143.419684
  0
LINE
  8
1
 62
7
  6
CONTINUOUS
 10
173.973952
 20
143.419684
 11
173.973952
 21
142.281473
  0
LINE
  8
1
 62
7
  6
CONTINUOUS
 10
173.973952
 20
142.281473
 11
175.112163
 21
142.281473
  0
LINE
  8
1
 62
7
  6
CONTINUOUS
 10
175.112163
 20
142.281473
 11
175.112163
 21
143.419684
  0
LINE
  8
1
 62
7
  6
CONTINUOUS
 10
175.112163
 20
143.419684
 11
173.973952
 21
143.419684
  0
LINE
  8
1
 62
7
  6
CONTINUOUS
 10
177.319235
 20
141.336217
 11
177.319235
 21
140.289603
  0
LINE
  8
1
 62
7
  6
CONTINUOUS
 10
176.725605
 20
141.336217
 11
177.319235
 21
141.336217
  0
LINE
  8
1
 62
7
  6
CONTINUOUS
 10
176.725605
 20
141.336217
 11
176.725605
 21
145.221852
  0
LINE
  8
1
 62
7
  6
CONTINUOUS
 10
176.719683
 20
145.570550
 11
176.719683
 21
144.483863
  0
LINE
  8
1
 62
7
  6
CONTINUOUS
 10
176.719683
 20
144.483863
 11
178.743170
 21
144.483863
  0
LINE
  8
1
 62
7
  6
CONTINUOUS
 10
178.743170
 20
144.483863
 11
178.743170
 21
145.570550
  0
LINE
  8
1
 62
7
  6
CONTINUOUS
 10
178.743170
 20
145.570550
 11
176.719683
 21
145.570550
  0
LINE
  8
1
 62
7
  6
CONTINUOUS
 10
147.881994
 20
145.504974
 11
147.881994
 21
144.493231
  0
LINE
  8
1
 62
7
  6
CONTINUOUS
 10
147.881994
 20
144.493231
 11
149.794169
 21
144.493231
  0
LINE
  8
1
 62
7
  6
CONTINUOUS
 10
149.794169
 20
144.493231
 11
149.794169
 21
145.504974
  0
LINE
  8
1
 62
7
  6
CONTINUOUS
 10
149.794169
 20
145.504974
 11
147.881994
 21
145.504974
  0
LINE
  8
1
 62
7
  6
CONTINUOUS
 10
149.287193
 20
141.336217
 11
149.287193
 21
140.289603
  0
LINE
  8
1
 62
7
  6
CONTINUOUS
 10
149.794169
 20
141.336217
 11
149.287193
 21
141.336217
  0
LINE
  8
1
 62
7
  6
CONTINUOUS
 10
176.725605
 20
145.221852
 11
149.794169
 21
145.221852
  0
LINE
  8
1
 62
7
  6
CONTINUOUS
 10
149.794169
 20
145.221852
 11
149.794169
 21
141.373689
  0
LINE
  8
1
 62
7
  6
CONTINUOUS
 10
149.287193
 20
140.289603
 11
177.319235
 21
140.289603
  0
TEXT
  8
1
 62
7
  6
CONTINUOUS
 10
179.661616
 20
142.299828
 40
3.000000
 41
0.500000
  1
J1
  7
KANJI
 50
0.000000
 51
0.000000
  0
TEXT
  8
1
 62
7
  6
CONTINUOUS
 10
180.665312
 20
212.722592
 40
3.000000
 41
0.500000
  1
J3
  7
KANJI
 50
0.000000
 51
0.000000
  0
TEXT
  8
1
 62
7
  6
CONTINUOUS
 10
136.950604
 20
213.622814
 40
3.000000
 41
0.500000
  1
J2
  7
KANJI
 50
0.000000
 51
0.000000
  0
LINE
  8
1
 62
7
  6
CONTINUOUS
 10
131.393179
 20
141.532047
 11
138.344204
 21
141.532047
  0
LINE
  8
1
 62
7
  6
CONTINUOUS
 10
138.344204
 20
141.532047
 11
138.344204
 21
145.838750
  0
LINE
  8
1
 62
7
  6
CONTINUOUS
 10
138.344204
 20
145.838750
 11
131.393179
 21
145.838750
  0
LINE
  8
1
 62
7
  6
CONTINUOUS
 10
131.393179
 20
145.838750
 11
131.393179
 21
141.532047
  0
LINE
  8
1
 62
7
  6
CONTINUOUS
 10
93.297872
 20
145.390771
 11
93.297872
 21
142.626012
  0
LINE
  8
1
 62
7
  6
CONTINUOUS
 10
93.297872
 20
142.626012
 11
94.153631
 21
142.626012
  0
LINE
  8
1
 62
7
  6
CONTINUOUS
 10
94.153631
 20
142.626012
 11
94.153631
 21
145.390771
  0
LINE
  8
1
 62
7
  6
CONTINUOUS
 10
94.153631
 20
145.390771
 11
93.314329
 21
145.390771
  0
LINE
  8
1
 62
7
  6
CONTINUOUS
 10
94.795450
 20
145.423685
 11
94.795450
 21
142.658925
  0
LINE
  8
1
 62
7
  6
CONTINUOUS
 10
94.795450
 20
142.658925
 11
95.667666
 21
142.658925
  0
LINE
  8
1
 62
7
  6
CONTINUOUS
 10
95.667666
 20
142.658925
 11
95.667666
 21
143.415943
  0
LINE
  8
1
 62
7
  6
CONTINUOUS
 10
95.667666
 20
143.415943
 11
96.622166
 21
143.415943
  0
LINE
  8
1
 62
7
  6
CONTINUOUS
 10
96.638623
 20
143.415943
 11
97.033589
 21
142.675382
  0
LINE
  8
1
 62
7
  6
CONTINUOUS
 10
97.033589
 20
142.675382
 11
97.856434
 21
142.675382
  0
LINE
  8
1
 62
7
  6
CONTINUOUS
 10
98.333684
 20
145.423685
 11
98.333684
 21
142.658925
  0
LINE
  8
1
 62
7
  6
CONTINUOUS
 10
99.936156
 20
145.423685
 11
98.333684
 21
145.423685
  0
ARC
  8
1
 62
7
  6
CONTINUOUS
 10
99.936156
 20
144.113285
 40
1.310400
 50
0.000000
 51
90.000000
  0
LINE
  8
1
 62
7
  6
CONTINUOUS
 10
101.246556
 20
143.969325
 11
101.246556
 21
144.113285
  0
LINE
  8
1
 62
7
  6
CONTINUOUS
 10
98.333684
 20
142.658925
 11
99.936156
 21
142.658925
  0
ARC
  8
1
 62
7
  6
CONTINUOUS
 10
99.936156
 20
143.969325
 40
1.310400
 50
-90.000000
 51
0.000000
  0
LINE
  8
1
 62
7
  6
CONTINUOUS
 10
99.172987
 20
144.748952
 11
99.172987
 21
143.350115
  0
LINE
  8
1
 62
7
  6
CONTINUOUS
 10
99.699638
 20
144.748952
 11
99.172987
 21
144.748952
  0
ARC
  8
1
 62
7
  6
CONTINUOUS
 10
99.699638
 20
144.041336
 40
0.707616
 50
0.000000
 51
90.000000
  0
LINE
  8
1
 62
7
  6
CONTINUOUS
 10
100.407254
 20
144.057731
 11
100.407254
 21
144.041336
  0
LINE
  8
1
 62
7
  6
CONTINUOUS
 10
99.172987
 20
143.350115
 11
99.699638
 21
143.350115
  0
ARC
  8
1
 62
7
  6
CONTINUOUS
 10
99.699638
 20
144.057731
 40
0.707616
 50
-90.000000
 51
0.000000
  0
LINE
  8
1
 62
7
  6
CONTINUOUS
 10
94.795450
 20
145.423685
 11
96.938539
 21
145.423685
  0
ARC
  8
1
 62
7
  6
CONTINUOUS
 10
96.938539
 20
144.637445
 40
0.786240
 50
0.000000
 51
90.000000
  0
LINE
  8
1
 62
7
  6
CONTINUOUS
 10
97.724779
 20
144.637445
 11
97.724779
 21
144.235097
  0
ARC
  8
1
 62
7
  6
CONTINUOUS
 10
92.017309
 20
144.735571
 40
0.655200
 50
0.000000
 51
90.000000
  0
LINE
  8
1
 62
7
  6
CONTINUOUS
 10
92.672509
 20
144.735571
 11
92.672509
 21
144.680048
  0
LINE
  8
1
 62
7
  6
CONTINUOUS
 10
92.721880
 20
143.386105
 11
92.721880
 21
143.314125
  0
ARC
  8
1
 62
7
  6
CONTINUOUS
 10
92.066680
 20
143.314125
 40
0.655200
 50
-90.000000
 51
0.000000
  0
LINE
  8
1
 62
7
  6
CONTINUOUS
 10
90.681224
 20
144.781866
 11
91.653412
 21
144.781866
  0
ARC
  8
1
 62
7
  6
CONTINUOUS
 10
91.653412
 20
144.519786
 40
0.262080
 50
0.000000
 51
90.000000
  0
LINE
  8
1
 62
7
  6
CONTINUOUS
 10
91.915492
 20
144.519786
 11
91.915492
 21
144.583153
  0
LINE
  8
1
 62
7
  6
CONTINUOUS
 10
91.653412
 20
144.321073
 11
90.681224
 21
144.321073
  0
ARC
  8
1
 62
7
  6
CONTINUOUS
 10
91.653412
 20
144.583153
 40
0.262080
 50
-90.000000
 51
0.000000
  0
LINE
  8
1
 62
7
  6
CONTINUOUS
 10
90.681224
 20
143.728624
 11
91.636955
 21
143.728624
  0
ARC
  8
1
 62
7
  6
CONTINUOUS
 10
91.636955
 20
143.466544
 40
0.262080
 50
0.000000
 51
90.000000
  0
LINE
  8
1
 62
7
  6
CONTINUOUS
 10
91.899035
 20
143.466544
 11
91.899035
 21
143.529911
  0
LINE
  8
1
 62
7
  6
CONTINUOUS
 10
91.636955
 20
143.267831
 11
90.664767
 21
143.267831
  0
ARC
  8
1
 62
7
  6
CONTINUOUS
 10
91.636955
 20
143.529911
 40
0.262080
 50
-90.000000
 51
0.000000
  0
LINE
  8
1
 62
7
  6
CONTINUOUS
 10
97.856434
 20
142.675382
 11
97.384170
 21
143.587342
  0
ARC
  8
1
 62
7
  6
CONTINUOUS
 10
96.938539
 20
144.235097
 40
0.786240
 50
-55.473528
 51
0.000000
  0
LINE
  8
1
 62
7
  6
CONTINUOUS
 10
95.667666
 20
144.748952
 11
95.667666
 21
144.107133
  0
LINE
  8
1
 62
7
  6
CONTINUOUS
 10
96.508814
 20
144.748952
 11
95.667666
 21
144.748952
  0
LINE
  8
1
 62
7
  6
CONTINUOUS
 10
95.667666
 20
144.107133
 11
96.508814
 21
144.107133
  0
ARC
  8
1
 62
7
  6
CONTINUOUS
 10
96.508814
 20
144.355832
 40
0.393120
 50
10.584493
 51
90.000000
  0
ARC
  8
1
 62
7
  6
CONTINUOUS
 10
96.508814
 20
144.500253
 40
0.393120
 50
-90.000000
 51
-10.584493
  0
ARC
  8
1
 62
7
  6
CONTINUOUS
 10
92.017309
 20
144.680048
 40
0.655200
 50
-78.989285
 51
0.000000
  0
ARC
  8
1
 62
7
  6
CONTINUOUS
 10
92.066680
 20
143.386105
 40
0.655200
 50
0.000000
 51
83.359434
  0
LINE
  8
1
 62
7
  6
CONTINUOUS
 10
89.776094
 20
145.390771
 11
92.017309
 21
145.390771
  0
LINE
  8
1
 62
7
  6
CONTINUOUS
 10
92.066680
 20
142.658925
 11
89.776094
 21
142.658925
  0
LINE
  8
1
 62
7
  6
CONTINUOUS
 10
89.776094
 20
142.682818
 11
92.242003
 21
142.682818
  0
LINE
  8
1
 62
7
  6
CONTINUOUS
 10
89.776094
 20
142.715551
 11
92.333129
 21
142.715551
  0
LINE
  8
1
 62
7
  6
CONTINUOUS
 10
89.776094
 20
142.748283
 11
92.396997
 21
142.748283
  0
LINE
  8
1
 62
7
  6
CONTINUOUS
 10
89.776094
 20
142.781015
 11
92.447575
 21
142.781015
  0
LINE
  8
1
 62
7
  6
CONTINUOUS
 10
89.776094
 20
142.813748
 11
92.489657
 21
142.813748
  0
LINE
  8
1
 62
7
  6
CONTINUOUS
 10
89.776094
 20
142.846480
 11
92.525587
 21
142.846480
  0
LINE
  8
1
 62
7
  6
CONTINUOUS
 10
89.776094
 20
142.879213
 11
92.556719
 21
142.879213
  0
LINE
  8
1
 62
7
  6
CONTINUOUS
 10
89.776094
 20
142.911945
 11
92.583921
 21
142.911945
  0
LINE
  8
1
 62
7
  6
CONTINUOUS
 10
89.776094
 20
142.944678
 11
92.607786
 21
142.944678
  0
LINE
  8
1
 62
7
  6
CONTINUOUS
 10
89.776094
 20
142.977410
 11
92.628739
 21
142.977410
  0
LINE
  8
1
 62
7
  6
CONTINUOUS
 10
89.776094
 20
143.010143
 11
92.647095
 21
143.010143
  0
LINE
  8
1
 62
7
  6
CONTINUOUS
 10
89.776094
 20
143.042875
 11
92.663095
 21
143.042875
  0
LINE
  8
1
 62
7
  6
CONTINUOUS
 10
89.776094
 20
143.075607
 11
92.676923
 21
143.075607
  0
LINE
  8
1
 62
7
  6
CONTINUOUS
 10
89.776094
 20
143.108340
 11
92.688725
 21
143.108340
  0
LINE
  8
1
 62
7
  6
CONTINUOUS
 10
89.776094
 20
143.141072
 11
92.698613
 21
143.141072
  0
LINE
  8
1
 62
7
  6
CONTINUOUS
 10
89.776094
 20
143.173805
 11
92.706678
 21
143.173805
  0
LINE
  8
1
 62
7
  6
CONTINUOUS
 10
89.776094
 20
143.206537
 11
92.712986
 21
143.206537
  0
LINE
  8
1
 62
7
  6
CONTINUOUS
 10
89.776094
 20
143.239270
 11
92.717590
 21
143.239270
  0
LINE
  8
1
 62
7
  6
CONTINUOUS
 10
89.776094
 20
143.272002
 11
90.664767
 21
143.272002
  0
LINE
  8
1
 62
7
  6
CONTINUOUS
 10
91.683528
 20
143.272002
 11
92.720525
 21
143.272002
  0
LINE
  8
1
 62
7
  6
CONTINUOUS
 10
89.776094
 20
143.304735
 11
90.664767
 21
143.304735
  0
LINE
  8
1
 62
7
  6
CONTINUOUS
 10
91.771050
 20
143.304735
 11
92.721813
 21
143.304735
  0
LINE
  8
1
 62
7
  6
CONTINUOUS
 10
89.776094
 20
143.337467
 11
90.664767
 21
143.337467
  0
LINE
  8
1
 62
7
  6
CONTINUOUS
 10
91.814863
 20
143.337467
 11
92.721464
 21
143.337467
  0
LINE
  8
1
 62
7
  6
CONTINUOUS
 10
89.776094
 20
143.370199
 11
90.664767
 21
143.370199
  0
LINE
  8
1
 62
7
  6
CONTINUOUS
 10
91.844749
 20
143.370199
 11
92.721687
 21
143.370199
  0
LINE
  8
1
 62
7
  6
CONTINUOUS
 10
89.776094
 20
143.402932
 11
90.664767
 21
143.402932
  0
LINE
  8
1
 62
7
  6
CONTINUOUS
 10
91.866220
 20
143.402932
 11
92.721664
 21
143.402932
  0
LINE
  8
1
 62
7
  6
CONTINUOUS
 10
89.776094
 20
143.435664
 11
90.664767
 21
143.435664
  0
LINE
  8
1
 62
7
  6
CONTINUOUS
 10
91.881503
 20
143.435664
 11
92.720003
 21
143.435664
  0
LINE
  8
1
 62
7
  6
CONTINUOUS
 10
89.776094
 20
143.468397
 11
90.664767
 21
143.468397
  0
LINE
  8
1
 62
7
  6
CONTINUOUS
 10
91.891714
 20
143.468397
 11
92.716692
 21
143.468397
  0
LINE
  8
1
 62
7
  6
CONTINUOUS
 10
89.776094
 20
143.501129
 11
90.664767
 21
143.501129
  0
LINE
  8
1
 62
7
  6
CONTINUOUS
 10
91.896743
 20
143.501129
 11
92.711705
 21
143.501129
  0
LINE
  8
1
 62
7
  6
CONTINUOUS
 10
89.776094
 20
143.533862
 11
90.664767
 21
143.533862
  0
LINE
  8
1
 62
7
  6
CONTINUOUS
 10
91.890242
 20
143.533862
 11
92.705002
 21
143.533862
  0
LINE
  8
1
 62
7
  6
CONTINUOUS
 10
89.776094
 20
143.566594
 11
90.664767
 21
143.566594
  0
LINE
  8
1
 62
7
  6
CONTINUOUS
 10
91.879186
 20
143.566594
 11
92.696530
 21
143.566594
  0
LINE
  8
1
 62
7
  6
CONTINUOUS
 10
89.776094
 20
143.599327
 11
90.664767
 21
143.599327
  0
LINE
  8
1
 62
7
  6
CONTINUOUS
 10
91.862908
 20
143.599327
 11
92.686215
 21
143.599327
  0
LINE
  8
1
 62
7
  6
CONTINUOUS
 10
89.776094
 20
143.632059
 11
90.664767
 21
143.632059
  0
LINE
  8
1
 62
7
  6
CONTINUOUS
 10
91.840156
 20
143.632059
 11
92.673964
 21
143.632059
  0
LINE
  8
1
 62
7
  6
CONTINUOUS
 10
89.776094
 20
143.664791
 11
90.664767
 21
143.664791
  0
LINE
  8
1
 62
7
  6
CONTINUOUS
 10
91.808372
 20
143.664791
 11
92.659657
 21
143.664791
  0
LINE
  8
1
 62
7
  6
CONTINUOUS
 10
89.776094
 20
143.697524
 11
90.664767
 21
143.697524
  0
LINE
  8
1
 62
7
  6
CONTINUOUS
 10
91.760786
 20
143.697524
 11
92.643140
 21
143.697524
  0
LINE
  8
1
 62
7
  6
CONTINUOUS
 10
89.776094
 20
143.730256
 11
92.624217
 21
143.730256
  0
LINE
  8
1
 62
7
  6
CONTINUOUS
 10
89.776094
 20
143.762989
 11
92.602633
 21
143.762989
  0
LINE
  8
1
 62
7
  6
CONTINUOUS
 10
89.776094
 20
143.795721
 11
92.578053
 21
143.795721
  0
LINE
  8
1
 62
7
  6
CONTINUOUS
 10
89.776094
 20
143.828454
 11
92.550017
 21
143.828454
  0
LINE
  8
1
 62
7
  6
CONTINUOUS
 10
89.776094
 20
143.861186
 11
92.517884
 21
143.861186
  0
LINE
  8
1
 62
7
  6
CONTINUOUS
 10
89.776094
 20
143.893919
 11
92.480700
 21
143.893919
  0
LINE
  8
1
 62
7
  6
CONTINUOUS
 10
89.776094
 20
143.926651
 11
92.436947
 21
143.926651
  0
LINE
  8
1
 62
7
  6
CONTINUOUS
 10
89.776094
 20
143.959384
 11
92.383917
 21
143.959384
  0
LINE
  8
1
 62
7
  6
CONTINUOUS
 10
89.776094
 20
143.992116
 11
92.315755
 21
143.992116
  0
LINE
  8
1
 62
7
  6
CONTINUOUS
 10
89.776094
 20
144.024848
 11
92.212606
 21
144.024848
  0
LINE
  8
1
 62
7
  6
CONTINUOUS
 10
89.776094
 20
144.057581
 11
92.221812
 21
144.057581
  0
LINE
  8
1
 62
7
  6
CONTINUOUS
 10
89.776094
 20
144.090313
 11
92.302791
 21
144.090313
  0
LINE
  8
1
 62
7
  6
CONTINUOUS
 10
89.776094
 20
144.123046
 11
92.362324
 21
144.123046
  0
LINE
  8
1
 62
7
  6
CONTINUOUS
 10
89.776094
 20
144.155778
 11
92.410282
 21
144.155778
  0
LINE
  8
1
 62
7
  6
CONTINUOUS
 10
89.776094
 20
144.188511
 11
92.450527
 21
144.188511
  0
LINE
  8
1
 62
7
  6
CONTINUOUS
 10
89.776094
 20
144.221243
 11
92.485054
 21
144.221243
  0
LINE
  8
1
 62
7
  6
CONTINUOUS
 10
89.776094
 20
144.253976
 11
92.515053
 21
144.253976
  0
LINE
  8
1
 62
7
  6
CONTINUOUS
 10
89.776094
 20
144.286708
 11
92.541304
 21
144.286708
  0
LINE
  8
1
 62
7
  6
CONTINUOUS
 10
89.776094
 20
144.319440
 11
92.564346
 21
144.319440
  0
LINE
  8
1
 62
7
  6
CONTINUOUS
 10
89.776094
 20
144.352173
 11
90.681224
 21
144.352173
  0
LINE
  8
1
 62
7
  6
CONTINUOUS
 10
91.777243
 20
144.352173
 11
92.584570
 21
144.352173
  0
LINE
  8
1
 62
7
  6
CONTINUOUS
 10
89.776094
 20
144.384905
 11
90.681224
 21
144.384905
  0
LINE
  8
1
 62
7
  6
CONTINUOUS
 10
91.824829
 20
144.384905
 11
92.602269
 21
144.384905
  0
LINE
  8
1
 62
7
  6
CONTINUOUS
 10
89.776094
 20
144.417638
 11
90.681224
 21
144.417638
  0
LINE
  8
1
 62
7
  6
CONTINUOUS
 10
91.856613
 20
144.417638
 11
92.617666
 21
144.417638
  0
LINE
  8
1
 62
7
  6
CONTINUOUS
 10
89.776094
 20
144.450370
 11
90.681224
 21
144.450370
  0
LINE
  8
1
 62
7
  6
CONTINUOUS
 10
91.879365
 20
144.450370
 11
92.630934
 21
144.450370
  0
LINE
  8
1
 62
7
  6
CONTINUOUS
 10
89.776094
 20
144.483103
 11
90.681224
 21
144.483103
  0
LINE
  8
1
 62
7
  6
CONTINUOUS
 10
91.895643
 20
144.483103
 11
92.642209
 21
144.483103
  0
LINE
  8
1
 62
7
  6
CONTINUOUS
 10
89.776094
 20
144.515835
 11
90.681224
 21
144.515835
  0
LINE
  8
1
 62
7
  6
CONTINUOUS
 10
91.906699
 20
144.515835
 11
92.651597
 21
144.515835
  0
LINE
  8
1
 62
7
  6
CONTINUOUS
 10
89.776094
 20
144.548568
 11
90.681224
 21
144.548568
  0
LINE
  8
1
 62
7
  6
CONTINUOUS
 10
91.913200
 20
144.548568
 11
92.659182
 21
144.548568
  0
LINE
  8
1
 62
7
  6
CONTINUOUS
 10
89.776094
 20
144.581300
 11
90.681224
 21
144.581300
  0
LINE
  8
1
 62
7
  6
CONTINUOUS
 10
91.908170
 20
144.581300
 11
92.665025
 21
144.581300
  0
LINE
  8
1
 62
7
  6
CONTINUOUS
 10
89.776094
 20
144.614032
 11
90.681224
 21
144.614032
  0
LINE
  8
1
 62
7
  6
CONTINUOUS
 10
91.897959
 20
144.614032
 11
92.669175
 21
144.614032
  0
LINE
  8
1
 62
7
  6
CONTINUOUS
 10
89.776094
 20
144.646765
 11
90.681224
 21
144.646765
  0
LINE
  8
1
 62
7
  6
CONTINUOUS
 10
91.882676
 20
144.646765
 11
92.671663
 21
144.646765
  0
LINE
  8
1
 62
7
  6
CONTINUOUS
 10
89.776094
 20
144.679497
 11
90.681224
 21
144.679497
  0
LINE
  8
1
 62
7
  6
CONTINUOUS
 10
91.861205
 20
144.679497
 11
92.672509
 21
144.679497
  0
LINE
  8
1
 62
7
  6
CONTINUOUS
 10
89.776094
 20
144.712230
 11
90.681224
 21
144.712230
  0
LINE
  8
1
 62
7
  6
CONTINUOUS
 10
91.831320
 20
144.712230
 11
92.672094
 21
144.712230
  0
LINE
  8
1
 62
7
  6
CONTINUOUS
 10
89.776094
 20
144.744962
 11
90.681224
 21
144.744962
  0
LINE
  8
1
 62
7
  6
CONTINUOUS
 10
91.787507
 20
144.744962
 11
92.672442
 21
144.744962
  0
LINE
  8
1
 62
7
  6
CONTINUOUS
 10
89.776094
 20
144.777695
 11
90.681224
 21
144.777695
  0
LINE
  8
1
 62
7
  6
CONTINUOUS
 10
91.699985
 20
144.777695
 11
92.671154
 21
144.777695
  0
LINE
  8
1
 62
7
  6
CONTINUOUS
 10
89.776094
 20
144.810427
 11
92.668219
 21
144.810427
  0
LINE
  8
1
 62
7
  6
CONTINUOUS
 10
89.776094
 20
144.843160
 11
92.663616
 21
144.843160
  0
LINE
  8
1
 62
7
  6
CONTINUOUS
 10
89.776094
 20
144.875892
 11
92.657307
 21
144.875892
  0
LINE
  8
1
 62
7
  6
CONTINUOUS
 10
89.776094
 20
144.908624
 11
92.649243
 21
144.908624
  0
LINE
  8
1
 62
7
  6
CONTINUOUS
 10
89.776094
 20
144.941357
 11
92.639354
 21
144.941357
  0
LINE
  8
1
 62
7
  6
CONTINUOUS
 10
89.776094
 20
144.974089
 11
92.627552
 21
144.974089
  0
LINE
  8
1
 62
7
  6
CONTINUOUS
 10
89.776094
 20
145.006822
 11
92.613724
 21
145.006822
  0
LINE
  8
1
 62
7
  6
CONTINUOUS
 10
89.776094
 20
145.039554
 11
92.597724
 21
145.039554
  0
LINE
  8
1
 62
7
  6
CONTINUOUS
 10
89.776094
 20
145.072287
 11
92.579368
 21
145.072287
  0
LINE
  8
1
 62
7
  6
CONTINUOUS
 10
89.776094
 20
145.105019
 11
92.558415
 21
145.105019
  0
LINE
  8
1
 62
7
  6
CONTINUOUS
 10
89.776094
 20
145.137752
 11
92.534550
 21
145.137752
  0
LINE
  8
1
 62
7
  6
CONTINUOUS
 10
89.776094
 20
145.170484
 11
92.507348
 21
145.170484
  0
LINE
  8
1
 62
7
  6
CONTINUOUS
 10
89.776094
 20
145.203217
 11
92.476216
 21
145.203217
  0
LINE
  8
1
 62
7
  6
CONTINUOUS
 10
89.776094
 20
145.235949
 11
92.440286
 21
145.235949
  0
LINE
  8
1
 62
7
  6
CONTINUOUS
 10
89.776094
 20
145.268681
 11
92.398204
 21
145.268681
  0
LINE
  8
1
 62
7
  6
CONTINUOUS
 10
89.776094
 20
145.301414
 11
92.347627
 21
145.301414
  0
LINE
  8
1
 62
7
  6
CONTINUOUS
 10
89.776094
 20
145.334146
 11
92.283759
 21
145.334146
  0
LINE
  8
1
 62
7
  6
CONTINUOUS
 10
89.776094
 20
145.366879
 11
92.192632
 21
145.366879
  0
LINE
  8
1
 62
7
  6
CONTINUOUS
 10
93.297872
 20
142.633629
 11
94.153631
 21
142.633629
  0
LINE
  8
1
 62
7
  6
CONTINUOUS
 10
93.297872
 20
142.666361
 11
94.153631
 21
142.666361
  0
LINE
  8
1
 62
7
  6
CONTINUOUS
 10
93.297872
 20
142.699094
 11
94.153631
 21
142.699094
  0
LINE
  8
1
 62
7
  6
CONTINUOUS
 10
93.297872
 20
142.731826
 11
94.153631
 21
142.731826
  0
LINE
  8
1
 62
7
  6
CONTINUOUS
 10
93.297872
 20
142.764559
 11
94.153631
 21
142.764559
  0
LINE
  8
1
 62
7
  6
CONTINUOUS
 10
93.297872
 20
142.797291
 11
94.153631
 21
142.797291
  0
LINE
  8
1
 62
7
  6
CONTINUOUS
 10
93.297872
 20
142.830023
 11
94.153631
 21
142.830023
  0
LINE
  8
1
 62
7
  6
CONTINUOUS
 10
93.297872
 20
142.862756
 11
94.153631
 21
142.862756
  0
LINE
  8
1
 62
7
  6
CONTINUOUS
 10
93.297872
 20
142.895488
 11
94.153631
 21
142.895488
  0
LINE
  8
1
 62
7
  6
CONTINUOUS
 10
93.297872
 20
142.928221
 11
94.153631
 21
142.928221
  0
LINE
  8
1
 62
7
  6
CONTINUOUS
 10
93.297872
 20
142.960953
 11
94.153631
 21
142.960953
  0
LINE
  8
1
 62
7
  6
CONTINUOUS
 10
93.297872
 20
142.993686
 11
94.153631
 21
142.993686
  0
LINE
  8
1
 62
7
  6
CONTINUOUS
 10
93.297872
 20
143.026418
 11
94.153631
 21
143.026418
  0
LINE
  8
1
 62
7
  6
CONTINUOUS
 10
93.297872
 20
143.059151
 11
94.153631
 21
143.059151
  0
LINE
  8
1
 62
7
  6
CONTINUOUS
 10
93.297872
 20
143.091883
 11
94.153631
 21
143.091883
  0
LINE
  8
1
 62
7
  6
CONTINUOUS
 10
93.297872
 20
143.124615
 11
94.153631
 21
143.124615
  0
LINE
  8
1
 62
7
  6
CONTINUOUS
 10
93.297872
 20
143.157348
 11
94.153631
 21
143.157348
  0
LINE
  8
1
 62
7
  6
CONTINUOUS
 10
93.297872
 20
143.190080
 11
94.153631
 21
143.190080
  0
LINE
  8
1
 62
7
  6
CONTINUOUS
 10
93.297872
 20
143.222813
 11
94.153631
 21
143.222813
  0
LINE
  8
1
 62
7
  6
CONTINUOUS
 10
93.297872
 20
143.255545
 11
94.153631
 21
143.255545
  0
LINE
  8
1
 62
7
  6
CONTINUOUS
 10
93.297872
 20
143.288278
 11
94.153631
 21
143.288278
  0
LINE
  8
1
 62
7
  6
CONTINUOUS
 10
93.297872
 20
143.321010
 11
94.153631
 21
143.321010
  0
LINE
  8
1
 62
7
  6
CONTINUOUS
 10
93.297872
 20
143.353743
 11
94.153631
 21
143.353743
  0
LINE
  8
1
 62
7
  6
CONTINUOUS
 10
93.297872
 20
143.386475
 11
94.153631
 21
143.386475
  0
LINE
  8
1
 62
7
  6
CONTINUOUS
 10
93.297872
 20
143.419207
 11
94.153631
 21
143.419207
  0
LINE
  8
1
 62
7
  6
CONTINUOUS
 10
93.297872
 20
143.451940
 11
94.153631
 21
143.451940
  0
LINE
  8
1
 62
7
  6
CONTINUOUS
 10
93.297872
 20
143.484672
 11
94.153631
 21
143.484672
  0
LINE
  8
1
 62
7
  6
CONTINUOUS
 10
93.297872
 20
143.517405
 11
94.153631
 21
143.517405
  0
LINE
  8
1
 62
7
  6
CONTINUOUS
 10
93.297872
 20
143.550137
 11
94.153631
 21
143.550137
  0
LINE
  8
1
 62
7
  6
CONTINUOUS
 10
93.297872
 20
143.582870
 11
94.153631
 21
143.582870
  0
LINE
  8
1
 62
7
  6
CONTINUOUS
 10
93.297872
 20
143.615602
 11
94.153631
 21
143.615602
  0
LINE
  8
1
 62
7
  6
CONTINUOUS
 10
93.297872
 20
143.648335
 11
94.153631
 21
143.648335
  0
LINE
  8
1
 62
7
  6
CONTINUOUS
 10
93.297872
 20
143.681067
 11
94.153631
 21
143.681067
  0
LINE
  8
1
 62
7
  6
CONTINUOUS
 10
93.297872
 20
143.713799
 11
94.153631
 21
143.713799
  0
LINE
  8
1
 62
7
  6
CONTINUOUS
 10
93.297872
 20
143.746532
 11
94.153631
 21
143.746532
  0
LINE
  8
1
 62
7
  6
CONTINUOUS
 10
93.297872
 20
143.779264
 11
94.153631
 21
143.779264
  0
LINE
  8
1
 62
7
  6
CONTINUOUS
 10
93.297872
 20
143.811997
 11
94.153631
 21
143.811997
  0
LINE
  8
1
 62
7
  6
CONTINUOUS
 10
93.297872
 20
143.844729
 11
94.153631
 21
143.844729
  0
LINE
  8
1
 62
7
  6
CONTINUOUS
 10
93.297872
 20
143.877462
 11
94.153631
 21
143.877462
  0
LINE
  8
1
 62
7
  6
CONTINUOUS
 10
93.297872
 20
143.910194
 11
94.153631
 21
143.910194
  0
LINE
  8
1
 62
7
  6
CONTINUOUS
 10
93.297872
 20
143.942927
 11
94.153631
 21
143.942927
  0
LINE
  8
1
 62
7
  6
CONTINUOUS
 10
93.297872
 20
143.975659
 11
94.153631
 21
143.975659
  0
LINE
  8
1
 62
7
  6
CONTINUOUS
 10
93.297872
 20
144.008392
 11
94.153631
 21
144.008392
  0
LINE
  8
1
 62
7
  6
CONTINUOUS
 10
93.297872
 20
144.041124
 11
94.153631
 21
144.041124
  0
LINE
  8
1
 62
7
  6
CONTINUOUS
 10
93.297872
 20
144.073856
 11
94.153631
 21
144.073856
  0
LINE
  8
1
 62
7
  6
CONTINUOUS
 10
93.297872
 20
144.106589
 11
94.153631
 21
144.106589
  0
LINE
  8
1
 62
7
  6
CONTINUOUS
 10
93.297872
 20
144.139321
 11
94.153631
 21
144.139321
  0
LINE
  8
1
 62
7
  6
CONTINUOUS
 10
93.297872
 20
144.172054
 11
94.153631
 21
144.172054
  0
LINE
  8
1
 62
7
  6
CONTINUOUS
 10
93.297872
 20
144.204786
 11
94.153631
 21
144.204786
  0
LINE
  8
1
 62
7
  6
CONTINUOUS
 10
93.297872
 20
144.237519
 11
94.153631
 21
144.237519
  0
LINE
  8
1
 62
7
  6
CONTINUOUS
 10
93.297872
 20
144.270251
 11
94.153631
 21
144.270251
  0
LINE
  8
1
 62
7
  6
CONTINUOUS
 10
93.297872
 20
144.302984
 11
94.153631
 21
144.302984
  0
LINE
  8
1
 62
7
  6
CONTINUOUS
 10
93.297872
 20
144.335716
 11
94.153631
 21
144.335716
  0
LINE
  8
1
 62
7
  6
CONTINUOUS
 10
93.297872
 20
144.368448
 11
94.153631
 21
144.368448
  0
LINE
  8
1
 62
7
  6
CONTINUOUS
 10
93.297872
 20
144.401181
 11
94.153631
 21
144.401181
  0
LINE
  8
1
 62
7
  6
CONTINUOUS
 10
93.297872
 20
144.433913
 11
94.153631
 21
144.433913
  0
LINE
  8
1
 62
7
  6
CONTINUOUS
 10
93.297872
 20
144.466646
 11
94.153631
 21
144.466646
  0
LINE
  8
1
 62
7
  6
CONTINUOUS
 10
93.297872
 20
144.499378
 11
94.153631
 21
144.499378
  0
LINE
  8
1
 62
7
  6
CONTINUOUS
 10
93.297872
 20
144.532111
 11
94.153631
 21
144.532111
  0
LINE
  8
1
 62
7
  6
CONTINUOUS
 10
93.297872
 20
144.564843
 11
94.153631
 21
144.564843
  0
LINE
  8
1
 62
7
  6
CONTINUOUS
 10
93.297872
 20
144.597576
 11
94.153631
 21
144.597576
  0
LINE
  8
1
 62
7
  6
CONTINUOUS
 10
93.297872
 20
144.630308
 11
94.153631
 21
144.630308
  0
LINE
  8
1
 62
7
  6
CONTINUOUS
 10
93.297872
 20
144.663040
 11
94.153631
 21
144.663040
  0
LINE
  8
1
 62
7
  6
CONTINUOUS
 10
93.297872
 20
144.695773
 11
94.153631
 21
144.695773
  0
LINE
  8
1
 62
7
  6
CONTINUOUS
 10
93.297872
 20
144.728505
 11
94.153631
 21
144.728505
  0
LINE
  8
1
 62
7
  6
CONTINUOUS
 10
93.297872
 20
144.761238
 11
94.153631
 21
144.761238
  0
LINE
  8
1
 62
7
  6
CONTINUOUS
 10
93.297872
 20
144.793970
 11
94.153631
 21
144.793970
  0
LINE
  8
1
 62
7
  6
CONTINUOUS
 10
93.297872
 20
144.826703
 11
94.153631
 21
144.826703
  0
LINE
  8
1
 62
7
  6
CONTINUOUS
 10
93.297872
 20
144.859435
 11
94.153631
 21
144.859435
  0
LINE
  8
1
 62
7
  6
CONTINUOUS
 10
93.297872
 20
144.892168
 11
94.153631
 21
144.892168
  0
LINE
  8
1
 62
7
  6
CONTINUOUS
 10
93.297872
 20
144.924900
 11
94.153631
 21
144.924900
  0
LINE
  8
1
 62
7
  6
CONTINUOUS
 10
93.297872
 20
144.957632
 11
94.153631
 21
144.957632
  0
LINE
  8
1
 62
7
  6
CONTINUOUS
 10
93.297872
 20
144.990365
 11
94.153631
 21
144.990365
  0
LINE
  8
1
 62
7
  6
CONTINUOUS
 10
93.297872
 20
145.023097
 11
94.153631
 21
145.023097
  0
LINE
  8
1
 62
7
  6
CONTINUOUS
 10
93.297872
 20
145.055830
 11
94.153631
 21
145.055830
  0
LINE
  8
1
 62
7
  6
CONTINUOUS
 10
93.297872
 20
145.088562
 11
94.153631
 21
145.088562
  0
LINE
  8
1
 62
7
  6
CONTINUOUS
 10
93.297872
 20
145.121295
 11
94.153631
 21
145.121295
  0
LINE
  8
1
 62
7
  6
CONTINUOUS
 10
93.297872
 20
145.154027
 11
94.153631
 21
145.154027
  0
LINE
  8
1
 62
7
  6
CONTINUOUS
 10
93.297872
 20
145.186760
 11
94.153631
 21
145.186760
  0
LINE
  8
1
 62
7
  6
CONTINUOUS
 10
93.297872
 20
145.219492
 11
94.153631
 21
145.219492
  0
LINE
  8
1
 62
7
  6
CONTINUOUS
 10
93.297872
 20
145.252225
 11
94.153631
 21
145.252225
  0
LINE
  8
1
 62
7
  6
CONTINUOUS
 10
93.297872
 20
145.284957
 11
94.153631
 21
145.284957
  0
LINE
  8
1
 62
7
  6
CONTINUOUS
 10
93.297872
 20
145.317689
 11
94.153631
 21
145.317689
  0
LINE
  8
1
 62
7
  6
CONTINUOUS
 10
93.297872
 20
145.350422
 11
94.153631
 21
145.350422
  0
LINE
  8
1
 62
7
  6
CONTINUOUS
 10
93.297872
 20
145.383154
 11
94.153631
 21
145.383154
  0
LINE
  8
1
 62
7
  6
CONTINUOUS
 10
94.795450
 20
142.666543
 11
95.667666
 21
142.666543
  0
LINE
  8
1
 62
7
  6
CONTINUOUS
 10
94.795450
 20
142.699275
 11
95.667666
 21
142.699275
  0
LINE
  8
1
 62
7
  6
CONTINUOUS
 10
97.020846
 20
142.699275
 11
97.844061
 21
142.699275
  0
LINE
  8
1
 62
7
  6
CONTINUOUS
 10
94.795450
 20
142.732007
 11
95.667666
 21
142.732007
  0
LINE
  8
1
 62
7
  6
CONTINUOUS
 10
97.003389
 20
142.732007
 11
97.827110
 21
142.732007
  0
LINE
  8
1
 62
7
  6
CONTINUOUS
 10
94.795450
 20
142.764740
 11
95.667666
 21
142.764740
  0
LINE
  8
1
 62
7
  6
CONTINUOUS
 10
96.985932
 20
142.764740
 11
97.810160
 21
142.764740
  0
LINE
  8
1
 62
7
  6
CONTINUOUS
 10
94.795450
 20
142.797472
 11
95.667666
 21
142.797472
  0
LINE
  8
1
 62
7
  6
CONTINUOUS
 10
96.968474
 20
142.797472
 11
97.793209
 21
142.797472
  0
LINE
  8
1
 62
7
  6
CONTINUOUS
 10
94.795450
 20
142.830205
 11
95.667666
 21
142.830205
  0
LINE
  8
1
 62
7
  6
CONTINUOUS
 10
96.951017
 20
142.830205
 11
97.776258
 21
142.830205
  0
LINE
  8
1
 62
7
  6
CONTINUOUS
 10
94.795450
 20
142.862937
 11
95.667666
 21
142.862937
  0
LINE
  8
1
 62
7
  6
CONTINUOUS
 10
96.933560
 20
142.862937
 11
97.759308
 21
142.862937
  0
LINE
  8
1
 62
7
  6
CONTINUOUS
 10
94.795450
 20
142.895670
 11
95.667666
 21
142.895670
  0
LINE
  8
1
 62
7
  6
CONTINUOUS
 10
96.916102
 20
142.895670
 11
97.742357
 21
142.895670
  0
LINE
  8
1
 62
7
  6
CONTINUOUS
 10
94.795450
 20
142.928402
 11
95.667666
 21
142.928402
  0
LINE
  8
1
 62
7
  6
CONTINUOUS
 10
96.898645
 20
142.928402
 11
97.725406
 21
142.928402
  0
LINE
  8
1
 62
7
  6
CONTINUOUS
 10
94.795450
 20
142.961135
 11
95.667666
 21
142.961135
  0
LINE
  8
1
 62
7
  6
CONTINUOUS
 10
96.881188
 20
142.961135
 11
97.708455
 21
142.961135
  0
LINE
  8
1
 62
7
  6
CONTINUOUS
 10
94.795450
 20
142.993867
 11
95.667666
 21
142.993867
  0
LINE
  8
1
 62
7
  6
CONTINUOUS
 10
96.863730
 20
142.993867
 11
97.691505
 21
142.993867
  0
LINE
  8
1
 62
7
  6
CONTINUOUS
 10
94.795450
 20
143.026599
 11
95.667666
 21
143.026599
  0
LINE
  8
1
 62
7
  6
CONTINUOUS
 10
96.846273
 20
143.026599
 11
97.674554
 21
143.026599
  0
LINE
  8
1
 62
7
  6
CONTINUOUS
 10
94.795450
 20
143.059332
 11
95.667666
 21
143.059332
  0
LINE
  8
1
 62
7
  6
CONTINUOUS
 10
96.828816
 20
143.059332
 11
97.657603
 21
143.059332
  0
LINE
  8
1
 62
7
  6
CONTINUOUS
 10
94.795450
 20
143.092064
 11
95.667666
 21
143.092064
  0
LINE
  8
1
 62
7
  6
CONTINUOUS
 10
96.811359
 20
143.092064
 11
97.640652
 21
143.092064
  0
LINE
  8
1
 62
7
  6
CONTINUOUS
 10
94.795450
 20
143.124797
 11
95.667666
 21
143.124797
  0
LINE
  8
1
 62
7
  6
CONTINUOUS
 10
96.793901
 20
143.124797
 11
97.623702
 21
143.124797
  0
LINE
  8
1
 62
7
  6
CONTINUOUS
 10
94.795450
 20
143.157529
 11
95.667666
 21
143.157529
  0
LINE
  8
1
 62
7
  6
CONTINUOUS
 10
96.776444
 20
143.157529
 11
97.606751
 21
143.157529
  0
LINE
  8
1
 62
7
  6
CONTINUOUS
 10
94.795450
 20
143.190262
 11
95.667666
 21
143.190262
  0
LINE
  8
1
 62
7
  6
CONTINUOUS
 10
96.758987
 20
143.190262
 11
97.589800
 21
143.190262
  0
LINE
  8
1
 62
7
  6
CONTINUOUS
 10
94.795450
 20
143.222994
 11
95.667666
 21
143.222994
  0
LINE
  8
1
 62
7
  6
CONTINUOUS
 10
96.741529
 20
143.222994
 11
97.572850
 21
143.222994
  0
LINE
  8
1
 62
7
  6
CONTINUOUS
 10
94.795450
 20
143.255727
 11
95.667666
 21
143.255727
  0
LINE
  8
1
 62
7
  6
CONTINUOUS
 10
96.724072
 20
143.255727
 11
97.555899
 21
143.255727
  0
LINE
  8
1
 62
7
  6
CONTINUOUS
 10
94.795450
 20
143.288459
 11
95.667666
 21
143.288459
  0
LINE
  8
1
 62
7
  6
CONTINUOUS
 10
96.706615
 20
143.288459
 11
97.538948
 21
143.288459
  0
LINE
  8
1
 62
7
  6
CONTINUOUS
 10
94.795450
 20
143.321191
 11
95.667666
 21
143.321191
  0
LINE
  8
1
 62
7
  6
CONTINUOUS
 10
96.689157
 20
143.321191
 11
97.521997
 21
143.321191
  0
LINE
  8
1
 62
7
  6
CONTINUOUS
 10
94.795450
 20
143.353924
 11
95.667666
 21
143.353924
  0
LINE
  8
1
 62
7
  6
CONTINUOUS
 10
96.671700
 20
143.353924
 11
97.505047
 21
143.353924
  0
LINE
  8
1
 62
7
  6
CONTINUOUS
 10
94.795450
 20
143.386656
 11
95.667666
 21
143.386656
  0
LINE
  8
1
 62
7
  6
CONTINUOUS
 10
96.654243
 20
143.386656
 11
97.488096
 21
143.386656
  0
LINE
  8
1
 62
7
  6
CONTINUOUS
 10
94.795450
 20
143.419389
 11
97.471145
 21
143.419389
  0
LINE
  8
1
 62
7
  6
CONTINUOUS
 10
94.795450
 20
143.452121
 11
97.454194
 21
143.452121
  0
LINE
  8
1
 62
7
  6
CONTINUOUS
 10
94.795450
 20
143.484854
 11
97.437244
 21
143.484854
  0
LINE
  8
1
 62
7
  6
CONTINUOUS
 10
94.795450
 20
143.517586
 11
97.420293
 21
143.517586
  0
LINE
  8
1
 62
7
  6
CONTINUOUS
 10
94.795450
 20
143.550319
 11
97.403342
 21
143.550319
  0
LINE
  8
1
 62
7
  6
CONTINUOUS
 10
94.795450
 20
143.583051
 11
97.386391
 21
143.583051
  0
LINE
  8
1
 62
7
  6
CONTINUOUS
 10
94.795450
 20
143.615784
 11
97.422919
 21
143.615784
  0
LINE
  8
1
 62
7
  6
CONTINUOUS
 10
94.795450
 20
143.648516
 11
97.462081
 21
143.648516
  0
LINE
  8
1
 62
7
  6
CONTINUOUS
 10
94.795450
 20
143.681248
 11
97.496594
 21
143.681248
  0
LINE
  8
1
 62
7
  6
CONTINUOUS
 10
94.795450
 20
143.713981
 11
97.527276
 21
143.713981
  0
LINE
  8
1
 62
7
  6
CONTINUOUS
 10
94.795450
 20
143.746713
 11
97.554700
 21
143.746713
  0
LINE
  8
1
 62
7
  6
CONTINUOUS
 10
94.795450
 20
143.779446
 11
97.579285
 21
143.779446
  0
LINE
  8
1
 62
7
  6
CONTINUOUS
 10
94.795450
 20
143.812178
 11
97.601346
 21
143.812178
  0
LINE
  8
1
 62
7
  6
CONTINUOUS
 10
94.795450
 20
143.844911
 11
97.621128
 21
143.844911
  0
LINE
  8
1
 62
7
  6
CONTINUOUS
 10
94.795450
 20
143.877643
 11
97.638825
 21
143.877643
  0
LINE
  8
1
 62
7
  6
CONTINUOUS
 10
94.795450
 20
143.910376
 11
97.654590
 21
143.910376
  0
LINE
  8
1
 62
7
  6
CONTINUOUS
 10
94.795450
 20
143.943108
 11
97.668550
 21
143.943108
  0
LINE
  8
1
 62
7
  6
CONTINUOUS
 10
94.795450
 20
143.975840
 11
97.680805
 21
143.975840
  0
LINE
  8
1
 62
7
  6
CONTINUOUS
 10
94.795450
 20
144.008573
 11
97.691440
 21
144.008573
  0
LINE
  8
1
 62
7
  6
CONTINUOUS
 10
94.795450
 20
144.041305
 11
97.700522
 21
144.041305
  0
LINE
  8
1
 62
7
  6
CONTINUOUS
 10
94.795450
 20
144.074038
 11
97.708106
 21
144.074038
  0
LINE
  8
1
 62
7
  6
CONTINUOUS
 10
94.795450
 20
144.106770
 11
97.714236
 21
144.106770
  0
LINE
  8
1
 62
7
  6
CONTINUOUS
 10
94.795450
 20
144.139503
 11
95.667666
 21
144.139503
  0
LINE
  8
1
 62
7
  6
CONTINUOUS
 10
96.665027
 20
144.139503
 11
97.718946
 21
144.139503
  0
LINE
  8
1
 62
7
  6
CONTINUOUS
 10
94.795450
 20
144.172235
 11
95.667666
 21
144.172235
  0
LINE
  8
1
 62
7
  6
CONTINUOUS
 10
96.725488
 20
144.172235
 11
97.722262
 21
144.172235
  0
LINE
  8
1
 62
7
  6
CONTINUOUS
 10
94.795450
 20
144.204968
 11
95.667666
 21
144.204968
  0
LINE
  8
1
 62
7
  6
CONTINUOUS
 10
96.768332
 20
144.204968
 11
97.724201
 21
144.204968
  0
LINE
  8
1
 62
7
  6
CONTINUOUS
 10
94.795450
 20
144.237700
 11
95.667666
 21
144.237700
  0
LINE
  8
1
 62
7
  6
CONTINUOUS
 10
96.801404
 20
144.237700
 11
97.724779
 21
144.237700
  0
LINE
  8
1
 62
7
  6
CONTINUOUS
 10
94.795450
 20
144.270432
 11
95.667666
 21
144.270432
  0
LINE
  8
1
 62
7
  6
CONTINUOUS
 10
96.827759
 20
144.270432
 11
97.724779
 21
144.270432
  0
LINE
  8
1
 62
7
  6
CONTINUOUS
 10
94.795450
 20
144.303165
 11
95.667666
 21
144.303165
  0
LINE
  8
1
 62
7
  6
CONTINUOUS
 10
96.848960
 20
144.303165
 11
97.724779
 21
144.303165
  0
LINE
  8
1
 62
7
  6
CONTINUOUS
 10
94.795450
 20
144.335897
 11
95.667666
 21
144.335897
  0
LINE
  8
1
 62
7
  6
CONTINUOUS
 10
96.865928
 20
144.335897
 11
97.724779
 21
144.335897
  0
LINE
  8
1
 62
7
  6
CONTINUOUS
 10
94.795450
 20
144.368630
 11
95.667666
 21
144.368630
  0
LINE
  8
1
 62
7
  6
CONTINUOUS
 10
96.879244
 20
144.368630
 11
97.724779
 21
144.368630
  0
LINE
  8
1
 62
7
  6
CONTINUOUS
 10
94.795450
 20
144.401362
 11
95.667666
 21
144.401362
  0
LINE
  8
1
 62
7
  6
CONTINUOUS
 10
96.889292
 20
144.401362
 11
97.724779
 21
144.401362
  0
LINE
  8
1
 62
7
  6
CONTINUOUS
 10
94.795450
 20
144.434095
 11
95.667666
 21
144.434095
  0
LINE
  8
1
 62
7
  6
CONTINUOUS
 10
96.894065
 20
144.434095
 11
97.724779
 21
144.434095
  0
LINE
  8
1
 62
7
  6
CONTINUOUS
 10
94.795450
 20
144.466827
 11
95.667666
 21
144.466827
  0
LINE
  8
1
 62
7
  6
CONTINUOUS
 10
96.885939
 20
144.466827
 11
97.724779
 21
144.466827
  0
LINE
  8
1
 62
7
  6
CONTINUOUS
 10
94.795450
 20
144.499560
 11
95.667666
 21
144.499560
  0
LINE
  8
1
 62
7
  6
CONTINUOUS
 10
96.874718
 20
144.499560
 11
97.724779
 21
144.499560
  0
LINE
  8
1
 62
7
  6
CONTINUOUS
 10
94.795450
 20
144.532292
 11
95.667666
 21
144.532292
  0
LINE
  8
1
 62
7
  6
CONTINUOUS
 10
96.860105
 20
144.532292
 11
97.724779
 21
144.532292
  0
LINE
  8
1
 62
7
  6
CONTINUOUS
 10
94.795450
 20
144.565024
 11
95.667666
 21
144.565024
  0
LINE
  8
1
 62
7
  6
CONTINUOUS
 10
96.841653
 20
144.565024
 11
97.724779
 21
144.565024
  0
LINE
  8
1
 62
7
  6
CONTINUOUS
 10
94.795450
 20
144.597757
 11
95.667666
 21
144.597757
  0
LINE
  8
1
 62
7
  6
CONTINUOUS
 10
96.818678
 20
144.597757
 11
97.724779
 21
144.597757
  0
LINE
  8
1
 62
7
  6
CONTINUOUS
 10
94.795450
 20
144.630489
 11
95.667666
 21
144.630489
  0
LINE
  8
1
 62
7
  6
CONTINUOUS
 10
96.790073
 20
144.630489
 11
97.724779
 21
144.630489
  0
LINE
  8
1
 62
7
  6
CONTINUOUS
 10
94.795450
 20
144.663222
 11
95.667666
 21
144.663222
  0
LINE
  8
1
 62
7
  6
CONTINUOUS
 10
96.753875
 20
144.663222
 11
97.724356
 21
144.663222
  0
LINE
  8
1
 62
7
  6
CONTINUOUS
 10
94.795450
 20
144.695954
 11
95.667666
 21
144.695954
  0
LINE
  8
1
 62
7
  6
CONTINUOUS
 10
96.705944
 20
144.695954
 11
97.722599
 21
144.695954
  0
LINE
  8
1
 62
7
  6
CONTINUOUS
 10
94.795450
 20
144.728687
 11
95.667666
 21
144.728687
  0
LINE
  8
1
 62
7
  6
CONTINUOUS
 10
96.633404
 20
144.728687
 11
97.719467
 21
144.728687
  0
LINE
  8
1
 62
7
  6
CONTINUOUS
 10
94.795450
 20
144.761419
 11
97.714943
 21
144.761419
  0
LINE
  8
1
 62
7
  6
CONTINUOUS
 10
94.795450
 20
144.794152
 11
97.709004
 21
144.794152
  0
LINE
  8
1
 62
7
  6
CONTINUOUS
 10
94.795450
 20
144.826884
 11
97.701616
 21
144.826884
  0
LINE
  8
1
 62
7
  6
CONTINUOUS
 10
94.795450
 20
144.859617
 11
97.692736
 21
144.859617
  0
LINE
  8
1
 62
7
  6
CONTINUOUS
 10
94.795450
 20
144.892349
 11
97.682311
 21
144.892349
  0
LINE
  8
1
 62
7
  6
CONTINUOUS
 10
94.795450
 20
144.925081
 11
97.670276
 21
144.925081
  0
LINE
  8
1
 62
7
  6
CONTINUOUS
 10
94.795450
 20
144.957814
 11
97.656548
 21
144.957814
  0
LINE
  8
1
 62
7
  6
CONTINUOUS
 10
94.795450
 20
144.990546
 11
97.641030
 21
144.990546
  0
LINE
  8
1
 62
7
  6
CONTINUOUS
 10
94.795450
 20
145.023279
 11
97.623598
 21
145.023279
  0
LINE
  8
1
 62
7
  6
CONTINUOUS
 10
94.795450
 20
145.056011
 11
97.604103
 21
145.056011
  0
LINE
  8
1
 62
7
  6
CONTINUOUS
 10
94.795450
 20
145.088744
 11
97.582358
 21
145.088744
  0
LINE
  8
1
 62
7
  6
CONTINUOUS
 10
94.795450
 20
145.121476
 11
97.558126
 21
145.121476
  0
LINE
  8
1
 62
7
  6
CONTINUOUS
 10
94.795450
 20
145.154209
 11
97.531100
 21
145.154209
  0
LINE
  8
1
 62
7
  6
CONTINUOUS
 10
94.795450
 20
145.186941
 11
97.500880
 21
145.186941
  0
LINE
  8
1
 62
7
  6
CONTINUOUS
 10
94.795450
 20
145.219673
 11
97.466917
 21
145.219673
  0
LINE
  8
1
 62
7
  6
CONTINUOUS
 10
94.795450
 20
145.252406
 11
97.428434
 21
145.252406
  0
LINE
  8
1
 62
7
  6
CONTINUOUS
 10
94.795450
 20
145.285138
 11
97.384260
 21
145.285138
  0
LINE
  8
1
 62
7
  6
CONTINUOUS
 10
94.795450
 20
145.317871
 11
97.332486
 21
145.317871
  0
LINE
  8
1
 62
7
  6
CONTINUOUS
 10
94.795450
 20
145.350603
 11
97.269566
 21
145.350603
  0
LINE
  8
1
 62
7
  6
CONTINUOUS
 10
94.795450
 20
145.383336
 11
97.187177
 21
145.383336
  0
LINE
  8
1
 62
7
  6
CONTINUOUS
 10
94.795450
 20
145.416068
 11
97.047717
 21
145.416068
  0
LINE
  8
1
 62
7
  6
CONTINUOUS
 10
98.333684
 20
142.666543
 11
100.077242
 21
142.666543
  0
LINE
  8
1
 62
7
  6
CONTINUOUS
 10
98.333684
 20
142.699275
 11
100.258833
 21
142.699275
  0
LINE
  8
1
 62
7
  6
CONTINUOUS
 10
98.333684
 20
142.732007
 11
100.367657
 21
142.732007
  0
LINE
  8
1
 62
7
  6
CONTINUOUS
 10
98.333684
 20
142.764740
 11
100.452027
 21
142.764740
  0
LINE
  8
1
 62
7
  6
CONTINUOUS
 10
98.333684
 20
142.797472
 11
100.522594
 21
142.797472
  0
LINE
  8
1
 62
7
  6
CONTINUOUS
 10
98.333684
 20
142.830205
 11
100.583885
 21
142.830205
  0
LINE
  8
1
 62
7
  6
CONTINUOUS
 10
98.333684
 20
142.862937
 11
100.638334
 21
142.862937
  0
LINE
  8
1
 62
7
  6
CONTINUOUS
 10
98.333684
 20
142.895670
 11
100.687430
 21
142.895670
  0
LINE
  8
1
 62
7
  6
CONTINUOUS
 10
98.333684
 20
142.928402
 11
100.732163
 21
142.928402
  0
LINE
  8
1
 62
7
  6
CONTINUOUS
 10
98.333684
 20
142.961135
 11
100.773234
 21
142.961135
  0
LINE
  8
1
 62
7
  6
CONTINUOUS
 10
98.333684
 20
142.993867
 11
100.811159
 21
142.993867
  0
LINE
  8
1
 62
7
  6
CONTINUOUS
 10
98.333684
 20
143.026599
 11
100.846330
 21
143.026599
  0
LINE
  8
1
 62
7
  6
CONTINUOUS
 10
98.333684
 20
143.059332
 11
100.879056
 21
143.059332
  0
LINE
  8
1
 62
7
  6
CONTINUOUS
 10
98.333684
 20
143.092064
 11
100.909584
 21
143.092064
  0
LINE
  8
1
 62
7
  6
CONTINUOUS
 10
98.333684
 20
143.124797
 11
100.938114
 21
143.124797
  0
LINE
  8
1
 62
7
  6
CONTINUOUS
 10
98.333684
 20
143.157529
 11
100.964813
 21
143.157529
  0
LINE
  8
1
 62
7
  6
CONTINUOUS
 10
98.333684
 20
143.190262
 11
100.989821
 21
143.190262
  0
LINE
  8
1
 62
7
  6
CONTINUOUS
 10
98.333684
 20
143.222994
 11
101.013253
 21
143.222994
  0
LINE
  8
1
 62
7
  6
CONTINUOUS
 10
98.333684
 20
143.255727
 11
101.035213
 21
143.255727
  0
LINE
  8
1
 62
7
  6
CONTINUOUS
 10
98.333684
 20
143.288459
 11
101.055786
 21
143.288459
  0
LINE
  8
1
 62
7
  6
CONTINUOUS
 10
98.333684
 20
143.321191
 11
101.075047
 21
143.321191
  0
LINE
  8
1
 62
7
  6
CONTINUOUS
 10
98.333684
 20
143.353924
 11
99.172987
 21
143.353924
  0
LINE
  8
1
 62
7
  6
CONTINUOUS
 10
99.772956
 20
143.353924
 11
101.093062
 21
143.353924
  0
LINE
  8
1
 62
7
  6
CONTINUOUS
 10
98.333684
 20
143.386656
 11
99.172987
 21
143.386656
  0
LINE
  8
1
 62
7
  6
CONTINUOUS
 10
99.924091
 20
143.386656
 11
101.109888
 21
143.386656
  0
LINE
  8
1
 62
7
  6
CONTINUOUS
 10
98.333684
 20
143.419389
 11
99.172987
 21
143.419389
  0
LINE
  8
1
 62
7
  6
CONTINUOUS
 10
100.004989
 20
143.419389
 11
101.125576
 21
143.419389
  0
LINE
  8
1
 62
7
  6
CONTINUOUS
 10
98.333684
 20
143.452121
 11
99.172987
 21
143.452121
  0
LINE
  8
1
 62
7
  6
CONTINUOUS
 10
100.065640
 20
143.452121
 11
101.140170
 21
143.452121
  0
LINE
  8
1
 62
7
  6
CONTINUOUS
 10
98.333684
 20
143.484854
 11
99.172987
 21
143.484854
  0
LINE
  8
1
 62
7
  6
CONTINUOUS
 10
100.115008
 20
143.484854
 11
101.153710
 21
143.484854
  0
LINE
  8
1
 62
7
  6
CONTINUOUS
 10
98.333684
 20
143.517586
 11
99.172987
 21
143.517586
  0
LINE
  8
1
 62
7
  6
CONTINUOUS
 10
100.156764
 20
143.517586
 11
101.166230
 21
143.517586
  0
LINE
  8
1
 62
7
  6
CONTINUOUS
 10
98.333684
 20
143.550319
 11
99.172987
 21
143.550319
  0
LINE
  8
1
 62
7
  6
CONTINUOUS
 10
100.192845
 20
143.550319
 11
101.177761
 21
143.550319
  0
LINE
  8
1
 62
7
  6
CONTINUOUS
 10
98.333684
 20
143.583051
 11
99.172987
 21
143.583051
  0
LINE
  8
1
 62
7
  6
CONTINUOUS
 10
100.224423
 20
143.583051
 11
101.188331
 21
143.583051
  0
LINE
  8
1
 62
7
  6
CONTINUOUS
 10
98.333684
 20
143.615784
 11
99.172987
 21
143.615784
  0
LINE
  8
1
 62
7
  6
CONTINUOUS
 10
100.252271
 20
143.615784
 11
101.197963
 21
143.615784
  0
LINE
  8
1
 62
7
  6
CONTINUOUS
 10
98.333684
 20
143.648516
 11
99.172987
 21
143.648516
  0
LINE
  8
1
 62
7
  6
CONTINUOUS
 10
100.276928
 20
143.648516
 11
101.206680
 21
143.648516
  0
LINE
  8
1
 62
7
  6
CONTINUOUS
 10
98.333684
 20
143.681248
 11
99.172987
 21
143.681248
  0
LINE
  8
1
 62
7
  6
CONTINUOUS
 10
100.298789
 20
143.681248
 11
101.214499
 21
143.681248
  0
LINE
  8
1
 62
7
  6
CONTINUOUS
 10
98.333684
 20
143.713981
 11
99.172987
 21
143.713981
  0
LINE
  8
1
 62
7
  6
CONTINUOUS
 10
100.318149
 20
143.713981
 11
101.221438
 21
143.713981
  0
LINE
  8
1
 62
7
  6
CONTINUOUS
 10
98.333684
 20
143.746713
 11
99.172987
 21
143.746713
  0
LINE
  8
1
 62
7
  6
CONTINUOUS
 10
100.335239
 20
143.746713
 11
101.227509
 21
143.746713
  0
LINE
  8
1
 62
7
  6
CONTINUOUS
 10
98.333684
 20
143.779446
 11
99.172987
 21
143.779446
  0
LINE
  8
1
 62
7
  6
CONTINUOUS
 10
100.350236
 20
143.779446
 11
101.232727
 21
143.779446
  0
LINE
  8
1
 62
7
  6
CONTINUOUS
 10
98.333684
 20
143.812178
 11
99.172987
 21
143.812178
  0
LINE
  8
1
 62
7
  6
CONTINUOUS
 10
100.363283
 20
143.812178
 11
101.237100
 21
143.812178
  0
LINE
  8
1
 62
7
  6
CONTINUOUS
 10
98.333684
 20
143.844911
 11
99.172987
 21
143.844911
  0
LINE
  8
1
 62
7
  6
CONTINUOUS
 10
100.374492
 20
143.844911
 11
101.240637
 21
143.844911
  0
LINE
  8
1
 62
7
  6
CONTINUOUS
 10
98.333684
 20
143.877643
 11
99.172987
 21
143.877643
  0
LINE
  8
1
 62
7
  6
CONTINUOUS
 10
100.383955
 20
143.877643
 11
101.243345
 21
143.877643
  0
LINE
  8
1
 62
7
  6
CONTINUOUS
 10
98.333684
 20
143.910376
 11
99.172987
 21
143.910376
  0
LINE
  8
1
 62
7
  6
CONTINUOUS
 10
100.391741
 20
143.910376
 11
101.245230
 21
143.910376
  0
LINE
  8
1
 62
7
  6
CONTINUOUS
 10
98.333684
 20
143.943108
 11
99.172987
 21
143.943108
  0
LINE
  8
1
 62
7
  6
CONTINUOUS
 10
100.397909
 20
143.943108
 11
101.246294
 21
143.943108
  0
LINE
  8
1
 62
7
  6
CONTINUOUS
 10
98.333684
 20
143.975840
 11
99.172987
 21
143.975840
  0
LINE
  8
1
 62
7
  6
CONTINUOUS
 10
100.402500
 20
143.975840
 11
101.246556
 21
143.975840
  0
LINE
  8
1
 62
7
  6
CONTINUOUS
 10
98.333684
 20
144.008573
 11
99.172987
 21
144.008573
  0
LINE
  8
1
 62
7
  6
CONTINUOUS
 10
100.405545
 20
144.008573
 11
101.246556
 21
144.008573
  0
LINE
  8
1
 62
7
  6
CONTINUOUS
 10
98.333684
 20
144.041305
 11
99.172987
 21
144.041305
  0
LINE
  8
1
 62
7
  6
CONTINUOUS
 10
100.407064
 20
144.041305
 11
101.246556
 21
144.041305
  0
LINE
  8
1
 62
7
  6
CONTINUOUS
 10
98.333684
 20
144.074038
 11
99.172987
 21
144.074038
  0
LINE
  8
1
 62
7
  6
CONTINUOUS
 10
100.406498
 20
144.074038
 11
101.246556
 21
144.074038
  0
LINE
  8
1
 62
7
  6
CONTINUOUS
 10
98.333684
 20
144.106770
 11
99.172987
 21
144.106770
  0
LINE
  8
1
 62
7
  6
CONTINUOUS
 10
100.404223
 20
144.106770
 11
101.246556
 21
144.106770
  0
LINE
  8
1
 62
7
  6
CONTINUOUS
 10
98.333684
 20
144.139503
 11
99.172987
 21
144.139503
  0
LINE
  8
1
 62
7
  6
CONTINUOUS
 10
100.400412
 20
144.139503
 11
101.246294
 21
144.139503
  0
LINE
  8
1
 62
7
  6
CONTINUOUS
 10
98.333684
 20
144.172235
 11
99.172987
 21
144.172235
  0
LINE
  8
1
 62
7
  6
CONTINUOUS
 10
100.395042
 20
144.172235
 11
101.245230
 21
144.172235
  0
LINE
  8
1
 62
7
  6
CONTINUOUS
 10
98.333684
 20
144.204968
 11
99.172987
 21
144.204968
  0
LINE
  8
1
 62
7
  6
CONTINUOUS
 10
100.388075
 20
144.204968
 11
101.243345
 21
144.204968
  0
LINE
  8
1
 62
7
  6
CONTINUOUS
 10
98.333684
 20
144.237700
 11
99.172987
 21
144.237700
  0
LINE
  8
1
 62
7
  6
CONTINUOUS
 10
100.379463
 20
144.237700
 11
101.240637
 21
144.237700
  0
LINE
  8
1
 62
7
  6
CONTINUOUS
 10
98.333684
 20
144.270432
 11
99.172987
 21
144.270432
  0
LINE
  8
1
 62
7
  6
CONTINUOUS
 10
100.369142
 20
144.270432
 11
101.237100
 21
144.270432
  0
LINE
  8
1
 62
7
  6
CONTINUOUS
 10
98.333684
 20
144.303165
 11
99.172987
 21
144.303165
  0
LINE
  8
1
 62
7
  6
CONTINUOUS
 10
100.357032
 20
144.303165
 11
101.232727
 21
144.303165
  0
LINE
  8
1
 62
7
  6
CONTINUOUS
 10
98.333684
 20
144.335897
 11
99.172987
 21
144.335897
  0
LINE
  8
1
 62
7
  6
CONTINUOUS
 10
100.343031
 20
144.335897
 11
101.227509
 21
144.335897
  0
LINE
  8
1
 62
7
  6
CONTINUOUS
 10
98.333684
 20
144.368630
 11
99.172987
 21
144.368630
  0
LINE
  8
1
 62
7
  6
CONTINUOUS
 10
100.327013
 20
144.368630
 11
101.221438
 21
144.368630
  0
LINE
  8
1
 62
7
  6
CONTINUOUS
 10
98.333684
 20
144.401362
 11
99.172987
 21
144.401362
  0
LINE
  8
1
 62
7
  6
CONTINUOUS
 10
100.308820
 20
144.401362
 11
101.214499
 21
144.401362
  0
LINE
  8
1
 62
7
  6
CONTINUOUS
 10
98.333684
 20
144.434095
 11
99.172987
 21
144.434095
  0
LINE
  8
1
 62
7
  6
CONTINUOUS
 10
100.288248
 20
144.434095
 11
101.206680
 21
144.434095
  0
LINE
  8
1
 62
7
  6
CONTINUOUS
 10
98.333684
 20
144.466827
 11
99.172987
 21
144.466827
  0
LINE
  8
1
 62
7
  6
CONTINUOUS
 10
100.265039
 20
144.466827
 11
101.197963
 21
144.466827
  0
LINE
  8
1
 62
7
  6
CONTINUOUS
 10
98.333684
 20
144.499560
 11
99.172987
 21
144.499560
  0
LINE
  8
1
 62
7
  6
CONTINUOUS
 10
100.238852
 20
144.499560
 11
101.188331
 21
144.499560
  0
LINE
  8
1
 62
7
  6
CONTINUOUS
 10
98.333684
 20
144.532292
 11
99.172987
 21
144.532292
  0
LINE
  8
1
 62
7
  6
CONTINUOUS
 10
100.209229
 20
144.532292
 11
101.177761
 21
144.532292
  0
LINE
  8
1
 62
7
  6
CONTINUOUS
 10
98.333684
 20
144.565024
 11
99.172987
 21
144.565024
  0
LINE
  8
1
 62
7
  6
CONTINUOUS
 10
100.175528
 20
144.565024
 11
101.166230
 21
144.565024
  0
LINE
  8
1
 62
7
  6
CONTINUOUS
 10
98.333684
 20
144.597757
 11
99.172987
 21
144.597757
  0
LINE
  8
1
 62
7
  6
CONTINUOUS
 10
100.136807
 20
144.597757
 11
101.153710
 21
144.597757
  0
LINE
  8
1
 62
7
  6
CONTINUOUS
 10
98.333684
 20
144.630489
 11
99.172987
 21
144.630489
  0
LINE
  8
1
 62
7
  6
CONTINUOUS
 10
100.091581
 20
144.630489
 11
101.140170
 21
144.630489
  0
LINE
  8
1
 62
7
  6
CONTINUOUS
 10
98.333684
 20
144.663222
 11
99.172987
 21
144.663222
  0
LINE
  8
1
 62
7
  6
CONTINUOUS
 10
100.037246
 20
144.663222
 11
101.125576
 21
144.663222
  0
LINE
  8
1
 62
7
  6
CONTINUOUS
 10
98.333684
 20
144.695954
 11
99.172987
 21
144.695954
  0
LINE
  8
1
 62
7
  6
CONTINUOUS
 10
99.968331
 20
144.695954
 11
101.109888
 21
144.695954
  0
LINE
  8
1
 62
7
  6
CONTINUOUS
 10
98.333684
 20
144.728687
 11
99.172987
 21
144.728687
  0
LINE
  8
1
 62
7
  6
CONTINUOUS
 10
99.867774
 20
144.728687
 11
101.093062
 21
144.728687
  0
LINE
  8
1
 62
7
  6
CONTINUOUS
 10
98.333684
 20
144.761419
 11
101.075047
 21
144.761419
  0
LINE
  8
1
 62
7
  6
CONTINUOUS
 10
98.333684
 20
144.794152
 11
101.055786
 21
144.794152
  0
LINE
  8
1
 62
7
  6
CONTINUOUS
 10
98.333684
 20
144.826884
 11
101.035213
 21
144.826884
  0
LINE
  8
1
 62
7
  6
CONTINUOUS
 10
98.333684
 20
144.859617
 11
101.013253
 21
144.859617
  0
LINE
  8
1
 62
7
  6
CONTINUOUS
 10
98.333684
 20
144.892349
 11
100.989821
 21
144.892349
  0
LINE
  8
1
 62
7
  6
CONTINUOUS
 10
98.333684
 20
144.925081
 11
100.964813
 21
144.925081
  0
LINE
  8
1
 62
7
  6
CONTINUOUS
 10
98.333684
 20
144.957814
 11
100.938114
 21
144.957814
  0
LINE
  8
1
 62
7
  6
CONTINUOUS
 10
98.333684
 20
144.990546
 11
100.909584
 21
144.990546
  0
LINE
  8
1
 62
7
  6
CONTINUOUS
 10
98.333684
 20
145.023279
 11
100.879056
 21
145.023279
  0
LINE
  8
1
 62
7
  6
CONTINUOUS
 10
98.333684
 20
145.056011
 11
100.846330
 21
145.056011
  0
LINE
  8
1
 62
7
  6
CONTINUOUS
 10
98.333684
 20
145.088744
 11
100.811159
 21
145.088744
  0
LINE
  8
1
 62
7
  6
CONTINUOUS
 10
98.333684
 20
145.121476
 11
100.773234
 21
145.121476
  0
LINE
  8
1
 62
7
  6
CONTINUOUS
 10
98.333684
 20
145.154209
 11
100.732163
 21
145.154209
  0
LINE
  8
1
 62
7
  6
CONTINUOUS
 10
98.333684
 20
145.186941
 11
100.687430
 21
145.186941
  0
LINE
  8
1
 62
7
  6
CONTINUOUS
 10
98.333684
 20
145.219673
 11
100.638334
 21
145.219673
  0
LINE
  8
1
 62
7
  6
CONTINUOUS
 10
98.333684
 20
145.252406
 11
100.583885
 21
145.252406
  0
LINE
  8
1
 62
7
  6
CONTINUOUS
 10
98.333684
 20
145.285138
 11
100.522594
 21
145.285138
  0
LINE
  8
1
 62
7
  6
CONTINUOUS
 10
98.333684
 20
145.317871
 11
100.452027
 21
145.317871
  0
LINE
  8
1
 62
7
  6
CONTINUOUS
 10
98.333684
 20
145.350603
 11
100.367657
 21
145.350603
  0
LINE
  8
1
 62
7
  6
CONTINUOUS
 10
98.333684
 20
145.383336
 11
100.258833
 21
145.383336
  0
LINE
  8
1
 62
7
  6
CONTINUOUS
 10
98.333684
 20
145.416068
 11
100.077242
 21
145.416068
  0
TEXT
  8
1
 62
7
  6
CONTINUOUS
 10
113.393179
 20
141.532047
 40
4.000000
 41
0.500000
  1
LFB-24MS-
  7
KANJI
 50
0.000000
 51
0.000000
  0
DIMENSION
  8
1
 62
7
  6
CONTINUOUS
  2
*D10
 10
266.568367
 20
118.287879
 11
286.568367
 21
118.287879
 70
     0
  1
40
 13
266.568367
 23
131.229613
 14
306.568367
 24
130.850209
 50
0.000000
  0
DIMENSION
  8
1
 62
7
  6
CONTINUOUS
  2
*D11
 10
306.568367
 20
118.287879
 11
326.568367
 21
118.287879
 70
     0
  1
40
 13
306.568367
 23
130.850209
 14
346.568367
 24
131.039911
 50
0.000000
  0
DIMENSION
  8
1
 62
7
  6
CONTINUOUS
  2
*D12
 10
346.568367
 20
118.287879
 11
356.818367
 21
118.287879
 70
     0
  1
20.5
 13
346.568367
 23
131.039911
 14
367.068367
 24
132.074464
 50
0.000000
  0
DIMENSION
  8
1
 62
7
  6
CONTINUOUS
  2
*D13
 10
246.068367
 20
118.287879
 11
256.318367
 21
118.287879
 70
     0
  1
20.5
 13
246.068367
 23
134.074464
 14
266.568367
 24
131.229613
 50
0.000000
  0
ENDSEC
  0
EOF
