  0
SECTION
  2
HEADER
  9
$ACADVER
  1
AC1009
  9
$INSBASE
 10
0.000000
 20
0.000000
  9
$EXTMIN
 10
0.000000
 20
0.000000
  9
$EXTMAX
 10
420.000000
 20
297.000000
  9
$LIMMIN
 10
0.000000
 20
0.000000
  9
$LIMMAX
 10
420.000000
 20
297.000000
  9
$VIEWCTR
 10
210.000000
 20
148.500000
  9
$VIEWSIZE
 40
297.000000
  9
$PEXTMIN
 10
0.000000
 20
0.000000
 30
0.000000
  9
$PEXTMAX
 10
420.000000
 20
297.000000
 30
0.000000
  9
$SNAPMODE
 70
     0
  9
$SNAPUNIT
 10
1.000000
 20
1.000000
  9
$SNAPBASE
 10
0.000000
 20
0.000000
  9
$SNAPANG
 50
0.000000
  9
$SNAPISOPAIR
 70
     0
  9
$SNAPSTYLE
 70
     0
  9
$GRIDMODE
 70
     0
  9
$GRIDUNIT
 10
0.000000
 20
0.000000
  9
$ORTHOMODE
 70
     0
  9
$REGENMODE
 70
     1
  9
$FILLMODE
 70
     1
  9
$QTEXTMODE
 70
     0
  9
$DRAGMODE
 70
     2
  9
$LTSCALE
 40
0.250000
  9
$OSMODE
 70
     0
  9
$ATTMODE
 70
     1
  9
$TEXTSIZE
 40
2.000000
  9
$TRACEWID
 40
0.050000
  9
$TEXTSTYLE
  7
STANDARD
  9
$CLAYER
  8
0
  9
$CELTYPE
  6
BYLAYER
  9
$CECOLOR
 62
   256
  9
$DIMSCALE
 40
1.000000
  9
$DIMASZ
 40
1.000000
  9
$DIMEXO
 40
0.000000
  9
$DIMDLI
 40
0.500000
  9
$DIMRND
 40
0.000000
  9
$DIMDLE
 40
0.000000
  9
$DIMEXE
 40
0.000000
  9
$DIMTP
 40
0.000000
  9
$DIMTM
 40
0.000000
  9
$DIMTXT
 40
3.000000
  9
$DIMCEN
 40
0.000000
  9
$DIMTSZ
 40
0.000000
  9
$DIMTOL
 70
     0
  9
$DIMLIM
 70
     0
  9
$DIMTIH
 70
     1
  9
$DIMTOH
 70
     1
  9
$DIMSE1
 70
     0
  9
$DIMSE2
 70
     0
  9
$DIMTAD
 70
     0
  9
$DIMZIN
 70
     0
  9
$DIMBLK
  1

  9
$DIMASO
 70
     0
  9
$DIMSHO
 70
     0
  9
$DIMPOST
  1

  9
$DIMAPOST
  1

  9
$DIMALT
 70
     0
  9
$DIMALTD
 70
     0
  9
$DIMALTF
 40
25.400000
  9
$DIMLFAC
 40
1.000000
  9
$DIMTOFL
 70
     0
  9
$DIMTVP
 40
0.000000
  9
$DIMTIX
 70
     0
  9
$DIMSOXD
 70
     0
  9
$DIMSAH
 70
     0
  9
$DIMBLKL
  1

  9
$DIMBLKR
  1

  9
$LUNITS
 70
     2
  9
$LUPREC
 70
     2
  9
$AXISMODE
 70
     0
  9
$AXISUNIT
 10
1.000000
 20
1.000000
  9
$SKETCHINC
 40
0.000000
  9
$FILLETRAD
 40
0.000000
  9
$AUNITS
 70
     1
  9
$AUPREC
 70
     2
  9
$MENU
  1
ACAD
  9
$ELEVATION
 40
0.000000
  9
$THICKNESS
 40
0.000000
  9
$VIEWDIR
 10
0.000000
 20
0.000000
 30
1.000000
  9
$LIMCHECK
 70
     1
  9
$BLIPMODE
 70
     1
  9
$CHAMFERA
 40
0.000000
  9
$CHAMFERB
 40
0.000000
  9
$FASTZOOM
 70
     1
  9
$SKPOLY
 70
     0
  9
$TDCREATE
 40
0.000000
  9
$TDUPDATE
 40
0.000000
  9
$TDINDWG
 40
0.000000
  9
$TDUSRTIMER
 40
0.000000
  9
$USRTIMER
 70
     1
  9
$ANGBASE
 50
0.000000
  9
$ANGDIR
 70
     0
  9
$PDMODE
 70
     0
  9
$PDSIZE
 40
0.000000
  9
$PLINEWID
 40
0.000000
  9
$COORDS
 70
     2
  9
$USERI1
 70
     0
  9
$USERI2
 70
     0
  9
$USERI3
 70
     0
  9
$USERI4
 70
     0
  9
$USERI5
 70
     0
  9
$USERR1
 40
0.000000
  9
$USERR2
 40
0.000000
  9
$USERR3
 40
0.000000
  9
$USERR4
 40
0.000000
  9
$USERR5
 40
0.000000
  0
ENDSEC
  0
SECTION
  2
TABLES
  0
TABLE
  2
LTYPE
 70
     5
  0
LTYPE
  2
CONTINUOUS
 70
    64
  3
Solid line
 72
    65
 73
     0
 40
0.0
  0
LTYPE
  2
HIDDEN
 70
    64
  3
------------------------
 72
    65
 73
     2
 40
12.6
 49
8.4
 49
-4.2
  0
LTYPE
  2
DOT
 70
    64
  3
････････････････････････
 72
    65
 73
     2
 40
8.0
 49
6.0
 49
-2.0
  0
LTYPE
  2
DASHDOT
 70
    64
  3
--･--･--･--･--･--･--･--
 72
    65
 73
     4
 40
50.5
 49
30.0
 49
-9.0
 49
2.5
 49
-9.0
  0
LTYPE
  2
DIVIDE
 70
    64
  3
--･･--･･--･･--･･--･･--
 72
    65
 73
     6
 40
58.0
 49
30.0
 49
-9.0
 49
2.5
 49
-5.0
 49
2.5
 49
-9.0
  0
LTYPE
  2
ACAD_ISO06W100
 70
    64
  3
____ ... ____ ... ____
 72
    65
 73
     8
 40
37.5
 49
24.0
 49
-3.0
 49
0.5
 49
-3.0
 49
0.5
 49
-3.0
 49
0.5
 49
-3.0
  0
LTYPE
  2
ACAD_ISO14W100
 70
    64
  3
__ . . . __ . . . __ . . . 
 72
    65
 73
     8
 40
25.5
 49
12.0
 49
-3.0
 49
0.5
 49
-3.0
 49
0.5
 49
-3.0
 49
0.5
 49
-3.0
  0
ENDTAB
  0
TABLE
  2
LAYER
 70
1
  0
LAYER
  2
1
 70
64
 62
7
  6
CONTINUOUS
  0
ENDTAB
  0
TABLE
  2
STYLE
 70
     2
  0
STYLE
  2
STANDARD
 70
    64
 40
0.0
 41
1.0
 50
0.0
 71
     0
 42
0.2
  3
TXT
  4

  0
STYLE
  2
KANJI
 70
    64
 40
0.0
 41
1.0
 50
0.0
 71
     0
 42
0.2
  3
TXT
  4
BIGFONT
  0
ENDTAB
  0
TABLE
  2
VIEW
 70
     0
  0
ENDTAB
  0
ENDSEC
  0
SECTION
  2
BLOCKS
  0
BLOCK
  8
1
 62
7
  6
CONTINUOUS
  2
*D1
 70
    65
 10
0.0
 20
0.0
  0
LINE
  8
1
 62
7
  6
CONTINUOUS
 10
450.346545
 20
167.654810
 11
441.146545
 21
167.654810
  0
LINE
  8
1
 62
7
  6
CONTINUOUS
 10
446.346545
 20
165.654810
 11
446.346545
 21
175.566734
  0
LINE
  8
1
 62
7
  6
CONTINUOUS
 10
445.146545
 20
165.654810
 11
445.146545
 21
175.566734
  0
LINE
  8
1
 62
7
  6
CONTINUOUS
 10
446.346545
 20
167.654810
 11
448.761359
 21
168.301858
  0
LINE
  8
1
 62
7
  6
CONTINUOUS
 10
446.346545
 20
167.654810
 11
448.761359
 21
167.007763
  0
LINE
  8
1
 62
7
  6
CONTINUOUS
 10
445.146545
 20
167.654810
 11
442.731730
 21
167.007763
  0
LINE
  8
1
 62
7
  6
CONTINUOUS
 10
445.146545
 20
167.654810
 11
442.731730
 21
168.301858
  0
TEXT
  8
1
 62
7
  6
CONTINUOUS
 10
443.496545
 20
167.654810
 40
3.000000
 41
0.500000
  1
1.2
  7
KANJI
 50
0.000000
 51
30.000000
  0
ENDBLK
  0
BLOCK
  8
1
 62
7
  6
CONTINUOUS
  2
*D2
 70
    65
 10
0.0
 20
0.0
  0
LINE
  8
1
 62
7
  6
CONTINUOUS
 10
446.346545
 20
162.646680
 11
434.846545
 21
162.646680
  0
LINE
  8
1
 62
7
  6
CONTINUOUS
 10
446.346545
 20
160.646680
 11
446.346545
 21
175.566734
  0
LINE
  8
1
 62
7
  6
CONTINUOUS
 10
434.846545
 20
160.646680
 11
434.846545
 21
187.952913
  0
LINE
  8
1
 62
7
  6
CONTINUOUS
 10
446.346545
 20
162.646680
 11
443.931730
 21
161.999633
  0
LINE
  8
1
 62
7
  6
CONTINUOUS
 10
446.346545
 20
162.646680
 11
443.931730
 21
163.293728
  0
LINE
  8
1
 62
7
  6
CONTINUOUS
 10
434.846545
 20
162.646680
 11
437.261359
 21
163.293728
  0
LINE
  8
1
 62
7
  6
CONTINUOUS
 10
434.846545
 20
162.646680
 11
437.261359
 21
161.999633
  0
TEXT
  8
1
 62
7
  6
CONTINUOUS
 10
437.596545
 20
162.646680
 40
3.000000
 41
0.500000
  1
11.5
  7
KANJI
 50
0.000000
 51
30.000000
  0
ENDBLK
  0
BLOCK
  8
1
 62
7
  6
CONTINUOUS
  2
*D3
 70
    65
 10
0.0
 20
0.0
  0
LINE
  8
1
 62
7
  6
CONTINUOUS
 10
439.346545
 20
167.535569
 11
430.846545
 21
167.535569
  0
LINE
  8
1
 62
7
  6
CONTINUOUS
 10
435.346545
 20
165.535569
 11
435.346545
 21
187.566734
  0
LINE
  8
1
 62
7
  6
CONTINUOUS
 10
434.846545
 20
165.535569
 11
434.846545
 21
187.566734
  0
LINE
  8
1
 62
7
  6
CONTINUOUS
 10
435.346545
 20
167.535569
 11
437.761359
 21
168.182617
  0
LINE
  8
1
 62
7
  6
CONTINUOUS
 10
435.346545
 20
167.535569
 11
437.761359
 21
166.888521
  0
LINE
  8
1
 62
7
  6
CONTINUOUS
 10
434.846545
 20
167.535569
 11
432.431730
 21
166.888521
  0
LINE
  8
1
 62
7
  6
CONTINUOUS
 10
434.846545
 20
167.535569
 11
432.431730
 21
168.182617
  0
TEXT
  8
1
 62
7
  6
CONTINUOUS
 10
432.846545
 20
167.535569
 40
3.000000
 41
0.500000
  1
0.5
  7
KANJI
 50
0.000000
 51
30.000000
  0
ENDBLK
  0
BLOCK
  8
1
 62
7
  6
CONTINUOUS
  2
*D4
 70
    65
 10
0.0
 20
0.0
  0
LINE
  8
1
 62
7
  6
CONTINUOUS
 10
465.346545
 20
162.646680
 11
446.346545
 21
162.646680
  0
LINE
  8
1
 62
7
  6
CONTINUOUS
 10
465.346545
 20
160.646680
 11
465.346545
 21
177.136191
  0
LINE
  8
1
 62
7
  6
CONTINUOUS
 10
446.346545
 20
160.646680
 11
446.346545
 21
175.566734
  0
LINE
  8
1
 62
7
  6
CONTINUOUS
 10
465.346545
 20
162.646680
 11
462.931730
 21
161.999633
  0
LINE
  8
1
 62
7
  6
CONTINUOUS
 10
465.346545
 20
162.646680
 11
462.931730
 21
163.293728
  0
LINE
  8
1
 62
7
  6
CONTINUOUS
 10
446.346545
 20
162.646680
 11
448.761359
 21
163.293728
  0
LINE
  8
1
 62
7
  6
CONTINUOUS
 10
446.346545
 20
162.646680
 11
448.761359
 21
161.999633
  0
TEXT
  8
1
 62
7
  6
CONTINUOUS
 10
454.346545
 20
162.646680
 40
3.000000
 41
0.500000
  1
19
  7
KANJI
 50
0.000000
 51
30.000000
  0
ENDBLK
  0
BLOCK
  8
1
 62
7
  6
CONTINUOUS
  2
*D5
 70
    65
 10
0.0
 20
0.0
  0
LINE
  8
1
 62
7
  6
CONTINUOUS
 10
49.772809
 20
156.619919
 11
49.772809
 21
240.619919
  0
LINE
  8
1
 62
7
  6
CONTINUOUS
 10
47.772809
 20
156.619919
 11
57.113821
 21
156.619919
  0
LINE
  8
1
 62
7
  6
CONTINUOUS
 10
47.772809
 20
240.619919
 11
57.113821
 21
240.619919
  0
LINE
  8
1
 62
7
  6
CONTINUOUS
 10
49.772809
 20
156.619919
 11
49.125762
 21
159.034733
  0
LINE
  8
1
 62
7
  6
CONTINUOUS
 10
49.772809
 20
156.619919
 11
50.419857
 21
159.034733
  0
LINE
  8
1
 62
7
  6
CONTINUOUS
 10
49.772809
 20
240.619919
 11
50.419857
 21
238.205104
  0
LINE
  8
1
 62
7
  6
CONTINUOUS
 10
49.772809
 20
240.619919
 11
49.125762
 21
238.205104
  0
TEXT
  8
1
 62
7
  6
CONTINUOUS
 10
49.772809
 20
197.119919
 40
3.000000
 41
0.500000
  1
84
  7
KANJI
 50
90.000000
 51
30.000000
  0
ENDBLK
  0
BLOCK
  8
1
 62
7
  6
CONTINUOUS
  2
*D6
 70
    65
 10
0.0
 20
0.0
  0
LINE
  8
1
 62
7
  6
CONTINUOUS
 10
45.198886
 20
151.619919
 11
45.198886
 21
245.619919
  0
LINE
  8
1
 62
7
  6
CONTINUOUS
 10
43.198886
 20
151.619919
 11
73.572267
 21
151.619919
  0
LINE
  8
1
 62
7
  6
CONTINUOUS
 10
43.198886
 20
245.619919
 11
73.863821
 21
245.619919
  0
LINE
  8
1
 62
7
  6
CONTINUOUS
 10
45.198886
 20
151.619919
 11
44.551838
 21
154.034733
  0
LINE
  8
1
 62
7
  6
CONTINUOUS
 10
45.198886
 20
151.619919
 11
45.845933
 21
154.034733
  0
LINE
  8
1
 62
7
  6
CONTINUOUS
 10
45.198886
 20
245.619919
 11
45.845933
 21
243.205104
  0
LINE
  8
1
 62
7
  6
CONTINUOUS
 10
45.198886
 20
245.619919
 11
44.551838
 21
243.205104
  0
TEXT
  8
1
 62
7
  6
CONTINUOUS
 10
45.198886
 20
197.119919
 40
3.000000
 41
0.500000
  1
94
  7
KANJI
 50
90.000000
 51
30.000000
  0
ENDBLK
  0
BLOCK
  8
1
 62
7
  6
CONTINUOUS
  2
*D7
 70
    65
 10
0.0
 20
0.0
  0
LINE
  8
1
 62
7
  6
CONTINUOUS
 10
40.835742
 20
146.619919
 11
40.835742
 21
250.619919
  0
LINE
  8
1
 62
7
  6
CONTINUOUS
 10
38.835742
 20
146.619919
 11
60.113821
 21
146.619919
  0
LINE
  8
1
 62
7
  6
CONTINUOUS
 10
38.835742
 20
250.619919
 11
60.113821
 21
250.619919
  0
LINE
  8
1
 62
7
  6
CONTINUOUS
 10
40.835742
 20
146.619919
 11
40.188695
 21
149.034733
  0
LINE
  8
1
 62
7
  6
CONTINUOUS
 10
40.835742
 20
146.619919
 11
41.482790
 21
149.034733
  0
LINE
  8
1
 62
7
  6
CONTINUOUS
 10
40.835742
 20
250.619919
 11
41.482790
 21
248.205104
  0
LINE
  8
1
 62
7
  6
CONTINUOUS
 10
40.835742
 20
250.619919
 11
40.188695
 21
248.205104
  0
TEXT
  8
1
 62
7
  6
CONTINUOUS
 10
40.835742
 20
196.369919
 40
3.000000
 41
0.500000
  1
104
  7
KANJI
 50
90.000000
 51
30.000000
  0
ENDBLK
  0
BLOCK
  8
1
 62
7
  6
CONTINUOUS
  2
*D8
 70
    65
 10
0.0
 20
0.0
  0
LINE
  8
1
 62
7
  6
CONTINUOUS
 10
59.113821
 20
128.422764
 11
180.113821
 21
128.422764
  0
LINE
  8
1
 62
7
  6
CONTINUOUS
 10
59.113821
 20
126.422764
 11
59.113821
 21
154.619919
  0
LINE
  8
1
 62
7
  6
CONTINUOUS
 10
180.113821
 20
126.422764
 11
180.113821
 21
154.619919
  0
LINE
  8
1
 62
7
  6
CONTINUOUS
 10
59.113821
 20
128.422764
 11
61.528636
 21
129.069812
  0
LINE
  8
1
 62
7
  6
CONTINUOUS
 10
59.113821
 20
128.422764
 11
61.528636
 21
127.775717
  0
LINE
  8
1
 62
7
  6
CONTINUOUS
 10
180.113821
 20
128.422764
 11
177.699007
 21
127.775717
  0
LINE
  8
1
 62
7
  6
CONTINUOUS
 10
180.113821
 20
128.422764
 11
177.699007
 21
129.069812
  0
TEXT
  8
1
 62
7
  6
CONTINUOUS
 10
117.363821
 20
128.422764
 40
3.000000
 41
0.500000
  1
121
  7
KANJI
 50
0.000000
 51
30.000000
  0
ENDBLK
  0
BLOCK
  8
1
 62
7
  6
CONTINUOUS
  2
*D9
 70
    65
 10
0.0
 20
0.0
  0
LINE
  8
1
 62
7
  6
CONTINUOUS
 10
61.113821
 20
132.894309
 11
178.113821
 21
132.894309
  0
LINE
  8
1
 62
7
  6
CONTINUOUS
 10
61.113821
 20
130.894309
 11
61.113821
 21
156.619919
  0
LINE
  8
1
 62
7
  6
CONTINUOUS
 10
178.113821
 20
130.894309
 11
178.113821
 21
156.619919
  0
LINE
  8
1
 62
7
  6
CONTINUOUS
 10
61.113821
 20
132.894309
 11
63.528636
 21
133.541357
  0
LINE
  8
1
 62
7
  6
CONTINUOUS
 10
61.113821
 20
132.894309
 11
63.528636
 21
132.247261
  0
LINE
  8
1
 62
7
  6
CONTINUOUS
 10
178.113821
 20
132.894309
 11
175.699007
 21
132.247261
  0
LINE
  8
1
 62
7
  6
CONTINUOUS
 10
178.113821
 20
132.894309
 11
175.699007
 21
133.541357
  0
TEXT
  8
1
 62
7
  6
CONTINUOUS
 10
117.363821
 20
132.894309
 40
3.000000
 41
0.500000
  1
117
  7
KANJI
 50
0.000000
 51
30.000000
  0
ENDBLK
  0
BLOCK
  8
1
 62
7
  6
CONTINUOUS
  2
*D10
 70
    65
 10
0.0
 20
0.0
  0
LINE
  8
1
 62
7
  6
CONTINUOUS
 10
79.613821
 20
137.544715
 11
119.613821
 21
137.544715
  0
LINE
  8
1
 62
7
  6
CONTINUOUS
 10
79.613821
 20
135.544715
 11
79.613821
 21
146.775068
  0
LINE
  8
1
 62
7
  6
CONTINUOUS
 10
119.613821
 20
135.544715
 11
119.613821
 21
146.395664
  0
LINE
  8
1
 62
7
  6
CONTINUOUS
 10
79.613821
 20
137.544715
 11
82.028636
 21
138.191763
  0
LINE
  8
1
 62
7
  6
CONTINUOUS
 10
79.613821
 20
137.544715
 11
82.028636
 21
136.897668
  0
LINE
  8
1
 62
7
  6
CONTINUOUS
 10
119.613821
 20
137.544715
 11
117.199007
 21
136.897668
  0
LINE
  8
1
 62
7
  6
CONTINUOUS
 10
119.613821
 20
137.544715
 11
117.199007
 21
138.191763
  0
TEXT
  8
1
 62
7
  6
CONTINUOUS
 10
98.113821
 20
137.544715
 40
3.000000
 41
0.500000
  1
40
  7
KANJI
 50
0.000000
 51
30.000000
  0
ENDBLK
  0
BLOCK
  8
1
 62
7
  6
CONTINUOUS
  2
*D11
 70
    65
 10
0.0
 20
0.0
  0
LINE
  8
1
 62
7
  6
CONTINUOUS
 10
119.613821
 20
137.544715
 11
159.613821
 21
137.544715
  0
LINE
  8
1
 62
7
  6
CONTINUOUS
 10
119.613821
 20
135.544715
 11
119.613821
 21
146.395664
  0
LINE
  8
1
 62
7
  6
CONTINUOUS
 10
159.613821
 20
135.544715
 11
159.613821
 21
146.585366
  0
LINE
  8
1
 62
7
  6
CONTINUOUS
 10
119.613821
 20
137.544715
 11
122.028636
 21
138.191763
  0
LINE
  8
1
 62
7
  6
CONTINUOUS
 10
119.613821
 20
137.544715
 11
122.028636
 21
136.897668
  0
LINE
  8
1
 62
7
  6
CONTINUOUS
 10
159.613821
 20
137.544715
 11
157.199007
 21
136.897668
  0
LINE
  8
1
 62
7
  6
CONTINUOUS
 10
159.613821
 20
137.544715
 11
157.199007
 21
138.191763
  0
TEXT
  8
1
 62
7
  6
CONTINUOUS
 10
138.113821
 20
137.544715
 40
3.000000
 41
0.500000
  1
40
  7
KANJI
 50
0.000000
 51
30.000000
  0
ENDBLK
  0
BLOCK
  8
1
 62
7
  6
CONTINUOUS
  2
*D12
 70
    65
 10
0.0
 20
0.0
  0
LINE
  8
1
 62
7
  6
CONTINUOUS
 10
110.863821
 20
259.453252
 11
128.363821
 21
259.453252
  0
LINE
  8
1
 62
7
  6
CONTINUOUS
 10
110.863821
 20
261.453252
 11
110.863821
 21
235.932927
  0
LINE
  8
1
 62
7
  6
CONTINUOUS
 10
128.363821
 20
261.453252
 11
128.363821
 21
235.038618
  0
LINE
  8
1
 62
7
  6
CONTINUOUS
 10
110.863821
 20
259.453252
 11
113.278636
 21
260.100300
  0
LINE
  8
1
 62
7
  6
CONTINUOUS
 10
110.863821
 20
259.453252
 11
113.278636
 21
258.806204
  0
LINE
  8
1
 62
7
  6
CONTINUOUS
 10
128.363821
 20
259.453252
 11
125.949007
 21
258.806204
  0
LINE
  8
1
 62
7
  6
CONTINUOUS
 10
128.363821
 20
259.453252
 11
125.949007
 21
260.100300
  0
TEXT
  8
1
 62
7
  6
CONTINUOUS
 10
116.613821
 20
259.453252
 40
3.000000
 41
0.500000
  1
17.5
  7
KANJI
 50
0.000000
 51
30.000000
  0
ENDBLK
  0
BLOCK
  8
1
 62
7
  6
CONTINUOUS
  2
*D13
 70
    65
 10
0.0
 20
0.0
  0
LINE
  8
1
 62
7
  6
CONTINUOUS
 10
128.363821
 20
259.453252
 11
145.863821
 21
259.453252
  0
LINE
  8
1
 62
7
  6
CONTINUOUS
 10
128.363821
 20
261.453252
 11
128.363821
 21
237.038618
  0
LINE
  8
1
 62
7
  6
CONTINUOUS
 10
145.863821
 20
261.453252
 11
145.863821
 21
235.255646
  0
LINE
  8
1
 62
7
  6
CONTINUOUS
 10
128.363821
 20
259.453252
 11
130.778636
 21
260.100300
  0
LINE
  8
1
 62
7
  6
CONTINUOUS
 10
128.363821
 20
259.453252
 11
130.778636
 21
258.806204
  0
LINE
  8
1
 62
7
  6
CONTINUOUS
 10
145.863821
 20
259.453252
 11
143.449007
 21
258.806204
  0
LINE
  8
1
 62
7
  6
CONTINUOUS
 10
145.863821
 20
259.453252
 11
143.449007
 21
260.100300
  0
TEXT
  8
1
 62
7
  6
CONTINUOUS
 10
134.113821
 20
259.453252
 40
3.000000
 41
0.500000
  1
17.5
  7
KANJI
 50
0.000000
 51
30.000000
  0
ENDBLK
  0
BLOCK
  8
1
 62
7
  6
CONTINUOUS
  2
*D14
 70
    65
 10
0.0
 20
0.0
  0
LINE
  8
1
 62
7
  6
CONTINUOUS
 10
145.863821
 20
259.453252
 11
163.363821
 21
259.453252
  0
LINE
  8
1
 62
7
  6
CONTINUOUS
 10
145.863821
 20
261.453252
 11
145.863821
 21
235.255646
  0
LINE
  8
1
 62
7
  6
CONTINUOUS
 10
163.363821
 20
261.453252
 11
163.363821
 21
235.255646
  0
LINE
  8
1
 62
7
  6
CONTINUOUS
 10
145.863821
 20
259.453252
 11
148.278636
 21
260.100300
  0
LINE
  8
1
 62
7
  6
CONTINUOUS
 10
145.863821
 20
259.453252
 11
148.278636
 21
258.806204
  0
LINE
  8
1
 62
7
  6
CONTINUOUS
 10
163.363821
 20
259.453252
 11
160.949007
 21
258.806204
  0
LINE
  8
1
 62
7
  6
CONTINUOUS
 10
163.363821
 20
259.453252
 11
160.949007
 21
260.100300
  0
TEXT
  8
1
 62
7
  6
CONTINUOUS
 10
151.613821
 20
259.453252
 40
3.000000
 41
0.500000
  1
17.5
  7
KANJI
 50
0.000000
 51
30.000000
  0
ENDBLK
  0
BLOCK
  8
1
 62
7
  6
CONTINUOUS
  2
*D15
 70
    65
 10
0.0
 20
0.0
  0
LINE
  8
1
 62
7
  6
CONTINUOUS
 10
93.363821
 20
259.453252
 11
110.863821
 21
259.453252
  0
LINE
  8
1
 62
7
  6
CONTINUOUS
 10
93.363821
 20
261.453252
 11
93.363821
 21
235.932927
  0
LINE
  8
1
 62
7
  6
CONTINUOUS
 10
110.863821
 20
261.453252
 11
110.863821
 21
235.038618
  0
LINE
  8
1
 62
7
  6
CONTINUOUS
 10
93.363821
 20
259.453252
 11
95.778636
 21
260.100300
  0
LINE
  8
1
 62
7
  6
CONTINUOUS
 10
93.363821
 20
259.453252
 11
95.778636
 21
258.806204
  0
LINE
  8
1
 62
7
  6
CONTINUOUS
 10
110.863821
 20
259.453252
 11
108.449007
 21
258.806204
  0
LINE
  8
1
 62
7
  6
CONTINUOUS
 10
110.863821
 20
259.453252
 11
108.449007
 21
260.100300
  0
TEXT
  8
1
 62
7
  6
CONTINUOUS
 10
99.113821
 20
259.453252
 40
3.000000
 41
0.500000
  1
17.5
  7
KANJI
 50
0.000000
 51
30.000000
  0
ENDBLK
  0
BLOCK
  8
1
 62
7
  6
CONTINUOUS
  2
*D16
 70
    65
 10
0.0
 20
0.0
  0
LINE
  8
1
 62
7
  6
CONTINUOUS
 10
75.863821
 20
259.453252
 11
93.363821
 21
259.453252
  0
LINE
  8
1
 62
7
  6
CONTINUOUS
 10
75.863821
 20
261.453252
 11
75.863821
 21
235.932927
  0
LINE
  8
1
 62
7
  6
CONTINUOUS
 10
93.363821
 20
261.453252
 11
93.363821
 21
235.038618
  0
LINE
  8
1
 62
7
  6
CONTINUOUS
 10
75.863821
 20
259.453252
 11
78.278636
 21
260.100300
  0
LINE
  8
1
 62
7
  6
CONTINUOUS
 10
75.863821
 20
259.453252
 11
78.278636
 21
258.806204
  0
LINE
  8
1
 62
7
  6
CONTINUOUS
 10
93.363821
 20
259.453252
 11
90.949007
 21
258.806204
  0
LINE
  8
1
 62
7
  6
CONTINUOUS
 10
93.363821
 20
259.453252
 11
90.949007
 21
260.100300
  0
TEXT
  8
1
 62
7
  6
CONTINUOUS
 10
81.613821
 20
259.453252
 40
3.000000
 41
0.500000
  1
17.5
  7
KANJI
 50
0.000000
 51
30.000000
  0
ENDBLK
  0
BLOCK
  8
1
 62
7
  6
CONTINUOUS
  2
*D17
 70
    65
 10
0.0
 20
0.0
  0
LINE
  8
1
 62
7
  6
CONTINUOUS
 10
157.613821
 20
140.406504
 11
161.613821
 21
140.406504
  0
LINE
  8
1
 62
7
  6
CONTINUOUS
 10
157.613821
 20
138.406504
 11
157.613821
 21
145.619919
  0
LINE
  8
1
 62
7
  6
CONTINUOUS
 10
161.613821
 20
138.406504
 11
161.613821
 21
145.619919
  0
LINE
  8
1
 62
7
  6
CONTINUOUS
 10
157.613821
 20
140.406504
 11
160.028636
 21
141.053552
  0
LINE
  8
1
 62
7
  6
CONTINUOUS
 10
157.613821
 20
140.406504
 11
160.028636
 21
139.759456
  0
LINE
  8
1
 62
7
  6
CONTINUOUS
 10
161.613821
 20
140.406504
 11
159.199007
 21
139.759456
  0
LINE
  8
1
 62
7
  6
CONTINUOUS
 10
161.613821
 20
140.406504
 11
159.199007
 21
141.053552
  0
TEXT
  8
1
 62
7
  6
CONTINUOUS
 10
158.863821
 20
140.406504
 40
3.000000
 41
0.500000
  1
4
  7
KANJI
 50
0.000000
 51
30.000000
  0
ENDBLK
  0
ENDSEC
  0
SECTION
  2
ENTITIES
  0
CIRCLE
  8
1
 62
7
  6
CONTINUOUS
 10
-56.617886
 20
210.845528
 40
2.000000
  0
LINE
  8
1
 62
7
  6
CONTINUOUS
 10
-56.909855
 20
211.811844
 11
-56.909855
 21
211.137498
  0
ARC
  8
1
 62
7
  6
CONTINUOUS
 10
-56.709855
 20
211.811844
 40
0.200000
 50
90.000000
 51
180.000000
  0
LINE
  8
1
 62
7
  6
CONTINUOUS
 10
-56.485322
 20
212.011844
 11
-56.709855
 21
212.011844
  0
LINE
  8
1
 62
7
  6
CONTINUOUS
 10
-56.285322
 20
211.137498
 11
-56.285322
 21
211.811844
  0
ARC
  8
1
 62
7
  6
CONTINUOUS
 10
-56.485322
 20
211.811844
 40
0.200000
 50
0.000000
 51
90.000000
  0
LINE
  8
1
 62
7
  6
CONTINUOUS
 10
-56.285322
 20
209.838618
 11
-56.285322
 21
210.562927
  0
ARC
  8
1
 62
7
  6
CONTINUOUS
 10
-56.485322
 20
209.838618
 40
0.200000
 50
-90.000000
 51
0.000000
  0
LINE
  8
1
 62
7
  6
CONTINUOUS
 10
-56.709855
 20
209.638618
 11
-56.485322
 21
209.638618
  0
LINE
  8
1
 62
7
  6
CONTINUOUS
 10
-56.909855
 20
210.562927
 11
-56.909855
 21
209.838618
  0
ARC
  8
1
 62
7
  6
CONTINUOUS
 10
-56.709855
 20
209.838618
 40
0.200000
 50
180.000000
 51
-90.000000
  0
LINE
  8
1
 62
7
  6
CONTINUOUS
 10
-55.610976
 20
211.137498
 11
-56.285322
 21
211.137498
  0
ARC
  8
1
 62
7
  6
CONTINUOUS
 10
-55.610976
 20
210.937498
 40
0.200000
 50
0.000000
 51
90.000000
  0
LINE
  8
1
 62
7
  6
CONTINUOUS
 10
-55.410976
 20
210.762927
 11
-55.410976
 21
210.937498
  0
LINE
  8
1
 62
7
  6
CONTINUOUS
 10
-56.285322
 20
210.562927
 11
-55.610976
 21
210.562927
  0
ARC
  8
1
 62
7
  6
CONTINUOUS
 10
-55.610976
 20
210.762927
 40
0.200000
 50
-90.000000
 51
0.000000
  0
LINE
  8
1
 62
7
  6
CONTINUOUS
 10
-57.709108
 20
210.562927
 11
-56.909855
 21
210.562927
  0
ARC
  8
1
 62
7
  6
CONTINUOUS
 10
-57.709108
 20
210.762927
 40
0.200000
 50
180.000000
 51
-90.000000
  0
LINE
  8
1
 62
7
  6
CONTINUOUS
 10
-57.909108
 20
210.937498
 11
-57.909108
 21
210.762927
  0
LINE
  8
1
 62
7
  6
CONTINUOUS
 10
-56.909855
 20
211.137498
 11
-57.709108
 21
211.137498
  0
ARC
  8
1
 62
7
  6
CONTINUOUS
 10
-57.709108
 20
210.937498
 40
0.200000
 50
90.000000
 51
180.000000
  0
LINE
  8
1
 62
7
  6
CONTINUOUS
 10
432.821326
 20
290.044901
 11
432.821326
 21
285.495000
  0
LINE
  8
1
 62
7
  6
CONTINUOUS
 10
432.821326
 20
298.470643
 11
432.821326
 21
293.499455
  0
LINE
  8
1
 62
7
  6
CONTINUOUS
 10
430.462118
 20
290.044901
 11
435.180533
 21
290.044901
  0
LINE
  8
1
 62
7
  6
CONTINUOUS
 10
428.776969
 20
293.499455
 11
437.034197
 21
293.499455
  0
LINE
  8
1
 62
7
  6
CONTINUOUS
 10
442.868996
 20
295.067541
 11
441.710436
 21
293.000921
  0
LINE
  8
1
 62
7
  6
CONTINUOUS
 10
442.904782
 20
295.112273
 11
440.622446
 21
295.112273
  0
LINE
  8
1
 62
7
  6
CONTINUOUS
 10
441.741749
 20
292.969608
 11
440.622446
 21
295.112273
  0
LINE
  8
1
 62
7
  6
CONTINUOUS
 10
442.712434
 20
293.000921
 11
440.677126
 21
293.000921
  0
LINE
  8
1
 62
7
  6
CONTINUOUS
 10
441.699104
 20
296.561965
 11
441.699104
 21
295.110134
  0
LINE
  8
1
 62
7
  6
CONTINUOUS
 10
441.699104
 20
293.000921
 11
441.699104
 21
291.411849
  0
LINE
  8
1
 62
7
  6
CONTINUOUS
 10
448.030794
 20
294.901593
 11
446.872234
 21
292.834973
  0
LINE
  8
1
 62
7
  6
CONTINUOUS
 10
448.066580
 20
294.946325
 11
445.784244
 21
294.946325
  0
LINE
  8
1
 62
7
  6
CONTINUOUS
 10
446.903547
 20
292.803661
 11
445.784244
 21
294.946325
  0
CIRCLE
  8
1
 62
7
  6
CONTINUOUS
 10
446.879540
 20
294.104203
 40
2.010718
  0
LINE
  8
1
 62
7
  6
CONTINUOUS
 10
447.874232
 20
292.834973
 11
445.838924
 21
292.834973
  0
LINE
  8
1
 62
7
  6
CONTINUOUS
 10
446.886179
 20
291.075177
 11
446.886179
 21
292.834973
  0
LINE
  8
1
 62
7
  6
CONTINUOUS
 10
446.886179
 20
294.959295
 11
446.886179
 21
296.995629
  0
LINE
  8
1
 62
7
  6
CONTINUOUS
 10
452.218782
 20
292.014434
 11
451.569726
 21
292.366331
  0
LINE
  8
1
 62
7
  6
CONTINUOUS
 10
451.569726
 20
292.366331
 11
452.858782
 21
293.015387
  0
LINE
  8
1
 62
7
  6
CONTINUOUS
 10
452.858782
 20
293.015387
 11
451.578782
 21
293.648802
  0
LINE
  8
1
 62
7
  6
CONTINUOUS
 10
451.578782
 20
293.648802
 11
452.858782
 21
294.290038
  0
LINE
  8
1
 62
7
  6
CONTINUOUS
 10
452.858782
 20
294.290038
 11
451.578782
 21
294.923453
  0
LINE
  8
1
 62
7
  6
CONTINUOUS
 10
451.578782
 20
294.923453
 11
452.858782
 21
295.564689
  0
LINE
  8
1
 62
7
  6
CONTINUOUS
 10
452.858782
 20
295.564689
 11
452.218782
 21
295.900946
  0
LINE
  8
1
 62
7
  6
CONTINUOUS
 10
452.218782
 20
295.900946
 11
452.218782
 21
298.009067
  0
LINE
  8
1
 62
7
  6
CONTINUOUS
 10
452.218782
 20
289.911126
 11
452.218782
 21
291.961359
  0
LINE
  8
1
 62
7
  6
CONTINUOUS
 10
456.001015
 20
294.583134
 11
458.767365
 21
294.583134
  0
LINE
  8
1
 62
7
  6
CONTINUOUS
 10
458.767365
 20
293.237342
 11
456.001015
 21
293.237342
  0
LINE
  8
1
 62
7
  6
CONTINUOUS
 10
457.371278
 20
294.603336
 11
457.371278
 21
296.497395
  0
LINE
  8
1
 62
7
  6
CONTINUOUS
 10
457.371278
 20
290.939843
 11
457.371278
 21
293.237342
  0
LINE
  8
1
 62
7
  6
CONTINUOUS
 10
461.589860
 20
295.196347
 11
464.751404
 21
295.196347
  0
LINE
  8
1
 62
7
  6
CONTINUOUS
 10
464.751404
 20
293.658299
 11
461.589860
 21
293.658299
  0
LINE
  8
1
 62
7
  6
CONTINUOUS
 10
463.155875
 20
295.219435
 11
463.155875
 21
297.384074
  0
LINE
  8
1
 62
7
  6
CONTINUOUS
 10
463.155875
 20
291.032586
 11
463.155875
 21
293.658299
  0
TEXT
  8
1
 62
7
  6
CONTINUOUS
 10
463.619385
 20
295.482667
 40
2.048000
 41
0.500000
  1
+
  7
KANJI
 50
0.000000
 51
0.000000
  0
LINE
  8
1
 62
7
  6
CONTINUOUS
 10
461.924014
 20
295.188794
 11
461.580583
 21
293.660384
  0
LINE
  8
1
 62
7
  6
CONTINUOUS
 10
462.339723
 20
295.188794
 11
461.995823
 21
293.658299
  0
LINE
  8
1
 62
7
  6
CONTINUOUS
 10
462.739723
 20
295.188794
 11
462.395823
 21
293.658299
  0
LINE
  8
1
 62
7
  6
CONTINUOUS
 10
463.139723
 20
295.188794
 11
462.795823
 21
293.658299
  0
LINE
  8
1
 62
7
  6
CONTINUOUS
 10
463.539723
 20
295.188794
 11
463.195823
 21
293.658299
  0
LINE
  8
1
 62
7
  6
CONTINUOUS
 10
463.939723
 20
295.188794
 11
463.595823
 21
293.658299
  0
LINE
  8
1
 62
7
  6
CONTINUOUS
 10
464.339723
 20
295.188794
 11
463.995823
 21
293.658299
  0
LINE
  8
1
 62
7
  6
CONTINUOUS
 10
464.739723
 20
295.188794
 11
464.395823
 21
293.658299
  0
LINE
  8
1
 62
7
  6
CONTINUOUS
 10
442.873645
 20
182.566734
 11
448.597222
 21
182.566734
  0
LINE
  8
1
 62
7
  6
CONTINUOUS
 10
442.754404
 20
260.566734
 11
448.358740
 21
260.566734
  0
ARC
  8
1
 62
7
  6
CONTINUOUS
 10
444.946545
 20
255.766734
 40
0.200000
 50
-90.000000
 51
-0.000000
  0
LINE
  8
1
 62
7
  6
CONTINUOUS
 10
445.146545
 20
255.766734
 11
445.146545
 21
265.566734
  0
ARC
  8
1
 62
7
  6
CONTINUOUS
 10
444.946545
 20
187.366734
 40
0.200000
 50
0.000000
 51
90.000000
  0
LINE
  8
1
 62
7
  6
CONTINUOUS
 10
445.146545
 20
177.566734
 11
445.146545
 21
187.366734
  0
LINE
  8
1
 62
7
  6
CONTINUOUS
 10
445.146545
 20
265.566734
 11
446.346545
 21
265.566734
  0
LINE
  8
1
 62
7
  6
CONTINUOUS
 10
445.146545
 20
177.566734
 11
446.346545
 21
177.566734
  0
LINE
  8
1
 62
7
  6
CONTINUOUS
 10
446.346545
 20
177.566734
 11
446.346545
 21
265.566734
  0
LINE
  8
1
 62
7
  6
CONTINUOUS
 10
436.346545
 20
187.566734
 11
444.946545
 21
187.566734
  0
ARC
  8
1
 62
7
  6
CONTINUOUS
 10
436.346545
 20
188.566734
 40
1.000000
 50
180.000000
 51
-90.000000
  0
LINE
  8
1
 62
7
  6
CONTINUOUS
 10
435.346545
 20
188.566734
 11
435.346545
 21
254.566734
  0
LINE
  8
1
 62
7
  6
CONTINUOUS
 10
436.346545
 20
255.566734
 11
444.946545
 21
255.566734
  0
ARC
  8
1
 62
7
  6
CONTINUOUS
 10
436.346545
 20
254.566734
 40
1.000000
 50
90.000000
 51
180.000000
  0
DIMENSION
  8
1
 62
7
  6
CONTINUOUS
  2
*D1
 10
446.346545
 20
167.654810
 11
445.746545
 21
167.654810
 70
     0
  1
1.2
 13
446.346545
 23
175.566734
 14
445.146545
 24
175.566734
 50
180.000000
  0
LINE
  8
1
 62
7
  6
CONTINUOUS
 10
434.846545
 20
189.566734
 11
434.846545
 21
253.566734
  0
LINE
  8
1
 62
7
  6
CONTINUOUS
 10
434.846545
 20
253.566734
 11
435.346545
 21
253.566734
  0
LINE
  8
1
 62
7
  6
CONTINUOUS
 10
434.846545
 20
189.566734
 11
435.346545
 21
189.566734
  0
DIMENSION
  8
1
 62
7
  6
CONTINUOUS
  2
*D2
 10
446.346545
 20
162.646680
 11
440.596545
 21
162.646680
 70
     0
  1
11.5
 13
446.346545
 23
175.566734
 14
434.846545
 24
187.952913
 50
180.000000
  0
DIMENSION
  8
1
 62
7
  6
CONTINUOUS
  2
*D3
 10
435.346545
 20
167.535569
 11
435.096545
 21
167.535569
 70
     0
  1
0.5
 13
435.346545
 23
187.566734
 14
434.846545
 24
187.566734
 50
180.000000
  0
LINE
  8
1
 62
7
  6
CONTINUOUS
 10
432.108815
 20
221.566734
 11
448.816132
 21
221.566734
  0
LINE
  8
1
 62
7
  6
CONTINUOUS
 10
446.346545
 20
202.566734
 11
446.346545
 21
240.564928
  0
LINE
  8
1
 62
7
  6
CONTINUOUS
 10
447.709287
 20
204.262609
 11
447.709287
 21
238.975045
  0
LINE
  8
1
 62
7
  6
CONTINUOUS
 10
446.346545
 20
204.262609
 11
449.858138
 21
204.262609
  0
LINE
  8
1
 62
7
  6
CONTINUOUS
 10
449.911134
 20
240.564928
 11
446.293549
 21
240.564928
  0
LINE
  8
1
 62
7
  6
CONTINUOUS
 10
449.911134
 20
238.975045
 11
449.911134
 21
240.564928
  0
LINE
  8
1
 62
7
  6
CONTINUOUS
 10
446.346545
 20
238.975045
 11
449.911134
 21
238.975045
  0
LINE
  8
1
 62
7
  6
CONTINUOUS
 10
449.858138
 20
202.566734
 11
446.346545
 21
202.566734
  0
LINE
  8
1
 62
7
  6
CONTINUOUS
 10
449.858138
 20
204.262609
 11
449.858138
 21
202.566734
  0
LINE
  8
1
 62
7
  6
CONTINUOUS
 10
447.709287
 20
236.132652
 11
449.928799
 21
236.132652
  0
LINE
  8
1
 62
7
  6
CONTINUOUS
 10
449.928799
 20
236.132652
 11
449.928799
 21
237.474116
  0
LINE
  8
1
 62
7
  6
CONTINUOUS
 10
449.928799
 20
237.474116
 11
447.709287
 21
237.474116
  0
LINE
  8
1
 62
7
  6
CONTINUOUS
 10
447.709287
 20
237.474116
 11
447.709287
 21
236.132652
  0
LINE
  8
1
 62
7
  6
CONTINUOUS
 10
447.709287
 20
233.592652
 11
449.928799
 21
233.592652
  0
LINE
  8
1
 62
7
  6
CONTINUOUS
 10
449.928799
 20
233.592652
 11
449.928799
 21
234.934116
  0
LINE
  8
1
 62
7
  6
CONTINUOUS
 10
449.928799
 20
234.934116
 11
447.709287
 21
234.934116
  0
LINE
  8
1
 62
7
  6
CONTINUOUS
 10
447.709287
 20
234.934116
 11
447.709287
 21
233.592652
  0
LINE
  8
1
 62
7
  6
CONTINUOUS
 10
447.709287
 20
231.052652
 11
449.928799
 21
231.052652
  0
LINE
  8
1
 62
7
  6
CONTINUOUS
 10
449.928799
 20
231.052652
 11
449.928799
 21
232.394116
  0
LINE
  8
1
 62
7
  6
CONTINUOUS
 10
449.928799
 20
232.394116
 11
447.709287
 21
232.394116
  0
LINE
  8
1
 62
7
  6
CONTINUOUS
 10
447.709287
 20
232.394116
 11
447.709287
 21
231.052652
  0
LINE
  8
1
 62
7
  6
CONTINUOUS
 10
447.709287
 20
228.512652
 11
449.928799
 21
228.512652
  0
LINE
  8
1
 62
7
  6
CONTINUOUS
 10
449.928799
 20
228.512652
 11
449.928799
 21
229.854116
  0
LINE
  8
1
 62
7
  6
CONTINUOUS
 10
449.928799
 20
229.854116
 11
447.709287
 21
229.854116
  0
LINE
  8
1
 62
7
  6
CONTINUOUS
 10
447.709287
 20
229.854116
 11
447.709287
 21
228.512652
  0
LINE
  8
1
 62
7
  6
CONTINUOUS
 10
447.709287
 20
225.972652
 11
449.928799
 21
225.972652
  0
LINE
  8
1
 62
7
  6
CONTINUOUS
 10
449.928799
 20
225.972652
 11
449.928799
 21
227.314116
  0
LINE
  8
1
 62
7
  6
CONTINUOUS
 10
449.928799
 20
227.314116
 11
447.709287
 21
227.314116
  0
LINE
  8
1
 62
7
  6
CONTINUOUS
 10
447.709287
 20
227.314116
 11
447.709287
 21
225.972652
  0
LINE
  8
1
 62
7
  6
CONTINUOUS
 10
447.709287
 20
223.432652
 11
449.928799
 21
223.432652
  0
LINE
  8
1
 62
7
  6
CONTINUOUS
 10
449.928799
 20
223.432652
 11
449.928799
 21
224.774116
  0
LINE
  8
1
 62
7
  6
CONTINUOUS
 10
449.928799
 20
224.774116
 11
447.709287
 21
224.774116
  0
LINE
  8
1
 62
7
  6
CONTINUOUS
 10
447.709287
 20
224.774116
 11
447.709287
 21
223.432652
  0
LINE
  8
1
 62
7
  6
CONTINUOUS
 10
447.709287
 20
220.892652
 11
449.928799
 21
220.892652
  0
LINE
  8
1
 62
7
  6
CONTINUOUS
 10
449.928799
 20
220.892652
 11
449.928799
 21
222.234116
  0
LINE
  8
1
 62
7
  6
CONTINUOUS
 10
449.928799
 20
222.234116
 11
447.709287
 21
222.234116
  0
LINE
  8
1
 62
7
  6
CONTINUOUS
 10
447.709287
 20
222.234116
 11
447.709287
 21
220.892652
  0
LINE
  8
1
 62
7
  6
CONTINUOUS
 10
447.709287
 20
218.352652
 11
449.928799
 21
218.352652
  0
LINE
  8
1
 62
7
  6
CONTINUOUS
 10
449.928799
 20
218.352652
 11
449.928799
 21
219.694116
  0
LINE
  8
1
 62
7
  6
CONTINUOUS
 10
449.928799
 20
219.694116
 11
447.709287
 21
219.694116
  0
LINE
  8
1
 62
7
  6
CONTINUOUS
 10
447.709287
 20
219.694116
 11
447.709287
 21
218.352652
  0
LINE
  8
1
 62
7
  6
CONTINUOUS
 10
447.709287
 20
215.812652
 11
449.928799
 21
215.812652
  0
LINE
  8
1
 62
7
  6
CONTINUOUS
 10
449.928799
 20
215.812652
 11
449.928799
 21
217.154116
  0
LINE
  8
1
 62
7
  6
CONTINUOUS
 10
449.928799
 20
217.154116
 11
447.709287
 21
217.154116
  0
LINE
  8
1
 62
7
  6
CONTINUOUS
 10
447.709287
 20
217.154116
 11
447.709287
 21
215.812652
  0
LINE
  8
1
 62
7
  6
CONTINUOUS
 10
447.709287
 20
213.272652
 11
449.928799
 21
213.272652
  0
LINE
  8
1
 62
7
  6
CONTINUOUS
 10
449.928799
 20
213.272652
 11
449.928799
 21
214.614116
  0
LINE
  8
1
 62
7
  6
CONTINUOUS
 10
449.928799
 20
214.614116
 11
447.709287
 21
214.614116
  0
LINE
  8
1
 62
7
  6
CONTINUOUS
 10
447.709287
 20
214.614116
 11
447.709287
 21
213.272652
  0
LINE
  8
1
 62
7
  6
CONTINUOUS
 10
447.709287
 20
210.732652
 11
449.928799
 21
210.732652
  0
LINE
  8
1
 62
7
  6
CONTINUOUS
 10
449.928799
 20
210.732652
 11
449.928799
 21
212.074116
  0
LINE
  8
1
 62
7
  6
CONTINUOUS
 10
449.928799
 20
212.074116
 11
447.709287
 21
212.074116
  0
LINE
  8
1
 62
7
  6
CONTINUOUS
 10
447.709287
 20
212.074116
 11
447.709287
 21
210.732652
  0
LINE
  8
1
 62
7
  6
CONTINUOUS
 10
447.709287
 20
208.192652
 11
449.928799
 21
208.192652
  0
LINE
  8
1
 62
7
  6
CONTINUOUS
 10
449.928799
 20
208.192652
 11
449.928799
 21
209.534116
  0
LINE
  8
1
 62
7
  6
CONTINUOUS
 10
449.928799
 20
209.534116
 11
447.709287
 21
209.534116
  0
LINE
  8
1
 62
7
  6
CONTINUOUS
 10
447.709287
 20
209.534116
 11
447.709287
 21
208.192652
  0
LINE
  8
1
 62
7
  6
CONTINUOUS
 10
447.709287
 20
205.652652
 11
449.928799
 21
205.652652
  0
LINE
  8
1
 62
7
  6
CONTINUOUS
 10
449.928799
 20
205.652652
 11
449.928799
 21
206.994116
  0
LINE
  8
1
 62
7
  6
CONTINUOUS
 10
449.928799
 20
206.994116
 11
447.709287
 21
206.994116
  0
LINE
  8
1
 62
7
  6
CONTINUOUS
 10
447.709287
 20
206.994116
 11
447.709287
 21
205.652652
  0
LINE
  8
1
 62
7
  6
DOT
 10
460.460617
 20
201.937406
 11
460.460617
 21
236.649842
  0
ARC
  8
1
 62
7
  6
DOT
 10
455.852234
 20
233.975045
 40
5.000000
 50
4.667927
 51
90.000000
  0
LINE
  8
1
 62
7
  6
DOT
 10
449.911134
 20
238.975045
 11
455.852234
 21
238.975045
  0
LINE
  8
1
 62
7
  6
DOT
 10
465.346545
 20
179.136191
 11
460.835650
 21
234.381948
  0
ARC
  8
1
 62
7
  6
DOT
 10
455.813568
 20
199.262609
 40
5.000000
 50
4.190634
 51
90.000000
  0
LINE
  8
1
 62
7
  6
DOT
 10
449.858138
 20
204.262609
 11
455.813568
 21
204.262609
  0
LINE
  8
1
 62
7
  6
DOT
 10
460.800201
 20
199.627985
 11
462.249235
 21
179.851639
  0
DIMENSION
  8
1
 62
7
  6
CONTINUOUS
  2
*D4
 10
465.346545
 20
162.646680
 11
455.846545
 21
162.646680
 70
     0
  1
19
 13
465.346545
 23
177.136191
 14
446.346545
 24
175.566734
 50
180.000000
  0
LINE
  8
1
 62
7
  6
CONTINUOUS
 10
436.819858
 20
109.882114
 11
434.276046
 21
109.882114
  0
LINE
  8
1
 62
7
  6
CONTINUOUS
 10
435.668699
 20
108.558717
 11
435.668699
 21
111.155525
  0
ARC
  8
1
 62
7
  6
CONTINUOUS
 10
430.668699
 20
104.882114
 40
1.000000
 50
180.000000
 51
-90.000000
  0
LINE
  8
1
 62
7
  6
CONTINUOUS
 10
429.668699
 20
114.882114
 11
429.668699
 21
104.882114
  0
ARC
  8
1
 62
7
  6
CONTINUOUS
 10
430.668699
 20
114.882114
 40
1.000000
 50
90.000000
 51
180.000000
  0
LINE
  8
1
 62
7
  6
CONTINUOUS
 10
440.668699
 20
115.882114
 11
430.668699
 21
115.882114
  0
ARC
  8
1
 62
7
  6
CONTINUOUS
 10
440.668699
 20
114.882114
 40
1.000000
 50
0.000000
 51
90.000000
  0
LINE
  8
1
 62
7
  6
CONTINUOUS
 10
441.668699
 20
104.882114
 11
441.668699
 21
114.882114
  0
LINE
  8
1
 62
7
  6
CONTINUOUS
 10
430.668699
 20
103.882114
 11
440.668699
 21
103.882114
  0
ARC
  8
1
 62
7
  6
CONTINUOUS
 10
440.668699
 20
104.882114
 40
1.000000
 50
-90.000000
 51
0.000000
  0
LINE
  8
1
 62
7
  6
CONTINUOUS
 10
430.322719
 20
114.690530
 11
430.322719
 21
113.524616
  0
LINE
  8
1
 62
7
  6
CONTINUOUS
 10
430.322719
 20
113.524616
 11
433.449488
 21
113.524616
  0
LINE
  8
1
 62
7
  6
CONTINUOUS
 10
433.449488
 20
113.524616
 11
433.449488
 21
114.690530
  0
LINE
  8
1
 62
7
  6
CONTINUOUS
 10
433.449488
 20
114.690530
 11
430.322719
 21
114.690530
  0
TEXT
  8
1
 62
7
  6
CONTINUOUS
 10
435.668699
 20
106.735245
 40
5.000000
 41
0.500000
  1
1
  7
KANJI
 50
0.000000
 51
0.000000
  0
CIRCLE
  8
1
 62
7
  6
CONTINUOUS
 10
425.418243
 20
90.808556
 40
2.000000
  0
LINE
  8
1
 62
7
  6
CONTINUOUS
 10
425.126274
 20
91.774872
 11
425.126274
 21
91.100526
  0
ARC
  8
1
 62
7
  6
CONTINUOUS
 10
425.326274
 20
91.774872
 40
0.200000
 50
90.000000
 51
180.000000
  0
LINE
  8
1
 62
7
  6
CONTINUOUS
 10
425.550807
 20
91.974872
 11
425.326274
 21
91.974872
  0
LINE
  8
1
 62
7
  6
CONTINUOUS
 10
425.750807
 20
91.100526
 11
425.750807
 21
91.774872
  0
ARC
  8
1
 62
7
  6
CONTINUOUS
 10
425.550807
 20
91.774872
 40
0.200000
 50
0.000000
 51
90.000000
  0
LINE
  8
1
 62
7
  6
CONTINUOUS
 10
425.750807
 20
89.801646
 11
425.750807
 21
90.525955
  0
ARC
  8
1
 62
7
  6
CONTINUOUS
 10
425.550807
 20
89.801646
 40
0.200000
 50
-90.000000
 51
0.000000
  0
LINE
  8
1
 62
7
  6
CONTINUOUS
 10
425.326274
 20
89.601646
 11
425.550807
 21
89.601646
  0
LINE
  8
1
 62
7
  6
CONTINUOUS
 10
425.126274
 20
90.525955
 11
425.126274
 21
89.801646
  0
ARC
  8
1
 62
7
  6
CONTINUOUS
 10
425.326274
 20
89.801646
 40
0.200000
 50
180.000000
 51
-90.000000
  0
LINE
  8
1
 62
7
  6
CONTINUOUS
 10
426.425153
 20
91.100526
 11
425.750807
 21
91.100526
  0
ARC
  8
1
 62
7
  6
CONTINUOUS
 10
426.425153
 20
90.900526
 40
0.200000
 50
0.000000
 51
90.000000
  0
LINE
  8
1
 62
7
  6
CONTINUOUS
 10
426.625153
 20
90.725955
 11
426.625153
 21
90.900526
  0
LINE
  8
1
 62
7
  6
CONTINUOUS
 10
425.750807
 20
90.525955
 11
426.425153
 21
90.525955
  0
ARC
  8
1
 62
7
  6
CONTINUOUS
 10
426.425153
 20
90.725955
 40
0.200000
 50
-90.000000
 51
0.000000
  0
LINE
  8
1
 62
7
  6
CONTINUOUS
 10
424.327021
 20
90.525955
 11
425.126274
 21
90.525955
  0
ARC
  8
1
 62
7
  6
CONTINUOUS
 10
424.327021
 20
90.725955
 40
0.200000
 50
-180.000000
 51
-90.000000
  0
LINE
  8
1
 62
7
  6
CONTINUOUS
 10
424.127021
 20
90.900526
 11
424.127021
 21
90.725955
  0
LINE
  8
1
 62
7
  6
CONTINUOUS
 10
425.126274
 20
91.100526
 11
424.327021
 21
91.100526
  0
ARC
  8
1
 62
7
  6
CONTINUOUS
 10
424.327021
 20
90.900526
 40
0.200000
 50
90.000000
 51
-180.000000
  0
TEXT
  8
1
 62
7
  6
CONTINUOUS
 10
462.876343
 20
136.433295
 40
2.000000
 41
0.500000
  1
1
  7
KANJI
 50
0.000000
 51
0.000000
  0
TEXT
  8
1
 62
7
  6
CONTINUOUS
 10
438.069233
 20
136.442956
 40
2.000000
 41
0.500000
  1
1
  7
KANJI
 50
0.000000
 51
0.000000
  0
TEXT
  8
1
 62
7
  6
CONTINUOUS
 10
438.069233
 20
136.569424
 40
2.000000
 41
0.500000
  1
10
  7
KANJI
 50
0.000000
 51
0.000000
  0
TEXT
  8
1
 62
7
  6
CONTINUOUS
 10
497.876343
 20
136.433295
 40
2.000000
 41
0.500000
  1
1
  7
KANJI
 50
0.000000
 51
0.000000
  0
LINE
  8
1
 62
7
  6
CONTINUOUS
 10
500.316539
 20
130.361922
 11
499.722909
 21
130.361922
  0
TEXT
  8
1
 62
7
  6
CONTINUOUS
 10
473.069233
 20
136.442956
 40
2.000000
 41
0.500000
  1
1
  7
KANJI
 50
0.000000
 51
0.000000
  0
LINE
  8
1
 62
7
  6
CONTINUOUS
 10
472.284497
 20
130.361922
 11
472.791472
 21
130.361922
  0
TEXT
  8
1
 62
7
  6
CONTINUOUS
 10
473.069233
 20
136.569424
 40
2.000000
 41
0.500000
  1
10
  7
KANJI
 50
0.000000
 51
0.000000
  0
LINE
  8
1
 62
7
  6
CONTINUOUS
 10
439.111256
 20
133.492004
 11
439.111256
 21
132.353792
  0
LINE
  8
1
 62
7
  6
CONTINUOUS
 10
439.111256
 20
132.353792
 11
440.249467
 21
132.353792
  0
LINE
  8
1
 62
7
  6
CONTINUOUS
 10
440.249467
 20
132.353792
 11
440.249467
 21
133.492004
  0
LINE
  8
1
 62
7
  6
CONTINUOUS
 10
440.249467
 20
133.492004
 11
439.111256
 21
133.492004
  0
LINE
  8
1
 62
7
  6
CONTINUOUS
 10
441.651256
 20
133.492004
 11
441.651256
 21
132.353792
  0
LINE
  8
1
 62
7
  6
CONTINUOUS
 10
441.651256
 20
132.353792
 11
442.789467
 21
132.353792
  0
LINE
  8
1
 62
7
  6
CONTINUOUS
 10
442.789467
 20
132.353792
 11
442.789467
 21
133.492004
  0
LINE
  8
1
 62
7
  6
CONTINUOUS
 10
442.789467
 20
133.492004
 11
441.651256
 21
133.492004
  0
LINE
  8
1
 62
7
  6
CONTINUOUS
 10
444.191256
 20
133.492004
 11
444.191256
 21
132.353792
  0
LINE
  8
1
 62
7
  6
CONTINUOUS
 10
444.191256
 20
132.353792
 11
445.329467
 21
132.353792
  0
LINE
  8
1
 62
7
  6
CONTINUOUS
 10
445.329467
 20
132.353792
 11
445.329467
 21
133.492004
  0
LINE
  8
1
 62
7
  6
CONTINUOUS
 10
445.329467
 20
133.492004
 11
444.191256
 21
133.492004
  0
LINE
  8
1
 62
7
  6
CONTINUOUS
 10
446.731256
 20
133.492004
 11
446.731256
 21
132.353792
  0
LINE
  8
1
 62
7
  6
CONTINUOUS
 10
446.731256
 20
132.353792
 11
447.869467
 21
132.353792
  0
LINE
  8
1
 62
7
  6
CONTINUOUS
 10
447.869467
 20
132.353792
 11
447.869467
 21
133.492004
  0
LINE
  8
1
 62
7
  6
CONTINUOUS
 10
447.869467
 20
133.492004
 11
446.731256
 21
133.492004
  0
LINE
  8
1
 62
7
  6
CONTINUOUS
 10
449.271256
 20
133.492004
 11
449.271256
 21
132.353792
  0
LINE
  8
1
 62
7
  6
CONTINUOUS
 10
449.271256
 20
132.353792
 11
450.409467
 21
132.353792
  0
LINE
  8
1
 62
7
  6
CONTINUOUS
 10
450.409467
 20
132.353792
 11
450.409467
 21
133.492004
  0
LINE
  8
1
 62
7
  6
CONTINUOUS
 10
450.409467
 20
133.492004
 11
449.271256
 21
133.492004
  0
LINE
  8
1
 62
7
  6
CONTINUOUS
 10
451.811256
 20
133.492004
 11
451.811256
 21
132.353792
  0
LINE
  8
1
 62
7
  6
CONTINUOUS
 10
451.811256
 20
132.353792
 11
452.949467
 21
132.353792
  0
LINE
  8
1
 62
7
  6
CONTINUOUS
 10
452.949467
 20
132.353792
 11
452.949467
 21
133.492004
  0
LINE
  8
1
 62
7
  6
CONTINUOUS
 10
452.949467
 20
133.492004
 11
451.811256
 21
133.492004
  0
LINE
  8
1
 62
7
  6
CONTINUOUS
 10
454.351256
 20
133.492004
 11
454.351256
 21
132.353792
  0
LINE
  8
1
 62
7
  6
CONTINUOUS
 10
454.351256
 20
132.353792
 11
455.489467
 21
132.353792
  0
LINE
  8
1
 62
7
  6
CONTINUOUS
 10
455.489467
 20
132.353792
 11
455.489467
 21
133.492004
  0
LINE
  8
1
 62
7
  6
CONTINUOUS
 10
455.489467
 20
133.492004
 11
454.351256
 21
133.492004
  0
LINE
  8
1
 62
7
  6
CONTINUOUS
 10
456.891256
 20
133.492004
 11
456.891256
 21
132.353792
  0
LINE
  8
1
 62
7
  6
CONTINUOUS
 10
456.891256
 20
132.353792
 11
458.029467
 21
132.353792
  0
LINE
  8
1
 62
7
  6
CONTINUOUS
 10
458.029467
 20
132.353792
 11
458.029467
 21
133.492004
  0
LINE
  8
1
 62
7
  6
CONTINUOUS
 10
458.029467
 20
133.492004
 11
456.891256
 21
133.492004
  0
LINE
  8
1
 62
7
  6
CONTINUOUS
 10
459.431256
 20
133.492004
 11
459.431256
 21
132.353792
  0
LINE
  8
1
 62
7
  6
CONTINUOUS
 10
459.431256
 20
132.353792
 11
460.569467
 21
132.353792
  0
LINE
  8
1
 62
7
  6
CONTINUOUS
 10
460.569467
 20
132.353792
 11
460.569467
 21
133.492004
  0
LINE
  8
1
 62
7
  6
CONTINUOUS
 10
460.569467
 20
133.492004
 11
459.431256
 21
133.492004
  0
LINE
  8
1
 62
7
  6
CONTINUOUS
 10
461.971256
 20
133.492004
 11
461.971256
 21
132.353792
  0
LINE
  8
1
 62
7
  6
CONTINUOUS
 10
461.971256
 20
132.353792
 11
463.109467
 21
132.353792
  0
LINE
  8
1
 62
7
  6
CONTINUOUS
 10
463.109467
 20
132.353792
 11
463.109467
 21
133.492004
  0
LINE
  8
1
 62
7
  6
CONTINUOUS
 10
463.109467
 20
133.492004
 11
461.971256
 21
133.492004
  0
LINE
  8
1
 62
7
  6
CONTINUOUS
 10
465.316539
 20
131.408537
 11
465.316539
 21
130.361922
  0
LINE
  8
1
 62
7
  6
CONTINUOUS
 10
465.316539
 20
130.361922
 11
464.722909
 21
130.361922
  0
LINE
  8
1
 62
7
  6
CONTINUOUS
 10
464.722909
 20
131.408537
 11
465.316539
 21
131.408537
  0
LINE
  8
1
 62
7
  6
CONTINUOUS
 10
464.722909
 20
131.408537
 11
464.722909
 21
135.294172
  0
LINE
  8
1
 62
7
  6
CONTINUOUS
 10
464.716987
 20
135.642870
 11
464.716987
 21
134.556183
  0
LINE
  8
1
 62
7
  6
CONTINUOUS
 10
464.716987
 20
134.556183
 11
466.740474
 21
134.556183
  0
LINE
  8
1
 62
7
  6
CONTINUOUS
 10
466.740474
 20
134.556183
 11
466.740474
 21
135.642870
  0
LINE
  8
1
 62
7
  6
CONTINUOUS
 10
466.740474
 20
135.642870
 11
464.716987
 21
135.642870
  0
LINE
  8
1
 62
7
  6
CONTINUOUS
 10
435.879297
 20
135.577294
 11
435.879297
 21
134.565551
  0
LINE
  8
1
 62
7
  6
CONTINUOUS
 10
435.879297
 20
134.565551
 11
437.791472
 21
134.565551
  0
LINE
  8
1
 62
7
  6
CONTINUOUS
 10
437.791472
 20
134.565551
 11
437.791472
 21
135.577294
  0
LINE
  8
1
 62
7
  6
CONTINUOUS
 10
437.791472
 20
135.577294
 11
435.879297
 21
135.577294
  0
LINE
  8
1
 62
7
  6
CONTINUOUS
 10
437.284497
 20
131.408537
 11
437.284497
 21
130.361922
  0
LINE
  8
1
 62
7
  6
CONTINUOUS
 10
437.284497
 20
130.361922
 11
437.791472
 21
130.361922
  0
LINE
  8
1
 62
7
  6
CONTINUOUS
 10
437.791472
 20
131.408537
 11
437.284497
 21
131.408537
  0
LINE
  8
1
 62
7
  6
CONTINUOUS
 10
437.791472
 20
130.361922
 11
464.722909
 21
130.361922
  0
LINE
  8
1
 62
7
  6
CONTINUOUS
 10
464.722909
 20
135.294172
 11
437.791472
 21
135.294172
  0
LINE
  8
1
 62
7
  6
CONTINUOUS
 10
437.791472
 20
135.294172
 11
437.791472
 21
131.446009
  0
LINE
  8
1
 62
7
  6
CONTINUOUS
 10
474.111256
 20
133.492004
 11
474.111256
 21
132.353792
  0
LINE
  8
1
 62
7
  6
CONTINUOUS
 10
474.111256
 20
132.353792
 11
475.249467
 21
132.353792
  0
LINE
  8
1
 62
7
  6
CONTINUOUS
 10
475.249467
 20
132.353792
 11
475.249467
 21
133.492004
  0
LINE
  8
1
 62
7
  6
CONTINUOUS
 10
475.249467
 20
133.492004
 11
474.111256
 21
133.492004
  0
LINE
  8
1
 62
7
  6
CONTINUOUS
 10
476.651256
 20
133.492004
 11
476.651256
 21
132.353792
  0
LINE
  8
1
 62
7
  6
CONTINUOUS
 10
476.651256
 20
132.353792
 11
477.789467
 21
132.353792
  0
LINE
  8
1
 62
7
  6
CONTINUOUS
 10
477.789467
 20
132.353792
 11
477.789467
 21
133.492004
  0
LINE
  8
1
 62
7
  6
CONTINUOUS
 10
477.789467
 20
133.492004
 11
476.651256
 21
133.492004
  0
LINE
  8
1
 62
7
  6
CONTINUOUS
 10
479.191256
 20
133.492004
 11
479.191256
 21
132.353792
  0
LINE
  8
1
 62
7
  6
CONTINUOUS
 10
479.191256
 20
132.353792
 11
480.329467
 21
132.353792
  0
LINE
  8
1
 62
7
  6
CONTINUOUS
 10
480.329467
 20
132.353792
 11
480.329467
 21
133.492004
  0
LINE
  8
1
 62
7
  6
CONTINUOUS
 10
480.329467
 20
133.492004
 11
479.191256
 21
133.492004
  0
LINE
  8
1
 62
7
  6
CONTINUOUS
 10
481.731256
 20
133.492004
 11
481.731256
 21
132.353792
  0
LINE
  8
1
 62
7
  6
CONTINUOUS
 10
481.731256
 20
132.353792
 11
482.869467
 21
132.353792
  0
LINE
  8
1
 62
7
  6
CONTINUOUS
 10
482.869467
 20
132.353792
 11
482.869467
 21
133.492004
  0
LINE
  8
1
 62
7
  6
CONTINUOUS
 10
482.869467
 20
133.492004
 11
481.731256
 21
133.492004
  0
LINE
  8
1
 62
7
  6
CONTINUOUS
 10
484.271256
 20
133.492004
 11
484.271256
 21
132.353792
  0
LINE
  8
1
 62
7
  6
CONTINUOUS
 10
484.271256
 20
132.353792
 11
485.409467
 21
132.353792
  0
LINE
  8
1
 62
7
  6
CONTINUOUS
 10
485.409467
 20
132.353792
 11
485.409467
 21
133.492004
  0
LINE
  8
1
 62
7
  6
CONTINUOUS
 10
485.409467
 20
133.492004
 11
484.271256
 21
133.492004
  0
LINE
  8
1
 62
7
  6
CONTINUOUS
 10
486.811256
 20
133.492004
 11
486.811256
 21
132.353792
  0
LINE
  8
1
 62
7
  6
CONTINUOUS
 10
486.811256
 20
132.353792
 11
487.949467
 21
132.353792
  0
LINE
  8
1
 62
7
  6
CONTINUOUS
 10
487.949467
 20
132.353792
 11
487.949467
 21
133.492004
  0
LINE
  8
1
 62
7
  6
CONTINUOUS
 10
487.949467
 20
133.492004
 11
486.811256
 21
133.492004
  0
LINE
  8
1
 62
7
  6
CONTINUOUS
 10
489.351256
 20
133.492004
 11
489.351256
 21
132.353792
  0
LINE
  8
1
 62
7
  6
CONTINUOUS
 10
489.351256
 20
132.353792
 11
490.489467
 21
132.353792
  0
LINE
  8
1
 62
7
  6
CONTINUOUS
 10
490.489467
 20
132.353792
 11
490.489467
 21
133.492004
  0
LINE
  8
1
 62
7
  6
CONTINUOUS
 10
490.489467
 20
133.492004
 11
489.351256
 21
133.492004
  0
LINE
  8
1
 62
7
  6
CONTINUOUS
 10
491.891256
 20
133.492004
 11
491.891256
 21
132.353792
  0
LINE
  8
1
 62
7
  6
CONTINUOUS
 10
491.891256
 20
132.353792
 11
493.029467
 21
132.353792
  0
LINE
  8
1
 62
7
  6
CONTINUOUS
 10
493.029467
 20
132.353792
 11
493.029467
 21
133.492004
  0
LINE
  8
1
 62
7
  6
CONTINUOUS
 10
493.029467
 20
133.492004
 11
491.891256
 21
133.492004
  0
LINE
  8
1
 62
7
  6
CONTINUOUS
 10
494.431256
 20
133.492004
 11
494.431256
 21
132.353792
  0
LINE
  8
1
 62
7
  6
CONTINUOUS
 10
494.431256
 20
132.353792
 11
495.569467
 21
132.353792
  0
LINE
  8
1
 62
7
  6
CONTINUOUS
 10
495.569467
 20
132.353792
 11
495.569467
 21
133.492004
  0
LINE
  8
1
 62
7
  6
CONTINUOUS
 10
495.569467
 20
133.492004
 11
494.431256
 21
133.492004
  0
LINE
  8
1
 62
7
  6
CONTINUOUS
 10
496.971256
 20
133.492004
 11
496.971256
 21
132.353792
  0
LINE
  8
1
 62
7
  6
CONTINUOUS
 10
496.971256
 20
132.353792
 11
498.109467
 21
132.353792
  0
LINE
  8
1
 62
7
  6
CONTINUOUS
 10
498.109467
 20
132.353792
 11
498.109467
 21
133.492004
  0
LINE
  8
1
 62
7
  6
CONTINUOUS
 10
498.109467
 20
133.492004
 11
496.971256
 21
133.492004
  0
LINE
  8
1
 62
7
  6
CONTINUOUS
 10
500.316539
 20
131.408537
 11
500.316539
 21
130.361922
  0
LINE
  8
1
 62
7
  6
CONTINUOUS
 10
499.722909
 20
131.408537
 11
500.316539
 21
131.408537
  0
LINE
  8
1
 62
7
  6
CONTINUOUS
 10
499.722909
 20
131.408537
 11
499.722909
 21
135.294172
  0
LINE
  8
1
 62
7
  6
CONTINUOUS
 10
499.716987
 20
135.642870
 11
499.716987
 21
134.556183
  0
LINE
  8
1
 62
7
  6
CONTINUOUS
 10
499.716987
 20
134.556183
 11
501.740474
 21
134.556183
  0
LINE
  8
1
 62
7
  6
CONTINUOUS
 10
501.740474
 20
134.556183
 11
501.740474
 21
135.642870
  0
LINE
  8
1
 62
7
  6
CONTINUOUS
 10
501.740474
 20
135.642870
 11
499.716987
 21
135.642870
  0
LINE
  8
1
 62
7
  6
CONTINUOUS
 10
470.879297
 20
135.577294
 11
470.879297
 21
134.565551
  0
LINE
  8
1
 62
7
  6
CONTINUOUS
 10
470.879297
 20
134.565551
 11
472.791472
 21
134.565551
  0
LINE
  8
1
 62
7
  6
CONTINUOUS
 10
472.791472
 20
134.565551
 11
472.791472
 21
135.577294
  0
LINE
  8
1
 62
7
  6
CONTINUOUS
 10
472.791472
 20
135.577294
 11
470.879297
 21
135.577294
  0
LINE
  8
1
 62
7
  6
CONTINUOUS
 10
472.284497
 20
131.408537
 11
472.284497
 21
130.361922
  0
LINE
  8
1
 62
7
  6
CONTINUOUS
 10
472.791472
 20
131.408537
 11
472.284497
 21
131.408537
  0
LINE
  8
1
 62
7
  6
CONTINUOUS
 10
472.791472
 20
130.361922
 11
499.722909
 21
130.361922
  0
LINE
  8
1
 62
7
  6
CONTINUOUS
 10
499.722909
 20
135.294172
 11
472.791472
 21
135.294172
  0
LINE
  8
1
 62
7
  6
CONTINUOUS
 10
472.791472
 20
135.294172
 11
472.791472
 21
131.446009
  0
LINE
  8
1
 62
7
  6
CONTINUOUS
 10
478.731707
 20
259.941057
 11
478.731707
 21
175.941057
  0
LINE
  8
1
 62
7
  6
CONTINUOUS
 10
479.731707
 20
258.941057
 11
479.731707
 21
176.941057
  0
CIRCLE
  8
1
 62
7
  6
CONTINUOUS
 10
483.314614
 20
255.580397
 40
2.000000
  0
LINE
  8
1
 62
7
  6
CONTINUOUS
 10
483.022645
 20
256.546713
 11
483.022645
 21
255.872367
  0
ARC
  8
1
 62
7
  6
CONTINUOUS
 10
483.222645
 20
256.546713
 40
0.200000
 50
90.000000
 51
180.000000
  0
LINE
  8
1
 62
7
  6
CONTINUOUS
 10
483.447178
 20
256.746713
 11
483.222645
 21
256.746713
  0
LINE
  8
1
 62
7
  6
CONTINUOUS
 10
483.647178
 20
255.872367
 11
483.647178
 21
256.546713
  0
ARC
  8
1
 62
7
  6
CONTINUOUS
 10
483.447178
 20
256.546713
 40
0.200000
 50
0.000000
 51
90.000000
  0
LINE
  8
1
 62
7
  6
CONTINUOUS
 10
483.647178
 20
254.573487
 11
483.647178
 21
255.297796
  0
ARC
  8
1
 62
7
  6
CONTINUOUS
 10
483.447178
 20
254.573487
 40
0.200000
 50
-90.000000
 51
0.000000
  0
LINE
  8
1
 62
7
  6
CONTINUOUS
 10
483.222645
 20
254.373487
 11
483.447178
 21
254.373487
  0
LINE
  8
1
 62
7
  6
CONTINUOUS
 10
483.022645
 20
255.297796
 11
483.022645
 21
254.573487
  0
ARC
  8
1
 62
7
  6
CONTINUOUS
 10
483.222645
 20
254.573487
 40
0.200000
 50
180.000000
 51
-90.000000
  0
LINE
  8
1
 62
7
  6
CONTINUOUS
 10
484.321524
 20
255.872367
 11
483.647178
 21
255.872367
  0
ARC
  8
1
 62
7
  6
CONTINUOUS
 10
484.321524
 20
255.672367
 40
0.200000
 50
0.000000
 51
90.000000
  0
LINE
  8
1
 62
7
  6
CONTINUOUS
 10
484.521524
 20
255.497796
 11
484.521524
 21
255.672367
  0
LINE
  8
1
 62
7
  6
CONTINUOUS
 10
483.647178
 20
255.297796
 11
484.321524
 21
255.297796
  0
ARC
  8
1
 62
7
  6
CONTINUOUS
 10
484.321524
 20
255.497796
 40
0.200000
 50
-90.000000
 51
0.000000
  0
LINE
  8
1
 62
7
  6
CONTINUOUS
 10
482.223392
 20
255.297796
 11
483.022645
 21
255.297796
  0
ARC
  8
1
 62
7
  6
CONTINUOUS
 10
482.223392
 20
255.497796
 40
0.200000
 50
-180.000000
 51
-90.000000
  0
LINE
  8
1
 62
7
  6
CONTINUOUS
 10
482.023392
 20
255.672367
 11
482.023392
 21
255.497796
  0
LINE
  8
1
 62
7
  6
CONTINUOUS
 10
483.022645
 20
255.872367
 11
482.223392
 21
255.872367
  0
ARC
  8
1
 62
7
  6
CONTINUOUS
 10
482.223392
 20
255.672367
 40
0.200000
 50
90.000000
 51
-180.000000
  0
CIRCLE
  8
1
 62
7
  6
CONTINUOUS
 10
483.399273
 20
180.537554
 40
2.000000
  0
LINE
  8
1
 62
7
  6
CONTINUOUS
 10
483.107304
 20
181.503869
 11
483.107304
 21
180.829523
  0
ARC
  8
1
 62
7
  6
CONTINUOUS
 10
483.307304
 20
181.503869
 40
0.200000
 50
90.000000
 51
180.000000
  0
LINE
  8
1
 62
7
  6
CONTINUOUS
 10
483.531837
 20
181.703869
 11
483.307304
 21
181.703869
  0
LINE
  8
1
 62
7
  6
CONTINUOUS
 10
483.731837
 20
180.829523
 11
483.731837
 21
181.503869
  0
ARC
  8
1
 62
7
  6
CONTINUOUS
 10
483.531837
 20
181.503869
 40
0.200000
 50
0.000000
 51
90.000000
  0
LINE
  8
1
 62
7
  6
CONTINUOUS
 10
483.731837
 20
179.530644
 11
483.731837
 21
180.254953
  0
ARC
  8
1
 62
7
  6
CONTINUOUS
 10
483.531837
 20
179.530644
 40
0.200000
 50
-90.000000
 51
0.000000
  0
LINE
  8
1
 62
7
  6
CONTINUOUS
 10
483.307304
 20
179.330644
 11
483.531837
 21
179.330644
  0
LINE
  8
1
 62
7
  6
CONTINUOUS
 10
483.107304
 20
180.254953
 11
483.107304
 21
179.530644
  0
ARC
  8
1
 62
7
  6
CONTINUOUS
 10
483.307304
 20
179.530644
 40
0.200000
 50
180.000000
 51
-90.000000
  0
LINE
  8
1
 62
7
  6
CONTINUOUS
 10
484.406183
 20
180.829523
 11
483.731837
 21
180.829523
  0
ARC
  8
1
 62
7
  6
CONTINUOUS
 10
484.406183
 20
180.629523
 40
0.200000
 50
0.000000
 51
90.000000
  0
LINE
  8
1
 62
7
  6
CONTINUOUS
 10
484.606183
 20
180.454953
 11
484.606183
 21
180.629523
  0
LINE
  8
1
 62
7
  6
CONTINUOUS
 10
483.731837
 20
180.254953
 11
484.406183
 21
180.254953
  0
ARC
  8
1
 62
7
  6
CONTINUOUS
 10
484.406183
 20
180.454953
 40
0.200000
 50
-90.000000
 51
0.000000
  0
LINE
  8
1
 62
7
  6
CONTINUOUS
 10
482.308051
 20
180.254953
 11
483.107304
 21
180.254953
  0
ARC
  8
1
 62
7
  6
CONTINUOUS
 10
482.308051
 20
180.454953
 40
0.200000
 50
-180.000000
 51
-90.000000
  0
LINE
  8
1
 62
7
  6
CONTINUOUS
 10
482.108051
 20
180.629523
 11
482.108051
 21
180.454953
  0
LINE
  8
1
 62
7
  6
CONTINUOUS
 10
483.107304
 20
180.829523
 11
482.308051
 21
180.829523
  0
ARC
  8
1
 62
7
  6
CONTINUOUS
 10
482.308051
 20
180.629523
 40
0.200000
 50
90.000000
 51
-180.000000
  0
LINE
  8
1
 62
7
  6
CONTINUOUS
 10
562.731707
 20
175.941057
 11
562.731707
 21
259.941057
  0
LINE
  8
1
 62
7
  6
CONTINUOUS
 10
561.731707
 20
176.941057
 11
561.731707
 21
258.941057
  0
LINE
  8
1
 62
7
  6
CONTINUOUS
 10
561.731707
 20
258.941057
 11
479.731707
 21
258.941057
  0
LINE
  8
1
 62
7
  6
CONTINUOUS
 10
479.731707
 20
176.941057
 11
561.731707
 21
176.941057
  0
CIRCLE
  8
1
 62
7
  6
CONTINUOUS
 10
557.574521
 20
255.659505
 40
2.000000
  0
LINE
  8
1
 62
7
  6
CONTINUOUS
 10
557.282552
 20
256.625820
 11
557.282552
 21
255.951474
  0
ARC
  8
1
 62
7
  6
CONTINUOUS
 10
557.482552
 20
256.625820
 40
0.200000
 50
90.000000
 51
180.000000
  0
LINE
  8
1
 62
7
  6
CONTINUOUS
 10
557.707085
 20
256.825820
 11
557.482552
 21
256.825820
  0
LINE
  8
1
 62
7
  6
CONTINUOUS
 10
557.907085
 20
255.951474
 11
557.907085
 21
256.625820
  0
ARC
  8
1
 62
7
  6
CONTINUOUS
 10
557.707085
 20
256.625820
 40
0.200000
 50
0.000000
 51
90.000000
  0
LINE
  8
1
 62
7
  6
CONTINUOUS
 10
557.907085
 20
254.652595
 11
557.907085
 21
255.376904
  0
ARC
  8
1
 62
7
  6
CONTINUOUS
 10
557.707085
 20
254.652595
 40
0.200000
 50
-90.000000
 51
0.000000
  0
LINE
  8
1
 62
7
  6
CONTINUOUS
 10
557.482552
 20
254.452595
 11
557.707085
 21
254.452595
  0
LINE
  8
1
 62
7
  6
CONTINUOUS
 10
557.282552
 20
255.376904
 11
557.282552
 21
254.652595
  0
ARC
  8
1
 62
7
  6
CONTINUOUS
 10
557.482552
 20
254.652595
 40
0.200000
 50
180.000000
 51
-90.000000
  0
LINE
  8
1
 62
7
  6
CONTINUOUS
 10
558.581431
 20
255.951474
 11
557.907085
 21
255.951474
  0
ARC
  8
1
 62
7
  6
CONTINUOUS
 10
558.581431
 20
255.751474
 40
0.200000
 50
0.000000
 51
90.000000
  0
LINE
  8
1
 62
7
  6
CONTINUOUS
 10
558.781431
 20
255.576904
 11
558.781431
 21
255.751474
  0
LINE
  8
1
 62
7
  6
CONTINUOUS
 10
557.907085
 20
255.376904
 11
558.581431
 21
255.376904
  0
ARC
  8
1
 62
7
  6
CONTINUOUS
 10
558.581431
 20
255.576904
 40
0.200000
 50
-90.000000
 51
0.000000
  0
LINE
  8
1
 62
7
  6
CONTINUOUS
 10
556.483299
 20
255.376904
 11
557.282552
 21
255.376904
  0
ARC
  8
1
 62
7
  6
CONTINUOUS
 10
556.483299
 20
255.576904
 40
0.200000
 50
-180.000000
 51
-90.000000
  0
LINE
  8
1
 62
7
  6
CONTINUOUS
 10
556.283299
 20
255.751474
 11
556.283299
 21
255.576904
  0
LINE
  8
1
 62
7
  6
CONTINUOUS
 10
557.282552
 20
255.951474
 11
556.483299
 21
255.951474
  0
ARC
  8
1
 62
7
  6
CONTINUOUS
 10
556.483299
 20
255.751474
 40
0.200000
 50
90.000000
 51
-180.000000
  0
CIRCLE
  8
1
 62
7
  6
CONTINUOUS
 10
557.321586
 20
180.537554
 40
2.000000
  0
LINE
  8
1
 62
7
  6
CONTINUOUS
 10
557.029616
 20
181.503869
 11
557.029616
 21
180.829523
  0
ARC
  8
1
 62
7
  6
CONTINUOUS
 10
557.229616
 20
181.503869
 40
0.200000
 50
90.000000
 51
180.000000
  0
LINE
  8
1
 62
7
  6
CONTINUOUS
 10
557.454149
 20
181.703869
 11
557.229616
 21
181.703869
  0
LINE
  8
1
 62
7
  6
CONTINUOUS
 10
557.654149
 20
180.829523
 11
557.654149
 21
181.503869
  0
ARC
  8
1
 62
7
  6
CONTINUOUS
 10
557.454149
 20
181.503869
 40
0.200000
 50
0.000000
 51
90.000000
  0
LINE
  8
1
 62
7
  6
CONTINUOUS
 10
557.654149
 20
179.530644
 11
557.654149
 21
180.254953
  0
ARC
  8
1
 62
7
  6
CONTINUOUS
 10
557.454149
 20
179.530644
 40
0.200000
 50
-90.000000
 51
0.000000
  0
LINE
  8
1
 62
7
  6
CONTINUOUS
 10
557.229616
 20
179.330644
 11
557.454149
 21
179.330644
  0
LINE
  8
1
 62
7
  6
CONTINUOUS
 10
557.029616
 20
180.254953
 11
557.029616
 21
179.530644
  0
ARC
  8
1
 62
7
  6
CONTINUOUS
 10
557.229616
 20
179.530644
 40
0.200000
 50
180.000000
 51
-90.000000
  0
LINE
  8
1
 62
7
  6
CONTINUOUS
 10
558.328496
 20
180.829523
 11
557.654149
 21
180.829523
  0
ARC
  8
1
 62
7
  6
CONTINUOUS
 10
558.328496
 20
180.629523
 40
0.200000
 50
0.000000
 51
90.000000
  0
LINE
  8
1
 62
7
  6
CONTINUOUS
 10
558.528496
 20
180.454953
 11
558.528496
 21
180.629523
  0
LINE
  8
1
 62
7
  6
CONTINUOUS
 10
557.654149
 20
180.254953
 11
558.328496
 21
180.254953
  0
ARC
  8
1
 62
7
  6
CONTINUOUS
 10
558.328496
 20
180.454953
 40
0.200000
 50
-90.000000
 51
0.000000
  0
LINE
  8
1
 62
7
  6
CONTINUOUS
 10
556.230364
 20
180.254953
 11
557.029616
 21
180.254953
  0
ARC
  8
1
 62
7
  6
CONTINUOUS
 10
556.230364
 20
180.454953
 40
0.200000
 50
-180.000000
 51
-90.000000
  0
LINE
  8
1
 62
7
  6
CONTINUOUS
 10
556.030364
 20
180.629523
 11
556.030364
 21
180.454953
  0
LINE
  8
1
 62
7
  6
CONTINUOUS
 10
557.029616
 20
180.829523
 11
556.230364
 21
180.829523
  0
ARC
  8
1
 62
7
  6
CONTINUOUS
 10
556.230364
 20
180.629523
 40
0.200000
 50
90.000000
 51
-180.000000
  0
LINE
  8
1
 62
7
  6
CONTINUOUS
 10
551.784470
 20
252.719646
 11
551.190840
 21
252.719646
  0
LINE
  8
1
 62
7
  6
CONTINUOUS
 10
523.752428
 20
252.719646
 11
524.259404
 21
252.719646
  0
LINE
  8
1
 62
7
  6
CONTINUOUS
 10
490.579187
 20
255.849727
 11
490.579187
 21
254.711516
  0
LINE
  8
1
 62
7
  6
CONTINUOUS
 10
490.579187
 20
254.711516
 11
491.717398
 21
254.711516
  0
LINE
  8
1
 62
7
  6
CONTINUOUS
 10
491.717398
 20
254.711516
 11
491.717398
 21
255.849727
  0
LINE
  8
1
 62
7
  6
CONTINUOUS
 10
491.717398
 20
255.849727
 11
490.579187
 21
255.849727
  0
LINE
  8
1
 62
7
  6
CONTINUOUS
 10
493.119187
 20
255.849727
 11
493.119187
 21
254.711516
  0
LINE
  8
1
 62
7
  6
CONTINUOUS
 10
493.119187
 20
254.711516
 11
494.257398
 21
254.711516
  0
LINE
  8
1
 62
7
  6
CONTINUOUS
 10
494.257398
 20
254.711516
 11
494.257398
 21
255.849727
  0
LINE
  8
1
 62
7
  6
CONTINUOUS
 10
494.257398
 20
255.849727
 11
493.119187
 21
255.849727
  0
LINE
  8
1
 62
7
  6
CONTINUOUS
 10
495.659187
 20
255.849727
 11
495.659187
 21
254.711516
  0
LINE
  8
1
 62
7
  6
CONTINUOUS
 10
495.659187
 20
254.711516
 11
496.797398
 21
254.711516
  0
LINE
  8
1
 62
7
  6
CONTINUOUS
 10
496.797398
 20
254.711516
 11
496.797398
 21
255.849727
  0
LINE
  8
1
 62
7
  6
CONTINUOUS
 10
496.797398
 20
255.849727
 11
495.659187
 21
255.849727
  0
LINE
  8
1
 62
7
  6
CONTINUOUS
 10
498.199187
 20
255.849727
 11
498.199187
 21
254.711516
  0
LINE
  8
1
 62
7
  6
CONTINUOUS
 10
498.199187
 20
254.711516
 11
499.337398
 21
254.711516
  0
LINE
  8
1
 62
7
  6
CONTINUOUS
 10
499.337398
 20
254.711516
 11
499.337398
 21
255.849727
  0
LINE
  8
1
 62
7
  6
CONTINUOUS
 10
499.337398
 20
255.849727
 11
498.199187
 21
255.849727
  0
LINE
  8
1
 62
7
  6
CONTINUOUS
 10
500.739187
 20
255.849727
 11
500.739187
 21
254.711516
  0
LINE
  8
1
 62
7
  6
CONTINUOUS
 10
500.739187
 20
254.711516
 11
501.877398
 21
254.711516
  0
LINE
  8
1
 62
7
  6
CONTINUOUS
 10
501.877398
 20
254.711516
 11
501.877398
 21
255.849727
  0
LINE
  8
1
 62
7
  6
CONTINUOUS
 10
501.877398
 20
255.849727
 11
500.739187
 21
255.849727
  0
LINE
  8
1
 62
7
  6
CONTINUOUS
 10
503.279187
 20
255.849727
 11
503.279187
 21
254.711516
  0
LINE
  8
1
 62
7
  6
CONTINUOUS
 10
503.279187
 20
254.711516
 11
504.417398
 21
254.711516
  0
LINE
  8
1
 62
7
  6
CONTINUOUS
 10
504.417398
 20
254.711516
 11
504.417398
 21
255.849727
  0
LINE
  8
1
 62
7
  6
CONTINUOUS
 10
504.417398
 20
255.849727
 11
503.279187
 21
255.849727
  0
LINE
  8
1
 62
7
  6
CONTINUOUS
 10
505.819187
 20
255.849727
 11
505.819187
 21
254.711516
  0
LINE
  8
1
 62
7
  6
CONTINUOUS
 10
505.819187
 20
254.711516
 11
506.957398
 21
254.711516
  0
LINE
  8
1
 62
7
  6
CONTINUOUS
 10
506.957398
 20
254.711516
 11
506.957398
 21
255.849727
  0
LINE
  8
1
 62
7
  6
CONTINUOUS
 10
506.957398
 20
255.849727
 11
505.819187
 21
255.849727
  0
LINE
  8
1
 62
7
  6
CONTINUOUS
 10
508.359187
 20
255.849727
 11
508.359187
 21
254.711516
  0
LINE
  8
1
 62
7
  6
CONTINUOUS
 10
508.359187
 20
254.711516
 11
509.497398
 21
254.711516
  0
LINE
  8
1
 62
7
  6
CONTINUOUS
 10
509.497398
 20
254.711516
 11
509.497398
 21
255.849727
  0
LINE
  8
1
 62
7
  6
CONTINUOUS
 10
509.497398
 20
255.849727
 11
508.359187
 21
255.849727
  0
LINE
  8
1
 62
7
  6
CONTINUOUS
 10
510.899187
 20
255.849727
 11
510.899187
 21
254.711516
  0
LINE
  8
1
 62
7
  6
CONTINUOUS
 10
510.899187
 20
254.711516
 11
512.037398
 21
254.711516
  0
LINE
  8
1
 62
7
  6
CONTINUOUS
 10
512.037398
 20
254.711516
 11
512.037398
 21
255.849727
  0
LINE
  8
1
 62
7
  6
CONTINUOUS
 10
512.037398
 20
255.849727
 11
510.899187
 21
255.849727
  0
LINE
  8
1
 62
7
  6
CONTINUOUS
 10
513.439187
 20
255.849727
 11
513.439187
 21
254.711516
  0
LINE
  8
1
 62
7
  6
CONTINUOUS
 10
513.439187
 20
254.711516
 11
514.577398
 21
254.711516
  0
LINE
  8
1
 62
7
  6
CONTINUOUS
 10
514.577398
 20
254.711516
 11
514.577398
 21
255.849727
  0
LINE
  8
1
 62
7
  6
CONTINUOUS
 10
514.577398
 20
255.849727
 11
513.439187
 21
255.849727
  0
LINE
  8
1
 62
7
  6
CONTINUOUS
 10
516.784470
 20
253.766260
 11
516.784470
 21
252.719646
  0
LINE
  8
1
 62
7
  6
CONTINUOUS
 10
516.784470
 20
252.719646
 11
516.190840
 21
252.719646
  0
LINE
  8
1
 62
7
  6
CONTINUOUS
 10
516.190840
 20
253.766260
 11
516.784470
 21
253.766260
  0
LINE
  8
1
 62
7
  6
CONTINUOUS
 10
516.190840
 20
253.766260
 11
516.190840
 21
257.651895
  0
LINE
  8
1
 62
7
  6
CONTINUOUS
 10
516.184918
 20
258.000594
 11
516.184918
 21
256.913906
  0
LINE
  8
1
 62
7
  6
CONTINUOUS
 10
516.184918
 20
256.913906
 11
518.208405
 21
256.913906
  0
LINE
  8
1
 62
7
  6
CONTINUOUS
 10
518.208405
 20
256.913906
 11
518.208405
 21
258.000594
  0
LINE
  8
1
 62
7
  6
CONTINUOUS
 10
518.208405
 20
258.000594
 11
516.184918
 21
258.000594
  0
LINE
  8
1
 62
7
  6
CONTINUOUS
 10
487.347229
 20
257.935018
 11
487.347229
 21
256.923274
  0
LINE
  8
1
 62
7
  6
CONTINUOUS
 10
487.347229
 20
256.923274
 11
489.259404
 21
256.923274
  0
LINE
  8
1
 62
7
  6
CONTINUOUS
 10
489.259404
 20
256.923274
 11
489.259404
 21
257.935018
  0
LINE
  8
1
 62
7
  6
CONTINUOUS
 10
489.259404
 20
257.935018
 11
487.347229
 21
257.935018
  0
LINE
  8
1
 62
7
  6
CONTINUOUS
 10
488.752428
 20
253.766260
 11
488.752428
 21
252.719646
  0
LINE
  8
1
 62
7
  6
CONTINUOUS
 10
488.752428
 20
252.719646
 11
489.259404
 21
252.719646
  0
LINE
  8
1
 62
7
  6
CONTINUOUS
 10
489.259404
 20
253.766260
 11
488.752428
 21
253.766260
  0
LINE
  8
1
 62
7
  6
CONTINUOUS
 10
489.259404
 20
252.719646
 11
516.190840
 21
252.719646
  0
LINE
  8
1
 62
7
  6
CONTINUOUS
 10
516.190840
 20
257.651895
 11
489.259404
 21
257.651895
  0
LINE
  8
1
 62
7
  6
CONTINUOUS
 10
489.259404
 20
257.651895
 11
489.259404
 21
253.803732
  0
LINE
  8
1
 62
7
  6
CONTINUOUS
 10
525.579187
 20
255.849727
 11
525.579187
 21
254.711516
  0
LINE
  8
1
 62
7
  6
CONTINUOUS
 10
525.579187
 20
254.711516
 11
526.717398
 21
254.711516
  0
LINE
  8
1
 62
7
  6
CONTINUOUS
 10
526.717398
 20
254.711516
 11
526.717398
 21
255.849727
  0
LINE
  8
1
 62
7
  6
CONTINUOUS
 10
526.717398
 20
255.849727
 11
525.579187
 21
255.849727
  0
LINE
  8
1
 62
7
  6
CONTINUOUS
 10
528.119187
 20
255.849727
 11
528.119187
 21
254.711516
  0
LINE
  8
1
 62
7
  6
CONTINUOUS
 10
528.119187
 20
254.711516
 11
529.257398
 21
254.711516
  0
LINE
  8
1
 62
7
  6
CONTINUOUS
 10
529.257398
 20
254.711516
 11
529.257398
 21
255.849727
  0
LINE
  8
1
 62
7
  6
CONTINUOUS
 10
529.257398
 20
255.849727
 11
528.119187
 21
255.849727
  0
LINE
  8
1
 62
7
  6
CONTINUOUS
 10
530.659187
 20
255.849727
 11
530.659187
 21
254.711516
  0
LINE
  8
1
 62
7
  6
CONTINUOUS
 10
530.659187
 20
254.711516
 11
531.797398
 21
254.711516
  0
LINE
  8
1
 62
7
  6
CONTINUOUS
 10
531.797398
 20
254.711516
 11
531.797398
 21
255.849727
  0
LINE
  8
1
 62
7
  6
CONTINUOUS
 10
531.797398
 20
255.849727
 11
530.659187
 21
255.849727
  0
LINE
  8
1
 62
7
  6
CONTINUOUS
 10
533.199187
 20
255.849727
 11
533.199187
 21
254.711516
  0
LINE
  8
1
 62
7
  6
CONTINUOUS
 10
533.199187
 20
254.711516
 11
534.337398
 21
254.711516
  0
LINE
  8
1
 62
7
  6
CONTINUOUS
 10
534.337398
 20
254.711516
 11
534.337398
 21
255.849727
  0
LINE
  8
1
 62
7
  6
CONTINUOUS
 10
534.337398
 20
255.849727
 11
533.199187
 21
255.849727
  0
LINE
  8
1
 62
7
  6
CONTINUOUS
 10
535.739187
 20
255.849727
 11
535.739187
 21
254.711516
  0
LINE
  8
1
 62
7
  6
CONTINUOUS
 10
535.739187
 20
254.711516
 11
536.877398
 21
254.711516
  0
LINE
  8
1
 62
7
  6
CONTINUOUS
 10
536.877398
 20
254.711516
 11
536.877398
 21
255.849727
  0
LINE
  8
1
 62
7
  6
CONTINUOUS
 10
536.877398
 20
255.849727
 11
535.739187
 21
255.849727
  0
LINE
  8
1
 62
7
  6
CONTINUOUS
 10
538.279187
 20
255.849727
 11
538.279187
 21
254.711516
  0
LINE
  8
1
 62
7
  6
CONTINUOUS
 10
538.279187
 20
254.711516
 11
539.417398
 21
254.711516
  0
LINE
  8
1
 62
7
  6
CONTINUOUS
 10
539.417398
 20
254.711516
 11
539.417398
 21
255.849727
  0
LINE
  8
1
 62
7
  6
CONTINUOUS
 10
539.417398
 20
255.849727
 11
538.279187
 21
255.849727
  0
LINE
  8
1
 62
7
  6
CONTINUOUS
 10
540.819187
 20
255.849727
 11
540.819187
 21
254.711516
  0
LINE
  8
1
 62
7
  6
CONTINUOUS
 10
540.819187
 20
254.711516
 11
541.957398
 21
254.711516
  0
LINE
  8
1
 62
7
  6
CONTINUOUS
 10
541.957398
 20
254.711516
 11
541.957398
 21
255.849727
  0
LINE
  8
1
 62
7
  6
CONTINUOUS
 10
541.957398
 20
255.849727
 11
540.819187
 21
255.849727
  0
LINE
  8
1
 62
7
  6
CONTINUOUS
 10
543.359187
 20
255.849727
 11
543.359187
 21
254.711516
  0
LINE
  8
1
 62
7
  6
CONTINUOUS
 10
543.359187
 20
254.711516
 11
544.497398
 21
254.711516
  0
LINE
  8
1
 62
7
  6
CONTINUOUS
 10
544.497398
 20
254.711516
 11
544.497398
 21
255.849727
  0
LINE
  8
1
 62
7
  6
CONTINUOUS
 10
544.497398
 20
255.849727
 11
543.359187
 21
255.849727
  0
LINE
  8
1
 62
7
  6
CONTINUOUS
 10
545.899187
 20
255.849727
 11
545.899187
 21
254.711516
  0
LINE
  8
1
 62
7
  6
CONTINUOUS
 10
545.899187
 20
254.711516
 11
547.037398
 21
254.711516
  0
LINE
  8
1
 62
7
  6
CONTINUOUS
 10
547.037398
 20
254.711516
 11
547.037398
 21
255.849727
  0
LINE
  8
1
 62
7
  6
CONTINUOUS
 10
547.037398
 20
255.849727
 11
545.899187
 21
255.849727
  0
LINE
  8
1
 62
7
  6
CONTINUOUS
 10
548.439187
 20
255.849727
 11
548.439187
 21
254.711516
  0
LINE
  8
1
 62
7
  6
CONTINUOUS
 10
548.439187
 20
254.711516
 11
549.577398
 21
254.711516
  0
LINE
  8
1
 62
7
  6
CONTINUOUS
 10
549.577398
 20
254.711516
 11
549.577398
 21
255.849727
  0
LINE
  8
1
 62
7
  6
CONTINUOUS
 10
549.577398
 20
255.849727
 11
548.439187
 21
255.849727
  0
LINE
  8
1
 62
7
  6
CONTINUOUS
 10
551.784470
 20
253.766260
 11
551.784470
 21
252.719646
  0
LINE
  8
1
 62
7
  6
CONTINUOUS
 10
551.190840
 20
253.766260
 11
551.784470
 21
253.766260
  0
LINE
  8
1
 62
7
  6
CONTINUOUS
 10
551.190840
 20
253.766260
 11
551.190840
 21
257.651895
  0
LINE
  8
1
 62
7
  6
CONTINUOUS
 10
551.184918
 20
258.000594
 11
551.184918
 21
256.913906
  0
LINE
  8
1
 62
7
  6
CONTINUOUS
 10
551.184918
 20
256.913906
 11
553.208405
 21
256.913906
  0
LINE
  8
1
 62
7
  6
CONTINUOUS
 10
553.208405
 20
256.913906
 11
553.208405
 21
258.000594
  0
LINE
  8
1
 62
7
  6
CONTINUOUS
 10
553.208405
 20
258.000594
 11
551.184918
 21
258.000594
  0
LINE
  8
1
 62
7
  6
CONTINUOUS
 10
522.347229
 20
257.935018
 11
522.347229
 21
256.923274
  0
LINE
  8
1
 62
7
  6
CONTINUOUS
 10
522.347229
 20
256.923274
 11
524.259404
 21
256.923274
  0
LINE
  8
1
 62
7
  6
CONTINUOUS
 10
524.259404
 20
256.923274
 11
524.259404
 21
257.935018
  0
LINE
  8
1
 62
7
  6
CONTINUOUS
 10
524.259404
 20
257.935018
 11
522.347229
 21
257.935018
  0
LINE
  8
1
 62
7
  6
CONTINUOUS
 10
523.752428
 20
253.766260
 11
523.752428
 21
252.719646
  0
LINE
  8
1
 62
7
  6
CONTINUOUS
 10
524.259404
 20
253.766260
 11
523.752428
 21
253.766260
  0
LINE
  8
1
 62
7
  6
CONTINUOUS
 10
524.259404
 20
252.719646
 11
551.190840
 21
252.719646
  0
LINE
  8
1
 62
7
  6
CONTINUOUS
 10
551.190840
 20
257.651895
 11
524.259404
 21
257.651895
  0
LINE
  8
1
 62
7
  6
CONTINUOUS
 10
524.259404
 20
257.651895
 11
524.259404
 21
253.803732
  0
LINE
  8
1
 62
7
  6
CONTINUOUS
 10
551.784470
 20
177.850631
 11
551.190840
 21
177.850631
  0
LINE
  8
1
 62
7
  6
CONTINUOUS
 10
523.752428
 20
177.850631
 11
524.259404
 21
177.850631
  0
LINE
  8
1
 62
7
  6
CONTINUOUS
 10
490.579187
 20
180.980712
 11
490.579187
 21
179.842501
  0
LINE
  8
1
 62
7
  6
CONTINUOUS
 10
490.579187
 20
179.842501
 11
491.717398
 21
179.842501
  0
LINE
  8
1
 62
7
  6
CONTINUOUS
 10
491.717398
 20
179.842501
 11
491.717398
 21
180.980712
  0
LINE
  8
1
 62
7
  6
CONTINUOUS
 10
491.717398
 20
180.980712
 11
490.579187
 21
180.980712
  0
LINE
  8
1
 62
7
  6
CONTINUOUS
 10
493.119187
 20
180.980712
 11
493.119187
 21
179.842501
  0
LINE
  8
1
 62
7
  6
CONTINUOUS
 10
493.119187
 20
179.842501
 11
494.257398
 21
179.842501
  0
LINE
  8
1
 62
7
  6
CONTINUOUS
 10
494.257398
 20
179.842501
 11
494.257398
 21
180.980712
  0
LINE
  8
1
 62
7
  6
CONTINUOUS
 10
494.257398
 20
180.980712
 11
493.119187
 21
180.980712
  0
LINE
  8
1
 62
7
  6
CONTINUOUS
 10
495.659187
 20
180.980712
 11
495.659187
 21
179.842501
  0
LINE
  8
1
 62
7
  6
CONTINUOUS
 10
495.659187
 20
179.842501
 11
496.797398
 21
179.842501
  0
LINE
  8
1
 62
7
  6
CONTINUOUS
 10
496.797398
 20
179.842501
 11
496.797398
 21
180.980712
  0
LINE
  8
1
 62
7
  6
CONTINUOUS
 10
496.797398
 20
180.980712
 11
495.659187
 21
180.980712
  0
LINE
  8
1
 62
7
  6
CONTINUOUS
 10
498.199187
 20
180.980712
 11
498.199187
 21
179.842501
  0
LINE
  8
1
 62
7
  6
CONTINUOUS
 10
498.199187
 20
179.842501
 11
499.337398
 21
179.842501
  0
LINE
  8
1
 62
7
  6
CONTINUOUS
 10
499.337398
 20
179.842501
 11
499.337398
 21
180.980712
  0
LINE
  8
1
 62
7
  6
CONTINUOUS
 10
499.337398
 20
180.980712
 11
498.199187
 21
180.980712
  0
LINE
  8
1
 62
7
  6
CONTINUOUS
 10
500.739187
 20
180.980712
 11
500.739187
 21
179.842501
  0
LINE
  8
1
 62
7
  6
CONTINUOUS
 10
500.739187
 20
179.842501
 11
501.877398
 21
179.842501
  0
LINE
  8
1
 62
7
  6
CONTINUOUS
 10
501.877398
 20
179.842501
 11
501.877398
 21
180.980712
  0
LINE
  8
1
 62
7
  6
CONTINUOUS
 10
501.877398
 20
180.980712
 11
500.739187
 21
180.980712
  0
LINE
  8
1
 62
7
  6
CONTINUOUS
 10
503.279187
 20
180.980712
 11
503.279187
 21
179.842501
  0
LINE
  8
1
 62
7
  6
CONTINUOUS
 10
503.279187
 20
179.842501
 11
504.417398
 21
179.842501
  0
LINE
  8
1
 62
7
  6
CONTINUOUS
 10
504.417398
 20
179.842501
 11
504.417398
 21
180.980712
  0
LINE
  8
1
 62
7
  6
CONTINUOUS
 10
504.417398
 20
180.980712
 11
503.279187
 21
180.980712
  0
LINE
  8
1
 62
7
  6
CONTINUOUS
 10
505.819187
 20
180.980712
 11
505.819187
 21
179.842501
  0
LINE
  8
1
 62
7
  6
CONTINUOUS
 10
505.819187
 20
179.842501
 11
506.957398
 21
179.842501
  0
LINE
  8
1
 62
7
  6
CONTINUOUS
 10
506.957398
 20
179.842501
 11
506.957398
 21
180.980712
  0
LINE
  8
1
 62
7
  6
CONTINUOUS
 10
506.957398
 20
180.980712
 11
505.819187
 21
180.980712
  0
LINE
  8
1
 62
7
  6
CONTINUOUS
 10
508.359187
 20
180.980712
 11
508.359187
 21
179.842501
  0
LINE
  8
1
 62
7
  6
CONTINUOUS
 10
508.359187
 20
179.842501
 11
509.497398
 21
179.842501
  0
LINE
  8
1
 62
7
  6
CONTINUOUS
 10
509.497398
 20
179.842501
 11
509.497398
 21
180.980712
  0
LINE
  8
1
 62
7
  6
CONTINUOUS
 10
509.497398
 20
180.980712
 11
508.359187
 21
180.980712
  0
LINE
  8
1
 62
7
  6
CONTINUOUS
 10
510.899187
 20
180.980712
 11
510.899187
 21
179.842501
  0
LINE
  8
1
 62
7
  6
CONTINUOUS
 10
510.899187
 20
179.842501
 11
512.037398
 21
179.842501
  0
LINE
  8
1
 62
7
  6
CONTINUOUS
 10
512.037398
 20
179.842501
 11
512.037398
 21
180.980712
  0
LINE
  8
1
 62
7
  6
CONTINUOUS
 10
512.037398
 20
180.980712
 11
510.899187
 21
180.980712
  0
LINE
  8
1
 62
7
  6
CONTINUOUS
 10
513.439187
 20
180.980712
 11
513.439187
 21
179.842501
  0
LINE
  8
1
 62
7
  6
CONTINUOUS
 10
513.439187
 20
179.842501
 11
514.577398
 21
179.842501
  0
LINE
  8
1
 62
7
  6
CONTINUOUS
 10
514.577398
 20
179.842501
 11
514.577398
 21
180.980712
  0
LINE
  8
1
 62
7
  6
CONTINUOUS
 10
514.577398
 20
180.980712
 11
513.439187
 21
180.980712
  0
LINE
  8
1
 62
7
  6
CONTINUOUS
 10
516.784470
 20
178.897245
 11
516.784470
 21
177.850631
  0
LINE
  8
1
 62
7
  6
CONTINUOUS
 10
516.784470
 20
177.850631
 11
516.190840
 21
177.850631
  0
LINE
  8
1
 62
7
  6
CONTINUOUS
 10
516.190840
 20
178.897245
 11
516.784470
 21
178.897245
  0
LINE
  8
1
 62
7
  6
CONTINUOUS
 10
516.190840
 20
178.897245
 11
516.190840
 21
182.782880
  0
LINE
  8
1
 62
7
  6
CONTINUOUS
 10
516.184918
 20
183.131579
 11
516.184918
 21
182.044891
  0
LINE
  8
1
 62
7
  6
CONTINUOUS
 10
516.184918
 20
182.044891
 11
518.208405
 21
182.044891
  0
LINE
  8
1
 62
7
  6
CONTINUOUS
 10
518.208405
 20
182.044891
 11
518.208405
 21
183.131579
  0
LINE
  8
1
 62
7
  6
CONTINUOUS
 10
518.208405
 20
183.131579
 11
516.184918
 21
183.131579
  0
LINE
  8
1
 62
7
  6
CONTINUOUS
 10
487.347229
 20
183.066003
 11
487.347229
 21
182.054259
  0
LINE
  8
1
 62
7
  6
CONTINUOUS
 10
487.347229
 20
182.054259
 11
489.259404
 21
182.054259
  0
LINE
  8
1
 62
7
  6
CONTINUOUS
 10
489.259404
 20
182.054259
 11
489.259404
 21
183.066003
  0
LINE
  8
1
 62
7
  6
CONTINUOUS
 10
489.259404
 20
183.066003
 11
487.347229
 21
183.066003
  0
LINE
  8
1
 62
7
  6
CONTINUOUS
 10
488.752428
 20
178.897245
 11
488.752428
 21
177.850631
  0
LINE
  8
1
 62
7
  6
CONTINUOUS
 10
488.752428
 20
177.850631
 11
489.259404
 21
177.850631
  0
LINE
  8
1
 62
7
  6
CONTINUOUS
 10
489.259404
 20
178.897245
 11
488.752428
 21
178.897245
  0
LINE
  8
1
 62
7
  6
CONTINUOUS
 10
489.259404
 20
177.850631
 11
516.190840
 21
177.850631
  0
LINE
  8
1
 62
7
  6
CONTINUOUS
 10
516.190840
 20
182.782880
 11
489.259404
 21
182.782880
  0
LINE
  8
1
 62
7
  6
CONTINUOUS
 10
489.259404
 20
182.782880
 11
489.259404
 21
178.934717
  0
LINE
  8
1
 62
7
  6
CONTINUOUS
 10
525.579187
 20
180.980712
 11
525.579187
 21
179.842501
  0
LINE
  8
1
 62
7
  6
CONTINUOUS
 10
525.579187
 20
179.842501
 11
526.717398
 21
179.842501
  0
LINE
  8
1
 62
7
  6
CONTINUOUS
 10
526.717398
 20
179.842501
 11
526.717398
 21
180.980712
  0
LINE
  8
1
 62
7
  6
CONTINUOUS
 10
526.717398
 20
180.980712
 11
525.579187
 21
180.980712
  0
LINE
  8
1
 62
7
  6
CONTINUOUS
 10
528.119187
 20
180.980712
 11
528.119187
 21
179.842501
  0
LINE
  8
1
 62
7
  6
CONTINUOUS
 10
528.119187
 20
179.842501
 11
529.257398
 21
179.842501
  0
LINE
  8
1
 62
7
  6
CONTINUOUS
 10
529.257398
 20
179.842501
 11
529.257398
 21
180.980712
  0
LINE
  8
1
 62
7
  6
CONTINUOUS
 10
529.257398
 20
180.980712
 11
528.119187
 21
180.980712
  0
LINE
  8
1
 62
7
  6
CONTINUOUS
 10
530.659187
 20
180.980712
 11
530.659187
 21
179.842501
  0
LINE
  8
1
 62
7
  6
CONTINUOUS
 10
530.659187
 20
179.842501
 11
531.797398
 21
179.842501
  0
LINE
  8
1
 62
7
  6
CONTINUOUS
 10
531.797398
 20
179.842501
 11
531.797398
 21
180.980712
  0
LINE
  8
1
 62
7
  6
CONTINUOUS
 10
531.797398
 20
180.980712
 11
530.659187
 21
180.980712
  0
LINE
  8
1
 62
7
  6
CONTINUOUS
 10
533.199187
 20
180.980712
 11
533.199187
 21
179.842501
  0
LINE
  8
1
 62
7
  6
CONTINUOUS
 10
533.199187
 20
179.842501
 11
534.337398
 21
179.842501
  0
LINE
  8
1
 62
7
  6
CONTINUOUS
 10
534.337398
 20
179.842501
 11
534.337398
 21
180.980712
  0
LINE
  8
1
 62
7
  6
CONTINUOUS
 10
534.337398
 20
180.980712
 11
533.199187
 21
180.980712
  0
LINE
  8
1
 62
7
  6
CONTINUOUS
 10
535.739187
 20
180.980712
 11
535.739187
 21
179.842501
  0
LINE
  8
1
 62
7
  6
CONTINUOUS
 10
535.739187
 20
179.842501
 11
536.877398
 21
179.842501
  0
LINE
  8
1
 62
7
  6
CONTINUOUS
 10
536.877398
 20
179.842501
 11
536.877398
 21
180.980712
  0
LINE
  8
1
 62
7
  6
CONTINUOUS
 10
536.877398
 20
180.980712
 11
535.739187
 21
180.980712
  0
LINE
  8
1
 62
7
  6
CONTINUOUS
 10
538.279187
 20
180.980712
 11
538.279187
 21
179.842501
  0
LINE
  8
1
 62
7
  6
CONTINUOUS
 10
538.279187
 20
179.842501
 11
539.417398
 21
179.842501
  0
LINE
  8
1
 62
7
  6
CONTINUOUS
 10
539.417398
 20
179.842501
 11
539.417398
 21
180.980712
  0
LINE
  8
1
 62
7
  6
CONTINUOUS
 10
539.417398
 20
180.980712
 11
538.279187
 21
180.980712
  0
LINE
  8
1
 62
7
  6
CONTINUOUS
 10
540.819187
 20
180.980712
 11
540.819187
 21
179.842501
  0
LINE
  8
1
 62
7
  6
CONTINUOUS
 10
540.819187
 20
179.842501
 11
541.957398
 21
179.842501
  0
LINE
  8
1
 62
7
  6
CONTINUOUS
 10
541.957398
 20
179.842501
 11
541.957398
 21
180.980712
  0
LINE
  8
1
 62
7
  6
CONTINUOUS
 10
541.957398
 20
180.980712
 11
540.819187
 21
180.980712
  0
LINE
  8
1
 62
7
  6
CONTINUOUS
 10
543.359187
 20
180.980712
 11
543.359187
 21
179.842501
  0
LINE
  8
1
 62
7
  6
CONTINUOUS
 10
543.359187
 20
179.842501
 11
544.497398
 21
179.842501
  0
LINE
  8
1
 62
7
  6
CONTINUOUS
 10
544.497398
 20
179.842501
 11
544.497398
 21
180.980712
  0
LINE
  8
1
 62
7
  6
CONTINUOUS
 10
544.497398
 20
180.980712
 11
543.359187
 21
180.980712
  0
LINE
  8
1
 62
7
  6
CONTINUOUS
 10
545.899187
 20
180.980712
 11
545.899187
 21
179.842501
  0
LINE
  8
1
 62
7
  6
CONTINUOUS
 10
545.899187
 20
179.842501
 11
547.037398
 21
179.842501
  0
LINE
  8
1
 62
7
  6
CONTINUOUS
 10
547.037398
 20
179.842501
 11
547.037398
 21
180.980712
  0
LINE
  8
1
 62
7
  6
CONTINUOUS
 10
547.037398
 20
180.980712
 11
545.899187
 21
180.980712
  0
LINE
  8
1
 62
7
  6
CONTINUOUS
 10
548.439187
 20
180.980712
 11
548.439187
 21
179.842501
  0
LINE
  8
1
 62
7
  6
CONTINUOUS
 10
548.439187
 20
179.842501
 11
549.577398
 21
179.842501
  0
LINE
  8
1
 62
7
  6
CONTINUOUS
 10
549.577398
 20
179.842501
 11
549.577398
 21
180.980712
  0
LINE
  8
1
 62
7
  6
CONTINUOUS
 10
549.577398
 20
180.980712
 11
548.439187
 21
180.980712
  0
LINE
  8
1
 62
7
  6
CONTINUOUS
 10
551.784470
 20
178.897245
 11
551.784470
 21
177.850631
  0
LINE
  8
1
 62
7
  6
CONTINUOUS
 10
551.190840
 20
178.897245
 11
551.784470
 21
178.897245
  0
LINE
  8
1
 62
7
  6
CONTINUOUS
 10
551.190840
 20
178.897245
 11
551.190840
 21
182.782880
  0
LINE
  8
1
 62
7
  6
CONTINUOUS
 10
551.184918
 20
183.131579
 11
551.184918
 21
182.044891
  0
LINE
  8
1
 62
7
  6
CONTINUOUS
 10
551.184918
 20
182.044891
 11
553.208405
 21
182.044891
  0
LINE
  8
1
 62
7
  6
CONTINUOUS
 10
553.208405
 20
182.044891
 11
553.208405
 21
183.131579
  0
LINE
  8
1
 62
7
  6
CONTINUOUS
 10
553.208405
 20
183.131579
 11
551.184918
 21
183.131579
  0
LINE
  8
1
 62
7
  6
CONTINUOUS
 10
522.347229
 20
183.066003
 11
522.347229
 21
182.054259
  0
LINE
  8
1
 62
7
  6
CONTINUOUS
 10
522.347229
 20
182.054259
 11
524.259404
 21
182.054259
  0
LINE
  8
1
 62
7
  6
CONTINUOUS
 10
524.259404
 20
182.054259
 11
524.259404
 21
183.066003
  0
LINE
  8
1
 62
7
  6
CONTINUOUS
 10
524.259404
 20
183.066003
 11
522.347229
 21
183.066003
  0
LINE
  8
1
 62
7
  6
CONTINUOUS
 10
523.752428
 20
178.897245
 11
523.752428
 21
177.850631
  0
LINE
  8
1
 62
7
  6
CONTINUOUS
 10
524.259404
 20
178.897245
 11
523.752428
 21
178.897245
  0
LINE
  8
1
 62
7
  6
CONTINUOUS
 10
524.259404
 20
177.850631
 11
551.190840
 21
177.850631
  0
LINE
  8
1
 62
7
  6
CONTINUOUS
 10
551.190840
 20
182.782880
 11
524.259404
 21
182.782880
  0
LINE
  8
1
 62
7
  6
CONTINUOUS
 10
524.259404
 20
182.782880
 11
524.259404
 21
178.934717
  0
TEXT
  8
1
 62
7
  6
CONTINUOUS
 10
514.344274
 20
183.669067
 40
2.000000
 41
0.500000
  1
1
  7
KANJI
 50
0.000000
 51
0.000000
  0
TEXT
  8
1
 62
7
  6
CONTINUOUS
 10
489.537165
 20
183.678728
 40
2.000000
 41
0.500000
  1
1
  7
KANJI
 50
0.000000
 51
0.000000
  0
TEXT
  8
1
 62
7
  6
CONTINUOUS
 10
489.537165
 20
183.805196
 40
2.000000
 41
0.500000
  1
10
  7
KANJI
 50
0.000000
 51
0.000000
  0
TEXT
  8
1
 62
7
  6
CONTINUOUS
 10
549.344274
 20
183.669067
 40
2.000000
 41
0.500000
  1
1
  7
KANJI
 50
0.000000
 51
0.000000
  0
TEXT
  8
1
 62
7
  6
CONTINUOUS
 10
524.537165
 20
183.678728
 40
2.000000
 41
0.500000
  1
1
  7
KANJI
 50
0.000000
 51
0.000000
  0
TEXT
  8
1
 62
7
  6
CONTINUOUS
 10
524.537165
 20
183.805196
 40
2.000000
 41
0.500000
  1
10
  7
KANJI
 50
0.000000
 51
0.000000
  0
TEXT
  8
1
 62
7
  6
CONTINUOUS
 10
514.217807
 20
249.811795
 40
2.000000
 41
0.500000
  1
1
  7
KANJI
 50
0.000000
 51
0.000000
  0
TEXT
  8
1
 62
7
  6
CONTINUOUS
 10
489.410697
 20
249.821456
 40
2.000000
 41
0.500000
  1
1
  7
KANJI
 50
0.000000
 51
0.000000
  0
TEXT
  8
1
 62
7
  6
CONTINUOUS
 10
489.410697
 20
249.947924
 40
2.000000
 41
0.500000
  1
10
  7
KANJI
 50
0.000000
 51
0.000000
  0
TEXT
  8
1
 62
7
  6
CONTINUOUS
 10
549.217807
 20
249.811795
 40
2.000000
 41
0.500000
  1
1
  7
KANJI
 50
0.000000
 51
0.000000
  0
TEXT
  8
1
 62
7
  6
CONTINUOUS
 10
524.410697
 20
249.821456
 40
2.000000
 41
0.500000
  1
1
  7
KANJI
 50
0.000000
 51
0.000000
  0
TEXT
  8
1
 62
7
  6
CONTINUOUS
 10
524.410697
 20
249.947924
 40
2.000000
 41
0.500000
  1
10
  7
KANJI
 50
0.000000
 51
0.000000
  0
TEXT
  8
1
 62
7
  6
CONTINUOUS
 10
534.095002
 20
247.233514
 40
3.000000
 41
0.500000
  1
J1-1
  7
KANJI
 50
0.000000
 51
0.000000
  0
TEXT
  8
1
 62
7
  6
CONTINUOUS
 10
498.241343
 20
247.802620
 40
3.000000
 41
0.500000
  1
J1-2
  7
KANJI
 50
0.000000
 51
0.000000
  0
TEXT
  8
1
 62
7
  6
CONTINUOUS
 10
499.664107
 20
184.347335
 40
3.000000
 41
0.500000
  1
J2-2
  7
KANJI
 50
0.000000
 51
0.000000
  0
TEXT
  8
1
 62
7
  6
CONTINUOUS
 10
534.948660
 20
184.347335
 40
3.000000
 41
0.500000
  1
J2-1
  7
KANJI
 50
0.000000
 51
0.000000
  0
CIRCLE
  8
1
 62
7
  6
CONTINUOUS
 10
520.201441
 20
216.675765
 40
2.000000
  0
LINE
  8
1
 62
7
  6
CONTINUOUS
 10
519.909472
 20
217.642081
 11
519.909472
 21
216.967734
  0
ARC
  8
1
 62
7
  6
CONTINUOUS
 10
520.109472
 20
217.642081
 40
0.200000
 50
90.000000
 51
180.000000
  0
LINE
  8
1
 62
7
  6
CONTINUOUS
 10
520.334005
 20
217.842081
 11
520.109472
 21
217.842081
  0
LINE
  8
1
 62
7
  6
CONTINUOUS
 10
520.534005
 20
216.967734
 11
520.534005
 21
217.642081
  0
ARC
  8
1
 62
7
  6
CONTINUOUS
 10
520.334005
 20
217.642081
 40
0.200000
 50
0.000000
 51
90.000000
  0
LINE
  8
1
 62
7
  6
CONTINUOUS
 10
520.534005
 20
215.668855
 11
520.534005
 21
216.393164
  0
ARC
  8
1
 62
7
  6
CONTINUOUS
 10
520.334005
 20
215.668855
 40
0.200000
 50
-90.000000
 51
0.000000
  0
LINE
  8
1
 62
7
  6
CONTINUOUS
 10
520.109472
 20
215.468855
 11
520.334005
 21
215.468855
  0
LINE
  8
1
 62
7
  6
CONTINUOUS
 10
519.909472
 20
216.393164
 11
519.909472
 21
215.668855
  0
ARC
  8
1
 62
7
  6
CONTINUOUS
 10
520.109472
 20
215.668855
 40
0.200000
 50
180.000000
 51
-90.000000
  0
LINE
  8
1
 62
7
  6
CONTINUOUS
 10
521.208351
 20
216.967734
 11
520.534005
 21
216.967734
  0
ARC
  8
1
 62
7
  6
CONTINUOUS
 10
521.208351
 20
216.767734
 40
0.200000
 50
0.000000
 51
90.000000
  0
LINE
  8
1
 62
7
  6
CONTINUOUS
 10
521.408351
 20
216.593164
 11
521.408351
 21
216.767734
  0
LINE
  8
1
 62
7
  6
CONTINUOUS
 10
520.534005
 20
216.393164
 11
521.208351
 21
216.393164
  0
ARC
  8
1
 62
7
  6
CONTINUOUS
 10
521.208351
 20
216.593164
 40
0.200000
 50
-90.000000
 51
0.000000
  0
LINE
  8
1
 62
7
  6
CONTINUOUS
 10
519.110219
 20
216.393164
 11
519.909472
 21
216.393164
  0
ARC
  8
1
 62
7
  6
CONTINUOUS
 10
519.110219
 20
216.593164
 40
0.200000
 50
180.000000
 51
-90.000000
  0
LINE
  8
1
 62
7
  6
CONTINUOUS
 10
518.910219
 20
216.767734
 11
518.910219
 21
216.593164
  0
LINE
  8
1
 62
7
  6
CONTINUOUS
 10
519.909472
 20
216.967734
 11
519.110219
 21
216.967734
  0
ARC
  8
1
 62
7
  6
CONTINUOUS
 10
519.110219
 20
216.767734
 40
0.200000
 50
90.000000
 51
180.000000
  0
TEXT
  8
1
 62
7
  6
CONTINUOUS
 10
514.645244
 20
167.497500
 40
4.000000
 41
1.000000
  1
裏面図
  7
KANJI
 50
0.000000
 51
0.000000
  0
LINE
  8
1
 62
7
  6
CONTINUOUS
 10
422.757738
 20
146.875096
 11
422.757738
 21
145.863353
  0
LINE
  8
1
 62
7
  6
CONTINUOUS
 10
422.757738
 20
145.863353
 11
424.669913
 21
145.863353
  0
LINE
  8
1
 62
7
  6
CONTINUOUS
 10
424.669913
 20
145.863353
 11
424.669913
 21
146.875096
  0
LINE
  8
1
 62
7
  6
CONTINUOUS
 10
424.669913
 20
146.875096
 11
422.757738
 21
146.875096
  0
TEXT
  8
1
 62
7
  6
CONTINUOUS
 10
424.947674
 20
147.867225
 40
2.000000
 41
0.500000
  1
15
  7
KANJI
 50
0.000000
 51
0.000000
  0
TEXT
  8
1
 62
7
  6
CONTINUOUS
 10
424.947674
 20
147.740757
 40
2.000000
 41
0.500000
  1
1
  7
KANJI
 50
0.000000
 51
0.000000
  0
TEXT
  8
1
 62
7
  6
CONTINUOUS
 10
462.454783
 20
147.731097
 40
2.000000
 41
0.500000
  1
1
  7
KANJI
 50
0.000000
 51
0.000000
  0
LINE
  8
1
 62
7
  6
CONTINUOUS
 10
424.162937
 20
142.706338
 11
424.162937
 21
141.659724
  0
LINE
  8
1
 62
7
  6
CONTINUOUS
 10
424.162937
 20
141.659724
 11
424.669913
 21
141.659724
  0
LINE
  8
1
 62
7
  6
CONTINUOUS
 10
424.669913
 20
142.706338
 11
424.162937
 21
142.706338
  0
LINE
  8
1
 62
7
  6
CONTINUOUS
 10
425.989696
 20
144.789806
 11
425.989696
 21
143.651594
  0
LINE
  8
1
 62
7
  6
CONTINUOUS
 10
425.989696
 20
143.651594
 11
427.127907
 21
143.651594
  0
LINE
  8
1
 62
7
  6
CONTINUOUS
 10
427.127907
 20
143.651594
 11
427.127907
 21
144.789806
  0
LINE
  8
1
 62
7
  6
CONTINUOUS
 10
427.127907
 20
144.789806
 11
425.989696
 21
144.789806
  0
LINE
  8
1
 62
7
  6
CONTINUOUS
 10
428.529696
 20
144.789806
 11
428.529696
 21
143.651594
  0
LINE
  8
1
 62
7
  6
CONTINUOUS
 10
428.529696
 20
143.651594
 11
429.667907
 21
143.651594
  0
LINE
  8
1
 62
7
  6
CONTINUOUS
 10
429.667907
 20
143.651594
 11
429.667907
 21
144.789806
  0
LINE
  8
1
 62
7
  6
CONTINUOUS
 10
429.667907
 20
144.789806
 11
428.529696
 21
144.789806
  0
LINE
  8
1
 62
7
  6
CONTINUOUS
 10
431.069696
 20
144.789806
 11
431.069696
 21
143.651594
  0
LINE
  8
1
 62
7
  6
CONTINUOUS
 10
431.069696
 20
143.651594
 11
432.207907
 21
143.651594
  0
LINE
  8
1
 62
7
  6
CONTINUOUS
 10
432.207907
 20
143.651594
 11
432.207907
 21
144.789806
  0
LINE
  8
1
 62
7
  6
CONTINUOUS
 10
432.207907
 20
144.789806
 11
431.069696
 21
144.789806
  0
LINE
  8
1
 62
7
  6
CONTINUOUS
 10
433.609696
 20
144.789806
 11
433.609696
 21
143.651594
  0
LINE
  8
1
 62
7
  6
CONTINUOUS
 10
433.609696
 20
143.651594
 11
434.747907
 21
143.651594
  0
LINE
  8
1
 62
7
  6
CONTINUOUS
 10
434.747907
 20
143.651594
 11
434.747907
 21
144.789806
  0
LINE
  8
1
 62
7
  6
CONTINUOUS
 10
434.747907
 20
144.789806
 11
433.609696
 21
144.789806
  0
LINE
  8
1
 62
7
  6
CONTINUOUS
 10
436.149696
 20
144.789806
 11
436.149696
 21
143.651594
  0
LINE
  8
1
 62
7
  6
CONTINUOUS
 10
436.149696
 20
143.651594
 11
437.287907
 21
143.651594
  0
LINE
  8
1
 62
7
  6
CONTINUOUS
 10
437.287907
 20
143.651594
 11
437.287907
 21
144.789806
  0
LINE
  8
1
 62
7
  6
CONTINUOUS
 10
437.287907
 20
144.789806
 11
436.149696
 21
144.789806
  0
LINE
  8
1
 62
7
  6
CONTINUOUS
 10
438.689696
 20
144.789806
 11
438.689696
 21
143.651594
  0
LINE
  8
1
 62
7
  6
CONTINUOUS
 10
438.689696
 20
143.651594
 11
439.827907
 21
143.651594
  0
LINE
  8
1
 62
7
  6
CONTINUOUS
 10
439.827907
 20
143.651594
 11
439.827907
 21
144.789806
  0
LINE
  8
1
 62
7
  6
CONTINUOUS
 10
439.827907
 20
144.789806
 11
438.689696
 21
144.789806
  0
LINE
  8
1
 62
7
  6
CONTINUOUS
 10
441.229696
 20
144.789806
 11
441.229696
 21
143.651594
  0
LINE
  8
1
 62
7
  6
CONTINUOUS
 10
441.229696
 20
143.651594
 11
442.367907
 21
143.651594
  0
LINE
  8
1
 62
7
  6
CONTINUOUS
 10
442.367907
 20
143.651594
 11
442.367907
 21
144.789806
  0
LINE
  8
1
 62
7
  6
CONTINUOUS
 10
442.367907
 20
144.789806
 11
441.229696
 21
144.789806
  0
LINE
  8
1
 62
7
  6
CONTINUOUS
 10
443.769696
 20
144.789806
 11
443.769696
 21
143.651594
  0
LINE
  8
1
 62
7
  6
CONTINUOUS
 10
443.769696
 20
143.651594
 11
444.907907
 21
143.651594
  0
LINE
  8
1
 62
7
  6
CONTINUOUS
 10
444.907907
 20
143.651594
 11
444.907907
 21
144.789806
  0
LINE
  8
1
 62
7
  6
CONTINUOUS
 10
444.907907
 20
144.789806
 11
443.769696
 21
144.789806
  0
LINE
  8
1
 62
7
  6
CONTINUOUS
 10
446.309696
 20
144.789806
 11
446.309696
 21
143.651594
  0
LINE
  8
1
 62
7
  6
CONTINUOUS
 10
446.309696
 20
143.651594
 11
447.447907
 21
143.651594
  0
LINE
  8
1
 62
7
  6
CONTINUOUS
 10
447.447907
 20
143.651594
 11
447.447907
 21
144.789806
  0
LINE
  8
1
 62
7
  6
CONTINUOUS
 10
447.447907
 20
144.789806
 11
446.309696
 21
144.789806
  0
LINE
  8
1
 62
7
  6
CONTINUOUS
 10
448.849696
 20
144.789806
 11
448.849696
 21
143.651594
  0
LINE
  8
1
 62
7
  6
CONTINUOUS
 10
448.849696
 20
143.651594
 11
449.987907
 21
143.651594
  0
LINE
  8
1
 62
7
  6
CONTINUOUS
 10
449.987907
 20
143.651594
 11
449.987907
 21
144.789806
  0
LINE
  8
1
 62
7
  6
CONTINUOUS
 10
449.987907
 20
144.789806
 11
448.849696
 21
144.789806
  0
LINE
  8
1
 62
7
  6
CONTINUOUS
 10
451.389696
 20
144.789806
 11
451.389696
 21
143.651594
  0
LINE
  8
1
 62
7
  6
CONTINUOUS
 10
451.389696
 20
143.651594
 11
452.527907
 21
143.651594
  0
LINE
  8
1
 62
7
  6
CONTINUOUS
 10
452.527907
 20
143.651594
 11
452.527907
 21
144.789806
  0
LINE
  8
1
 62
7
  6
CONTINUOUS
 10
452.527907
 20
144.789806
 11
451.389696
 21
144.789806
  0
LINE
  8
1
 62
7
  6
CONTINUOUS
 10
453.929696
 20
144.789806
 11
453.929696
 21
143.651594
  0
LINE
  8
1
 62
7
  6
CONTINUOUS
 10
453.929696
 20
143.651594
 11
455.067907
 21
143.651594
  0
LINE
  8
1
 62
7
  6
CONTINUOUS
 10
455.067907
 20
143.651594
 11
455.067907
 21
144.789806
  0
LINE
  8
1
 62
7
  6
CONTINUOUS
 10
455.067907
 20
144.789806
 11
453.929696
 21
144.789806
  0
LINE
  8
1
 62
7
  6
CONTINUOUS
 10
456.469696
 20
144.789806
 11
456.469696
 21
143.651594
  0
LINE
  8
1
 62
7
  6
CONTINUOUS
 10
456.469696
 20
143.651594
 11
457.607907
 21
143.651594
  0
LINE
  8
1
 62
7
  6
CONTINUOUS
 10
457.607907
 20
143.651594
 11
457.607907
 21
144.789806
  0
LINE
  8
1
 62
7
  6
CONTINUOUS
 10
457.607907
 20
144.789806
 11
456.469696
 21
144.789806
  0
LINE
  8
1
 62
7
  6
CONTINUOUS
 10
459.009696
 20
144.789806
 11
459.009696
 21
143.651594
  0
LINE
  8
1
 62
7
  6
CONTINUOUS
 10
459.009696
 20
143.651594
 11
460.147907
 21
143.651594
  0
LINE
  8
1
 62
7
  6
CONTINUOUS
 10
460.147907
 20
143.651594
 11
460.147907
 21
144.789806
  0
LINE
  8
1
 62
7
  6
CONTINUOUS
 10
460.147907
 20
144.789806
 11
459.009696
 21
144.789806
  0
LINE
  8
1
 62
7
  6
CONTINUOUS
 10
461.549696
 20
144.789806
 11
461.549696
 21
143.651594
  0
LINE
  8
1
 62
7
  6
CONTINUOUS
 10
461.549696
 20
143.651594
 11
462.687907
 21
143.651594
  0
LINE
  8
1
 62
7
  6
CONTINUOUS
 10
462.687907
 20
143.651594
 11
462.687907
 21
144.789806
  0
LINE
  8
1
 62
7
  6
CONTINUOUS
 10
462.687907
 20
144.789806
 11
461.549696
 21
144.789806
  0
LINE
  8
1
 62
7
  6
CONTINUOUS
 10
464.894979
 20
142.706338
 11
464.894979
 21
141.659724
  0
LINE
  8
1
 62
7
  6
CONTINUOUS
 10
464.894979
 20
141.659724
 11
464.301349
 21
141.659724
  0
LINE
  8
1
 62
7
  6
CONTINUOUS
 10
464.301349
 20
142.706338
 11
464.894979
 21
142.706338
  0
LINE
  8
1
 62
7
  6
CONTINUOUS
 10
424.669913
 20
141.659724
 11
464.301349
 21
141.659724
  0
LINE
  8
1
 62
7
  6
CONTINUOUS
 10
464.301349
 20
146.591974
 11
424.669913
 21
146.591974
  0
LINE
  8
1
 62
7
  6
CONTINUOUS
 10
424.669913
 20
146.591974
 11
424.669913
 21
142.743810
  0
LINE
  8
1
 62
7
  6
CONTINUOUS
 10
464.301349
 20
142.706338
 11
464.301349
 21
146.591974
  0
LINE
  8
1
 62
7
  6
CONTINUOUS
 10
464.295427
 20
146.940672
 11
464.295427
 21
145.853985
  0
LINE
  8
1
 62
7
  6
CONTINUOUS
 10
464.295427
 20
145.853985
 11
466.318914
 21
145.853985
  0
LINE
  8
1
 62
7
  6
CONTINUOUS
 10
466.318914
 20
145.853985
 11
466.318914
 21
146.940672
  0
LINE
  8
1
 62
7
  6
CONTINUOUS
 10
466.318914
 20
146.940672
 11
464.295427
 21
146.940672
  0
TEXT
  8
1
 62
7
  6
CONTINUOUS
 10
143.499297
 20
52.035080
 40
2.000000
 41
0.500000
  1
10
  7
KANJI
 50
0.000000
 51
0.000000
  0
TEXT
  8
1
 62
7
  6
CONTINUOUS
 10
149.061377
 20
52.091288
 40
2.000000
 41
0.500000
  1
9
  7
KANJI
 50
0.000000
 51
0.000000
  0
TEXT
  8
1
 62
7
  6
CONTINUOUS
 10
154.061377
 20
52.091288
 40
2.000000
 41
0.500000
  1
8
  7
KANJI
 50
0.000000
 51
0.000000
  0
TEXT
  8
1
 62
7
  6
CONTINUOUS
 10
159.061377
 20
52.091288
 40
2.000000
 41
0.500000
  1
7
  7
KANJI
 50
0.000000
 51
0.000000
  0
TEXT
  8
1
 62
7
  6
CONTINUOUS
 10
164.061377
 20
52.091288
 40
2.000000
 41
0.500000
  1
6
  7
KANJI
 50
0.000000
 51
0.000000
  0
TEXT
  8
1
 62
7
  6
CONTINUOUS
 10
169.061377
 20
52.091288
 40
2.000000
 41
0.500000
  1
5
  7
KANJI
 50
0.000000
 51
0.000000
  0
TEXT
  8
1
 62
7
  6
CONTINUOUS
 10
174.061377
 20
52.091288
 40
2.000000
 41
0.500000
  1
4
  7
KANJI
 50
0.000000
 51
0.000000
  0
TEXT
  8
1
 62
7
  6
CONTINUOUS
 10
179.061377
 20
52.091288
 40
2.000000
 41
0.500000
  1
3
  7
KANJI
 50
0.000000
 51
0.000000
  0
TEXT
  8
1
 62
7
  6
CONTINUOUS
 10
184.061377
 20
52.091288
 40
2.000000
 41
0.500000
  1
2
  7
KANJI
 50
0.000000
 51
0.000000
  0
TEXT
  8
1
 62
7
  6
CONTINUOUS
 10
189.061377
 20
52.091288
 40
2.000000
 41
0.500000
  1
1
  7
KANJI
 50
0.000000
 51
0.000000
  0
CIRCLE
  8
1
 62
7
  6
CONTINUOUS
 10
189.459350
 20
56.338502
 40
1.000000
  0
LINE
  8
1
 62
7
  6
CONTINUOUS
 10
185.562431
 20
66.677256
 11
186.293135
 21
66.677256
  0
LINE
  8
1
 62
7
  6
CONTINUOUS
 10
185.562431
 20
68.644535
 11
185.562431
 21
64.991017
  0
LINE
  8
1
 62
7
  6
CONTINUOUS
 10
184.459350
 20
68.869367
 11
184.459350
 21
77.300562
  0
LINE
  8
1
 62
7
  6
CONTINUOUS
 10
184.459350
 20
57.338502
 11
184.459350
 21
64.878601
  0
CIRCLE
  8
1
 62
7
  6
CONTINUOUS
 10
184.459350
 20
65.384473
 40
0.505872
  0
CIRCLE
  8
1
 62
7
  6
CONTINUOUS
 10
184.459350
 20
68.363495
 40
0.505872
  0
CIRCLE
  8
1
 62
7
  6
CONTINUOUS
 10
184.459350
 20
56.338502
 40
1.000000
  0
LINE
  8
1
 62
7
  6
CONTINUOUS
 10
180.562431
 20
66.677256
 11
181.293135
 21
66.677256
  0
LINE
  8
1
 62
7
  6
CONTINUOUS
 10
180.562431
 20
68.644535
 11
180.562431
 21
64.991017
  0
LINE
  8
1
 62
7
  6
CONTINUOUS
 10
179.459350
 20
68.869367
 11
179.459350
 21
77.300562
  0
LINE
  8
1
 62
7
  6
CONTINUOUS
 10
179.459350
 20
57.338502
 11
179.459350
 21
64.878601
  0
CIRCLE
  8
1
 62
7
  6
CONTINUOUS
 10
179.459350
 20
65.384473
 40
0.505872
  0
CIRCLE
  8
1
 62
7
  6
CONTINUOUS
 10
179.459350
 20
68.363495
 40
0.505872
  0
CIRCLE
  8
1
 62
7
  6
CONTINUOUS
 10
179.459350
 20
56.338502
 40
1.000000
  0
LINE
  8
1
 62
7
  6
CONTINUOUS
 10
175.562431
 20
66.677256
 11
176.293135
 21
66.677256
  0
LINE
  8
1
 62
7
  6
CONTINUOUS
 10
175.562431
 20
68.644535
 11
175.562431
 21
64.991017
  0
LINE
  8
1
 62
7
  6
CONTINUOUS
 10
174.459350
 20
68.869367
 11
174.459350
 21
77.300562
  0
LINE
  8
1
 62
7
  6
CONTINUOUS
 10
174.459350
 20
57.338502
 11
174.459350
 21
64.878601
  0
CIRCLE
  8
1
 62
7
  6
CONTINUOUS
 10
174.459350
 20
65.384473
 40
0.505872
  0
CIRCLE
  8
1
 62
7
  6
CONTINUOUS
 10
174.459350
 20
68.363495
 40
0.505872
  0
CIRCLE
  8
1
 62
7
  6
CONTINUOUS
 10
174.459350
 20
56.338502
 40
1.000000
  0
LINE
  8
1
 62
7
  6
CONTINUOUS
 10
170.562431
 20
66.677256
 11
171.293135
 21
66.677256
  0
LINE
  8
1
 62
7
  6
CONTINUOUS
 10
170.562431
 20
68.644535
 11
170.562431
 21
64.991017
  0
LINE
  8
1
 62
7
  6
CONTINUOUS
 10
169.459350
 20
68.869367
 11
169.459350
 21
77.300562
  0
LINE
  8
1
 62
7
  6
CONTINUOUS
 10
169.459350
 20
57.338502
 11
169.459350
 21
64.878601
  0
CIRCLE
  8
1
 62
7
  6
CONTINUOUS
 10
169.459350
 20
65.384473
 40
0.505872
  0
CIRCLE
  8
1
 62
7
  6
CONTINUOUS
 10
169.459350
 20
68.363495
 40
0.505872
  0
CIRCLE
  8
1
 62
7
  6
CONTINUOUS
 10
169.459350
 20
56.338502
 40
1.000000
  0
LINE
  8
1
 62
7
  6
CONTINUOUS
 10
165.562431
 20
66.677256
 11
166.293135
 21
66.677256
  0
LINE
  8
1
 62
7
  6
CONTINUOUS
 10
165.562431
 20
68.644535
 11
165.562431
 21
64.991017
  0
LINE
  8
1
 62
7
  6
CONTINUOUS
 10
164.459350
 20
68.869367
 11
164.459350
 21
77.300562
  0
LINE
  8
1
 62
7
  6
CONTINUOUS
 10
164.459350
 20
57.338502
 11
164.459350
 21
64.878601
  0
CIRCLE
  8
1
 62
7
  6
CONTINUOUS
 10
164.459350
 20
65.384473
 40
0.505872
  0
CIRCLE
  8
1
 62
7
  6
CONTINUOUS
 10
164.459350
 20
68.363495
 40
0.505872
  0
CIRCLE
  8
1
 62
7
  6
CONTINUOUS
 10
164.459350
 20
56.338502
 40
1.000000
  0
LINE
  8
1
 62
7
  6
CONTINUOUS
 10
160.562431
 20
66.677256
 11
161.293135
 21
66.677256
  0
LINE
  8
1
 62
7
  6
CONTINUOUS
 10
160.562431
 20
68.644535
 11
160.562431
 21
64.991017
  0
LINE
  8
1
 62
7
  6
CONTINUOUS
 10
159.459350
 20
68.869367
 11
159.459350
 21
77.300562
  0
LINE
  8
1
 62
7
  6
CONTINUOUS
 10
159.459350
 20
57.338502
 11
159.459350
 21
64.878601
  0
CIRCLE
  8
1
 62
7
  6
CONTINUOUS
 10
159.459350
 20
65.384473
 40
0.505872
  0
CIRCLE
  8
1
 62
7
  6
CONTINUOUS
 10
159.459350
 20
68.363495
 40
0.505872
  0
CIRCLE
  8
1
 62
7
  6
CONTINUOUS
 10
159.459350
 20
56.338502
 40
1.000000
  0
LINE
  8
1
 62
7
  6
CONTINUOUS
 10
155.562431
 20
66.677256
 11
156.293135
 21
66.677256
  0
LINE
  8
1
 62
7
  6
CONTINUOUS
 10
155.562431
 20
68.644535
 11
155.562431
 21
64.991017
  0
LINE
  8
1
 62
7
  6
CONTINUOUS
 10
154.459350
 20
68.869367
 11
154.459350
 21
77.300562
  0
LINE
  8
1
 62
7
  6
CONTINUOUS
 10
154.459350
 20
57.338502
 11
154.459350
 21
64.878601
  0
CIRCLE
  8
1
 62
7
  6
CONTINUOUS
 10
154.459350
 20
65.384473
 40
0.505872
  0
CIRCLE
  8
1
 62
7
  6
CONTINUOUS
 10
154.459350
 20
68.363495
 40
0.505872
  0
CIRCLE
  8
1
 62
7
  6
CONTINUOUS
 10
154.459350
 20
56.338502
 40
1.000000
  0
LINE
  8
1
 62
7
  6
CONTINUOUS
 10
150.562431
 20
66.677256
 11
151.293135
 21
66.677256
  0
LINE
  8
1
 62
7
  6
CONTINUOUS
 10
150.562431
 20
68.644535
 11
150.562431
 21
64.991017
  0
LINE
  8
1
 62
7
  6
CONTINUOUS
 10
149.459350
 20
68.869367
 11
149.459350
 21
77.300562
  0
LINE
  8
1
 62
7
  6
CONTINUOUS
 10
149.459350
 20
57.338502
 11
149.459350
 21
64.878601
  0
CIRCLE
  8
1
 62
7
  6
CONTINUOUS
 10
149.459350
 20
65.384473
 40
0.505872
  0
CIRCLE
  8
1
 62
7
  6
CONTINUOUS
 10
149.459350
 20
68.363495
 40
0.505872
  0
CIRCLE
  8
1
 62
7
  6
CONTINUOUS
 10
149.459350
 20
56.338502
 40
1.000000
  0
LINE
  8
1
 62
7
  6
CONTINUOUS
 10
145.562431
 20
66.677256
 11
146.293135
 21
66.677256
  0
LINE
  8
1
 62
7
  6
CONTINUOUS
 10
145.562431
 20
68.644535
 11
145.562431
 21
64.991017
  0
LINE
  8
1
 62
7
  6
CONTINUOUS
 10
144.459350
 20
68.869367
 11
144.459350
 21
77.300562
  0
LINE
  8
1
 62
7
  6
CONTINUOUS
 10
144.459350
 20
57.338502
 11
144.459350
 21
64.878601
  0
CIRCLE
  8
1
 62
7
  6
CONTINUOUS
 10
144.459350
 20
65.384473
 40
0.505872
  0
CIRCLE
  8
1
 62
7
  6
CONTINUOUS
 10
144.459350
 20
68.363495
 40
0.505872
  0
CIRCLE
  8
1
 62
7
  6
CONTINUOUS
 10
144.459350
 20
56.338502
 40
1.000000
  0
CIRCLE
  8
1
 62
7
  6
CONTINUOUS
 10
144.459350
 20
77.300562
 40
0.500000
  0
CIRCLE
  8
1
 62
7
  6
CONTINUOUS
 10
144.459350
 20
77.300562
 40
0.250000
  0
CIRCLE
  8
1
 62
7
  6
CONTINUOUS
 10
149.459350
 20
77.300562
 40
0.500000
  0
CIRCLE
  8
1
 62
7
  6
CONTINUOUS
 10
149.459350
 20
77.300562
 40
0.250000
  0
CIRCLE
  8
1
 62
7
  6
CONTINUOUS
 10
154.459350
 20
77.300562
 40
0.500000
  0
CIRCLE
  8
1
 62
7
  6
CONTINUOUS
 10
154.459350
 20
77.300562
 40
0.250000
  0
CIRCLE
  8
1
 62
7
  6
CONTINUOUS
 10
159.459350
 20
77.300562
 40
0.500000
  0
CIRCLE
  8
1
 62
7
  6
CONTINUOUS
 10
159.459350
 20
77.300562
 40
0.250000
  0
CIRCLE
  8
1
 62
7
  6
CONTINUOUS
 10
164.459350
 20
77.300562
 40
0.500000
  0
CIRCLE
  8
1
 62
7
  6
CONTINUOUS
 10
164.459350
 20
77.300562
 40
0.250000
  0
CIRCLE
  8
1
 62
7
  6
CONTINUOUS
 10
169.459350
 20
77.300562
 40
0.500000
  0
CIRCLE
  8
1
 62
7
  6
CONTINUOUS
 10
169.459350
 20
77.300562
 40
0.250000
  0
CIRCLE
  8
1
 62
7
  6
CONTINUOUS
 10
174.459350
 20
77.300562
 40
0.500000
  0
CIRCLE
  8
1
 62
7
  6
CONTINUOUS
 10
174.459350
 20
77.300562
 40
0.250000
  0
CIRCLE
  8
1
 62
7
  6
CONTINUOUS
 10
179.459350
 20
77.300562
 40
0.500000
  0
CIRCLE
  8
1
 62
7
  6
CONTINUOUS
 10
179.459350
 20
77.300562
 40
0.250000
  0
CIRCLE
  8
1
 62
7
  6
CONTINUOUS
 10
184.459350
 20
77.300562
 40
0.500000
  0
CIRCLE
  8
1
 62
7
  6
CONTINUOUS
 10
184.459350
 20
77.300562
 40
0.250000
  0
TEXT
  8
1
 62
7
  6
CONTINUOUS
 10
192.386179
 20
40.688096
 40
4.000000
 41
1.000000
  1
回路図
  7
KANJI
 50
0.000000
 51
0.000000
  0
LINE
  8
1
 62
7
  6
CONTINUOUS
 10
142.610509
 20
58.038794
 11
142.610509
 21
54.666315
  0
LINE
  8
1
 62
7
  6
CONTINUOUS
 10
142.610509
 20
54.666315
 11
191.720717
 21
54.666315
  0
LINE
  8
1
 62
7
  6
CONTINUOUS
 10
191.720717
 20
54.666315
 11
191.720717
 21
58.038794
  0
LINE
  8
1
 62
7
  6
CONTINUOUS
 10
191.720717
 20
58.038794
 11
142.610509
 21
58.038794
  0
TEXT
  8
1
 62
7
  6
CONTINUOUS
 10
88.499297
 20
52.035080
 40
2.000000
 41
0.500000
  1
10
  7
KANJI
 50
0.000000
 51
0.000000
  0
TEXT
  8
1
 62
7
  6
CONTINUOUS
 10
94.061377
 20
52.091288
 40
2.000000
 41
0.500000
  1
9
  7
KANJI
 50
0.000000
 51
0.000000
  0
TEXT
  8
1
 62
7
  6
CONTINUOUS
 10
99.061377
 20
52.091288
 40
2.000000
 41
0.500000
  1
8
  7
KANJI
 50
0.000000
 51
0.000000
  0
TEXT
  8
1
 62
7
  6
CONTINUOUS
 10
104.061377
 20
52.091288
 40
2.000000
 41
0.500000
  1
7
  7
KANJI
 50
0.000000
 51
0.000000
  0
TEXT
  8
1
 62
7
  6
CONTINUOUS
 10
109.061377
 20
52.091288
 40
2.000000
 41
0.500000
  1
6
  7
KANJI
 50
0.000000
 51
0.000000
  0
TEXT
  8
1
 62
7
  6
CONTINUOUS
 10
114.061377
 20
52.091288
 40
2.000000
 41
0.500000
  1
5
  7
KANJI
 50
0.000000
 51
0.000000
  0
TEXT
  8
1
 62
7
  6
CONTINUOUS
 10
119.061377
 20
52.091288
 40
2.000000
 41
0.500000
  1
4
  7
KANJI
 50
0.000000
 51
0.000000
  0
TEXT
  8
1
 62
7
  6
CONTINUOUS
 10
124.061377
 20
52.091288
 40
2.000000
 41
0.500000
  1
3
  7
KANJI
 50
0.000000
 51
0.000000
  0
TEXT
  8
1
 62
7
  6
CONTINUOUS
 10
129.061377
 20
52.091288
 40
2.000000
 41
0.500000
  1
2
  7
KANJI
 50
0.000000
 51
0.000000
  0
TEXT
  8
1
 62
7
  6
CONTINUOUS
 10
134.061377
 20
52.091288
 40
2.000000
 41
0.500000
  1
1
  7
KANJI
 50
0.000000
 51
0.000000
  0
CIRCLE
  8
1
 62
7
  6
CONTINUOUS
 10
134.459350
 20
56.338502
 40
1.000000
  0
CIRCLE
  8
1
 62
7
  6
CONTINUOUS
 10
129.459350
 20
56.338502
 40
1.000000
  0
CIRCLE
  8
1
 62
7
  6
CONTINUOUS
 10
124.459350
 20
56.338502
 40
1.000000
  0
CIRCLE
  8
1
 62
7
  6
CONTINUOUS
 10
119.459350
 20
56.338502
 40
1.000000
  0
CIRCLE
  8
1
 62
7
  6
CONTINUOUS
 10
114.459350
 20
56.338502
 40
1.000000
  0
CIRCLE
  8
1
 62
7
  6
CONTINUOUS
 10
109.459350
 20
56.338502
 40
1.000000
  0
CIRCLE
  8
1
 62
7
  6
CONTINUOUS
 10
104.459350
 20
56.338502
 40
1.000000
  0
CIRCLE
  8
1
 62
7
  6
CONTINUOUS
 10
99.459350
 20
56.338502
 40
1.000000
  0
CIRCLE
  8
1
 62
7
  6
CONTINUOUS
 10
94.459350
 20
56.338502
 40
1.000000
  0
CIRCLE
  8
1
 62
7
  6
CONTINUOUS
 10
89.459350
 20
56.338502
 40
1.000000
  0
TEXT
  8
1
 62
7
  6
CONTINUOUS
 10
163.646341
 20
46.948259
 40
3.000000
 41
0.500000
  1
J1-1
  7
KANJI
 50
0.000000
 51
0.000000
  0
TEXT
  8
1
 62
7
  6
CONTINUOUS
 10
109.581301
 20
47.232811
 40
3.000000
 41
0.500000
  1
J1-2
  7
KANJI
 50
0.000000
 51
0.000000
  0
LINE
  8
1
 62
7
  6
CONTINUOUS
 10
130.562431
 20
66.677256
 11
131.293135
 21
66.677256
  0
LINE
  8
1
 62
7
  6
CONTINUOUS
 10
130.562431
 20
68.644535
 11
130.562431
 21
64.991017
  0
LINE
  8
1
 62
7
  6
CONTINUOUS
 10
129.459350
 20
57.338502
 11
129.459350
 21
64.878601
  0
CIRCLE
  8
1
 62
7
  6
CONTINUOUS
 10
129.459350
 20
65.384473
 40
0.505872
  0
CIRCLE
  8
1
 62
7
  6
CONTINUOUS
 10
129.459350
 20
68.363495
 40
0.505872
  0
LINE
  8
1
 62
7
  6
CONTINUOUS
 10
129.459350
 20
68.869367
 11
129.459350
 21
77.300562
  0
LINE
  8
1
 62
7
  6
CONTINUOUS
 10
125.562431
 20
66.677256
 11
126.293135
 21
66.677256
  0
LINE
  8
1
 62
7
  6
CONTINUOUS
 10
125.562431
 20
68.644535
 11
125.562431
 21
64.991017
  0
LINE
  8
1
 62
7
  6
CONTINUOUS
 10
124.459350
 20
57.338502
 11
124.459350
 21
64.878601
  0
CIRCLE
  8
1
 62
7
  6
CONTINUOUS
 10
124.459350
 20
65.384473
 40
0.505872
  0
CIRCLE
  8
1
 62
7
  6
CONTINUOUS
 10
124.459350
 20
68.363495
 40
0.505872
  0
LINE
  8
1
 62
7
  6
CONTINUOUS
 10
124.459350
 20
68.869367
 11
124.459350
 21
77.300562
  0
LINE
  8
1
 62
7
  6
CONTINUOUS
 10
120.562431
 20
66.677256
 11
121.293135
 21
66.677256
  0
LINE
  8
1
 62
7
  6
CONTINUOUS
 10
120.562431
 20
68.644535
 11
120.562431
 21
64.991017
  0
LINE
  8
1
 62
7
  6
CONTINUOUS
 10
119.459350
 20
57.338502
 11
119.459350
 21
64.878601
  0
CIRCLE
  8
1
 62
7
  6
CONTINUOUS
 10
119.459350
 20
65.384473
 40
0.505872
  0
CIRCLE
  8
1
 62
7
  6
CONTINUOUS
 10
119.459350
 20
68.363495
 40
0.505872
  0
LINE
  8
1
 62
7
  6
CONTINUOUS
 10
119.459350
 20
68.869367
 11
119.459350
 21
77.300562
  0
LINE
  8
1
 62
7
  6
CONTINUOUS
 10
115.562431
 20
66.677256
 11
116.293135
 21
66.677256
  0
LINE
  8
1
 62
7
  6
CONTINUOUS
 10
115.562431
 20
68.644535
 11
115.562431
 21
64.991017
  0
LINE
  8
1
 62
7
  6
CONTINUOUS
 10
114.459350
 20
57.338502
 11
114.459350
 21
64.878601
  0
CIRCLE
  8
1
 62
7
  6
CONTINUOUS
 10
114.459350
 20
65.384473
 40
0.505872
  0
CIRCLE
  8
1
 62
7
  6
CONTINUOUS
 10
114.459350
 20
68.363495
 40
0.505872
  0
LINE
  8
1
 62
7
  6
CONTINUOUS
 10
114.459350
 20
68.869367
 11
114.459350
 21
77.300562
  0
LINE
  8
1
 62
7
  6
CONTINUOUS
 10
110.562431
 20
66.677256
 11
111.293135
 21
66.677256
  0
LINE
  8
1
 62
7
  6
CONTINUOUS
 10
110.562431
 20
68.644535
 11
110.562431
 21
64.991017
  0
LINE
  8
1
 62
7
  6
CONTINUOUS
 10
109.459350
 20
57.338502
 11
109.459350
 21
64.878601
  0
CIRCLE
  8
1
 62
7
  6
CONTINUOUS
 10
109.459350
 20
65.384473
 40
0.505872
  0
CIRCLE
  8
1
 62
7
  6
CONTINUOUS
 10
109.459350
 20
68.363495
 40
0.505872
  0
LINE
  8
1
 62
7
  6
CONTINUOUS
 10
109.459350
 20
68.869367
 11
109.459350
 21
77.300562
  0
LINE
  8
1
 62
7
  6
CONTINUOUS
 10
105.562431
 20
66.677256
 11
106.293135
 21
66.677256
  0
LINE
  8
1
 62
7
  6
CONTINUOUS
 10
105.562431
 20
68.644535
 11
105.562431
 21
64.991017
  0
LINE
  8
1
 62
7
  6
CONTINUOUS
 10
104.459350
 20
57.338502
 11
104.459350
 21
64.878601
  0
CIRCLE
  8
1
 62
7
  6
CONTINUOUS
 10
104.459350
 20
65.384473
 40
0.505872
  0
CIRCLE
  8
1
 62
7
  6
CONTINUOUS
 10
104.459350
 20
68.363495
 40
0.505872
  0
LINE
  8
1
 62
7
  6
CONTINUOUS
 10
104.459350
 20
68.869367
 11
104.459350
 21
77.300562
  0
CIRCLE
  8
1
 62
7
  6
CONTINUOUS
 10
109.459350
 20
77.300562
 40
0.500000
  0
CIRCLE
  8
1
 62
7
  6
CONTINUOUS
 10
109.459350
 20
77.300562
 40
0.250000
  0
CIRCLE
  8
1
 62
7
  6
CONTINUOUS
 10
114.459350
 20
77.300562
 40
0.500000
  0
CIRCLE
  8
1
 62
7
  6
CONTINUOUS
 10
114.459350
 20
77.300562
 40
0.250000
  0
CIRCLE
  8
1
 62
7
  6
CONTINUOUS
 10
119.459350
 20
77.300562
 40
0.500000
  0
CIRCLE
  8
1
 62
7
  6
CONTINUOUS
 10
119.459350
 20
77.300562
 40
0.250000
  0
CIRCLE
  8
1
 62
7
  6
CONTINUOUS
 10
124.459350
 20
77.300562
 40
0.500000
  0
CIRCLE
  8
1
 62
7
  6
CONTINUOUS
 10
124.459350
 20
77.300562
 40
0.250000
  0
CIRCLE
  8
1
 62
7
  6
CONTINUOUS
 10
129.459350
 20
77.300562
 40
0.500000
  0
CIRCLE
  8
1
 62
7
  6
CONTINUOUS
 10
129.459350
 20
77.300562
 40
0.250000
  0
CIRCLE
  8
1
 62
7
  6
CONTINUOUS
 10
134.459350
 20
77.300562
 40
0.500000
  0
CIRCLE
  8
1
 62
7
  6
CONTINUOUS
 10
134.459350
 20
77.300562
 40
0.250000
  0
TEXT
  8
1
 62
7
  6
CONTINUOUS
 10
293.499297
 20
52.035080
 40
2.000000
 41
0.500000
  1
10
  7
KANJI
 50
0.000000
 51
0.000000
  0
TEXT
  8
1
 62
7
  6
CONTINUOUS
 10
299.061377
 20
52.091288
 40
2.000000
 41
0.500000
  1
9
  7
KANJI
 50
0.000000
 51
0.000000
  0
TEXT
  8
1
 62
7
  6
CONTINUOUS
 10
304.061377
 20
52.091288
 40
2.000000
 41
0.500000
  1
8
  7
KANJI
 50
0.000000
 51
0.000000
  0
TEXT
  8
1
 62
7
  6
CONTINUOUS
 10
309.061377
 20
52.091288
 40
2.000000
 41
0.500000
  1
7
  7
KANJI
 50
0.000000
 51
0.000000
  0
TEXT
  8
1
 62
7
  6
CONTINUOUS
 10
314.061377
 20
52.091288
 40
2.000000
 41
0.500000
  1
6
  7
KANJI
 50
0.000000
 51
0.000000
  0
TEXT
  8
1
 62
7
  6
CONTINUOUS
 10
319.061377
 20
52.091288
 40
2.000000
 41
0.500000
  1
5
  7
KANJI
 50
0.000000
 51
0.000000
  0
TEXT
  8
1
 62
7
  6
CONTINUOUS
 10
324.061377
 20
52.091288
 40
2.000000
 41
0.500000
  1
4
  7
KANJI
 50
0.000000
 51
0.000000
  0
TEXT
  8
1
 62
7
  6
CONTINUOUS
 10
329.061377
 20
52.091288
 40
2.000000
 41
0.500000
  1
3
  7
KANJI
 50
0.000000
 51
0.000000
  0
TEXT
  8
1
 62
7
  6
CONTINUOUS
 10
334.061377
 20
52.091288
 40
2.000000
 41
0.500000
  1
2
  7
KANJI
 50
0.000000
 51
0.000000
  0
TEXT
  8
1
 62
7
  6
CONTINUOUS
 10
339.061377
 20
52.091288
 40
2.000000
 41
0.500000
  1
1
  7
KANJI
 50
0.000000
 51
0.000000
  0
CIRCLE
  8
1
 62
7
  6
CONTINUOUS
 10
339.459350
 20
56.338502
 40
1.000000
  0
LINE
  8
1
 62
7
  6
CONTINUOUS
 10
334.459350
 20
68.869367
 11
334.459350
 21
77.300562
  0
LINE
  8
1
 62
7
  6
CONTINUOUS
 10
334.459350
 20
57.338502
 11
334.459350
 21
64.878601
  0
CIRCLE
  8
1
 62
7
  6
CONTINUOUS
 10
334.459350
 20
56.338502
 40
1.000000
  0
LINE
  8
1
 62
7
  6
CONTINUOUS
 10
329.459350
 20
68.869367
 11
329.459350
 21
77.300562
  0
LINE
  8
1
 62
7
  6
CONTINUOUS
 10
329.459350
 20
57.338502
 11
329.459350
 21
64.878601
  0
CIRCLE
  8
1
 62
7
  6
CONTINUOUS
 10
329.459350
 20
56.338502
 40
1.000000
  0
LINE
  8
1
 62
7
  6
CONTINUOUS
 10
324.459350
 20
68.869367
 11
324.459350
 21
77.300562
  0
LINE
  8
1
 62
7
  6
CONTINUOUS
 10
324.459350
 20
57.338502
 11
324.459350
 21
64.878601
  0
CIRCLE
  8
1
 62
7
  6
CONTINUOUS
 10
324.459350
 20
56.338502
 40
1.000000
  0
LINE
  8
1
 62
7
  6
CONTINUOUS
 10
319.459350
 20
68.869367
 11
319.459350
 21
77.300562
  0
LINE
  8
1
 62
7
  6
CONTINUOUS
 10
319.459350
 20
57.338502
 11
319.459350
 21
64.878601
  0
CIRCLE
  8
1
 62
7
  6
CONTINUOUS
 10
319.459350
 20
56.338502
 40
1.000000
  0
LINE
  8
1
 62
7
  6
CONTINUOUS
 10
314.459350
 20
68.869367
 11
314.459350
 21
77.300562
  0
LINE
  8
1
 62
7
  6
CONTINUOUS
 10
314.459350
 20
57.338502
 11
314.459350
 21
64.878601
  0
CIRCLE
  8
1
 62
7
  6
CONTINUOUS
 10
314.459350
 20
56.338502
 40
1.000000
  0
LINE
  8
1
 62
7
  6
CONTINUOUS
 10
309.459350
 20
68.869367
 11
309.459350
 21
77.300562
  0
LINE
  8
1
 62
7
  6
CONTINUOUS
 10
309.459350
 20
57.338502
 11
309.459350
 21
64.878601
  0
CIRCLE
  8
1
 62
7
  6
CONTINUOUS
 10
309.459350
 20
56.338502
 40
1.000000
  0
LINE
  8
1
 62
7
  6
CONTINUOUS
 10
304.459350
 20
68.869367
 11
304.459350
 21
77.300562
  0
LINE
  8
1
 62
7
  6
CONTINUOUS
 10
304.459350
 20
57.338502
 11
304.459350
 21
64.878601
  0
CIRCLE
  8
1
 62
7
  6
CONTINUOUS
 10
304.459350
 20
56.338502
 40
1.000000
  0
LINE
  8
1
 62
7
  6
CONTINUOUS
 10
299.459350
 20
68.869367
 11
299.459350
 21
77.300562
  0
LINE
  8
1
 62
7
  6
CONTINUOUS
 10
299.459350
 20
57.338502
 11
299.459350
 21
64.878601
  0
CIRCLE
  8
1
 62
7
  6
CONTINUOUS
 10
299.459350
 20
56.338502
 40
1.000000
  0
LINE
  8
1
 62
7
  6
CONTINUOUS
 10
294.459350
 20
68.869367
 11
294.459350
 21
77.300562
  0
LINE
  8
1
 62
7
  6
CONTINUOUS
 10
294.459350
 20
57.338502
 11
294.459350
 21
64.878601
  0
CIRCLE
  8
1
 62
7
  6
CONTINUOUS
 10
294.459350
 20
56.338502
 40
1.000000
  0
CIRCLE
  8
1
 62
7
  6
CONTINUOUS
 10
294.459350
 20
77.300562
 40
0.500000
  0
CIRCLE
  8
1
 62
7
  6
CONTINUOUS
 10
294.459350
 20
77.300562
 40
0.250000
  0
CIRCLE
  8
1
 62
7
  6
CONTINUOUS
 10
299.459350
 20
77.300562
 40
0.500000
  0
CIRCLE
  8
1
 62
7
  6
CONTINUOUS
 10
299.459350
 20
77.300562
 40
0.250000
  0
CIRCLE
  8
1
 62
7
  6
CONTINUOUS
 10
304.459350
 20
77.300562
 40
0.500000
  0
CIRCLE
  8
1
 62
7
  6
CONTINUOUS
 10
304.459350
 20
77.300562
 40
0.250000
  0
CIRCLE
  8
1
 62
7
  6
CONTINUOUS
 10
309.459350
 20
77.300562
 40
0.500000
  0
CIRCLE
  8
1
 62
7
  6
CONTINUOUS
 10
309.459350
 20
77.300562
 40
0.250000
  0
CIRCLE
  8
1
 62
7
  6
CONTINUOUS
 10
314.459350
 20
77.300562
 40
0.500000
  0
CIRCLE
  8
1
 62
7
  6
CONTINUOUS
 10
314.459350
 20
77.300562
 40
0.250000
  0
CIRCLE
  8
1
 62
7
  6
CONTINUOUS
 10
319.459350
 20
77.300562
 40
0.500000
  0
CIRCLE
  8
1
 62
7
  6
CONTINUOUS
 10
319.459350
 20
77.300562
 40
0.250000
  0
CIRCLE
  8
1
 62
7
  6
CONTINUOUS
 10
324.459350
 20
77.300562
 40
0.500000
  0
CIRCLE
  8
1
 62
7
  6
CONTINUOUS
 10
324.459350
 20
77.300562
 40
0.250000
  0
CIRCLE
  8
1
 62
7
  6
CONTINUOUS
 10
329.459350
 20
77.300562
 40
0.500000
  0
CIRCLE
  8
1
 62
7
  6
CONTINUOUS
 10
329.459350
 20
77.300562
 40
0.250000
  0
CIRCLE
  8
1
 62
7
  6
CONTINUOUS
 10
334.459350
 20
77.300562
 40
0.500000
  0
CIRCLE
  8
1
 62
7
  6
CONTINUOUS
 10
334.459350
 20
77.300562
 40
0.250000
  0
LINE
  8
1
 62
7
  6
CONTINUOUS
 10
295.603965
 20
67.656050
 11
294.445405
 21
65.589429
  0
LINE
  8
1
 62
7
  6
CONTINUOUS
 10
295.639750
 20
67.700782
 11
293.357415
 21
67.700782
  0
LINE
  8
1
 62
7
  6
CONTINUOUS
 10
294.476717
 20
65.558117
 11
293.357415
 21
67.700782
  0
CIRCLE
  8
1
 62
7
  6
CONTINUOUS
 10
294.452711
 20
66.858659
 40
2.010718
  0
LINE
  8
1
 62
7
  6
CONTINUOUS
 10
295.447403
 20
65.589429
 11
293.412095
 21
65.589429
  0
LINE
  8
1
 62
7
  6
CONTINUOUS
 10
294.459350
 20
63.829633
 11
294.459350
 21
65.589429
  0
LINE
  8
1
 62
7
  6
CONTINUOUS
 10
294.459350
 20
67.713751
 11
294.459350
 21
69.750085
  0
LINE
  8
1
 62
7
  6
CONTINUOUS
 10
300.603965
 20
67.656050
 11
299.445405
 21
65.589429
  0
LINE
  8
1
 62
7
  6
CONTINUOUS
 10
300.639750
 20
67.700782
 11
298.357415
 21
67.700782
  0
LINE
  8
1
 62
7
  6
CONTINUOUS
 10
299.476717
 20
65.558117
 11
298.357415
 21
67.700782
  0
CIRCLE
  8
1
 62
7
  6
CONTINUOUS
 10
299.452711
 20
66.858659
 40
2.010718
  0
LINE
  8
1
 62
7
  6
CONTINUOUS
 10
300.447403
 20
65.589429
 11
298.412095
 21
65.589429
  0
LINE
  8
1
 62
7
  6
CONTINUOUS
 10
299.459350
 20
63.829633
 11
299.459350
 21
65.589429
  0
LINE
  8
1
 62
7
  6
CONTINUOUS
 10
299.459350
 20
67.713751
 11
299.459350
 21
69.750085
  0
LINE
  8
1
 62
7
  6
CONTINUOUS
 10
305.603965
 20
67.656050
 11
304.445405
 21
65.589429
  0
LINE
  8
1
 62
7
  6
CONTINUOUS
 10
305.639750
 20
67.700782
 11
303.357415
 21
67.700782
  0
LINE
  8
1
 62
7
  6
CONTINUOUS
 10
304.476717
 20
65.558117
 11
303.357415
 21
67.700782
  0
CIRCLE
  8
1
 62
7
  6
CONTINUOUS
 10
304.452711
 20
66.858659
 40
2.010718
  0
LINE
  8
1
 62
7
  6
CONTINUOUS
 10
305.447403
 20
65.589429
 11
303.412095
 21
65.589429
  0
LINE
  8
1
 62
7
  6
CONTINUOUS
 10
304.459350
 20
63.829633
 11
304.459350
 21
65.589429
  0
LINE
  8
1
 62
7
  6
CONTINUOUS
 10
304.459350
 20
67.713751
 11
304.459350
 21
69.750085
  0
LINE
  8
1
 62
7
  6
CONTINUOUS
 10
310.603965
 20
67.656050
 11
309.445405
 21
65.589429
  0
LINE
  8
1
 62
7
  6
CONTINUOUS
 10
310.639750
 20
67.700782
 11
308.357415
 21
67.700782
  0
LINE
  8
1
 62
7
  6
CONTINUOUS
 10
309.476717
 20
65.558117
 11
308.357415
 21
67.700782
  0
CIRCLE
  8
1
 62
7
  6
CONTINUOUS
 10
309.452711
 20
66.858659
 40
2.010718
  0
LINE
  8
1
 62
7
  6
CONTINUOUS
 10
310.447403
 20
65.589429
 11
308.412095
 21
65.589429
  0
LINE
  8
1
 62
7
  6
CONTINUOUS
 10
309.459350
 20
63.829633
 11
309.459350
 21
65.589429
  0
LINE
  8
1
 62
7
  6
CONTINUOUS
 10
309.459350
 20
67.713751
 11
309.459350
 21
69.750085
  0
LINE
  8
1
 62
7
  6
CONTINUOUS
 10
320.603965
 20
67.656050
 11
319.445405
 21
65.589429
  0
LINE
  8
1
 62
7
  6
CONTINUOUS
 10
320.639750
 20
67.700782
 11
318.357415
 21
67.700782
  0
LINE
  8
1
 62
7
  6
CONTINUOUS
 10
319.476717
 20
65.558117
 11
318.357415
 21
67.700782
  0
CIRCLE
  8
1
 62
7
  6
CONTINUOUS
 10
319.452711
 20
66.858659
 40
2.010718
  0
LINE
  8
1
 62
7
  6
CONTINUOUS
 10
320.447403
 20
65.589429
 11
318.412095
 21
65.589429
  0
LINE
  8
1
 62
7
  6
CONTINUOUS
 10
319.459350
 20
63.829633
 11
319.459350
 21
65.589429
  0
LINE
  8
1
 62
7
  6
CONTINUOUS
 10
319.459350
 20
67.713751
 11
319.459350
 21
69.750085
  0
LINE
  8
1
 62
7
  6
CONTINUOUS
 10
325.603965
 20
67.656050
 11
324.445405
 21
65.589429
  0
LINE
  8
1
 62
7
  6
CONTINUOUS
 10
325.639750
 20
67.700782
 11
323.357415
 21
67.700782
  0
LINE
  8
1
 62
7
  6
CONTINUOUS
 10
324.476717
 20
65.558117
 11
323.357415
 21
67.700782
  0
CIRCLE
  8
1
 62
7
  6
CONTINUOUS
 10
324.452711
 20
66.858659
 40
2.010718
  0
LINE
  8
1
 62
7
  6
CONTINUOUS
 10
325.447403
 20
65.589429
 11
323.412095
 21
65.589429
  0
LINE
  8
1
 62
7
  6
CONTINUOUS
 10
324.459350
 20
63.829633
 11
324.459350
 21
65.589429
  0
LINE
  8
1
 62
7
  6
CONTINUOUS
 10
324.459350
 20
67.713751
 11
324.459350
 21
69.750085
  0
LINE
  8
1
 62
7
  6
CONTINUOUS
 10
330.603965
 20
67.656050
 11
329.445405
 21
65.589429
  0
LINE
  8
1
 62
7
  6
CONTINUOUS
 10
330.639750
 20
67.700782
 11
328.357415
 21
67.700782
  0
LINE
  8
1
 62
7
  6
CONTINUOUS
 10
329.476717
 20
65.558117
 11
328.357415
 21
67.700782
  0
CIRCLE
  8
1
 62
7
  6
CONTINUOUS
 10
329.452711
 20
66.858659
 40
2.010718
  0
LINE
  8
1
 62
7
  6
CONTINUOUS
 10
330.447403
 20
65.589429
 11
328.412095
 21
65.589429
  0
LINE
  8
1
 62
7
  6
CONTINUOUS
 10
329.459350
 20
63.829633
 11
329.459350
 21
65.589429
  0
LINE
  8
1
 62
7
  6
CONTINUOUS
 10
329.459350
 20
67.713751
 11
329.459350
 21
69.750085
  0
LINE
  8
1
 62
7
  6
CONTINUOUS
 10
335.603965
 20
67.656050
 11
334.445405
 21
65.589429
  0
LINE
  8
1
 62
7
  6
CONTINUOUS
 10
335.639750
 20
67.700782
 11
333.357415
 21
67.700782
  0
LINE
  8
1
 62
7
  6
CONTINUOUS
 10
334.476717
 20
65.558117
 11
333.357415
 21
67.700782
  0
CIRCLE
  8
1
 62
7
  6
CONTINUOUS
 10
334.452711
 20
66.858659
 40
2.010718
  0
LINE
  8
1
 62
7
  6
CONTINUOUS
 10
335.447403
 20
65.589429
 11
333.412095
 21
65.589429
  0
LINE
  8
1
 62
7
  6
CONTINUOUS
 10
334.459350
 20
63.829633
 11
334.459350
 21
65.589429
  0
LINE
  8
1
 62
7
  6
CONTINUOUS
 10
334.459350
 20
67.713751
 11
334.459350
 21
69.750085
  0
LINE
  8
1
 62
7
  6
CONTINUOUS
 10
315.603965
 20
67.740362
 11
314.445405
 21
65.673741
  0
LINE
  8
1
 62
7
  6
CONTINUOUS
 10
315.639750
 20
67.785094
 11
313.357415
 21
67.785094
  0
LINE
  8
1
 62
7
  6
CONTINUOUS
 10
314.476717
 20
65.642429
 11
313.357415
 21
67.785094
  0
CIRCLE
  8
1
 62
7
  6
CONTINUOUS
 10
314.452711
 20
66.942971
 40
2.010718
  0
LINE
  8
1
 62
7
  6
CONTINUOUS
 10
315.447403
 20
65.673741
 11
313.412095
 21
65.673741
  0
LINE
  8
1
 62
7
  6
CONTINUOUS
 10
314.459350
 20
63.913945
 11
314.459350
 21
65.673741
  0
LINE
  8
1
 62
7
  6
CONTINUOUS
 10
314.459350
 20
67.798063
 11
314.459350
 21
69.834397
  0
LINE
  8
1
 62
7
  6
CONTINUOUS
 10
292.610509
 20
58.038794
 11
292.610509
 21
54.666315
  0
LINE
  8
1
 62
7
  6
CONTINUOUS
 10
292.610509
 20
54.666315
 11
341.720717
 21
54.666315
  0
LINE
  8
1
 62
7
  6
CONTINUOUS
 10
341.720717
 20
54.666315
 11
341.720717
 21
58.038794
  0
LINE
  8
1
 62
7
  6
CONTINUOUS
 10
341.720717
 20
58.038794
 11
292.610509
 21
58.038794
  0
TEXT
  8
1
 62
7
  6
CONTINUOUS
 10
238.499297
 20
52.035080
 40
2.000000
 41
0.500000
  1
10
  7
KANJI
 50
0.000000
 51
0.000000
  0
TEXT
  8
1
 62
7
  6
CONTINUOUS
 10
244.061377
 20
52.091288
 40
2.000000
 41
0.500000
  1
9
  7
KANJI
 50
0.000000
 51
0.000000
  0
TEXT
  8
1
 62
7
  6
CONTINUOUS
 10
249.061377
 20
52.091288
 40
2.000000
 41
0.500000
  1
8
  7
KANJI
 50
0.000000
 51
0.000000
  0
TEXT
  8
1
 62
7
  6
CONTINUOUS
 10
254.061377
 20
52.091288
 40
2.000000
 41
0.500000
  1
7
  7
KANJI
 50
0.000000
 51
0.000000
  0
TEXT
  8
1
 62
7
  6
CONTINUOUS
 10
259.061377
 20
52.091288
 40
2.000000
 41
0.500000
  1
6
  7
KANJI
 50
0.000000
 51
0.000000
  0
TEXT
  8
1
 62
7
  6
CONTINUOUS
 10
264.061377
 20
52.091288
 40
2.000000
 41
0.500000
  1
5
  7
KANJI
 50
0.000000
 51
0.000000
  0
TEXT
  8
1
 62
7
  6
CONTINUOUS
 10
269.061377
 20
52.091288
 40
2.000000
 41
0.500000
  1
4
  7
KANJI
 50
0.000000
 51
0.000000
  0
TEXT
  8
1
 62
7
  6
CONTINUOUS
 10
274.061377
 20
52.091288
 40
2.000000
 41
0.500000
  1
3
  7
KANJI
 50
0.000000
 51
0.000000
  0
TEXT
  8
1
 62
7
  6
CONTINUOUS
 10
279.061377
 20
52.091288
 40
2.000000
 41
0.500000
  1
2
  7
KANJI
 50
0.000000
 51
0.000000
  0
TEXT
  8
1
 62
7
  6
CONTINUOUS
 10
284.061377
 20
52.091288
 40
2.000000
 41
0.500000
  1
1
  7
KANJI
 50
0.000000
 51
0.000000
  0
CIRCLE
  8
1
 62
7
  6
CONTINUOUS
 10
284.459350
 20
56.338502
 40
1.000000
  0
CIRCLE
  8
1
 62
7
  6
CONTINUOUS
 10
279.459350
 20
56.338502
 40
1.000000
  0
CIRCLE
  8
1
 62
7
  6
CONTINUOUS
 10
274.459350
 20
56.338502
 40
1.000000
  0
CIRCLE
  8
1
 62
7
  6
CONTINUOUS
 10
269.459350
 20
56.338502
 40
1.000000
  0
CIRCLE
  8
1
 62
7
  6
CONTINUOUS
 10
264.459350
 20
56.338502
 40
1.000000
  0
CIRCLE
  8
1
 62
7
  6
CONTINUOUS
 10
259.459350
 20
56.338502
 40
1.000000
  0
CIRCLE
  8
1
 62
7
  6
CONTINUOUS
 10
254.459350
 20
56.338502
 40
1.000000
  0
CIRCLE
  8
1
 62
7
  6
CONTINUOUS
 10
249.459350
 20
56.338502
 40
1.000000
  0
CIRCLE
  8
1
 62
7
  6
CONTINUOUS
 10
244.459350
 20
56.338502
 40
1.000000
  0
CIRCLE
  8
1
 62
7
  6
CONTINUOUS
 10
239.459350
 20
56.338502
 40
1.000000
  0
TEXT
  8
1
 62
7
  6
CONTINUOUS
 10
313.126016
 20
46.663706
 40
3.000000
 41
0.500000
  1
J2-1
  7
KANJI
 50
0.000000
 51
0.000000
  0
TEXT
  8
1
 62
7
  6
CONTINUOUS
 10
259.060976
 20
46.948259
 40
3.000000
 41
0.500000
  1
J2-2
  7
KANJI
 50
0.000000
 51
0.000000
  0
LINE
  8
1
 62
7
  6
CONTINUOUS
 10
279.459350
 20
57.338502
 11
279.459350
 21
64.878601
  0
LINE
  8
1
 62
7
  6
CONTINUOUS
 10
280.603965
 20
67.656050
 11
279.445405
 21
65.589429
  0
LINE
  8
1
 62
7
  6
CONTINUOUS
 10
280.639750
 20
67.700782
 11
278.357415
 21
67.700782
  0
LINE
  8
1
 62
7
  6
CONTINUOUS
 10
279.476717
 20
65.558117
 11
278.357415
 21
67.700782
  0
CIRCLE
  8
1
 62
7
  6
CONTINUOUS
 10
279.452711
 20
66.858659
 40
2.010718
  0
LINE
  8
1
 62
7
  6
CONTINUOUS
 10
280.447403
 20
65.589429
 11
278.412095
 21
65.589429
  0
LINE
  8
1
 62
7
  6
CONTINUOUS
 10
279.459350
 20
63.829633
 11
279.459350
 21
65.589429
  0
LINE
  8
1
 62
7
  6
CONTINUOUS
 10
279.459350
 20
67.713751
 11
279.459350
 21
69.750085
  0
LINE
  8
1
 62
7
  6
CONTINUOUS
 10
279.459350
 20
68.869367
 11
279.459350
 21
77.300562
  0
LINE
  8
1
 62
7
  6
CONTINUOUS
 10
274.459350
 20
57.338502
 11
274.459350
 21
64.878601
  0
LINE
  8
1
 62
7
  6
CONTINUOUS
 10
275.603965
 20
67.656050
 11
274.445405
 21
65.589429
  0
LINE
  8
1
 62
7
  6
CONTINUOUS
 10
275.639750
 20
67.700782
 11
273.357415
 21
67.700782
  0
LINE
  8
1
 62
7
  6
CONTINUOUS
 10
274.476717
 20
65.558117
 11
273.357415
 21
67.700782
  0
CIRCLE
  8
1
 62
7
  6
CONTINUOUS
 10
274.452711
 20
66.858659
 40
2.010718
  0
LINE
  8
1
 62
7
  6
CONTINUOUS
 10
275.447403
 20
65.589429
 11
273.412095
 21
65.589429
  0
LINE
  8
1
 62
7
  6
CONTINUOUS
 10
274.459350
 20
63.829633
 11
274.459350
 21
65.589429
  0
LINE
  8
1
 62
7
  6
CONTINUOUS
 10
274.459350
 20
67.713751
 11
274.459350
 21
69.750085
  0
LINE
  8
1
 62
7
  6
CONTINUOUS
 10
274.459350
 20
68.869367
 11
274.459350
 21
77.300562
  0
LINE
  8
1
 62
7
  6
CONTINUOUS
 10
269.459350
 20
57.338502
 11
269.459350
 21
64.878601
  0
LINE
  8
1
 62
7
  6
CONTINUOUS
 10
270.603965
 20
67.656050
 11
269.445405
 21
65.589429
  0
LINE
  8
1
 62
7
  6
CONTINUOUS
 10
270.639750
 20
67.700782
 11
268.357415
 21
67.700782
  0
LINE
  8
1
 62
7
  6
CONTINUOUS
 10
269.476717
 20
65.558117
 11
268.357415
 21
67.700782
  0
CIRCLE
  8
1
 62
7
  6
CONTINUOUS
 10
269.452711
 20
66.858659
 40
2.010718
  0
LINE
  8
1
 62
7
  6
CONTINUOUS
 10
270.447403
 20
65.589429
 11
268.412095
 21
65.589429
  0
LINE
  8
1
 62
7
  6
CONTINUOUS
 10
269.459350
 20
63.829633
 11
269.459350
 21
65.589429
  0
LINE
  8
1
 62
7
  6
CONTINUOUS
 10
269.459350
 20
67.713751
 11
269.459350
 21
69.750085
  0
LINE
  8
1
 62
7
  6
CONTINUOUS
 10
269.459350
 20
68.869367
 11
269.459350
 21
77.300562
  0
LINE
  8
1
 62
7
  6
CONTINUOUS
 10
264.459350
 20
57.338502
 11
264.459350
 21
64.878601
  0
LINE
  8
1
 62
7
  6
CONTINUOUS
 10
265.603965
 20
67.656050
 11
264.445405
 21
65.589429
  0
LINE
  8
1
 62
7
  6
CONTINUOUS
 10
265.639750
 20
67.700782
 11
263.357415
 21
67.700782
  0
LINE
  8
1
 62
7
  6
CONTINUOUS
 10
264.476717
 20
65.558117
 11
263.357415
 21
67.700782
  0
CIRCLE
  8
1
 62
7
  6
CONTINUOUS
 10
264.452711
 20
66.858659
 40
2.010718
  0
LINE
  8
1
 62
7
  6
CONTINUOUS
 10
265.447403
 20
65.589429
 11
263.412095
 21
65.589429
  0
LINE
  8
1
 62
7
  6
CONTINUOUS
 10
264.459350
 20
63.829633
 11
264.459350
 21
65.589429
  0
LINE
  8
1
 62
7
  6
CONTINUOUS
 10
264.459350
 20
67.713751
 11
264.459350
 21
69.750085
  0
LINE
  8
1
 62
7
  6
CONTINUOUS
 10
264.459350
 20
68.869367
 11
264.459350
 21
77.300562
  0
LINE
  8
1
 62
7
  6
CONTINUOUS
 10
259.459350
 20
57.338502
 11
259.459350
 21
64.878601
  0
LINE
  8
1
 62
7
  6
CONTINUOUS
 10
260.603965
 20
67.656050
 11
259.445405
 21
65.589429
  0
LINE
  8
1
 62
7
  6
CONTINUOUS
 10
260.639750
 20
67.700782
 11
258.357415
 21
67.700782
  0
LINE
  8
1
 62
7
  6
CONTINUOUS
 10
259.476717
 20
65.558117
 11
258.357415
 21
67.700782
  0
CIRCLE
  8
1
 62
7
  6
CONTINUOUS
 10
259.452711
 20
66.858659
 40
2.010718
  0
LINE
  8
1
 62
7
  6
CONTINUOUS
 10
260.447403
 20
65.589429
 11
258.412095
 21
65.589429
  0
LINE
  8
1
 62
7
  6
CONTINUOUS
 10
259.459350
 20
63.829633
 11
259.459350
 21
65.589429
  0
LINE
  8
1
 62
7
  6
CONTINUOUS
 10
259.459350
 20
67.713751
 11
259.459350
 21
69.750085
  0
LINE
  8
1
 62
7
  6
CONTINUOUS
 10
259.459350
 20
68.869367
 11
259.459350
 21
77.300562
  0
LINE
  8
1
 62
7
  6
CONTINUOUS
 10
254.459350
 20
57.338502
 11
254.459350
 21
64.878601
  0
LINE
  8
1
 62
7
  6
CONTINUOUS
 10
255.603965
 20
67.656050
 11
254.445405
 21
65.589429
  0
LINE
  8
1
 62
7
  6
CONTINUOUS
 10
255.639750
 20
67.700782
 11
253.357415
 21
67.700782
  0
LINE
  8
1
 62
7
  6
CONTINUOUS
 10
254.476717
 20
65.558117
 11
253.357415
 21
67.700782
  0
CIRCLE
  8
1
 62
7
  6
CONTINUOUS
 10
254.452711
 20
66.858659
 40
2.010718
  0
LINE
  8
1
 62
7
  6
CONTINUOUS
 10
255.447403
 20
65.589429
 11
253.412095
 21
65.589429
  0
LINE
  8
1
 62
7
  6
CONTINUOUS
 10
254.459350
 20
63.829633
 11
254.459350
 21
65.589429
  0
LINE
  8
1
 62
7
  6
CONTINUOUS
 10
254.459350
 20
67.713751
 11
254.459350
 21
69.750085
  0
LINE
  8
1
 62
7
  6
CONTINUOUS
 10
254.459350
 20
68.869367
 11
254.459350
 21
77.300562
  0
CIRCLE
  8
1
 62
7
  6
CONTINUOUS
 10
259.459350
 20
77.300562
 40
0.500000
  0
CIRCLE
  8
1
 62
7
  6
CONTINUOUS
 10
259.459350
 20
77.300562
 40
0.250000
  0
CIRCLE
  8
1
 62
7
  6
CONTINUOUS
 10
264.459350
 20
77.300562
 40
0.500000
  0
CIRCLE
  8
1
 62
7
  6
CONTINUOUS
 10
264.459350
 20
77.300562
 40
0.250000
  0
CIRCLE
  8
1
 62
7
  6
CONTINUOUS
 10
269.459350
 20
77.300562
 40
0.500000
  0
CIRCLE
  8
1
 62
7
  6
CONTINUOUS
 10
269.459350
 20
77.300562
 40
0.250000
  0
CIRCLE
  8
1
 62
7
  6
CONTINUOUS
 10
274.459350
 20
77.300562
 40
0.500000
  0
CIRCLE
  8
1
 62
7
  6
CONTINUOUS
 10
274.459350
 20
77.300562
 40
0.250000
  0
CIRCLE
  8
1
 62
7
  6
CONTINUOUS
 10
279.459350
 20
77.300562
 40
0.500000
  0
CIRCLE
  8
1
 62
7
  6
CONTINUOUS
 10
279.459350
 20
77.300562
 40
0.250000
  0
CIRCLE
  8
1
 62
7
  6
CONTINUOUS
 10
284.459350
 20
77.300562
 40
0.500000
  0
CIRCLE
  8
1
 62
7
  6
CONTINUOUS
 10
284.459350
 20
77.300562
 40
0.250000
  0
CIRCLE
  8
1
 62
7
  6
CONTINUOUS
 10
234.459350
 20
56.338502
 40
1.000000
  0
CIRCLE
  8
1
 62
7
  6
CONTINUOUS
 10
229.459350
 20
56.338502
 40
1.000000
  0
CIRCLE
  8
1
 62
7
  6
CONTINUOUS
 10
224.459350
 20
56.338502
 40
1.000000
  0
CIRCLE
  8
1
 62
7
  6
CONTINUOUS
 10
219.459350
 20
56.338502
 40
1.000000
  0
CIRCLE
  8
1
 62
7
  6
CONTINUOUS
 10
214.459350
 20
56.338502
 40
1.000000
  0
CIRCLE
  8
1
 62
7
  6
CONTINUOUS
 10
84.459350
 20
56.338502
 40
1.000000
  0
CIRCLE
  8
1
 62
7
  6
CONTINUOUS
 10
79.459350
 20
56.338502
 40
1.000000
  0
CIRCLE
  8
1
 62
7
  6
CONTINUOUS
 10
74.459350
 20
56.338502
 40
1.000000
  0
CIRCLE
  8
1
 62
7
  6
CONTINUOUS
 10
69.459350
 20
56.338502
 40
1.000000
  0
CIRCLE
  8
1
 62
7
  6
CONTINUOUS
 10
64.459350
 20
56.338502
 40
1.000000
  0
LINE
  8
1
 62
7
  6
CONTINUOUS
 10
62.610509
 20
58.038794
 11
62.610509
 21
54.666315
  0
LINE
  8
1
 62
7
  6
CONTINUOUS
 10
62.610509
 20
54.666315
 11
136.720717
 21
54.666315
  0
LINE
  8
1
 62
7
  6
CONTINUOUS
 10
136.720717
 20
54.666315
 11
136.720717
 21
58.038794
  0
LINE
  8
1
 62
7
  6
CONTINUOUS
 10
136.720717
 20
58.038794
 11
62.610509
 21
58.038794
  0
LINE
  8
1
 62
7
  6
CONTINUOUS
 10
212.610509
 20
58.038794
 11
212.610509
 21
54.666315
  0
LINE
  8
1
 62
7
  6
CONTINUOUS
 10
212.610509
 20
54.666315
 11
286.720717
 21
54.666315
  0
LINE
  8
1
 62
7
  6
CONTINUOUS
 10
286.720717
 20
54.666315
 11
286.720717
 21
58.038794
  0
LINE
  8
1
 62
7
  6
CONTINUOUS
 10
286.720717
 20
58.038794
 11
212.610509
 21
58.038794
  0
LINE
  8
1
 62
7
  6
CONTINUOUS
 10
249.459350
 20
57.338502
 11
249.459350
 21
64.878601
  0
LINE
  8
1
 62
7
  6
CONTINUOUS
 10
250.603965
 20
67.656050
 11
249.445405
 21
65.589429
  0
LINE
  8
1
 62
7
  6
CONTINUOUS
 10
250.639750
 20
67.700782
 11
248.357415
 21
67.700782
  0
LINE
  8
1
 62
7
  6
CONTINUOUS
 10
249.476717
 20
65.558117
 11
248.357415
 21
67.700782
  0
CIRCLE
  8
1
 62
7
  6
CONTINUOUS
 10
249.452711
 20
66.858659
 40
2.010718
  0
LINE
  8
1
 62
7
  6
CONTINUOUS
 10
250.447403
 20
65.589429
 11
248.412095
 21
65.589429
  0
LINE
  8
1
 62
7
  6
CONTINUOUS
 10
249.459350
 20
63.829633
 11
249.459350
 21
65.589429
  0
LINE
  8
1
 62
7
  6
CONTINUOUS
 10
249.459350
 20
67.713751
 11
249.459350
 21
69.750085
  0
LINE
  8
1
 62
7
  6
CONTINUOUS
 10
249.459350
 20
68.869367
 11
249.459350
 21
77.300562
  0
LINE
  8
1
 62
7
  6
CONTINUOUS
 10
244.459350
 20
57.338502
 11
244.459350
 21
64.878601
  0
LINE
  8
1
 62
7
  6
CONTINUOUS
 10
245.603965
 20
67.656050
 11
244.445405
 21
65.589429
  0
LINE
  8
1
 62
7
  6
CONTINUOUS
 10
245.639750
 20
67.700782
 11
243.357415
 21
67.700782
  0
LINE
  8
1
 62
7
  6
CONTINUOUS
 10
244.476717
 20
65.558117
 11
243.357415
 21
67.700782
  0
CIRCLE
  8
1
 62
7
  6
CONTINUOUS
 10
244.452711
 20
66.858659
 40
2.010718
  0
LINE
  8
1
 62
7
  6
CONTINUOUS
 10
245.447403
 20
65.589429
 11
243.412095
 21
65.589429
  0
LINE
  8
1
 62
7
  6
CONTINUOUS
 10
244.459350
 20
63.829633
 11
244.459350
 21
65.589429
  0
LINE
  8
1
 62
7
  6
CONTINUOUS
 10
244.459350
 20
67.713751
 11
244.459350
 21
69.750085
  0
LINE
  8
1
 62
7
  6
CONTINUOUS
 10
244.459350
 20
68.869367
 11
244.459350
 21
77.300562
  0
LINE
  8
1
 62
7
  6
CONTINUOUS
 10
239.459350
 20
57.338502
 11
239.459350
 21
64.878601
  0
LINE
  8
1
 62
7
  6
CONTINUOUS
 10
240.603965
 20
67.656050
 11
239.445405
 21
65.589429
  0
LINE
  8
1
 62
7
  6
CONTINUOUS
 10
240.639750
 20
67.700782
 11
238.357415
 21
67.700782
  0
LINE
  8
1
 62
7
  6
CONTINUOUS
 10
239.476717
 20
65.558117
 11
238.357415
 21
67.700782
  0
CIRCLE
  8
1
 62
7
  6
CONTINUOUS
 10
239.452711
 20
66.858659
 40
2.010718
  0
LINE
  8
1
 62
7
  6
CONTINUOUS
 10
240.447403
 20
65.589429
 11
238.412095
 21
65.589429
  0
LINE
  8
1
 62
7
  6
CONTINUOUS
 10
239.459350
 20
63.829633
 11
239.459350
 21
65.589429
  0
LINE
  8
1
 62
7
  6
CONTINUOUS
 10
239.459350
 20
67.713751
 11
239.459350
 21
69.750085
  0
LINE
  8
1
 62
7
  6
CONTINUOUS
 10
239.459350
 20
68.869367
 11
239.459350
 21
77.300562
  0
LINE
  8
1
 62
7
  6
CONTINUOUS
 10
234.459350
 20
57.338502
 11
234.459350
 21
64.878601
  0
LINE
  8
1
 62
7
  6
CONTINUOUS
 10
235.603965
 20
67.656050
 11
234.445405
 21
65.589429
  0
LINE
  8
1
 62
7
  6
CONTINUOUS
 10
235.639750
 20
67.700782
 11
233.357415
 21
67.700782
  0
LINE
  8
1
 62
7
  6
CONTINUOUS
 10
234.476717
 20
65.558117
 11
233.357415
 21
67.700782
  0
CIRCLE
  8
1
 62
7
  6
CONTINUOUS
 10
234.452711
 20
66.858659
 40
2.010718
  0
LINE
  8
1
 62
7
  6
CONTINUOUS
 10
235.447403
 20
65.589429
 11
233.412095
 21
65.589429
  0
LINE
  8
1
 62
7
  6
CONTINUOUS
 10
234.459350
 20
63.829633
 11
234.459350
 21
65.589429
  0
LINE
  8
1
 62
7
  6
CONTINUOUS
 10
234.459350
 20
67.713751
 11
234.459350
 21
69.750085
  0
LINE
  8
1
 62
7
  6
CONTINUOUS
 10
234.459350
 20
68.869367
 11
234.459350
 21
77.300562
  0
LINE
  8
1
 62
7
  6
CONTINUOUS
 10
229.459350
 20
57.338502
 11
229.459350
 21
64.878601
  0
LINE
  8
1
 62
7
  6
CONTINUOUS
 10
230.603965
 20
67.656050
 11
229.445405
 21
65.589429
  0
LINE
  8
1
 62
7
  6
CONTINUOUS
 10
230.639750
 20
67.700782
 11
228.357415
 21
67.700782
  0
LINE
  8
1
 62
7
  6
CONTINUOUS
 10
229.476717
 20
65.558117
 11
228.357415
 21
67.700782
  0
CIRCLE
  8
1
 62
7
  6
CONTINUOUS
 10
229.452711
 20
66.858659
 40
2.010718
  0
LINE
  8
1
 62
7
  6
CONTINUOUS
 10
230.447403
 20
65.589429
 11
228.412095
 21
65.589429
  0
LINE
  8
1
 62
7
  6
CONTINUOUS
 10
229.459350
 20
63.829633
 11
229.459350
 21
65.589429
  0
LINE
  8
1
 62
7
  6
CONTINUOUS
 10
229.459350
 20
67.713751
 11
229.459350
 21
69.750085
  0
LINE
  8
1
 62
7
  6
CONTINUOUS
 10
229.459350
 20
68.869367
 11
229.459350
 21
77.300562
  0
LINE
  8
1
 62
7
  6
CONTINUOUS
 10
224.459350
 20
57.338502
 11
224.459350
 21
64.878601
  0
LINE
  8
1
 62
7
  6
CONTINUOUS
 10
225.603965
 20
67.656050
 11
224.445405
 21
65.589429
  0
LINE
  8
1
 62
7
  6
CONTINUOUS
 10
225.639750
 20
67.700782
 11
223.357415
 21
67.700782
  0
LINE
  8
1
 62
7
  6
CONTINUOUS
 10
224.476717
 20
65.558117
 11
223.357415
 21
67.700782
  0
CIRCLE
  8
1
 62
7
  6
CONTINUOUS
 10
224.452711
 20
66.858659
 40
2.010718
  0
LINE
  8
1
 62
7
  6
CONTINUOUS
 10
225.447403
 20
65.589429
 11
223.412095
 21
65.589429
  0
LINE
  8
1
 62
7
  6
CONTINUOUS
 10
224.459350
 20
63.829633
 11
224.459350
 21
65.589429
  0
LINE
  8
1
 62
7
  6
CONTINUOUS
 10
224.459350
 20
67.713751
 11
224.459350
 21
69.750085
  0
LINE
  8
1
 62
7
  6
CONTINUOUS
 10
224.459350
 20
68.869367
 11
224.459350
 21
77.300562
  0
LINE
  8
1
 62
7
  6
CONTINUOUS
 10
219.459350
 20
57.338502
 11
219.459350
 21
64.878601
  0
LINE
  8
1
 62
7
  6
CONTINUOUS
 10
220.603965
 20
67.656050
 11
219.445405
 21
65.589429
  0
LINE
  8
1
 62
7
  6
CONTINUOUS
 10
220.639750
 20
67.700782
 11
218.357415
 21
67.700782
  0
LINE
  8
1
 62
7
  6
CONTINUOUS
 10
219.476717
 20
65.558117
 11
218.357415
 21
67.700782
  0
CIRCLE
  8
1
 62
7
  6
CONTINUOUS
 10
219.452711
 20
66.858659
 40
2.010718
  0
LINE
  8
1
 62
7
  6
CONTINUOUS
 10
220.447403
 20
65.589429
 11
218.412095
 21
65.589429
  0
LINE
  8
1
 62
7
  6
CONTINUOUS
 10
219.459350
 20
63.829633
 11
219.459350
 21
65.589429
  0
LINE
  8
1
 62
7
  6
CONTINUOUS
 10
219.459350
 20
67.713751
 11
219.459350
 21
69.750085
  0
LINE
  8
1
 62
7
  6
CONTINUOUS
 10
219.459350
 20
68.869367
 11
219.459350
 21
77.300562
  0
LINE
  8
1
 62
7
  6
CONTINUOUS
 10
214.459350
 20
57.338502
 11
214.459350
 21
64.878601
  0
LINE
  8
1
 62
7
  6
CONTINUOUS
 10
215.603965
 20
67.656050
 11
214.445405
 21
65.589429
  0
LINE
  8
1
 62
7
  6
CONTINUOUS
 10
215.639750
 20
67.700782
 11
213.357415
 21
67.700782
  0
LINE
  8
1
 62
7
  6
CONTINUOUS
 10
214.476717
 20
65.558117
 11
213.357415
 21
67.700782
  0
CIRCLE
  8
1
 62
7
  6
CONTINUOUS
 10
214.452711
 20
66.858659
 40
2.010718
  0
LINE
  8
1
 62
7
  6
CONTINUOUS
 10
215.447403
 20
65.589429
 11
213.412095
 21
65.589429
  0
LINE
  8
1
 62
7
  6
CONTINUOUS
 10
214.459350
 20
63.829633
 11
214.459350
 21
65.589429
  0
LINE
  8
1
 62
7
  6
CONTINUOUS
 10
214.459350
 20
67.713751
 11
214.459350
 21
69.750085
  0
LINE
  8
1
 62
7
  6
CONTINUOUS
 10
214.459350
 20
68.869367
 11
214.459350
 21
77.300562
  0
LINE
  8
1
 62
7
  6
CONTINUOUS
 10
100.562431
 20
66.677256
 11
101.293135
 21
66.677256
  0
LINE
  8
1
 62
7
  6
CONTINUOUS
 10
100.562431
 20
68.644535
 11
100.562431
 21
64.991017
  0
LINE
  8
1
 62
7
  6
CONTINUOUS
 10
99.459350
 20
57.338502
 11
99.459350
 21
64.878601
  0
CIRCLE
  8
1
 62
7
  6
CONTINUOUS
 10
99.459350
 20
65.384473
 40
0.505872
  0
CIRCLE
  8
1
 62
7
  6
CONTINUOUS
 10
99.459350
 20
68.363495
 40
0.505872
  0
LINE
  8
1
 62
7
  6
CONTINUOUS
 10
99.459350
 20
68.869367
 11
99.459350
 21
77.300562
  0
LINE
  8
1
 62
7
  6
CONTINUOUS
 10
95.562431
 20
66.677256
 11
96.293135
 21
66.677256
  0
LINE
  8
1
 62
7
  6
CONTINUOUS
 10
95.562431
 20
68.644535
 11
95.562431
 21
64.991017
  0
LINE
  8
1
 62
7
  6
CONTINUOUS
 10
94.459350
 20
57.338502
 11
94.459350
 21
64.878601
  0
CIRCLE
  8
1
 62
7
  6
CONTINUOUS
 10
94.459350
 20
65.384473
 40
0.505872
  0
CIRCLE
  8
1
 62
7
  6
CONTINUOUS
 10
94.459350
 20
68.363495
 40
0.505872
  0
LINE
  8
1
 62
7
  6
CONTINUOUS
 10
94.459350
 20
68.869367
 11
94.459350
 21
77.300562
  0
LINE
  8
1
 62
7
  6
CONTINUOUS
 10
90.562431
 20
66.677256
 11
91.293135
 21
66.677256
  0
LINE
  8
1
 62
7
  6
CONTINUOUS
 10
90.562431
 20
68.644535
 11
90.562431
 21
64.991017
  0
LINE
  8
1
 62
7
  6
CONTINUOUS
 10
89.459350
 20
57.338502
 11
89.459350
 21
64.878601
  0
CIRCLE
  8
1
 62
7
  6
CONTINUOUS
 10
89.459350
 20
65.384473
 40
0.505872
  0
CIRCLE
  8
1
 62
7
  6
CONTINUOUS
 10
89.459350
 20
68.363495
 40
0.505872
  0
LINE
  8
1
 62
7
  6
CONTINUOUS
 10
89.459350
 20
68.869367
 11
89.459350
 21
77.300562
  0
LINE
  8
1
 62
7
  6
CONTINUOUS
 10
85.562431
 20
66.677256
 11
86.293135
 21
66.677256
  0
LINE
  8
1
 62
7
  6
CONTINUOUS
 10
85.562431
 20
68.644535
 11
85.562431
 21
64.991017
  0
LINE
  8
1
 62
7
  6
CONTINUOUS
 10
84.459350
 20
57.338502
 11
84.459350
 21
64.878601
  0
CIRCLE
  8
1
 62
7
  6
CONTINUOUS
 10
84.459350
 20
65.384473
 40
0.505872
  0
CIRCLE
  8
1
 62
7
  6
CONTINUOUS
 10
84.459350
 20
68.363495
 40
0.505872
  0
LINE
  8
1
 62
7
  6
CONTINUOUS
 10
84.459350
 20
68.869367
 11
84.459350
 21
77.300562
  0
LINE
  8
1
 62
7
  6
CONTINUOUS
 10
80.562431
 20
66.677256
 11
81.293135
 21
66.677256
  0
LINE
  8
1
 62
7
  6
CONTINUOUS
 10
80.562431
 20
68.644535
 11
80.562431
 21
64.991017
  0
LINE
  8
1
 62
7
  6
CONTINUOUS
 10
79.459350
 20
57.338502
 11
79.459350
 21
64.878601
  0
CIRCLE
  8
1
 62
7
  6
CONTINUOUS
 10
79.459350
 20
65.384473
 40
0.505872
  0
CIRCLE
  8
1
 62
7
  6
CONTINUOUS
 10
79.459350
 20
68.363495
 40
0.505872
  0
LINE
  8
1
 62
7
  6
CONTINUOUS
 10
79.459350
 20
68.869367
 11
79.459350
 21
77.300562
  0
LINE
  8
1
 62
7
  6
CONTINUOUS
 10
75.562431
 20
66.677256
 11
76.293135
 21
66.677256
  0
LINE
  8
1
 62
7
  6
CONTINUOUS
 10
75.562431
 20
68.644535
 11
75.562431
 21
64.991017
  0
LINE
  8
1
 62
7
  6
CONTINUOUS
 10
74.459350
 20
57.338502
 11
74.459350
 21
64.878601
  0
CIRCLE
  8
1
 62
7
  6
CONTINUOUS
 10
74.459350
 20
65.384473
 40
0.505872
  0
CIRCLE
  8
1
 62
7
  6
CONTINUOUS
 10
74.459350
 20
68.363495
 40
0.505872
  0
LINE
  8
1
 62
7
  6
CONTINUOUS
 10
74.459350
 20
68.869367
 11
74.459350
 21
77.300562
  0
LINE
  8
1
 62
7
  6
CONTINUOUS
 10
70.562431
 20
66.677256
 11
71.293135
 21
66.677256
  0
LINE
  8
1
 62
7
  6
CONTINUOUS
 10
70.562431
 20
68.644535
 11
70.562431
 21
64.991017
  0
LINE
  8
1
 62
7
  6
CONTINUOUS
 10
69.459350
 20
57.338502
 11
69.459350
 21
64.878601
  0
CIRCLE
  8
1
 62
7
  6
CONTINUOUS
 10
69.459350
 20
65.384473
 40
0.505872
  0
CIRCLE
  8
1
 62
7
  6
CONTINUOUS
 10
69.459350
 20
68.363495
 40
0.505872
  0
LINE
  8
1
 62
7
  6
CONTINUOUS
 10
69.459350
 20
68.869367
 11
69.459350
 21
77.300562
  0
LINE
  8
1
 62
7
  6
CONTINUOUS
 10
65.562431
 20
66.677256
 11
66.293135
 21
66.677256
  0
LINE
  8
1
 62
7
  6
CONTINUOUS
 10
65.562431
 20
68.644535
 11
65.562431
 21
64.991017
  0
LINE
  8
1
 62
7
  6
CONTINUOUS
 10
64.459350
 20
57.338502
 11
64.459350
 21
64.878601
  0
CIRCLE
  8
1
 62
7
  6
CONTINUOUS
 10
64.459350
 20
65.384473
 40
0.505872
  0
CIRCLE
  8
1
 62
7
  6
CONTINUOUS
 10
64.459350
 20
68.363495
 40
0.505872
  0
LINE
  8
1
 62
7
  6
CONTINUOUS
 10
339.459350
 20
68.869367
 11
339.459350
 21
77.300562
  0
LINE
  8
1
 62
7
  6
CONTINUOUS
 10
339.459350
 20
57.338502
 11
339.459350
 21
64.878601
  0
LINE
  8
1
 62
7
  6
CONTINUOUS
 10
340.603965
 20
67.656050
 11
339.445405
 21
65.589429
  0
LINE
  8
1
 62
7
  6
CONTINUOUS
 10
340.639750
 20
67.700782
 11
338.357415
 21
67.700782
  0
LINE
  8
1
 62
7
  6
CONTINUOUS
 10
339.476717
 20
65.558117
 11
338.357415
 21
67.700782
  0
CIRCLE
  8
1
 62
7
  6
CONTINUOUS
 10
339.452711
 20
66.858659
 40
2.010718
  0
LINE
  8
1
 62
7
  6
CONTINUOUS
 10
340.447403
 20
65.589429
 11
338.412095
 21
65.589429
  0
LINE
  8
1
 62
7
  6
CONTINUOUS
 10
339.459350
 20
63.829633
 11
339.459350
 21
65.589429
  0
LINE
  8
1
 62
7
  6
CONTINUOUS
 10
339.459350
 20
67.713751
 11
339.459350
 21
69.750085
  0
LINE
  8
1
 62
7
  6
CONTINUOUS
 10
284.459350
 20
57.338502
 11
284.459350
 21
77.300562
  0
LINE
  8
1
 62
7
  6
CONTINUOUS
 10
214.459350
 20
77.300562
 11
339.459350
 21
77.300562
  0
TEXT
  8
1
 62
7
  6
CONTINUOUS
 10
231.123507
 20
69.614122
 40
2.000000
 41
0.500000
  1
10
  7
KANJI
 50
0.000000
 51
0.000000
  0
TEXT
  8
1
 62
7
  6
CONTINUOUS
 10
226.123507
 20
69.614122
 40
2.000000
 41
0.500000
  1
11
  7
KANJI
 50
0.000000
 51
0.000000
  0
TEXT
  8
1
 62
7
  6
CONTINUOUS
 10
221.123507
 20
69.614122
 40
2.000000
 41
0.500000
  1
12
  7
KANJI
 50
0.000000
 51
0.000000
  0
TEXT
  8
1
 62
7
  6
CONTINUOUS
 10
216.123507
 20
69.614122
 40
2.000000
 41
0.500000
  1
13
  7
KANJI
 50
0.000000
 51
0.000000
  0
TEXT
  8
1
 62
7
  6
CONTINUOUS
 10
211.123507
 20
69.614122
 40
2.000000
 41
0.500000
  1
14
  7
KANJI
 50
0.000000
 51
0.000000
  0
TEXT
  8
1
 62
7
  6
CONTINUOUS
 10
292.022533
 20
70.218358
 40
2.000000
 41
0.500000
  1
15
  7
KANJI
 50
0.000000
 51
0.000000
  0
TEXT
  8
1
 62
7
  6
CONTINUOUS
 10
297.022533
 20
70.218358
 40
2.000000
 41
0.500000
  1
16
  7
KANJI
 50
0.000000
 51
0.000000
  0
TEXT
  8
1
 62
7
  6
CONTINUOUS
 10
302.022533
 20
70.218358
 40
2.000000
 41
0.500000
  1
17
  7
KANJI
 50
0.000000
 51
0.000000
  0
TEXT
  8
1
 62
7
  6
CONTINUOUS
 10
307.022533
 20
70.218358
 40
2.000000
 41
0.500000
  1
18
  7
KANJI
 50
0.000000
 51
0.000000
  0
TEXT
  8
1
 62
7
  6
CONTINUOUS
 10
312.022533
 20
70.218358
 40
2.000000
 41
0.500000
  1
19
  7
KANJI
 50
0.000000
 51
0.000000
  0
TEXT
  8
1
 62
7
  6
CONTINUOUS
 10
317.022533
 20
70.218358
 40
2.000000
 41
0.500000
  1
20
  7
KANJI
 50
0.000000
 51
0.000000
  0
TEXT
  8
1
 62
7
  6
CONTINUOUS
 10
322.022533
 20
70.218358
 40
2.000000
 41
0.500000
  1
21
  7
KANJI
 50
0.000000
 51
0.000000
  0
TEXT
  8
1
 62
7
  6
CONTINUOUS
 10
327.022533
 20
70.218358
 40
2.000000
 41
0.500000
  1
22
  7
KANJI
 50
0.000000
 51
0.000000
  0
TEXT
  8
1
 62
7
  6
CONTINUOUS
 10
332.022533
 20
70.218358
 40
2.000000
 41
0.500000
  1
23
  7
KANJI
 50
0.000000
 51
0.000000
  0
TEXT
  8
1
 62
7
  6
CONTINUOUS
 10
337.022533
 20
70.218358
 40
2.000000
 41
0.500000
  1
24
  7
KANJI
 50
0.000000
 51
0.000000
  0
TEXT
  8
1
 62
7
  6
CONTINUOUS
 10
277.554401
 20
69.852605
 40
2.000000
 41
0.500000
  1
1
  7
KANJI
 50
0.000000
 51
0.000000
  0
TEXT
  8
1
 62
7
  6
CONTINUOUS
 10
272.554401
 20
69.852605
 40
2.000000
 41
0.500000
  1
2
  7
KANJI
 50
0.000000
 51
0.000000
  0
TEXT
  8
1
 62
7
  6
CONTINUOUS
 10
267.554401
 20
69.852605
 40
2.000000
 41
0.500000
  1
3
  7
KANJI
 50
0.000000
 51
0.000000
  0
TEXT
  8
1
 62
7
  6
CONTINUOUS
 10
262.554401
 20
69.852605
 40
2.000000
 41
0.500000
  1
4
  7
KANJI
 50
0.000000
 51
0.000000
  0
TEXT
  8
1
 62
7
  6
CONTINUOUS
 10
257.554401
 20
69.852605
 40
2.000000
 41
0.500000
  1
5
  7
KANJI
 50
0.000000
 51
0.000000
  0
TEXT
  8
1
 62
7
  6
CONTINUOUS
 10
252.554401
 20
69.852605
 40
2.000000
 41
0.500000
  1
6
  7
KANJI
 50
0.000000
 51
0.000000
  0
TEXT
  8
1
 62
7
  6
CONTINUOUS
 10
247.554401
 20
69.852605
 40
2.000000
 41
0.500000
  1
7
  7
KANJI
 50
0.000000
 51
0.000000
  0
TEXT
  8
1
 62
7
  6
CONTINUOUS
 10
242.554401
 20
69.852605
 40
2.000000
 41
0.500000
  1
8
  7
KANJI
 50
0.000000
 51
0.000000
  0
TEXT
  8
1
 62
7
  6
CONTINUOUS
 10
237.554401
 20
69.852605
 40
2.000000
 41
0.500000
  1
9
  7
KANJI
 50
0.000000
 51
0.000000
  0
TEXT
  8
1
 62
7
  6
CONTINUOUS
 10
233.499297
 20
52.035080
 40
2.000000
 41
0.500000
  1
11
  7
KANJI
 50
0.000000
 51
0.000000
  0
TEXT
  8
1
 62
7
  6
CONTINUOUS
 10
228.499297
 20
52.035080
 40
2.000000
 41
0.500000
  1
12
  7
KANJI
 50
0.000000
 51
0.000000
  0
TEXT
  8
1
 62
7
  6
CONTINUOUS
 10
223.499297
 20
52.035080
 40
2.000000
 41
0.500000
  1
13
  7
KANJI
 50
0.000000
 51
0.000000
  0
TEXT
  8
1
 62
7
  6
CONTINUOUS
 10
218.499297
 20
52.035080
 40
2.000000
 41
0.500000
  1
14
  7
KANJI
 50
0.000000
 51
0.000000
  0
TEXT
  8
1
 62
7
  6
CONTINUOUS
 10
213.499297
 20
52.035080
 40
2.000000
 41
0.500000
  1
15
  7
KANJI
 50
0.000000
 51
0.000000
  0
LINE
  8
1
 62
7
  6
CONTINUOUS
 10
64.459350
 20
77.300562
 11
189.459350
 21
77.300562
  0
LINE
  8
1
 62
7
  6
CONTINUOUS
 10
64.459350
 20
68.869367
 11
64.459350
 21
77.300562
  0
LINE
  8
1
 62
7
  6
CONTINUOUS
 10
134.459350
 20
57.338502
 11
134.459350
 21
77.300562
  0
TEXT
  8
1
 62
7
  6
CONTINUOUS
 10
83.255395
 20
52.035080
 40
2.000000
 41
0.500000
  1
11
  7
KANJI
 50
0.000000
 51
0.000000
  0
TEXT
  8
1
 62
7
  6
CONTINUOUS
 10
78.255395
 20
52.035080
 40
2.000000
 41
0.500000
  1
12
  7
KANJI
 50
0.000000
 51
0.000000
  0
TEXT
  8
1
 62
7
  6
CONTINUOUS
 10
73.255395
 20
52.035080
 40
2.000000
 41
0.500000
  1
13
  7
KANJI
 50
0.000000
 51
0.000000
  0
TEXT
  8
1
 62
7
  6
CONTINUOUS
 10
68.255395
 20
52.035080
 40
2.000000
 41
0.500000
  1
14
  7
KANJI
 50
0.000000
 51
0.000000
  0
TEXT
  8
1
 62
7
  6
CONTINUOUS
 10
63.255395
 20
52.035080
 40
2.000000
 41
0.500000
  1
15
  7
KANJI
 50
0.000000
 51
0.000000
  0
LINE
  8
1
 62
7
  6
CONTINUOUS
 10
190.562431
 20
66.677256
 11
191.293135
 21
66.677256
  0
LINE
  8
1
 62
7
  6
CONTINUOUS
 10
190.562431
 20
68.644535
 11
190.562431
 21
64.991017
  0
LINE
  8
1
 62
7
  6
CONTINUOUS
 10
189.459350
 20
68.869367
 11
189.459350
 21
77.300562
  0
LINE
  8
1
 62
7
  6
CONTINUOUS
 10
189.459350
 20
57.338502
 11
189.459350
 21
64.878601
  0
CIRCLE
  8
1
 62
7
  6
CONTINUOUS
 10
189.459350
 20
65.384473
 40
0.505872
  0
CIRCLE
  8
1
 62
7
  6
CONTINUOUS
 10
189.459350
 20
68.363495
 40
0.505872
  0
TEXT
  8
1
 62
7
  6
CONTINUOUS
 10
81.737780
 20
69.740590
 40
2.000000
 41
0.500000
  1
10
  7
KANJI
 50
0.000000
 51
0.000000
  0
TEXT
  8
1
 62
7
  6
CONTINUOUS
 10
76.737780
 20
69.740590
 40
2.000000
 41
0.500000
  1
11
  7
KANJI
 50
0.000000
 51
0.000000
  0
TEXT
  8
1
 62
7
  6
CONTINUOUS
 10
71.737780
 20
69.740590
 40
2.000000
 41
0.500000
  1
12
  7
KANJI
 50
0.000000
 51
0.000000
  0
TEXT
  8
1
 62
7
  6
CONTINUOUS
 10
66.737780
 20
69.740590
 40
2.000000
 41
0.500000
  1
13
  7
KANJI
 50
0.000000
 51
0.000000
  0
TEXT
  8
1
 62
7
  6
CONTINUOUS
 10
61.737780
 20
69.740590
 40
2.000000
 41
0.500000
  1
14
  7
KANJI
 50
0.000000
 51
0.000000
  0
TEXT
  8
1
 62
7
  6
CONTINUOUS
 10
128.009686
 20
69.740590
 40
2.000000
 41
0.500000
  1
1
  7
KANJI
 50
0.000000
 51
0.000000
  0
TEXT
  8
1
 62
7
  6
CONTINUOUS
 10
123.009686
 20
69.740590
 40
2.000000
 41
0.500000
  1
2
  7
KANJI
 50
0.000000
 51
0.000000
  0
TEXT
  8
1
 62
7
  6
CONTINUOUS
 10
118.009686
 20
69.740590
 40
2.000000
 41
0.500000
  1
3
  7
KANJI
 50
0.000000
 51
0.000000
  0
TEXT
  8
1
 62
7
  6
CONTINUOUS
 10
113.009686
 20
69.740590
 40
2.000000
 41
0.500000
  1
4
  7
KANJI
 50
0.000000
 51
0.000000
  0
TEXT
  8
1
 62
7
  6
CONTINUOUS
 10
108.009686
 20
69.740590
 40
2.000000
 41
0.500000
  1
5
  7
KANJI
 50
0.000000
 51
0.000000
  0
TEXT
  8
1
 62
7
  6
CONTINUOUS
 10
103.009686
 20
69.740590
 40
2.000000
 41
0.500000
  1
6
  7
KANJI
 50
0.000000
 51
0.000000
  0
TEXT
  8
1
 62
7
  6
CONTINUOUS
 10
98.009686
 20
69.740590
 40
2.000000
 41
0.500000
  1
7
  7
KANJI
 50
0.000000
 51
0.000000
  0
TEXT
  8
1
 62
7
  6
CONTINUOUS
 10
93.009686
 20
69.740590
 40
2.000000
 41
0.500000
  1
8
  7
KANJI
 50
0.000000
 51
0.000000
  0
TEXT
  8
1
 62
7
  6
CONTINUOUS
 10
88.009686
 20
69.740590
 40
2.000000
 41
0.500000
  1
9
  7
KANJI
 50
0.000000
 51
0.000000
  0
CIRCLE
  8
1
 62
7
  6
CONTINUOUS
 10
69.459350
 20
77.300562
 40
0.500000
  0
CIRCLE
  8
1
 62
7
  6
CONTINUOUS
 10
69.459350
 20
77.300562
 40
0.250000
  0
CIRCLE
  8
1
 62
7
  6
CONTINUOUS
 10
74.459350
 20
77.300562
 40
0.500000
  0
CIRCLE
  8
1
 62
7
  6
CONTINUOUS
 10
74.459350
 20
77.300562
 40
0.250000
  0
CIRCLE
  8
1
 62
7
  6
CONTINUOUS
 10
79.459350
 20
77.300562
 40
0.500000
  0
CIRCLE
  8
1
 62
7
  6
CONTINUOUS
 10
79.459350
 20
77.300562
 40
0.250000
  0
CIRCLE
  8
1
 62
7
  6
CONTINUOUS
 10
84.459350
 20
77.300562
 40
0.500000
  0
CIRCLE
  8
1
 62
7
  6
CONTINUOUS
 10
84.459350
 20
77.300562
 40
0.250000
  0
CIRCLE
  8
1
 62
7
  6
CONTINUOUS
 10
89.459350
 20
77.300562
 40
0.500000
  0
CIRCLE
  8
1
 62
7
  6
CONTINUOUS
 10
89.459350
 20
77.300562
 40
0.250000
  0
CIRCLE
  8
1
 62
7
  6
CONTINUOUS
 10
94.459350
 20
77.300562
 40
0.500000
  0
CIRCLE
  8
1
 62
7
  6
CONTINUOUS
 10
94.459350
 20
77.300562
 40
0.250000
  0
CIRCLE
  8
1
 62
7
  6
CONTINUOUS
 10
99.459350
 20
77.300562
 40
0.500000
  0
CIRCLE
  8
1
 62
7
  6
CONTINUOUS
 10
99.459350
 20
77.300562
 40
0.250000
  0
CIRCLE
  8
1
 62
7
  6
CONTINUOUS
 10
104.459350
 20
77.300562
 40
0.500000
  0
CIRCLE
  8
1
 62
7
  6
CONTINUOUS
 10
104.459350
 20
77.300562
 40
0.250000
  0
TEXT
  8
1
 62
7
  6
CONTINUOUS
 10
142.022533
 20
70.377346
 40
2.000000
 41
0.500000
  1
15
  7
KANJI
 50
0.000000
 51
0.000000
  0
TEXT
  8
1
 62
7
  6
CONTINUOUS
 10
147.022533
 20
70.377346
 40
2.000000
 41
0.500000
  1
16
  7
KANJI
 50
0.000000
 51
0.000000
  0
TEXT
  8
1
 62
7
  6
CONTINUOUS
 10
152.022533
 20
70.377346
 40
2.000000
 41
0.500000
  1
17
  7
KANJI
 50
0.000000
 51
0.000000
  0
TEXT
  8
1
 62
7
  6
CONTINUOUS
 10
157.022533
 20
70.377346
 40
2.000000
 41
0.500000
  1
18
  7
KANJI
 50
0.000000
 51
0.000000
  0
TEXT
  8
1
 62
7
  6
CONTINUOUS
 10
162.022533
 20
70.377346
 40
2.000000
 41
0.500000
  1
19
  7
KANJI
 50
0.000000
 51
0.000000
  0
TEXT
  8
1
 62
7
  6
CONTINUOUS
 10
167.022533
 20
70.377346
 40
2.000000
 41
0.500000
  1
20
  7
KANJI
 50
0.000000
 51
0.000000
  0
TEXT
  8
1
 62
7
  6
CONTINUOUS
 10
172.022533
 20
70.377346
 40
2.000000
 41
0.500000
  1
21
  7
KANJI
 50
0.000000
 51
0.000000
  0
TEXT
  8
1
 62
7
  6
CONTINUOUS
 10
177.022533
 20
70.377346
 40
2.000000
 41
0.500000
  1
22
  7
KANJI
 50
0.000000
 51
0.000000
  0
TEXT
  8
1
 62
7
  6
CONTINUOUS
 10
182.022533
 20
70.377346
 40
2.000000
 41
0.500000
  1
23
  7
KANJI
 50
0.000000
 51
0.000000
  0
TEXT
  8
1
 62
7
  6
CONTINUOUS
 10
187.022533
 20
70.377346
 40
2.000000
 41
0.500000
  1
24
  7
KANJI
 50
0.000000
 51
0.000000
  0
LINE
  8
1
 62
7
  6
CONTINUOUS
 10
178.113821
 20
238.619919
 11
178.113821
 21
158.619919
  0
LINE
  8
1
 62
7
  6
CONTINUOUS
 10
61.113821
 20
158.619919
 11
61.113821
 21
238.619919
  0
LINE
  8
1
 62
7
  6
CONTINUOUS
 10
178.113821
 20
158.619919
 11
61.113821
 21
158.619919
  0
LINE
  8
1
 62
7
  6
CONTINUOUS
 10
61.113821
 20
238.619919
 11
178.113821
 21
238.619919
  0
ARC
  8
1
 62
7
  6
CONTINUOUS
 10
105.863821
 20
194.869919
 40
1.000000
 50
90.000000
 51
180.000000
  0
LINE
  8
1
 62
7
  6
CONTINUOUS
 10
115.863821
 20
195.869919
 11
105.863821
 21
195.869919
  0
ARC
  8
1
 62
7
  6
CONTINUOUS
 10
115.863821
 20
194.869919
 40
1.000000
 50
0.000000
 51
90.000000
  0
LINE
  8
1
 62
7
  6
CONTINUOUS
 10
116.863821
 20
184.869919
 11
116.863821
 21
194.869919
  0
ARC
  8
1
 62
7
  6
CONTINUOUS
 10
115.863821
 20
184.869919
 40
1.000000
 50
-90.000000
 51
0.000000
  0
LINE
  8
1
 62
7
  6
CONTINUOUS
 10
105.863821
 20
183.869919
 11
115.863821
 21
183.869919
  0
LINE
  8
1
 62
7
  6
CONTINUOUS
 10
104.863821
 20
194.869919
 11
104.863821
 21
184.869919
  0
ARC
  8
1
 62
7
  6
CONTINUOUS
 10
105.863821
 20
184.869919
 40
1.000000
 50
180.000000
 51
-90.000000
  0
ARC
  8
1
 62
7
  6
CONTINUOUS
 10
123.363821
 20
194.869919
 40
1.000000
 50
90.000000
 51
180.000000
  0
LINE
  8
1
 62
7
  6
CONTINUOUS
 10
133.363821
 20
195.869919
 11
123.363821
 21
195.869919
  0
ARC
  8
1
 62
7
  6
CONTINUOUS
 10
133.363821
 20
194.869919
 40
1.000000
 50
0.000000
 51
90.000000
  0
LINE
  8
1
 62
7
  6
CONTINUOUS
 10
134.363821
 20
184.869919
 11
134.363821
 21
194.869919
  0
ARC
  8
1
 62
7
  6
CONTINUOUS
 10
133.363821
 20
184.869919
 40
1.000000
 50
-90.000000
 51
0.000000
  0
LINE
  8
1
 62
7
  6
CONTINUOUS
 10
123.363821
 20
183.869919
 11
133.363821
 21
183.869919
  0
LINE
  8
1
 62
7
  6
CONTINUOUS
 10
122.363821
 20
194.869919
 11
122.363821
 21
184.869919
  0
ARC
  8
1
 62
7
  6
CONTINUOUS
 10
123.363821
 20
184.869919
 40
1.000000
 50
180.000000
 51
-90.000000
  0
ARC
  8
1
 62
7
  6
CONTINUOUS
 10
105.863821
 20
177.369919
 40
1.000000
 50
90.000000
 51
180.000000
  0
LINE
  8
1
 62
7
  6
CONTINUOUS
 10
115.863821
 20
178.369919
 11
105.863821
 21
178.369919
  0
ARC
  8
1
 62
7
  6
CONTINUOUS
 10
115.863821
 20
177.369919
 40
1.000000
 50
0.000000
 51
90.000000
  0
LINE
  8
1
 62
7
  6
CONTINUOUS
 10
116.863821
 20
167.369919
 11
116.863821
 21
177.369919
  0
ARC
  8
1
 62
7
  6
CONTINUOUS
 10
115.863821
 20
167.369919
 40
1.000000
 50
-90.000000
 51
0.000000
  0
LINE
  8
1
 62
7
  6
CONTINUOUS
 10
105.863821
 20
166.369919
 11
115.863821
 21
166.369919
  0
LINE
  8
1
 62
7
  6
CONTINUOUS
 10
104.863821
 20
177.369919
 11
104.863821
 21
167.369919
  0
ARC
  8
1
 62
7
  6
CONTINUOUS
 10
105.863821
 20
167.369919
 40
1.000000
 50
180.000000
 51
-90.000000
  0
ARC
  8
1
 62
7
  6
CONTINUOUS
 10
123.363821
 20
177.369919
 40
1.000000
 50
90.000000
 51
180.000000
  0
LINE
  8
1
 62
7
  6
CONTINUOUS
 10
133.363821
 20
178.369919
 11
123.363821
 21
178.369919
  0
ARC
  8
1
 62
7
  6
CONTINUOUS
 10
133.363821
 20
177.369919
 40
1.000000
 50
0.000000
 51
90.000000
  0
LINE
  8
1
 62
7
  6
CONTINUOUS
 10
134.363821
 20
167.369919
 11
134.363821
 21
177.369919
  0
ARC
  8
1
 62
7
  6
CONTINUOUS
 10
133.363821
 20
167.369919
 40
1.000000
 50
-90.000000
 51
0.000000
  0
LINE
  8
1
 62
7
  6
CONTINUOUS
 10
123.363821
 20
166.369919
 11
133.363821
 21
166.369919
  0
LINE
  8
1
 62
7
  6
CONTINUOUS
 10
122.363821
 20
177.369919
 11
122.363821
 21
167.369919
  0
ARC
  8
1
 62
7
  6
CONTINUOUS
 10
123.363821
 20
167.369919
 40
1.000000
 50
180.000000
 51
-90.000000
  0
ARC
  8
1
 62
7
  6
CONTINUOUS
 10
105.863821
 20
212.369919
 40
1.000000
 50
90.000000
 51
180.000000
  0
LINE
  8
1
 62
7
  6
CONTINUOUS
 10
115.863821
 20
213.369919
 11
105.863821
 21
213.369919
  0
ARC
  8
1
 62
7
  6
CONTINUOUS
 10
115.863821
 20
212.369919
 40
1.000000
 50
0.000000
 51
90.000000
  0
LINE
  8
1
 62
7
  6
CONTINUOUS
 10
116.863821
 20
202.369919
 11
116.863821
 21
212.369919
  0
ARC
  8
1
 62
7
  6
CONTINUOUS
 10
115.863821
 20
202.369919
 40
1.000000
 50
-90.000000
 51
0.000000
  0
LINE
  8
1
 62
7
  6
CONTINUOUS
 10
105.863821
 20
201.369919
 11
115.863821
 21
201.369919
  0
LINE
  8
1
 62
7
  6
CONTINUOUS
 10
104.863821
 20
212.369919
 11
104.863821
 21
202.369919
  0
ARC
  8
1
 62
7
  6
CONTINUOUS
 10
105.863821
 20
202.369919
 40
1.000000
 50
180.000000
 51
-90.000000
  0
ARC
  8
1
 62
7
  6
CONTINUOUS
 10
123.363821
 20
212.369919
 40
1.000000
 50
90.000000
 51
180.000000
  0
LINE
  8
1
 62
7
  6
CONTINUOUS
 10
133.363821
 20
213.369919
 11
123.363821
 21
213.369919
  0
ARC
  8
1
 62
7
  6
CONTINUOUS
 10
133.363821
 20
212.369919
 40
1.000000
 50
0.000000
 51
90.000000
  0
LINE
  8
1
 62
7
  6
CONTINUOUS
 10
134.363821
 20
202.369919
 11
134.363821
 21
212.369919
  0
ARC
  8
1
 62
7
  6
CONTINUOUS
 10
133.363821
 20
202.369919
 40
1.000000
 50
-90.000000
 51
0.000000
  0
LINE
  8
1
 62
7
  6
CONTINUOUS
 10
123.363821
 20
201.369919
 11
133.363821
 21
201.369919
  0
LINE
  8
1
 62
7
  6
CONTINUOUS
 10
122.363821
 20
212.369919
 11
122.363821
 21
202.369919
  0
ARC
  8
1
 62
7
  6
CONTINUOUS
 10
123.363821
 20
202.369919
 40
1.000000
 50
180.000000
 51
-90.000000
  0
ARC
  8
1
 62
7
  6
CONTINUOUS
 10
105.863821
 20
229.869919
 40
1.000000
 50
90.000000
 51
180.000000
  0
LINE
  8
1
 62
7
  6
CONTINUOUS
 10
115.863821
 20
230.869919
 11
105.863821
 21
230.869919
  0
ARC
  8
1
 62
7
  6
CONTINUOUS
 10
115.863821
 20
229.869919
 40
1.000000
 50
0.000000
 51
90.000000
  0
LINE
  8
1
 62
7
  6
CONTINUOUS
 10
116.863821
 20
219.869919
 11
116.863821
 21
229.869919
  0
ARC
  8
1
 62
7
  6
CONTINUOUS
 10
115.863821
 20
219.869919
 40
1.000000
 50
-90.000000
 51
0.000000
  0
LINE
  8
1
 62
7
  6
CONTINUOUS
 10
105.863821
 20
218.869919
 11
115.863821
 21
218.869919
  0
LINE
  8
1
 62
7
  6
CONTINUOUS
 10
104.863821
 20
229.869919
 11
104.863821
 21
219.869919
  0
ARC
  8
1
 62
7
  6
CONTINUOUS
 10
105.863821
 20
219.869919
 40
1.000000
 50
180.000000
 51
-90.000000
  0
ARC
  8
1
 62
7
  6
CONTINUOUS
 10
123.363821
 20
229.869919
 40
1.000000
 50
90.000000
 51
180.000000
  0
LINE
  8
1
 62
7
  6
CONTINUOUS
 10
133.363821
 20
230.869919
 11
123.363821
 21
230.869919
  0
ARC
  8
1
 62
7
  6
CONTINUOUS
 10
133.363821
 20
229.869919
 40
1.000000
 50
0.000000
 51
90.000000
  0
LINE
  8
1
 62
7
  6
CONTINUOUS
 10
134.363821
 20
219.869919
 11
134.363821
 21
229.869919
  0
ARC
  8
1
 62
7
  6
CONTINUOUS
 10
133.363821
 20
219.869919
 40
1.000000
 50
-90.000000
 51
0.000000
  0
LINE
  8
1
 62
7
  6
CONTINUOUS
 10
123.363821
 20
218.869919
 11
133.363821
 21
218.869919
  0
LINE
  8
1
 62
7
  6
CONTINUOUS
 10
122.363821
 20
229.869919
 11
122.363821
 21
219.869919
  0
ARC
  8
1
 62
7
  6
CONTINUOUS
 10
123.363821
 20
219.869919
 40
1.000000
 50
180.000000
 51
-90.000000
  0
LINE
  8
1
 62
7
  6
CONTINUOUS
 10
123.017841
 20
229.678335
 11
123.017841
 21
228.512421
  0
LINE
  8
1
 62
7
  6
CONTINUOUS
 10
123.017841
 20
228.512421
 11
126.144610
 21
228.512421
  0
LINE
  8
1
 62
7
  6
CONTINUOUS
 10
126.144610
 20
228.512421
 11
126.144610
 21
229.678335
  0
LINE
  8
1
 62
7
  6
CONTINUOUS
 10
126.144610
 20
229.678335
 11
123.017841
 21
229.678335
  0
LINE
  8
1
 62
7
  6
CONTINUOUS
 10
105.517841
 20
229.678335
 11
105.517841
 21
228.512421
  0
LINE
  8
1
 62
7
  6
CONTINUOUS
 10
105.517841
 20
228.512421
 11
108.644610
 21
228.512421
  0
LINE
  8
1
 62
7
  6
CONTINUOUS
 10
108.644610
 20
228.512421
 11
108.644610
 21
229.678335
  0
LINE
  8
1
 62
7
  6
CONTINUOUS
 10
108.644610
 20
229.678335
 11
105.517841
 21
229.678335
  0
LINE
  8
1
 62
7
  6
CONTINUOUS
 10
123.017841
 20
212.178335
 11
123.017841
 21
211.012421
  0
LINE
  8
1
 62
7
  6
CONTINUOUS
 10
123.017841
 20
211.012421
 11
126.144610
 21
211.012421
  0
LINE
  8
1
 62
7
  6
CONTINUOUS
 10
126.144610
 20
211.012421
 11
126.144610
 21
212.178335
  0
LINE
  8
1
 62
7
  6
CONTINUOUS
 10
126.144610
 20
212.178335
 11
123.017841
 21
212.178335
  0
LINE
  8
1
 62
7
  6
CONTINUOUS
 10
105.517841
 20
212.178335
 11
105.517841
 21
211.012421
  0
LINE
  8
1
 62
7
  6
CONTINUOUS
 10
105.517841
 20
211.012421
 11
108.644610
 21
211.012421
  0
LINE
  8
1
 62
7
  6
CONTINUOUS
 10
108.644610
 20
211.012421
 11
108.644610
 21
212.178335
  0
LINE
  8
1
 62
7
  6
CONTINUOUS
 10
108.644610
 20
212.178335
 11
105.517841
 21
212.178335
  0
LINE
  8
1
 62
7
  6
CONTINUOUS
 10
105.517841
 20
194.678335
 11
105.517841
 21
193.512421
  0
LINE
  8
1
 62
7
  6
CONTINUOUS
 10
105.517841
 20
193.512421
 11
108.644610
 21
193.512421
  0
LINE
  8
1
 62
7
  6
CONTINUOUS
 10
108.644610
 20
193.512421
 11
108.644610
 21
194.678335
  0
LINE
  8
1
 62
7
  6
CONTINUOUS
 10
108.644610
 20
194.678335
 11
105.517841
 21
194.678335
  0
LINE
  8
1
 62
7
  6
CONTINUOUS
 10
123.017841
 20
194.678335
 11
123.017841
 21
193.512421
  0
LINE
  8
1
 62
7
  6
CONTINUOUS
 10
123.017841
 20
193.512421
 11
126.144610
 21
193.512421
  0
LINE
  8
1
 62
7
  6
CONTINUOUS
 10
126.144610
 20
193.512421
 11
126.144610
 21
194.678335
  0
LINE
  8
1
 62
7
  6
CONTINUOUS
 10
126.144610
 20
194.678335
 11
123.017841
 21
194.678335
  0
LINE
  8
1
 62
7
  6
CONTINUOUS
 10
123.017841
 20
177.178335
 11
123.017841
 21
176.012421
  0
LINE
  8
1
 62
7
  6
CONTINUOUS
 10
123.017841
 20
176.012421
 11
126.144610
 21
176.012421
  0
LINE
  8
1
 62
7
  6
CONTINUOUS
 10
126.144610
 20
176.012421
 11
126.144610
 21
177.178335
  0
LINE
  8
1
 62
7
  6
CONTINUOUS
 10
126.144610
 20
177.178335
 11
123.017841
 21
177.178335
  0
LINE
  8
1
 62
7
  6
CONTINUOUS
 10
105.517841
 20
177.178335
 11
105.517841
 21
176.012421
  0
LINE
  8
1
 62
7
  6
CONTINUOUS
 10
105.517841
 20
176.012421
 11
108.644610
 21
176.012421
  0
LINE
  8
1
 62
7
  6
CONTINUOUS
 10
108.644610
 20
176.012421
 11
108.644610
 21
177.178335
  0
LINE
  8
1
 62
7
  6
CONTINUOUS
 10
108.644610
 20
177.178335
 11
105.517841
 21
177.178335
  0
ARC
  8
1
 62
7
  6
CONTINUOUS
 10
158.363821
 20
194.869919
 40
1.000000
 50
90.000000
 51
180.000000
  0
LINE
  8
1
 62
7
  6
CONTINUOUS
 10
168.363821
 20
195.869919
 11
158.363821
 21
195.869919
  0
ARC
  8
1
 62
7
  6
CONTINUOUS
 10
168.363821
 20
194.869919
 40
1.000000
 50
0.000000
 51
90.000000
  0
LINE
  8
1
 62
7
  6
CONTINUOUS
 10
169.363821
 20
184.869919
 11
169.363821
 21
194.869919
  0
ARC
  8
1
 62
7
  6
CONTINUOUS
 10
168.363821
 20
184.869919
 40
1.000000
 50
-90.000000
 51
0.000000
  0
LINE
  8
1
 62
7
  6
CONTINUOUS
 10
158.363821
 20
183.869919
 11
168.363821
 21
183.869919
  0
LINE
  8
1
 62
7
  6
CONTINUOUS
 10
157.363821
 20
194.869919
 11
157.363821
 21
184.869919
  0
ARC
  8
1
 62
7
  6
CONTINUOUS
 10
158.363821
 20
184.869919
 40
1.000000
 50
180.000000
 51
-90.000000
  0
ARC
  8
1
 62
7
  6
CONTINUOUS
 10
158.363821
 20
177.369919
 40
1.000000
 50
90.000000
 51
180.000000
  0
LINE
  8
1
 62
7
  6
CONTINUOUS
 10
168.363821
 20
178.369919
 11
158.363821
 21
178.369919
  0
ARC
  8
1
 62
7
  6
CONTINUOUS
 10
168.363821
 20
177.369919
 40
1.000000
 50
0.000000
 51
90.000000
  0
LINE
  8
1
 62
7
  6
CONTINUOUS
 10
169.363821
 20
167.369919
 11
169.363821
 21
177.369919
  0
ARC
  8
1
 62
7
  6
CONTINUOUS
 10
168.363821
 20
167.369919
 40
1.000000
 50
-90.000000
 51
0.000000
  0
LINE
  8
1
 62
7
  6
CONTINUOUS
 10
158.363821
 20
166.369919
 11
168.363821
 21
166.369919
  0
LINE
  8
1
 62
7
  6
CONTINUOUS
 10
157.363821
 20
177.369919
 11
157.363821
 21
167.369919
  0
ARC
  8
1
 62
7
  6
CONTINUOUS
 10
158.363821
 20
167.369919
 40
1.000000
 50
180.000000
 51
-90.000000
  0
ARC
  8
1
 62
7
  6
CONTINUOUS
 10
158.363821
 20
212.369919
 40
1.000000
 50
90.000000
 51
180.000000
  0
LINE
  8
1
 62
7
  6
CONTINUOUS
 10
168.363821
 20
213.369919
 11
158.363821
 21
213.369919
  0
ARC
  8
1
 62
7
  6
CONTINUOUS
 10
168.363821
 20
212.369919
 40
1.000000
 50
0.000000
 51
90.000000
  0
LINE
  8
1
 62
7
  6
CONTINUOUS
 10
169.363821
 20
202.369919
 11
169.363821
 21
212.369919
  0
ARC
  8
1
 62
7
  6
CONTINUOUS
 10
168.363821
 20
202.369919
 40
1.000000
 50
-90.000000
 51
0.000000
  0
LINE
  8
1
 62
7
  6
CONTINUOUS
 10
158.363821
 20
201.369919
 11
168.363821
 21
201.369919
  0
LINE
  8
1
 62
7
  6
CONTINUOUS
 10
157.363821
 20
212.369919
 11
157.363821
 21
202.369919
  0
ARC
  8
1
 62
7
  6
CONTINUOUS
 10
158.363821
 20
202.369919
 40
1.000000
 50
180.000000
 51
-90.000000
  0
ARC
  8
1
 62
7
  6
CONTINUOUS
 10
158.363821
 20
229.869919
 40
1.000000
 50
90.000000
 51
180.000000
  0
LINE
  8
1
 62
7
  6
CONTINUOUS
 10
168.363821
 20
230.869919
 11
158.363821
 21
230.869919
  0
ARC
  8
1
 62
7
  6
CONTINUOUS
 10
168.363821
 20
229.869919
 40
1.000000
 50
0.000000
 51
90.000000
  0
LINE
  8
1
 62
7
  6
CONTINUOUS
 10
169.363821
 20
219.869919
 11
169.363821
 21
229.869919
  0
ARC
  8
1
 62
7
  6
CONTINUOUS
 10
168.363821
 20
219.869919
 40
1.000000
 50
-90.000000
 51
0.000000
  0
LINE
  8
1
 62
7
  6
CONTINUOUS
 10
158.363821
 20
218.869919
 11
168.363821
 21
218.869919
  0
LINE
  8
1
 62
7
  6
CONTINUOUS
 10
157.363821
 20
229.869919
 11
157.363821
 21
219.869919
  0
ARC
  8
1
 62
7
  6
CONTINUOUS
 10
158.363821
 20
219.869919
 40
1.000000
 50
180.000000
 51
-90.000000
  0
LINE
  8
1
 62
7
  6
CONTINUOUS
 10
158.017841
 20
229.678335
 11
158.017841
 21
228.512421
  0
LINE
  8
1
 62
7
  6
CONTINUOUS
 10
158.017841
 20
228.512421
 11
161.144610
 21
228.512421
  0
LINE
  8
1
 62
7
  6
CONTINUOUS
 10
161.144610
 20
228.512421
 11
161.144610
 21
229.678335
  0
LINE
  8
1
 62
7
  6
CONTINUOUS
 10
161.144610
 20
229.678335
 11
158.017841
 21
229.678335
  0
LINE
  8
1
 62
7
  6
CONTINUOUS
 10
158.017841
 20
212.178335
 11
158.017841
 21
211.012421
  0
LINE
  8
1
 62
7
  6
CONTINUOUS
 10
158.017841
 20
211.012421
 11
161.144610
 21
211.012421
  0
LINE
  8
1
 62
7
  6
CONTINUOUS
 10
161.144610
 20
211.012421
 11
161.144610
 21
212.178335
  0
LINE
  8
1
 62
7
  6
CONTINUOUS
 10
161.144610
 20
212.178335
 11
158.017841
 21
212.178335
  0
LINE
  8
1
 62
7
  6
CONTINUOUS
 10
158.017841
 20
194.678335
 11
158.017841
 21
193.512421
  0
LINE
  8
1
 62
7
  6
CONTINUOUS
 10
158.017841
 20
193.512421
 11
161.144610
 21
193.512421
  0
LINE
  8
1
 62
7
  6
CONTINUOUS
 10
161.144610
 20
193.512421
 11
161.144610
 21
194.678335
  0
LINE
  8
1
 62
7
  6
CONTINUOUS
 10
161.144610
 20
194.678335
 11
158.017841
 21
194.678335
  0
LINE
  8
1
 62
7
  6
CONTINUOUS
 10
158.017841
 20
177.178335
 11
158.017841
 21
176.012421
  0
LINE
  8
1
 62
7
  6
CONTINUOUS
 10
158.017841
 20
176.012421
 11
161.144610
 21
176.012421
  0
LINE
  8
1
 62
7
  6
CONTINUOUS
 10
161.144610
 20
176.012421
 11
161.144610
 21
177.178335
  0
LINE
  8
1
 62
7
  6
CONTINUOUS
 10
161.144610
 20
177.178335
 11
158.017841
 21
177.178335
  0
ARC
  8
1
 62
7
  6
CONTINUOUS
 10
140.863821
 20
194.869919
 40
1.000000
 50
90.000000
 51
180.000000
  0
LINE
  8
1
 62
7
  6
CONTINUOUS
 10
150.863821
 20
195.869919
 11
140.863821
 21
195.869919
  0
ARC
  8
1
 62
7
  6
CONTINUOUS
 10
150.863821
 20
194.869919
 40
1.000000
 50
0.000000
 51
90.000000
  0
LINE
  8
1
 62
7
  6
CONTINUOUS
 10
151.863821
 20
184.869919
 11
151.863821
 21
194.869919
  0
ARC
  8
1
 62
7
  6
CONTINUOUS
 10
150.863821
 20
184.869919
 40
1.000000
 50
-90.000000
 51
0.000000
  0
LINE
  8
1
 62
7
  6
CONTINUOUS
 10
140.863821
 20
183.869919
 11
150.863821
 21
183.869919
  0
LINE
  8
1
 62
7
  6
CONTINUOUS
 10
139.863821
 20
194.869919
 11
139.863821
 21
184.869919
  0
ARC
  8
1
 62
7
  6
CONTINUOUS
 10
140.863821
 20
184.869919
 40
1.000000
 50
180.000000
 51
-90.000000
  0
ARC
  8
1
 62
7
  6
CONTINUOUS
 10
140.863821
 20
177.369919
 40
1.000000
 50
90.000000
 51
180.000000
  0
LINE
  8
1
 62
7
  6
CONTINUOUS
 10
150.863821
 20
178.369919
 11
140.863821
 21
178.369919
  0
ARC
  8
1
 62
7
  6
CONTINUOUS
 10
150.863821
 20
177.369919
 40
1.000000
 50
0.000000
 51
90.000000
  0
LINE
  8
1
 62
7
  6
CONTINUOUS
 10
151.863821
 20
167.369919
 11
151.863821
 21
177.369919
  0
ARC
  8
1
 62
7
  6
CONTINUOUS
 10
150.863821
 20
167.369919
 40
1.000000
 50
-90.000000
 51
0.000000
  0
LINE
  8
1
 62
7
  6
CONTINUOUS
 10
140.863821
 20
166.369919
 11
150.863821
 21
166.369919
  0
LINE
  8
1
 62
7
  6
CONTINUOUS
 10
139.863821
 20
177.369919
 11
139.863821
 21
167.369919
  0
ARC
  8
1
 62
7
  6
CONTINUOUS
 10
140.863821
 20
167.369919
 40
1.000000
 50
180.000000
 51
-90.000000
  0
ARC
  8
1
 62
7
  6
CONTINUOUS
 10
140.863821
 20
212.369919
 40
1.000000
 50
90.000000
 51
180.000000
  0
LINE
  8
1
 62
7
  6
CONTINUOUS
 10
150.863821
 20
213.369919
 11
140.863821
 21
213.369919
  0
ARC
  8
1
 62
7
  6
CONTINUOUS
 10
150.863821
 20
212.369919
 40
1.000000
 50
0.000000
 51
90.000000
  0
LINE
  8
1
 62
7
  6
CONTINUOUS
 10
151.863821
 20
202.369919
 11
151.863821
 21
212.369919
  0
ARC
  8
1
 62
7
  6
CONTINUOUS
 10
150.863821
 20
202.369919
 40
1.000000
 50
-90.000000
 51
0.000000
  0
LINE
  8
1
 62
7
  6
CONTINUOUS
 10
140.863821
 20
201.369919
 11
150.863821
 21
201.369919
  0
LINE
  8
1
 62
7
  6
CONTINUOUS
 10
139.863821
 20
212.369919
 11
139.863821
 21
202.369919
  0
ARC
  8
1
 62
7
  6
CONTINUOUS
 10
140.863821
 20
202.369919
 40
1.000000
 50
180.000000
 51
-90.000000
  0
ARC
  8
1
 62
7
  6
CONTINUOUS
 10
140.863821
 20
229.869919
 40
1.000000
 50
90.000000
 51
180.000000
  0
LINE
  8
1
 62
7
  6
CONTINUOUS
 10
150.863821
 20
230.869919
 11
140.863821
 21
230.869919
  0
ARC
  8
1
 62
7
  6
CONTINUOUS
 10
150.863821
 20
229.869919
 40
1.000000
 50
0.000000
 51
90.000000
  0
LINE
  8
1
 62
7
  6
CONTINUOUS
 10
151.863821
 20
219.869919
 11
151.863821
 21
229.869919
  0
ARC
  8
1
 62
7
  6
CONTINUOUS
 10
150.863821
 20
219.869919
 40
1.000000
 50
-90.000000
 51
0.000000
  0
LINE
  8
1
 62
7
  6
CONTINUOUS
 10
140.863821
 20
218.869919
 11
150.863821
 21
218.869919
  0
LINE
  8
1
 62
7
  6
CONTINUOUS
 10
139.863821
 20
229.869919
 11
139.863821
 21
219.869919
  0
ARC
  8
1
 62
7
  6
CONTINUOUS
 10
140.863821
 20
219.869919
 40
1.000000
 50
180.000000
 51
-90.000000
  0
LINE
  8
1
 62
7
  6
CONTINUOUS
 10
140.517841
 20
229.678335
 11
140.517841
 21
228.512421
  0
LINE
  8
1
 62
7
  6
CONTINUOUS
 10
140.517841
 20
228.512421
 11
143.644610
 21
228.512421
  0
LINE
  8
1
 62
7
  6
CONTINUOUS
 10
143.644610
 20
228.512421
 11
143.644610
 21
229.678335
  0
LINE
  8
1
 62
7
  6
CONTINUOUS
 10
143.644610
 20
229.678335
 11
140.517841
 21
229.678335
  0
LINE
  8
1
 62
7
  6
CONTINUOUS
 10
140.517841
 20
212.178335
 11
140.517841
 21
211.012421
  0
LINE
  8
1
 62
7
  6
CONTINUOUS
 10
140.517841
 20
211.012421
 11
143.644610
 21
211.012421
  0
LINE
  8
1
 62
7
  6
CONTINUOUS
 10
143.644610
 20
211.012421
 11
143.644610
 21
212.178335
  0
LINE
  8
1
 62
7
  6
CONTINUOUS
 10
143.644610
 20
212.178335
 11
140.517841
 21
212.178335
  0
LINE
  8
1
 62
7
  6
CONTINUOUS
 10
140.517841
 20
194.678335
 11
140.517841
 21
193.512421
  0
LINE
  8
1
 62
7
  6
CONTINUOUS
 10
140.517841
 20
193.512421
 11
143.644610
 21
193.512421
  0
LINE
  8
1
 62
7
  6
CONTINUOUS
 10
143.644610
 20
193.512421
 11
143.644610
 21
194.678335
  0
LINE
  8
1
 62
7
  6
CONTINUOUS
 10
143.644610
 20
194.678335
 11
140.517841
 21
194.678335
  0
LINE
  8
1
 62
7
  6
CONTINUOUS
 10
140.517841
 20
177.178335
 11
140.517841
 21
176.012421
  0
LINE
  8
1
 62
7
  6
CONTINUOUS
 10
140.517841
 20
176.012421
 11
143.644610
 21
176.012421
  0
LINE
  8
1
 62
7
  6
CONTINUOUS
 10
143.644610
 20
176.012421
 11
143.644610
 21
177.178335
  0
LINE
  8
1
 62
7
  6
CONTINUOUS
 10
143.644610
 20
177.178335
 11
140.517841
 21
177.178335
  0
ARC
  8
1
 62
7
  6
CONTINUOUS
 10
88.363821
 20
194.869919
 40
1.000000
 50
90.000000
 51
180.000000
  0
LINE
  8
1
 62
7
  6
CONTINUOUS
 10
98.363821
 20
195.869919
 11
88.363821
 21
195.869919
  0
ARC
  8
1
 62
7
  6
CONTINUOUS
 10
98.363821
 20
194.869919
 40
1.000000
 50
0.000000
 51
90.000000
  0
LINE
  8
1
 62
7
  6
CONTINUOUS
 10
99.363821
 20
184.869919
 11
99.363821
 21
194.869919
  0
ARC
  8
1
 62
7
  6
CONTINUOUS
 10
98.363821
 20
184.869919
 40
1.000000
 50
-90.000000
 51
0.000000
  0
LINE
  8
1
 62
7
  6
CONTINUOUS
 10
88.363821
 20
183.869919
 11
98.363821
 21
183.869919
  0
LINE
  8
1
 62
7
  6
CONTINUOUS
 10
87.363821
 20
194.869919
 11
87.363821
 21
184.869919
  0
ARC
  8
1
 62
7
  6
CONTINUOUS
 10
88.363821
 20
184.869919
 40
1.000000
 50
180.000000
 51
-90.000000
  0
ARC
  8
1
 62
7
  6
CONTINUOUS
 10
88.363821
 20
177.369919
 40
1.000000
 50
90.000000
 51
180.000000
  0
LINE
  8
1
 62
7
  6
CONTINUOUS
 10
98.363821
 20
178.369919
 11
88.363821
 21
178.369919
  0
ARC
  8
1
 62
7
  6
CONTINUOUS
 10
98.363821
 20
177.369919
 40
1.000000
 50
0.000000
 51
90.000000
  0
LINE
  8
1
 62
7
  6
CONTINUOUS
 10
99.363821
 20
167.369919
 11
99.363821
 21
177.369919
  0
ARC
  8
1
 62
7
  6
CONTINUOUS
 10
98.363821
 20
167.369919
 40
1.000000
 50
-90.000000
 51
0.000000
  0
LINE
  8
1
 62
7
  6
CONTINUOUS
 10
88.363821
 20
166.369919
 11
98.363821
 21
166.369919
  0
LINE
  8
1
 62
7
  6
CONTINUOUS
 10
87.363821
 20
177.369919
 11
87.363821
 21
167.369919
  0
ARC
  8
1
 62
7
  6
CONTINUOUS
 10
88.363821
 20
167.369919
 40
1.000000
 50
180.000000
 51
-90.000000
  0
ARC
  8
1
 62
7
  6
CONTINUOUS
 10
88.363821
 20
212.369919
 40
1.000000
 50
90.000000
 51
180.000000
  0
LINE
  8
1
 62
7
  6
CONTINUOUS
 10
98.363821
 20
213.369919
 11
88.363821
 21
213.369919
  0
ARC
  8
1
 62
7
  6
CONTINUOUS
 10
98.363821
 20
212.369919
 40
1.000000
 50
0.000000
 51
90.000000
  0
LINE
  8
1
 62
7
  6
CONTINUOUS
 10
99.363821
 20
202.369919
 11
99.363821
 21
212.369919
  0
ARC
  8
1
 62
7
  6
CONTINUOUS
 10
98.363821
 20
202.369919
 40
1.000000
 50
-90.000000
 51
0.000000
  0
LINE
  8
1
 62
7
  6
CONTINUOUS
 10
88.363821
 20
201.369919
 11
98.363821
 21
201.369919
  0
LINE
  8
1
 62
7
  6
CONTINUOUS
 10
87.363821
 20
212.369919
 11
87.363821
 21
202.369919
  0
ARC
  8
1
 62
7
  6
CONTINUOUS
 10
88.363821
 20
202.369919
 40
1.000000
 50
180.000000
 51
-90.000000
  0
ARC
  8
1
 62
7
  6
CONTINUOUS
 10
88.363821
 20
229.869919
 40
1.000000
 50
90.000000
 51
180.000000
  0
LINE
  8
1
 62
7
  6
CONTINUOUS
 10
98.363821
 20
230.869919
 11
88.363821
 21
230.869919
  0
ARC
  8
1
 62
7
  6
CONTINUOUS
 10
98.363821
 20
229.869919
 40
1.000000
 50
0.000000
 51
90.000000
  0
LINE
  8
1
 62
7
  6
CONTINUOUS
 10
99.363821
 20
219.869919
 11
99.363821
 21
229.869919
  0
ARC
  8
1
 62
7
  6
CONTINUOUS
 10
98.363821
 20
219.869919
 40
1.000000
 50
-90.000000
 51
0.000000
  0
LINE
  8
1
 62
7
  6
CONTINUOUS
 10
88.363821
 20
218.869919
 11
98.363821
 21
218.869919
  0
LINE
  8
1
 62
7
  6
CONTINUOUS
 10
87.363821
 20
229.869919
 11
87.363821
 21
219.869919
  0
ARC
  8
1
 62
7
  6
CONTINUOUS
 10
88.363821
 20
219.869919
 40
1.000000
 50
180.000000
 51
-90.000000
  0
LINE
  8
1
 62
7
  6
CONTINUOUS
 10
88.017841
 20
229.678335
 11
88.017841
 21
228.512421
  0
LINE
  8
1
 62
7
  6
CONTINUOUS
 10
88.017841
 20
228.512421
 11
91.144610
 21
228.512421
  0
LINE
  8
1
 62
7
  6
CONTINUOUS
 10
91.144610
 20
228.512421
 11
91.144610
 21
229.678335
  0
LINE
  8
1
 62
7
  6
CONTINUOUS
 10
91.144610
 20
229.678335
 11
88.017841
 21
229.678335
  0
LINE
  8
1
 62
7
  6
CONTINUOUS
 10
88.017841
 20
212.178335
 11
88.017841
 21
211.012421
  0
LINE
  8
1
 62
7
  6
CONTINUOUS
 10
88.017841
 20
211.012421
 11
91.144610
 21
211.012421
  0
LINE
  8
1
 62
7
  6
CONTINUOUS
 10
91.144610
 20
211.012421
 11
91.144610
 21
212.178335
  0
LINE
  8
1
 62
7
  6
CONTINUOUS
 10
91.144610
 20
212.178335
 11
88.017841
 21
212.178335
  0
LINE
  8
1
 62
7
  6
CONTINUOUS
 10
88.017841
 20
194.678335
 11
88.017841
 21
193.512421
  0
LINE
  8
1
 62
7
  6
CONTINUOUS
 10
88.017841
 20
193.512421
 11
91.144610
 21
193.512421
  0
LINE
  8
1
 62
7
  6
CONTINUOUS
 10
91.144610
 20
193.512421
 11
91.144610
 21
194.678335
  0
LINE
  8
1
 62
7
  6
CONTINUOUS
 10
91.144610
 20
194.678335
 11
88.017841
 21
194.678335
  0
LINE
  8
1
 62
7
  6
CONTINUOUS
 10
88.017841
 20
177.178335
 11
88.017841
 21
176.012421
  0
LINE
  8
1
 62
7
  6
CONTINUOUS
 10
88.017841
 20
176.012421
 11
91.144610
 21
176.012421
  0
LINE
  8
1
 62
7
  6
CONTINUOUS
 10
91.144610
 20
176.012421
 11
91.144610
 21
177.178335
  0
LINE
  8
1
 62
7
  6
CONTINUOUS
 10
91.144610
 20
177.178335
 11
88.017841
 21
177.178335
  0
ARC
  8
1
 62
7
  6
CONTINUOUS
 10
70.863821
 20
194.869919
 40
1.000000
 50
90.000000
 51
180.000000
  0
LINE
  8
1
 62
7
  6
CONTINUOUS
 10
80.863821
 20
195.869919
 11
70.863821
 21
195.869919
  0
ARC
  8
1
 62
7
  6
CONTINUOUS
 10
80.863821
 20
194.869919
 40
1.000000
 50
0.000000
 51
90.000000
  0
LINE
  8
1
 62
7
  6
CONTINUOUS
 10
81.863821
 20
184.869919
 11
81.863821
 21
194.869919
  0
ARC
  8
1
 62
7
  6
CONTINUOUS
 10
80.863821
 20
184.869919
 40
1.000000
 50
-90.000000
 51
0.000000
  0
LINE
  8
1
 62
7
  6
CONTINUOUS
 10
70.863821
 20
183.869919
 11
80.863821
 21
183.869919
  0
LINE
  8
1
 62
7
  6
CONTINUOUS
 10
69.863821
 20
194.869919
 11
69.863821
 21
184.869919
  0
ARC
  8
1
 62
7
  6
CONTINUOUS
 10
70.863821
 20
184.869919
 40
1.000000
 50
180.000000
 51
-90.000000
  0
ARC
  8
1
 62
7
  6
CONTINUOUS
 10
70.863821
 20
177.369919
 40
1.000000
 50
90.000000
 51
180.000000
  0
LINE
  8
1
 62
7
  6
CONTINUOUS
 10
80.863821
 20
178.369919
 11
70.863821
 21
178.369919
  0
ARC
  8
1
 62
7
  6
CONTINUOUS
 10
80.863821
 20
177.369919
 40
1.000000
 50
0.000000
 51
90.000000
  0
LINE
  8
1
 62
7
  6
CONTINUOUS
 10
81.863821
 20
167.369919
 11
81.863821
 21
177.369919
  0
ARC
  8
1
 62
7
  6
CONTINUOUS
 10
80.863821
 20
167.369919
 40
1.000000
 50
-90.000000
 51
0.000000
  0
LINE
  8
1
 62
7
  6
CONTINUOUS
 10
70.863821
 20
166.369919
 11
80.863821
 21
166.369919
  0
LINE
  8
1
 62
7
  6
CONTINUOUS
 10
69.863821
 20
177.369919
 11
69.863821
 21
167.369919
  0
ARC
  8
1
 62
7
  6
CONTINUOUS
 10
70.863821
 20
167.369919
 40
1.000000
 50
180.000000
 51
-90.000000
  0
ARC
  8
1
 62
7
  6
CONTINUOUS
 10
70.863821
 20
212.369919
 40
1.000000
 50
90.000000
 51
180.000000
  0
LINE
  8
1
 62
7
  6
CONTINUOUS
 10
80.863821
 20
213.369919
 11
70.863821
 21
213.369919
  0
ARC
  8
1
 62
7
  6
CONTINUOUS
 10
80.863821
 20
212.369919
 40
1.000000
 50
0.000000
 51
90.000000
  0
LINE
  8
1
 62
7
  6
CONTINUOUS
 10
81.863821
 20
202.369919
 11
81.863821
 21
212.369919
  0
ARC
  8
1
 62
7
  6
CONTINUOUS
 10
80.863821
 20
202.369919
 40
1.000000
 50
-90.000000
 51
0.000000
  0
LINE
  8
1
 62
7
  6
CONTINUOUS
 10
70.863821
 20
201.369919
 11
80.863821
 21
201.369919
  0
LINE
  8
1
 62
7
  6
CONTINUOUS
 10
69.863821
 20
212.369919
 11
69.863821
 21
202.369919
  0
ARC
  8
1
 62
7
  6
CONTINUOUS
 10
70.863821
 20
202.369919
 40
1.000000
 50
180.000000
 51
-90.000000
  0
ARC
  8
1
 62
7
  6
CONTINUOUS
 10
70.863821
 20
229.869919
 40
1.000000
 50
90.000000
 51
180.000000
  0
LINE
  8
1
 62
7
  6
CONTINUOUS
 10
80.863821
 20
230.869919
 11
70.863821
 21
230.869919
  0
ARC
  8
1
 62
7
  6
CONTINUOUS
 10
80.863821
 20
229.869919
 40
1.000000
 50
0.000000
 51
90.000000
  0
LINE
  8
1
 62
7
  6
CONTINUOUS
 10
81.863821
 20
219.869919
 11
81.863821
 21
229.869919
  0
ARC
  8
1
 62
7
  6
CONTINUOUS
 10
80.863821
 20
219.869919
 40
1.000000
 50
-90.000000
 51
0.000000
  0
LINE
  8
1
 62
7
  6
CONTINUOUS
 10
70.863821
 20
218.869919
 11
80.863821
 21
218.869919
  0
LINE
  8
1
 62
7
  6
CONTINUOUS
 10
69.863821
 20
229.869919
 11
69.863821
 21
219.869919
  0
ARC
  8
1
 62
7
  6
CONTINUOUS
 10
70.863821
 20
219.869919
 40
1.000000
 50
180.000000
 51
-90.000000
  0
LINE
  8
1
 62
7
  6
CONTINUOUS
 10
70.517841
 20
229.678335
 11
70.517841
 21
228.512421
  0
LINE
  8
1
 62
7
  6
CONTINUOUS
 10
70.517841
 20
228.512421
 11
73.644610
 21
228.512421
  0
LINE
  8
1
 62
7
  6
CONTINUOUS
 10
73.644610
 20
228.512421
 11
73.644610
 21
229.678335
  0
LINE
  8
1
 62
7
  6
CONTINUOUS
 10
73.644610
 20
229.678335
 11
70.517841
 21
229.678335
  0
LINE
  8
1
 62
7
  6
CONTINUOUS
 10
70.517841
 20
212.178335
 11
70.517841
 21
211.012421
  0
LINE
  8
1
 62
7
  6
CONTINUOUS
 10
70.517841
 20
211.012421
 11
73.644610
 21
211.012421
  0
LINE
  8
1
 62
7
  6
CONTINUOUS
 10
73.644610
 20
211.012421
 11
73.644610
 21
212.178335
  0
LINE
  8
1
 62
7
  6
CONTINUOUS
 10
73.644610
 20
212.178335
 11
70.517841
 21
212.178335
  0
LINE
  8
1
 62
7
  6
CONTINUOUS
 10
70.517841
 20
194.678335
 11
70.517841
 21
193.512421
  0
LINE
  8
1
 62
7
  6
CONTINUOUS
 10
70.517841
 20
193.512421
 11
73.644610
 21
193.512421
  0
LINE
  8
1
 62
7
  6
CONTINUOUS
 10
73.644610
 20
193.512421
 11
73.644610
 21
194.678335
  0
LINE
  8
1
 62
7
  6
CONTINUOUS
 10
73.644610
 20
194.678335
 11
70.517841
 21
194.678335
  0
LINE
  8
1
 62
7
  6
CONTINUOUS
 10
70.517841
 20
177.178335
 11
70.517841
 21
176.012421
  0
LINE
  8
1
 62
7
  6
CONTINUOUS
 10
70.517841
 20
176.012421
 11
73.644610
 21
176.012421
  0
LINE
  8
1
 62
7
  6
CONTINUOUS
 10
73.644610
 20
176.012421
 11
73.644610
 21
177.178335
  0
LINE
  8
1
 62
7
  6
CONTINUOUS
 10
73.644610
 20
177.178335
 11
70.517841
 21
177.178335
  0
TEXT
  8
1
 62
7
  6
CONTINUOUS
 10
75.863821
 20
169.223050
 40
5.000000
 41
0.500000
  1
1
  7
KANJI
 50
0.000000
 51
0.000000
  0
LINE
  8
1
 62
7
  6
CONTINUOUS
 10
59.113821
 20
156.619919
 11
180.113821
 21
156.619919
  0
LINE
  8
1
 62
7
  6
CONTINUOUS
 10
59.113821
 20
240.619919
 11
180.113821
 21
240.619919
  0
DIMENSION
  8
1
 62
7
  6
CONTINUOUS
  2
*D5
 10
49.772809
 20
156.619919
 11
49.772809
 21
198.619919
 70
     0
  1
84
 13
57.113821
 23
156.619919
 14
57.113821
 24
240.619919
 50
90.000000
  0
ARC
  8
1
 62
7
  6
CONTINUOUS
 10
62.113821
 20
247.619919
 40
3.000000
 50
90.000000
 51
180.000000
  0
ARC
  8
1
 62
7
  6
CONTINUOUS
 10
177.113821
 20
247.619919
 40
3.000000
 50
0.000000
 51
90.000000
  0
LINE
  8
1
 62
7
  6
CONTINUOUS
 10
180.113821
 20
247.619919
 11
180.113821
 21
149.619919
  0
ARC
  8
1
 62
7
  6
CONTINUOUS
 10
177.113821
 20
149.619919
 40
3.000000
 50
-90.000000
 51
0.000000
  0
LINE
  8
1
 62
7
  6
CONTINUOUS
 10
59.113821
 20
149.619919
 11
59.113821
 21
247.619919
  0
ARC
  8
1
 62
7
  6
CONTINUOUS
 10
62.113821
 20
149.619919
 40
3.000000
 50
180.000000
 51
-90.000000
  0
CIRCLE
  8
1
 62
7
  6
CONTINUOUS
 10
119.613821
 20
151.619919
 40
2.000000
  0
CIRCLE
  8
1
 62
7
  6
CONTINUOUS
 10
119.613821
 20
245.619919
 40
2.000000
  0
LINE
  8
1
 62
7
  6
CONTINUOUS
 10
75.863821
 20
245.619919
 11
83.729449
 21
245.619919
  0
LINE
  8
1
 62
7
  6
CONTINUOUS
 10
115.030262
 20
245.619919
 11
124.325655
 21
245.619919
  0
LINE
  8
1
 62
7
  6
CONTINUOUS
 10
75.572267
 20
151.619919
 11
83.919151
 21
151.619919
  0
LINE
  8
1
 62
7
  6
CONTINUOUS
 10
115.219964
 20
151.619919
 11
123.946251
 21
151.619919
  0
LINE
  8
1
 62
7
  6
CONTINUOUS
 10
156.005872
 20
151.619919
 11
163.783650
 21
151.619919
  0
LINE
  8
1
 62
7
  6
CONTINUOUS
 10
119.613821
 20
148.395664
 11
119.613821
 21
155.035230
  0
LINE
  8
1
 62
7
  6
CONTINUOUS
 10
79.613821
 20
148.775068
 11
79.613821
 21
155.288166
  0
LINE
  8
1
 62
7
  6
CONTINUOUS
 10
159.613821
 20
148.585366
 11
159.613821
 21
155.288166
  0
LINE
  8
1
 62
7
  6
CONTINUOUS
 10
159.613821
 20
241.707919
 11
159.613821
 21
248.747967
  0
LINE
  8
1
 62
7
  6
CONTINUOUS
 10
155.626468
 20
245.619919
 11
163.363821
 21
245.619919
  0
LINE
  8
1
 62
7
  6
CONTINUOUS
 10
119.613821
 20
242.045167
 11
119.613821
 21
248.937669
  0
LINE
  8
1
 62
7
  6
CONTINUOUS
 10
79.613821
 20
241.960855
 11
79.613821
 21
248.937669
  0
ARC
  8
1
 62
7
  6
CONTINUOUS
 10
79.613821
 20
245.619919
 40
2.000000
 50
180.000000
 51
0.000000
  0
ARC
  8
1
 62
7
  6
CONTINUOUS
 10
159.613821
 20
245.619919
 40
2.000000
 50
180.000000
 51
0.000000
  0
ARC
  8
1
 62
7
  6
CONTINUOUS
 10
159.613821
 20
151.619919
 40
2.000000
 50
0.000000
 51
180.000000
  0
ARC
  8
1
 62
7
  6
CONTINUOUS
 10
79.613821
 20
151.619919
 40
2.000000
 50
0.000000
 51
180.000000
  0
DIMENSION
  8
1
 62
7
  6
CONTINUOUS
  2
*D6
 10
45.198886
 20
151.619919
 11
45.198886
 21
198.619919
 70
     0
  1
94
 13
73.572267
 23
151.619919
 14
73.863821
 24
245.619919
 50
90.000000
  0
DIMENSION
  8
1
 62
7
  6
CONTINUOUS
  2
*D7
 10
40.835742
 20
146.619919
 11
40.835742
 21
198.619919
 70
     0
  1
104
 13
60.113821
 23
146.619919
 14
60.113821
 24
250.619919
 50
90.000000
  0
DIMENSION
  8
1
 62
7
  6
CONTINUOUS
  2
*D8
 10
59.113821
 20
128.422764
 11
119.613821
 21
128.422764
 70
     0
  1
121
 13
59.113821
 23
154.619919
 14
180.113821
 24
154.619919
 50
0.000000
  0
DIMENSION
  8
1
 62
7
  6
CONTINUOUS
  2
*D9
 10
61.113821
 20
132.894309
 11
119.613821
 21
132.894309
 70
     0
  1
117
 13
61.113821
 23
156.619919
 14
178.113821
 24
156.619919
 50
0.000000
  0
DIMENSION
  8
1
 62
7
  6
CONTINUOUS
  2
*D10
 10
79.613821
 20
137.544715
 11
99.613821
 21
137.544715
 70
     0
  1
40
 13
79.613821
 23
146.775068
 14
119.613821
 24
146.395664
 50
0.000000
  0
DIMENSION
  8
1
 62
7
  6
CONTINUOUS
  2
*D11
 10
119.613821
 20
137.544715
 11
139.613821
 21
137.544715
 70
     0
  1
40
 13
119.613821
 23
146.395664
 14
159.613821
 24
146.585366
 50
0.000000
  0
DIMENSION
  8
1
 62
7
  6
CONTINUOUS
  2
*D12
 10
110.863821
 20
259.453252
 11
119.613821
 21
259.453252
 70
     0
  1
17.5
 13
110.863821
 23
235.932927
 14
128.363821
 24
235.038618
 50
0.000000
  0
DIMENSION
  8
1
 62
7
  6
CONTINUOUS
  2
*D13
 10
128.363821
 20
259.453252
 11
137.113821
 21
259.453252
 70
     0
  1
17.5
 13
128.363821
 23
237.038618
 14
145.863821
 24
235.255646
 50
0.000000
  0
DIMENSION
  8
1
 62
7
  6
CONTINUOUS
  2
*D14
 10
145.863821
 20
259.453252
 11
154.613821
 21
259.453252
 70
     0
  1
17.5
 13
145.863821
 23
235.255646
 14
163.363821
 24
235.255646
 50
0.000000
  0
DIMENSION
  8
1
 62
7
  6
CONTINUOUS
  2
*D15
 10
93.363821
 20
259.453252
 11
102.113821
 21
259.453252
 70
     0
  1
17.5
 13
93.363821
 23
235.932927
 14
110.863821
 24
235.038618
 50
0.000000
  0
DIMENSION
  8
1
 62
7
  6
CONTINUOUS
  2
*D16
 10
75.863821
 20
259.453252
 11
84.613821
 21
259.453252
 70
     0
  1
17.5
 13
75.863821
 23
235.932927
 14
93.363821
 24
235.038618
 50
0.000000
  0
LINE
  8
1
 62
7
  6
CONTINUOUS
 10
120.854641
 20
150.051364
 11
128.065041
 21
140.943089
  0
LINE
  8
1
 62
7
  6
CONTINUOUS
 10
128.065041
 20
140.943089
 11
135.303862
 21
140.943089
  0
TEXT
  8
1
 62
7
  6
CONTINUOUS
 10
129.053862
 20
140.764228
 40
3.000000
 41
0.520833
  1
2-φ4
  7
KANJI
 50
0.000000
 51
30.000000
  0
LINE
  8
1
 62
7
  6
CONTINUOUS
 10
120.854641
 20
150.051364
 11
122.860807
 21
148.559620
  0
LINE
  8
1
 62
7
  6
CONTINUOUS
 10
120.854641
 20
150.051364
 11
121.846160
 21
147.756393
  0
DIMENSION
  8
1
 62
7
  6
CONTINUOUS
  2
*D17
 10
157.613821
 20
140.406504
 11
159.613821
 21
140.406504
 70
     0
  1
4
 13
157.613821
 23
145.619919
 14
161.613821
 24
145.619919
 50
0.000000
  0
LINE
  8
1
 62
7
  6
CONTINUOUS
 10
62.113821
 20
250.619919
 11
77.413821
 21
250.619919
  0
LINE
  8
1
 62
7
  6
CONTINUOUS
 10
77.613821
 20
245.619919
 11
77.613821
 21
250.419919
  0
LINE
  8
1
 62
7
  6
CONTINUOUS
 10
77.413821
 20
250.619919
 11
77.613821
 21
250.419919
  0
LINE
  8
1
 62
7
  6
CONTINUOUS
 10
81.613821
 20
245.619919
 11
81.613821
 21
250.419919
  0
LINE
  8
1
 62
7
  6
CONTINUOUS
 10
81.613821
 20
250.419919
 11
81.813821
 21
250.619919
  0
LINE
  8
1
 62
7
  6
CONTINUOUS
 10
81.813821
 20
250.619919
 11
157.413821
 21
250.619919
  0
LINE
  8
1
 62
7
  6
CONTINUOUS
 10
157.613821
 20
245.619919
 11
157.613821
 21
250.419919
  0
LINE
  8
1
 62
7
  6
CONTINUOUS
 10
157.413821
 20
250.619919
 11
157.613821
 21
250.419919
  0
LINE
  8
1
 62
7
  6
CONTINUOUS
 10
161.613821
 20
245.619919
 11
161.613821
 21
250.419919
  0
LINE
  8
1
 62
7
  6
CONTINUOUS
 10
177.113821
 20
250.619919
 11
161.813821
 21
250.619919
  0
LINE
  8
1
 62
7
  6
CONTINUOUS
 10
161.613821
 20
250.419919
 11
161.813821
 21
250.619919
  0
LINE
  8
1
 62
7
  6
CONTINUOUS
 10
157.613821
 20
151.619919
 11
157.613821
 21
146.819919
  0
LINE
  8
1
 62
7
  6
CONTINUOUS
 10
157.413821
 20
146.619919
 11
157.613821
 21
146.819919
  0
LINE
  8
1
 62
7
  6
CONTINUOUS
 10
161.613821
 20
151.619919
 11
161.613821
 21
146.819919
  0
LINE
  8
1
 62
7
  6
CONTINUOUS
 10
177.113821
 20
146.619919
 11
161.813821
 21
146.619919
  0
LINE
  8
1
 62
7
  6
CONTINUOUS
 10
161.613821
 20
146.819919
 11
161.813821
 21
146.619919
  0
LINE
  8
1
 62
7
  6
CONTINUOUS
 10
157.413821
 20
146.619919
 11
81.813821
 21
146.619919
  0
LINE
  8
1
 62
7
  6
CONTINUOUS
 10
81.613821
 20
151.619919
 11
81.613821
 21
146.819919
  0
LINE
  8
1
 62
7
  6
CONTINUOUS
 10
81.813821
 20
146.619919
 11
81.613821
 21
146.819919
  0
LINE
  8
1
 62
7
  6
CONTINUOUS
 10
77.613821
 20
151.619919
 11
77.613821
 21
146.819919
  0
LINE
  8
1
 62
7
  6
CONTINUOUS
 10
62.113821
 20
146.619919
 11
77.413821
 21
146.619919
  0
LINE
  8
1
 62
7
  6
CONTINUOUS
 10
77.613821
 20
146.819919
 11
77.413821
 21
146.619919
  0
TEXT
  8
1
 62
7
  6
CONTINUOUS
 10
93.363821
 20
169.223050
 40
5.000000
 41
0.500000
  1
2
  7
KANJI
 50
0.000000
 51
0.000000
  0
TEXT
  8
1
 62
7
  6
CONTINUOUS
 10
110.863821
 20
169.223050
 40
5.000000
 41
0.500000
  1
3
  7
KANJI
 50
0.000000
 51
0.000000
  0
TEXT
  8
1
 62
7
  6
CONTINUOUS
 10
128.363821
 20
169.819256
 40
5.000000
 41
0.500000
  1
4
  7
KANJI
 50
0.000000
 51
0.000000
  0
TEXT
  8
1
 62
7
  6
CONTINUOUS
 10
145.863821
 20
170.176980
 40
5.000000
 41
0.500000
  1
5
  7
KANJI
 50
0.000000
 51
0.000000
  0
TEXT
  8
1
 62
7
  6
CONTINUOUS
 10
163.363821
 20
170.176980
 40
5.000000
 41
0.500000
  1
6
  7
KANJI
 50
0.000000
 51
0.000000
  0
TEXT
  8
1
 62
7
  6
CONTINUOUS
 10
75.863821
 20
186.513023
 40
5.000000
 41
0.500000
  1
7
  7
KANJI
 50
0.000000
 51
0.000000
  0
TEXT
  8
1
 62
7
  6
CONTINUOUS
 10
93.363821
 20
186.513023
 40
5.000000
 41
0.500000
  1
8
  7
KANJI
 50
0.000000
 51
0.000000
  0
TEXT
  8
1
 62
7
  6
CONTINUOUS
 10
110.863821
 20
186.513023
 40
5.000000
 41
0.500000
  1
9
  7
KANJI
 50
0.000000
 51
0.000000
  0
TEXT
  8
1
 62
7
  6
CONTINUOUS
 10
128.363821
 20
186.513023
 40
5.000000
 41
0.500000
  1
10
  7
KANJI
 50
0.000000
 51
0.000000
  0
TEXT
  8
1
 62
7
  6
CONTINUOUS
 10
145.863821
 20
186.592517
 40
5.000000
 41
0.500000
  1
11
  7
KANJI
 50
0.000000
 51
0.000000
  0
TEXT
  8
1
 62
7
  6
CONTINUOUS
 10
163.363821
 20
186.592517
 40
5.000000
 41
0.500000
  1
12
  7
KANJI
 50
0.000000
 51
0.000000
  0
TEXT
  8
1
 62
7
  6
CONTINUOUS
 10
75.863821
 20
203.763249
 40
5.000000
 41
0.500000
  1
13
  7
KANJI
 50
0.000000
 51
0.000000
  0
TEXT
  8
1
 62
7
  6
CONTINUOUS
 10
93.363821
 20
203.763249
 40
5.000000
 41
0.500000
  1
14
  7
KANJI
 50
0.000000
 51
0.000000
  0
TEXT
  8
1
 62
7
  6
CONTINUOUS
 10
110.863821
 20
203.763249
 40
5.000000
 41
0.500000
  1
15
  7
KANJI
 50
0.000000
 51
0.000000
  0
TEXT
  8
1
 62
7
  6
CONTINUOUS
 10
128.363821
 20
204.399202
 40
5.000000
 41
0.500000
  1
16
  7
KANJI
 50
0.000000
 51
0.000000
  0
TEXT
  8
1
 62
7
  6
CONTINUOUS
 10
145.863821
 20
204.240214
 40
5.000000
 41
0.500000
  1
17
  7
KANJI
 50
0.000000
 51
0.000000
  0
TEXT
  8
1
 62
7
  6
CONTINUOUS
 10
163.363821
 20
204.240214
 40
5.000000
 41
0.500000
  1
18
  7
KANJI
 50
0.000000
 51
0.000000
  0
TEXT
  8
1
 62
7
  6
CONTINUOUS
 10
74.702575
 20
221.410945
 40
5.000000
 41
0.500000
  1
19
  7
KANJI
 50
0.000000
 51
0.000000
  0
TEXT
  8
1
 62
7
  6
CONTINUOUS
 10
92.202575
 20
221.410945
 40
5.000000
 41
0.500000
  1
20
  7
KANJI
 50
0.000000
 51
0.000000
  0
TEXT
  8
1
 62
7
  6
CONTINUOUS
 10
109.702575
 20
221.410945
 40
5.000000
 41
0.500000
  1
21
  7
KANJI
 50
0.000000
 51
0.000000
  0
TEXT
  8
1
 62
7
  6
CONTINUOUS
 10
127.886856
 20
221.410945
 40
5.000000
 41
0.500000
  1
22
  7
KANJI
 50
0.000000
 51
0.000000
  0
TEXT
  8
1
 62
7
  6
CONTINUOUS
 10
144.838979
 20
221.013475
 40
5.000000
 41
0.500000
  1
23
  7
KANJI
 50
0.000000
 51
0.000000
  0
TEXT
  8
1
 62
7
  6
CONTINUOUS
 10
162.338979
 20
221.013475
 40
5.000000
 41
0.500000
  1
24
  7
KANJI
 50
0.000000
 51
0.000000
  0
LINE
  8
1
 62
7
  6
CONTINUOUS
 10
355.642276
 20
156.619919
 11
234.642276
 21
156.619919
  0
LINE
  8
1
 62
7
  6
CONTINUOUS
 10
355.642276
 20
240.619919
 11
234.642276
 21
240.619919
  0
ARC
  8
1
 62
7
  6
CONTINUOUS
 10
352.642276
 20
247.619919
 40
3.000000
 50
0.000000
 51
90.000000
  0
ARC
  8
1
 62
7
  6
CONTINUOUS
 10
237.642276
 20
247.619919
 40
3.000000
 50
90.000000
 51
180.000000
  0
LINE
  8
1
 62
7
  6
CONTINUOUS
 10
234.642276
 20
247.619919
 11
234.642276
 21
149.619919
  0
ARC
  8
1
 62
7
  6
CONTINUOUS
 10
237.642276
 20
149.619919
 40
3.000000
 50
180.000000
 51
-90.000000
  0
LINE
  8
1
 62
7
  6
CONTINUOUS
 10
355.642276
 20
149.619919
 11
355.642276
 21
247.619919
  0
ARC
  8
1
 62
7
  6
CONTINUOUS
 10
352.642276
 20
149.619919
 40
3.000000
 50
-90.000000
 51
0.000000
  0
CIRCLE
  8
1
 62
7
  6
CONTINUOUS
 10
295.142276
 20
151.619919
 40
2.000000
  0
CIRCLE
  8
1
 62
7
  6
CONTINUOUS
 10
295.142276
 20
245.619919
 40
2.000000
  0
ARC
  8
1
 62
7
  6
CONTINUOUS
 10
335.142276
 20
245.619919
 40
2.000000
 50
180.000000
 51
0.000000
  0
ARC
  8
1
 62
7
  6
CONTINUOUS
 10
255.142276
 20
245.619919
 40
2.000000
 50
180.000000
 51
0.000000
  0
ARC
  8
1
 62
7
  6
CONTINUOUS
 10
255.142276
 20
151.619919
 40
2.000000
 50
0.000000
 51
180.000000
  0
ARC
  8
1
 62
7
  6
CONTINUOUS
 10
335.142276
 20
151.619919
 40
2.000000
 50
0.000000
 51
180.000000
  0
LINE
  8
1
 62
7
  6
CONTINUOUS
 10
352.642276
 20
250.619919
 11
337.342276
 21
250.619919
  0
LINE
  8
1
 62
7
  6
CONTINUOUS
 10
337.142276
 20
245.619919
 11
337.142276
 21
250.419919
  0
LINE
  8
1
 62
7
  6
CONTINUOUS
 10
337.342276
 20
250.619919
 11
337.142276
 21
250.419919
  0
LINE
  8
1
 62
7
  6
CONTINUOUS
 10
333.142276
 20
245.619919
 11
333.142276
 21
250.419919
  0
LINE
  8
1
 62
7
  6
CONTINUOUS
 10
333.142276
 20
250.419919
 11
332.942276
 21
250.619919
  0
LINE
  8
1
 62
7
  6
CONTINUOUS
 10
332.942276
 20
250.619919
 11
257.342276
 21
250.619919
  0
LINE
  8
1
 62
7
  6
CONTINUOUS
 10
257.142276
 20
245.619919
 11
257.142276
 21
250.419919
  0
LINE
  8
1
 62
7
  6
CONTINUOUS
 10
257.342276
 20
250.619919
 11
257.142276
 21
250.419919
  0
LINE
  8
1
 62
7
  6
CONTINUOUS
 10
253.142276
 20
245.619919
 11
253.142276
 21
250.419919
  0
LINE
  8
1
 62
7
  6
CONTINUOUS
 10
237.642276
 20
250.619919
 11
252.942276
 21
250.619919
  0
LINE
  8
1
 62
7
  6
CONTINUOUS
 10
253.142276
 20
250.419919
 11
252.942276
 21
250.619919
  0
LINE
  8
1
 62
7
  6
CONTINUOUS
 10
257.142276
 20
151.619919
 11
257.142276
 21
146.819919
  0
LINE
  8
1
 62
7
  6
CONTINUOUS
 10
257.342276
 20
146.619919
 11
257.142276
 21
146.819919
  0
LINE
  8
1
 62
7
  6
CONTINUOUS
 10
253.142276
 20
151.619919
 11
253.142276
 21
146.819919
  0
LINE
  8
1
 62
7
  6
CONTINUOUS
 10
237.642276
 20
146.619919
 11
252.942276
 21
146.619919
  0
LINE
  8
1
 62
7
  6
CONTINUOUS
 10
253.142276
 20
146.819919
 11
252.942276
 21
146.619919
  0
LINE
  8
1
 62
7
  6
CONTINUOUS
 10
257.342276
 20
146.619919
 11
332.942276
 21
146.619919
  0
LINE
  8
1
 62
7
  6
CONTINUOUS
 10
333.142276
 20
151.619919
 11
333.142276
 21
146.819919
  0
LINE
  8
1
 62
7
  6
CONTINUOUS
 10
332.942276
 20
146.619919
 11
333.142276
 21
146.819919
  0
LINE
  8
1
 62
7
  6
CONTINUOUS
 10
337.142276
 20
151.619919
 11
337.142276
 21
146.819919
  0
LINE
  8
1
 62
7
  6
CONTINUOUS
 10
352.642276
 20
146.619919
 11
337.342276
 21
146.619919
  0
LINE
  8
1
 62
7
  6
CONTINUOUS
 10
337.142276
 20
146.819919
 11
337.342276
 21
146.619919
  0
LINE
  8
1
 62
7
  6
CONTINUOUS
 10
354.715447
 20
157.427507
 11
354.715447
 21
239.573848
  0
LINE
  8
1
 62
7
  6
CONTINUOUS
 10
235.569106
 20
239.573848
 11
235.569106
 21
157.427507
  0
LINE
  8
1
 62
7
  6
CONTINUOUS
 10
235.569106
 20
157.427507
 11
354.715447
 21
157.427507
  0
LINE
  8
1
 62
7
  6
CONTINUOUS
 10
354.715447
 20
239.573848
 11
235.569106
 21
239.573848
  0
CIRCLE
  8
1
 62
7
  6
CONTINUOUS
 10
239.602809
 20
235.799051
 40
2.000000
  0
LINE
  8
1
 62
7
  6
CONTINUOUS
 10
239.310840
 20
236.765366
 11
239.310840
 21
236.091020
  0
ARC
  8
1
 62
7
  6
CONTINUOUS
 10
239.510840
 20
236.765366
 40
0.200000
 50
90.000000
 51
180.000000
  0
LINE
  8
1
 62
7
  6
CONTINUOUS
 10
239.735373
 20
236.965366
 11
239.510840
 21
236.965366
  0
LINE
  8
1
 62
7
  6
CONTINUOUS
 10
239.935373
 20
236.091020
 11
239.935373
 21
236.765366
  0
ARC
  8
1
 62
7
  6
CONTINUOUS
 10
239.735373
 20
236.765366
 40
0.200000
 50
0.000000
 51
90.000000
  0
LINE
  8
1
 62
7
  6
CONTINUOUS
 10
239.935373
 20
234.792141
 11
239.935373
 21
235.516450
  0
ARC
  8
1
 62
7
  6
CONTINUOUS
 10
239.735373
 20
234.792141
 40
0.200000
 50
-90.000000
 51
0.000000
  0
LINE
  8
1
 62
7
  6
CONTINUOUS
 10
239.510840
 20
234.592141
 11
239.735373
 21
234.592141
  0
LINE
  8
1
 62
7
  6
CONTINUOUS
 10
239.310840
 20
235.516450
 11
239.310840
 21
234.792141
  0
ARC
  8
1
 62
7
  6
CONTINUOUS
 10
239.510840
 20
234.792141
 40
0.200000
 50
180.000000
 51
-90.000000
  0
LINE
  8
1
 62
7
  6
CONTINUOUS
 10
240.609719
 20
236.091020
 11
239.935373
 21
236.091020
  0
ARC
  8
1
 62
7
  6
CONTINUOUS
 10
240.609719
 20
235.891020
 40
0.200000
 50
0.000000
 51
90.000000
  0
LINE
  8
1
 62
7
  6
CONTINUOUS
 10
240.809719
 20
235.716450
 11
240.809719
 21
235.891020
  0
LINE
  8
1
 62
7
  6
CONTINUOUS
 10
239.935373
 20
235.516450
 11
240.609719
 21
235.516450
  0
ARC
  8
1
 62
7
  6
CONTINUOUS
 10
240.609719
 20
235.716450
 40
0.200000
 50
-90.000000
 51
0.000000
  0
LINE
  8
1
 62
7
  6
CONTINUOUS
 10
238.511587
 20
235.516450
 11
239.310840
 21
235.516450
  0
ARC
  8
1
 62
7
  6
CONTINUOUS
 10
238.511587
 20
235.716450
 40
0.200000
 50
-180.000000
 51
-90.000000
  0
LINE
  8
1
 62
7
  6
CONTINUOUS
 10
238.311587
 20
235.891020
 11
238.311587
 21
235.716450
  0
LINE
  8
1
 62
7
  6
CONTINUOUS
 10
239.310840
 20
236.091020
 11
238.511587
 21
236.091020
  0
ARC
  8
1
 62
7
  6
CONTINUOUS
 10
238.511587
 20
235.891020
 40
0.200000
 50
90.000000
 51
-180.000000
  0
CIRCLE
  8
1
 62
7
  6
CONTINUOUS
 10
351.212565
 20
235.799051
 40
2.000000
  0
LINE
  8
1
 62
7
  6
CONTINUOUS
 10
350.920596
 20
236.765366
 11
350.920596
 21
236.091020
  0
ARC
  8
1
 62
7
  6
CONTINUOUS
 10
351.120596
 20
236.765366
 40
0.200000
 50
90.000000
 51
180.000000
  0
LINE
  8
1
 62
7
  6
CONTINUOUS
 10
351.345129
 20
236.965366
 11
351.120596
 21
236.965366
  0
LINE
  8
1
 62
7
  6
CONTINUOUS
 10
351.545129
 20
236.091020
 11
351.545129
 21
236.765366
  0
ARC
  8
1
 62
7
  6
CONTINUOUS
 10
351.345129
 20
236.765366
 40
0.200000
 50
0.000000
 51
90.000000
  0
LINE
  8
1
 62
7
  6
CONTINUOUS
 10
351.545129
 20
234.792141
 11
351.545129
 21
235.516450
  0
ARC
  8
1
 62
7
  6
CONTINUOUS
 10
351.345129
 20
234.792141
 40
0.200000
 50
-90.000000
 51
0.000000
  0
LINE
  8
1
 62
7
  6
CONTINUOUS
 10
351.120596
 20
234.592141
 11
351.345129
 21
234.592141
  0
LINE
  8
1
 62
7
  6
CONTINUOUS
 10
350.920596
 20
235.516450
 11
350.920596
 21
234.792141
  0
ARC
  8
1
 62
7
  6
CONTINUOUS
 10
351.120596
 20
234.792141
 40
0.200000
 50
180.000000
 51
-90.000000
  0
LINE
  8
1
 62
7
  6
CONTINUOUS
 10
352.219475
 20
236.091020
 11
351.545129
 21
236.091020
  0
ARC
  8
1
 62
7
  6
CONTINUOUS
 10
352.219475
 20
235.891020
 40
0.200000
 50
0.000000
 51
90.000000
  0
LINE
  8
1
 62
7
  6
CONTINUOUS
 10
352.419475
 20
235.716450
 11
352.419475
 21
235.891020
  0
LINE
  8
1
 62
7
  6
CONTINUOUS
 10
351.545129
 20
235.516450
 11
352.219475
 21
235.516450
  0
ARC
  8
1
 62
7
  6
CONTINUOUS
 10
352.219475
 20
235.716450
 40
0.200000
 50
-90.000000
 51
0.000000
  0
LINE
  8
1
 62
7
  6
CONTINUOUS
 10
350.121343
 20
235.516450
 11
350.920596
 21
235.516450
  0
ARC
  8
1
 62
7
  6
CONTINUOUS
 10
350.121343
 20
235.716450
 40
0.200000
 50
-180.000000
 51
-90.000000
  0
LINE
  8
1
 62
7
  6
CONTINUOUS
 10
349.921343
 20
235.891020
 11
349.921343
 21
235.716450
  0
LINE
  8
1
 62
7
  6
CONTINUOUS
 10
350.920596
 20
236.091020
 11
350.121343
 21
236.091020
  0
ARC
  8
1
 62
7
  6
CONTINUOUS
 10
350.121343
 20
235.891020
 40
0.200000
 50
90.000000
 51
-180.000000
  0
CIRCLE
  8
1
 62
7
  6
CONTINUOUS
 10
351.212565
 20
161.034823
 40
2.000000
  0
LINE
  8
1
 62
7
  6
CONTINUOUS
 10
350.920596
 20
162.001139
 11
350.920596
 21
161.326792
  0
ARC
  8
1
 62
7
  6
CONTINUOUS
 10
351.120596
 20
162.001139
 40
0.200000
 50
90.000000
 51
180.000000
  0
LINE
  8
1
 62
7
  6
CONTINUOUS
 10
351.345129
 20
162.201139
 11
351.120596
 21
162.201139
  0
LINE
  8
1
 62
7
  6
CONTINUOUS
 10
351.545129
 20
161.326792
 11
351.545129
 21
162.001139
  0
ARC
  8
1
 62
7
  6
CONTINUOUS
 10
351.345129
 20
162.001139
 40
0.200000
 50
0.000000
 51
90.000000
  0
LINE
  8
1
 62
7
  6
CONTINUOUS
 10
351.545129
 20
160.027913
 11
351.545129
 21
160.752222
  0
ARC
  8
1
 62
7
  6
CONTINUOUS
 10
351.345129
 20
160.027913
 40
0.200000
 50
-90.000000
 51
0.000000
  0
LINE
  8
1
 62
7
  6
CONTINUOUS
 10
351.120596
 20
159.827913
 11
351.345129
 21
159.827913
  0
LINE
  8
1
 62
7
  6
CONTINUOUS
 10
350.920596
 20
160.752222
 11
350.920596
 21
160.027913
  0
ARC
  8
1
 62
7
  6
CONTINUOUS
 10
351.120596
 20
160.027913
 40
0.200000
 50
180.000000
 51
-90.000000
  0
LINE
  8
1
 62
7
  6
CONTINUOUS
 10
352.219475
 20
161.326792
 11
351.545129
 21
161.326792
  0
ARC
  8
1
 62
7
  6
CONTINUOUS
 10
352.219475
 20
161.126792
 40
0.200000
 50
0.000000
 51
90.000000
  0
LINE
  8
1
 62
7
  6
CONTINUOUS
 10
352.419475
 20
160.952222
 11
352.419475
 21
161.126792
  0
LINE
  8
1
 62
7
  6
CONTINUOUS
 10
351.545129
 20
160.752222
 11
352.219475
 21
160.752222
  0
ARC
  8
1
 62
7
  6
CONTINUOUS
 10
352.219475
 20
160.952222
 40
0.200000
 50
-90.000000
 51
0.000000
  0
LINE
  8
1
 62
7
  6
CONTINUOUS
 10
350.121343
 20
160.752222
 11
350.920596
 21
160.752222
  0
ARC
  8
1
 62
7
  6
CONTINUOUS
 10
350.121343
 20
160.952222
 40
0.200000
 50
-180.000000
 51
-90.000000
  0
LINE
  8
1
 62
7
  6
CONTINUOUS
 10
349.921343
 20
161.126792
 11
349.921343
 21
160.952222
  0
LINE
  8
1
 62
7
  6
CONTINUOUS
 10
350.920596
 20
161.326792
 11
350.121343
 21
161.326792
  0
ARC
  8
1
 62
7
  6
CONTINUOUS
 10
350.121343
 20
161.126792
 40
0.200000
 50
90.000000
 51
-180.000000
  0
CIRCLE
  8
1
 62
7
  6
CONTINUOUS
 10
239.066224
 20
160.677100
 40
2.000000
  0
LINE
  8
1
 62
7
  6
CONTINUOUS
 10
238.774255
 20
161.643415
 11
238.774255
 21
160.969069
  0
ARC
  8
1
 62
7
  6
CONTINUOUS
 10
238.974255
 20
161.643415
 40
0.200000
 50
90.000000
 51
180.000000
  0
LINE
  8
1
 62
7
  6
CONTINUOUS
 10
239.198788
 20
161.843415
 11
238.974255
 21
161.843415
  0
LINE
  8
1
 62
7
  6
CONTINUOUS
 10
239.398788
 20
160.969069
 11
239.398788
 21
161.643415
  0
ARC
  8
1
 62
7
  6
CONTINUOUS
 10
239.198788
 20
161.643415
 40
0.200000
 50
0.000000
 51
90.000000
  0
LINE
  8
1
 62
7
  6
CONTINUOUS
 10
239.398788
 20
159.670190
 11
239.398788
 21
160.394499
  0
ARC
  8
1
 62
7
  6
CONTINUOUS
 10
239.198788
 20
159.670190
 40
0.200000
 50
-90.000000
 51
0.000000
  0
LINE
  8
1
 62
7
  6
CONTINUOUS
 10
238.974255
 20
159.470190
 11
239.198788
 21
159.470190
  0
LINE
  8
1
 62
7
  6
CONTINUOUS
 10
238.774255
 20
160.394499
 11
238.774255
 21
159.670190
  0
ARC
  8
1
 62
7
  6
CONTINUOUS
 10
238.974255
 20
159.670190
 40
0.200000
 50
180.000000
 51
-90.000000
  0
LINE
  8
1
 62
7
  6
CONTINUOUS
 10
240.073134
 20
160.969069
 11
239.398788
 21
160.969069
  0
ARC
  8
1
 62
7
  6
CONTINUOUS
 10
240.073134
 20
160.769069
 40
0.200000
 50
0.000000
 51
90.000000
  0
LINE
  8
1
 62
7
  6
CONTINUOUS
 10
240.273134
 20
160.594499
 11
240.273134
 21
160.769069
  0
LINE
  8
1
 62
7
  6
CONTINUOUS
 10
239.398788
 20
160.394499
 11
240.073134
 21
160.394499
  0
ARC
  8
1
 62
7
  6
CONTINUOUS
 10
240.073134
 20
160.594499
 40
0.200000
 50
-90.000000
 51
0.000000
  0
LINE
  8
1
 62
7
  6
CONTINUOUS
 10
237.975002
 20
160.394499
 11
238.774255
 21
160.394499
  0
ARC
  8
1
 62
7
  6
CONTINUOUS
 10
237.975002
 20
160.594499
 40
0.200000
 50
-180.000000
 51
-90.000000
  0
LINE
  8
1
 62
7
  6
CONTINUOUS
 10
237.775002
 20
160.769069
 11
237.775002
 21
160.594499
  0
LINE
  8
1
 62
7
  6
CONTINUOUS
 10
238.774255
 20
160.969069
 11
237.975002
 21
160.969069
  0
ARC
  8
1
 62
7
  6
CONTINUOUS
 10
237.975002
 20
160.769069
 40
0.200000
 50
90.000000
 51
-180.000000
  0
CIRCLE
  8
1
 62
7
  6
CONTINUOUS
 10
276.806061
 20
199.847831
 40
2.000000
  0
LINE
  8
1
 62
7
  6
CONTINUOUS
 10
276.514092
 20
200.814147
 11
276.514092
 21
200.139801
  0
ARC
  8
1
 62
7
  6
CONTINUOUS
 10
276.714092
 20
200.814147
 40
0.200000
 50
90.000000
 51
180.000000
  0
LINE
  8
1
 62
7
  6
CONTINUOUS
 10
276.938625
 20
201.014147
 11
276.714092
 21
201.014147
  0
LINE
  8
1
 62
7
  6
CONTINUOUS
 10
277.138625
 20
200.139801
 11
277.138625
 21
200.814147
  0
ARC
  8
1
 62
7
  6
CONTINUOUS
 10
276.938625
 20
200.814147
 40
0.200000
 50
0.000000
 51
90.000000
  0
LINE
  8
1
 62
7
  6
CONTINUOUS
 10
277.138625
 20
198.840921
 11
277.138625
 21
199.565230
  0
ARC
  8
1
 62
7
  6
CONTINUOUS
 10
276.938625
 20
198.840921
 40
0.200000
 50
-90.000000
 51
0.000000
  0
LINE
  8
1
 62
7
  6
CONTINUOUS
 10
276.714092
 20
198.640921
 11
276.938625
 21
198.640921
  0
LINE
  8
1
 62
7
  6
CONTINUOUS
 10
276.514092
 20
199.565230
 11
276.514092
 21
198.840921
  0
ARC
  8
1
 62
7
  6
CONTINUOUS
 10
276.714092
 20
198.840921
 40
0.200000
 50
180.000000
 51
-90.000000
  0
LINE
  8
1
 62
7
  6
CONTINUOUS
 10
277.812971
 20
200.139801
 11
277.138625
 21
200.139801
  0
ARC
  8
1
 62
7
  6
CONTINUOUS
 10
277.812971
 20
199.939801
 40
0.200000
 50
0.000000
 51
90.000000
  0
LINE
  8
1
 62
7
  6
CONTINUOUS
 10
278.012971
 20
199.765230
 11
278.012971
 21
199.939801
  0
LINE
  8
1
 62
7
  6
CONTINUOUS
 10
277.138625
 20
199.565230
 11
277.812971
 21
199.565230
  0
ARC
  8
1
 62
7
  6
CONTINUOUS
 10
277.812971
 20
199.765230
 40
0.200000
 50
-90.000000
 51
0.000000
  0
LINE
  8
1
 62
7
  6
CONTINUOUS
 10
275.714839
 20
199.565230
 11
276.514092
 21
199.565230
  0
ARC
  8
1
 62
7
  6
CONTINUOUS
 10
275.714839
 20
199.765230
 40
0.200000
 50
-180.000000
 51
-90.000000
  0
LINE
  8
1
 62
7
  6
CONTINUOUS
 10
275.514839
 20
199.939801
 11
275.514839
 21
199.765230
  0
LINE
  8
1
 62
7
  6
CONTINUOUS
 10
276.514092
 20
200.139801
 11
275.714839
 21
200.139801
  0
ARC
  8
1
 62
7
  6
CONTINUOUS
 10
275.714839
 20
199.939801
 40
0.200000
 50
90.000000
 51
-180.000000
  0
CIRCLE
  8
1
 62
7
  6
CONTINUOUS
 10
308.106874
 20
200.026693
 40
2.000000
  0
LINE
  8
1
 62
7
  6
CONTINUOUS
 10
307.814905
 20
200.993009
 11
307.814905
 21
200.318662
  0
ARC
  8
1
 62
7
  6
CONTINUOUS
 10
308.014905
 20
200.993009
 40
0.200000
 50
90.000000
 51
180.000000
  0
LINE
  8
1
 62
7
  6
CONTINUOUS
 10
308.239438
 20
201.193009
 11
308.014905
 21
201.193009
  0
LINE
  8
1
 62
7
  6
CONTINUOUS
 10
308.439438
 20
200.318662
 11
308.439438
 21
200.993009
  0
ARC
  8
1
 62
7
  6
CONTINUOUS
 10
308.239438
 20
200.993009
 40
0.200000
 50
0.000000
 51
90.000000
  0
LINE
  8
1
 62
7
  6
CONTINUOUS
 10
308.439438
 20
199.019783
 11
308.439438
 21
199.744092
  0
ARC
  8
1
 62
7
  6
CONTINUOUS
 10
308.239438
 20
199.019783
 40
0.200000
 50
-90.000000
 51
0.000000
  0
LINE
  8
1
 62
7
  6
CONTINUOUS
 10
308.014905
 20
198.819783
 11
308.239438
 21
198.819783
  0
LINE
  8
1
 62
7
  6
CONTINUOUS
 10
307.814905
 20
199.744092
 11
307.814905
 21
199.019783
  0
ARC
  8
1
 62
7
  6
CONTINUOUS
 10
308.014905
 20
199.019783
 40
0.200000
 50
180.000000
 51
-90.000000
  0
LINE
  8
1
 62
7
  6
CONTINUOUS
 10
309.113784
 20
200.318662
 11
308.439438
 21
200.318662
  0
ARC
  8
1
 62
7
  6
CONTINUOUS
 10
309.113784
 20
200.118662
 40
0.200000
 50
0.000000
 51
90.000000
  0
LINE
  8
1
 62
7
  6
CONTINUOUS
 10
309.313784
 20
199.944092
 11
309.313784
 21
200.118662
  0
LINE
  8
1
 62
7
  6
CONTINUOUS
 10
308.439438
 20
199.744092
 11
309.113784
 21
199.744092
  0
ARC
  8
1
 62
7
  6
CONTINUOUS
 10
309.113784
 20
199.944092
 40
0.200000
 50
-90.000000
 51
0.000000
  0
LINE
  8
1
 62
7
  6
CONTINUOUS
 10
307.015652
 20
199.744092
 11
307.814905
 21
199.744092
  0
ARC
  8
1
 62
7
  6
CONTINUOUS
 10
307.015652
 20
199.944092
 40
0.200000
 50
-180.000000
 51
-90.000000
  0
LINE
  8
1
 62
7
  6
CONTINUOUS
 10
306.815652
 20
200.118662
 11
306.815652
 21
199.944092
  0
LINE
  8
1
 62
7
  6
CONTINUOUS
 10
307.814905
 20
200.318662
 11
307.015652
 21
200.318662
  0
ARC
  8
1
 62
7
  6
CONTINUOUS
 10
307.015652
 20
200.118662
 40
0.200000
 50
90.000000
 51
-180.000000
  0
LINE
  8
1
 62
7
  6
CONTINUOUS
 10
337.775888
 20
232.803523
 11
337.182258
 21
232.803523
  0
LINE
  8
1
 62
7
  6
CONTINUOUS
 10
309.743846
 20
232.803523
 11
310.250822
 21
232.803523
  0
LINE
  8
1
 62
7
  6
CONTINUOUS
 10
311.570605
 20
235.933604
 11
311.570605
 21
234.795393
  0
LINE
  8
1
 62
7
  6
CONTINUOUS
 10
311.570605
 20
234.795393
 11
312.708817
 21
234.795393
  0
LINE
  8
1
 62
7
  6
CONTINUOUS
 10
312.708817
 20
234.795393
 11
312.708817
 21
235.933604
  0
LINE
  8
1
 62
7
  6
CONTINUOUS
 10
312.708817
 20
235.933604
 11
311.570605
 21
235.933604
  0
LINE
  8
1
 62
7
  6
CONTINUOUS
 10
314.110605
 20
235.933604
 11
314.110605
 21
234.795393
  0
LINE
  8
1
 62
7
  6
CONTINUOUS
 10
314.110605
 20
234.795393
 11
315.248817
 21
234.795393
  0
LINE
  8
1
 62
7
  6
CONTINUOUS
 10
315.248817
 20
234.795393
 11
315.248817
 21
235.933604
  0
LINE
  8
1
 62
7
  6
CONTINUOUS
 10
315.248817
 20
235.933604
 11
314.110605
 21
235.933604
  0
LINE
  8
1
 62
7
  6
CONTINUOUS
 10
316.650605
 20
235.933604
 11
316.650605
 21
234.795393
  0
LINE
  8
1
 62
7
  6
CONTINUOUS
 10
316.650605
 20
234.795393
 11
317.788817
 21
234.795393
  0
LINE
  8
1
 62
7
  6
CONTINUOUS
 10
317.788817
 20
234.795393
 11
317.788817
 21
235.933604
  0
LINE
  8
1
 62
7
  6
CONTINUOUS
 10
317.788817
 20
235.933604
 11
316.650605
 21
235.933604
  0
LINE
  8
1
 62
7
  6
CONTINUOUS
 10
319.190605
 20
235.933604
 11
319.190605
 21
234.795393
  0
LINE
  8
1
 62
7
  6
CONTINUOUS
 10
319.190605
 20
234.795393
 11
320.328817
 21
234.795393
  0
LINE
  8
1
 62
7
  6
CONTINUOUS
 10
320.328817
 20
234.795393
 11
320.328817
 21
235.933604
  0
LINE
  8
1
 62
7
  6
CONTINUOUS
 10
320.328817
 20
235.933604
 11
319.190605
 21
235.933604
  0
LINE
  8
1
 62
7
  6
CONTINUOUS
 10
321.730605
 20
235.933604
 11
321.730605
 21
234.795393
  0
LINE
  8
1
 62
7
  6
CONTINUOUS
 10
321.730605
 20
234.795393
 11
322.868817
 21
234.795393
  0
LINE
  8
1
 62
7
  6
CONTINUOUS
 10
322.868817
 20
234.795393
 11
322.868817
 21
235.933604
  0
LINE
  8
1
 62
7
  6
CONTINUOUS
 10
322.868817
 20
235.933604
 11
321.730605
 21
235.933604
  0
LINE
  8
1
 62
7
  6
CONTINUOUS
 10
324.270605
 20
235.933604
 11
324.270605
 21
234.795393
  0
LINE
  8
1
 62
7
  6
CONTINUOUS
 10
324.270605
 20
234.795393
 11
325.408817
 21
234.795393
  0
LINE
  8
1
 62
7
  6
CONTINUOUS
 10
325.408817
 20
234.795393
 11
325.408817
 21
235.933604
  0
LINE
  8
1
 62
7
  6
CONTINUOUS
 10
325.408817
 20
235.933604
 11
324.270605
 21
235.933604
  0
LINE
  8
1
 62
7
  6
CONTINUOUS
 10
326.810605
 20
235.933604
 11
326.810605
 21
234.795393
  0
LINE
  8
1
 62
7
  6
CONTINUOUS
 10
326.810605
 20
234.795393
 11
327.948817
 21
234.795393
  0
LINE
  8
1
 62
7
  6
CONTINUOUS
 10
327.948817
 20
234.795393
 11
327.948817
 21
235.933604
  0
LINE
  8
1
 62
7
  6
CONTINUOUS
 10
327.948817
 20
235.933604
 11
326.810605
 21
235.933604
  0
LINE
  8
1
 62
7
  6
CONTINUOUS
 10
329.350605
 20
235.933604
 11
329.350605
 21
234.795393
  0
LINE
  8
1
 62
7
  6
CONTINUOUS
 10
329.350605
 20
234.795393
 11
330.488817
 21
234.795393
  0
LINE
  8
1
 62
7
  6
CONTINUOUS
 10
330.488817
 20
234.795393
 11
330.488817
 21
235.933604
  0
LINE
  8
1
 62
7
  6
CONTINUOUS
 10
330.488817
 20
235.933604
 11
329.350605
 21
235.933604
  0
LINE
  8
1
 62
7
  6
CONTINUOUS
 10
331.890605
 20
235.933604
 11
331.890605
 21
234.795393
  0
LINE
  8
1
 62
7
  6
CONTINUOUS
 10
331.890605
 20
234.795393
 11
333.028817
 21
234.795393
  0
LINE
  8
1
 62
7
  6
CONTINUOUS
 10
333.028817
 20
234.795393
 11
333.028817
 21
235.933604
  0
LINE
  8
1
 62
7
  6
CONTINUOUS
 10
333.028817
 20
235.933604
 11
331.890605
 21
235.933604
  0
LINE
  8
1
 62
7
  6
CONTINUOUS
 10
334.430605
 20
235.933604
 11
334.430605
 21
234.795393
  0
LINE
  8
1
 62
7
  6
CONTINUOUS
 10
334.430605
 20
234.795393
 11
335.568817
 21
234.795393
  0
LINE
  8
1
 62
7
  6
CONTINUOUS
 10
335.568817
 20
234.795393
 11
335.568817
 21
235.933604
  0
LINE
  8
1
 62
7
  6
CONTINUOUS
 10
335.568817
 20
235.933604
 11
334.430605
 21
235.933604
  0
LINE
  8
1
 62
7
  6
CONTINUOUS
 10
337.775888
 20
233.850137
 11
337.775888
 21
232.803523
  0
LINE
  8
1
 62
7
  6
CONTINUOUS
 10
337.182258
 20
233.850137
 11
337.775888
 21
233.850137
  0
LINE
  8
1
 62
7
  6
CONTINUOUS
 10
337.182258
 20
233.850137
 11
337.182258
 21
237.735772
  0
LINE
  8
1
 62
7
  6
CONTINUOUS
 10
337.176336
 20
238.084471
 11
337.176336
 21
236.997783
  0
LINE
  8
1
 62
7
  6
CONTINUOUS
 10
337.176336
 20
236.997783
 11
339.199823
 21
236.997783
  0
LINE
  8
1
 62
7
  6
CONTINUOUS
 10
339.199823
 20
236.997783
 11
339.199823
 21
238.084471
  0
LINE
  8
1
 62
7
  6
CONTINUOUS
 10
339.199823
 20
238.084471
 11
337.176336
 21
238.084471
  0
LINE
  8
1
 62
7
  6
CONTINUOUS
 10
308.338647
 20
238.018895
 11
308.338647
 21
237.007151
  0
LINE
  8
1
 62
7
  6
CONTINUOUS
 10
308.338647
 20
237.007151
 11
310.250822
 21
237.007151
  0
LINE
  8
1
 62
7
  6
CONTINUOUS
 10
310.250822
 20
237.007151
 11
310.250822
 21
238.018895
  0
LINE
  8
1
 62
7
  6
CONTINUOUS
 10
310.250822
 20
238.018895
 11
308.338647
 21
238.018895
  0
LINE
  8
1
 62
7
  6
CONTINUOUS
 10
309.743846
 20
233.850137
 11
309.743846
 21
232.803523
  0
LINE
  8
1
 62
7
  6
CONTINUOUS
 10
310.250822
 20
233.850137
 11
309.743846
 21
233.850137
  0
LINE
  8
1
 62
7
  6
CONTINUOUS
 10
310.250822
 20
232.803523
 11
337.182258
 21
232.803523
  0
LINE
  8
1
 62
7
  6
CONTINUOUS
 10
337.182258
 20
237.735772
 11
310.250822
 21
237.735772
  0
LINE
  8
1
 62
7
  6
CONTINUOUS
 10
310.250822
 20
237.735772
 11
310.250822
 21
233.887609
  0
LINE
  8
1
 62
7
  6
CONTINUOUS
 10
252.053028
 20
237.994505
 11
252.053028
 21
236.982761
  0
LINE
  8
1
 62
7
  6
CONTINUOUS
 10
252.053028
 20
236.982761
 11
253.965203
 21
236.982761
  0
LINE
  8
1
 62
7
  6
CONTINUOUS
 10
253.965203
 20
236.982761
 11
253.965203
 21
237.994505
  0
LINE
  8
1
 62
7
  6
CONTINUOUS
 10
253.965203
 20
237.994505
 11
252.053028
 21
237.994505
  0
LINE
  8
1
 62
7
  6
CONTINUOUS
 10
253.458227
 20
233.825747
 11
253.458227
 21
232.779133
  0
LINE
  8
1
 62
7
  6
CONTINUOUS
 10
253.458227
 20
232.779133
 11
253.965203
 21
232.779133
  0
LINE
  8
1
 62
7
  6
CONTINUOUS
 10
253.965203
 20
233.825747
 11
253.458227
 21
233.825747
  0
LINE
  8
1
 62
7
  6
CONTINUOUS
 10
255.284986
 20
235.909214
 11
255.284986
 21
234.771003
  0
LINE
  8
1
 62
7
  6
CONTINUOUS
 10
255.284986
 20
234.771003
 11
256.423198
 21
234.771003
  0
LINE
  8
1
 62
7
  6
CONTINUOUS
 10
256.423198
 20
234.771003
 11
256.423198
 21
235.909214
  0
LINE
  8
1
 62
7
  6
CONTINUOUS
 10
256.423198
 20
235.909214
 11
255.284986
 21
235.909214
  0
LINE
  8
1
 62
7
  6
CONTINUOUS
 10
257.824986
 20
235.909214
 11
257.824986
 21
234.771003
  0
LINE
  8
1
 62
7
  6
CONTINUOUS
 10
257.824986
 20
234.771003
 11
258.963198
 21
234.771003
  0
LINE
  8
1
 62
7
  6
CONTINUOUS
 10
258.963198
 20
234.771003
 11
258.963198
 21
235.909214
  0
LINE
  8
1
 62
7
  6
CONTINUOUS
 10
258.963198
 20
235.909214
 11
257.824986
 21
235.909214
  0
LINE
  8
1
 62
7
  6
CONTINUOUS
 10
260.364986
 20
235.909214
 11
260.364986
 21
234.771003
  0
LINE
  8
1
 62
7
  6
CONTINUOUS
 10
260.364986
 20
234.771003
 11
261.503198
 21
234.771003
  0
LINE
  8
1
 62
7
  6
CONTINUOUS
 10
261.503198
 20
234.771003
 11
261.503198
 21
235.909214
  0
LINE
  8
1
 62
7
  6
CONTINUOUS
 10
261.503198
 20
235.909214
 11
260.364986
 21
235.909214
  0
LINE
  8
1
 62
7
  6
CONTINUOUS
 10
262.904986
 20
235.909214
 11
262.904986
 21
234.771003
  0
LINE
  8
1
 62
7
  6
CONTINUOUS
 10
262.904986
 20
234.771003
 11
264.043198
 21
234.771003
  0
LINE
  8
1
 62
7
  6
CONTINUOUS
 10
264.043198
 20
234.771003
 11
264.043198
 21
235.909214
  0
LINE
  8
1
 62
7
  6
CONTINUOUS
 10
264.043198
 20
235.909214
 11
262.904986
 21
235.909214
  0
LINE
  8
1
 62
7
  6
CONTINUOUS
 10
265.444986
 20
235.909214
 11
265.444986
 21
234.771003
  0
LINE
  8
1
 62
7
  6
CONTINUOUS
 10
265.444986
 20
234.771003
 11
266.583198
 21
234.771003
  0
LINE
  8
1
 62
7
  6
CONTINUOUS
 10
266.583198
 20
234.771003
 11
266.583198
 21
235.909214
  0
LINE
  8
1
 62
7
  6
CONTINUOUS
 10
266.583198
 20
235.909214
 11
265.444986
 21
235.909214
  0
LINE
  8
1
 62
7
  6
CONTINUOUS
 10
267.984986
 20
235.909214
 11
267.984986
 21
234.771003
  0
LINE
  8
1
 62
7
  6
CONTINUOUS
 10
267.984986
 20
234.771003
 11
269.123198
 21
234.771003
  0
LINE
  8
1
 62
7
  6
CONTINUOUS
 10
269.123198
 20
234.771003
 11
269.123198
 21
235.909214
  0
LINE
  8
1
 62
7
  6
CONTINUOUS
 10
269.123198
 20
235.909214
 11
267.984986
 21
235.909214
  0
LINE
  8
1
 62
7
  6
CONTINUOUS
 10
270.524986
 20
235.909214
 11
270.524986
 21
234.771003
  0
LINE
  8
1
 62
7
  6
CONTINUOUS
 10
270.524986
 20
234.771003
 11
271.663198
 21
234.771003
  0
LINE
  8
1
 62
7
  6
CONTINUOUS
 10
271.663198
 20
234.771003
 11
271.663198
 21
235.909214
  0
LINE
  8
1
 62
7
  6
CONTINUOUS
 10
271.663198
 20
235.909214
 11
270.524986
 21
235.909214
  0
LINE
  8
1
 62
7
  6
CONTINUOUS
 10
273.064986
 20
235.909214
 11
273.064986
 21
234.771003
  0
LINE
  8
1
 62
7
  6
CONTINUOUS
 10
273.064986
 20
234.771003
 11
274.203198
 21
234.771003
  0
LINE
  8
1
 62
7
  6
CONTINUOUS
 10
274.203198
 20
234.771003
 11
274.203198
 21
235.909214
  0
LINE
  8
1
 62
7
  6
CONTINUOUS
 10
274.203198
 20
235.909214
 11
273.064986
 21
235.909214
  0
LINE
  8
1
 62
7
  6
CONTINUOUS
 10
275.604986
 20
235.909214
 11
275.604986
 21
234.771003
  0
LINE
  8
1
 62
7
  6
CONTINUOUS
 10
275.604986
 20
234.771003
 11
276.743198
 21
234.771003
  0
LINE
  8
1
 62
7
  6
CONTINUOUS
 10
276.743198
 20
234.771003
 11
276.743198
 21
235.909214
  0
LINE
  8
1
 62
7
  6
CONTINUOUS
 10
276.743198
 20
235.909214
 11
275.604986
 21
235.909214
  0
LINE
  8
1
 62
7
  6
CONTINUOUS
 10
278.144986
 20
235.909214
 11
278.144986
 21
234.771003
  0
LINE
  8
1
 62
7
  6
CONTINUOUS
 10
278.144986
 20
234.771003
 11
279.283198
 21
234.771003
  0
LINE
  8
1
 62
7
  6
CONTINUOUS
 10
279.283198
 20
234.771003
 11
279.283198
 21
235.909214
  0
LINE
  8
1
 62
7
  6
CONTINUOUS
 10
279.283198
 20
235.909214
 11
278.144986
 21
235.909214
  0
LINE
  8
1
 62
7
  6
CONTINUOUS
 10
280.684986
 20
235.909214
 11
280.684986
 21
234.771003
  0
LINE
  8
1
 62
7
  6
CONTINUOUS
 10
280.684986
 20
234.771003
 11
281.823198
 21
234.771003
  0
LINE
  8
1
 62
7
  6
CONTINUOUS
 10
281.823198
 20
234.771003
 11
281.823198
 21
235.909214
  0
LINE
  8
1
 62
7
  6
CONTINUOUS
 10
281.823198
 20
235.909214
 11
280.684986
 21
235.909214
  0
LINE
  8
1
 62
7
  6
CONTINUOUS
 10
283.224986
 20
235.909214
 11
283.224986
 21
234.771003
  0
LINE
  8
1
 62
7
  6
CONTINUOUS
 10
283.224986
 20
234.771003
 11
284.363198
 21
234.771003
  0
LINE
  8
1
 62
7
  6
CONTINUOUS
 10
284.363198
 20
234.771003
 11
284.363198
 21
235.909214
  0
LINE
  8
1
 62
7
  6
CONTINUOUS
 10
284.363198
 20
235.909214
 11
283.224986
 21
235.909214
  0
LINE
  8
1
 62
7
  6
CONTINUOUS
 10
285.764986
 20
235.909214
 11
285.764986
 21
234.771003
  0
LINE
  8
1
 62
7
  6
CONTINUOUS
 10
285.764986
 20
234.771003
 11
286.903198
 21
234.771003
  0
LINE
  8
1
 62
7
  6
CONTINUOUS
 10
286.903198
 20
234.771003
 11
286.903198
 21
235.909214
  0
LINE
  8
1
 62
7
  6
CONTINUOUS
 10
286.903198
 20
235.909214
 11
285.764986
 21
235.909214
  0
LINE
  8
1
 62
7
  6
CONTINUOUS
 10
288.304986
 20
235.909214
 11
288.304986
 21
234.771003
  0
LINE
  8
1
 62
7
  6
CONTINUOUS
 10
288.304986
 20
234.771003
 11
289.443198
 21
234.771003
  0
LINE
  8
1
 62
7
  6
CONTINUOUS
 10
289.443198
 20
234.771003
 11
289.443198
 21
235.909214
  0
LINE
  8
1
 62
7
  6
CONTINUOUS
 10
289.443198
 20
235.909214
 11
288.304986
 21
235.909214
  0
LINE
  8
1
 62
7
  6
CONTINUOUS
 10
290.844986
 20
235.909214
 11
290.844986
 21
234.771003
  0
LINE
  8
1
 62
7
  6
CONTINUOUS
 10
290.844986
 20
234.771003
 11
291.983198
 21
234.771003
  0
LINE
  8
1
 62
7
  6
CONTINUOUS
 10
291.983198
 20
234.771003
 11
291.983198
 21
235.909214
  0
LINE
  8
1
 62
7
  6
CONTINUOUS
 10
291.983198
 20
235.909214
 11
290.844986
 21
235.909214
  0
LINE
  8
1
 62
7
  6
CONTINUOUS
 10
294.190269
 20
233.825747
 11
294.190269
 21
232.779133
  0
LINE
  8
1
 62
7
  6
CONTINUOUS
 10
294.190269
 20
232.779133
 11
293.596640
 21
232.779133
  0
LINE
  8
1
 62
7
  6
CONTINUOUS
 10
293.596640
 20
233.825747
 11
294.190269
 21
233.825747
  0
LINE
  8
1
 62
7
  6
CONTINUOUS
 10
253.965203
 20
232.779133
 11
293.596640
 21
232.779133
  0
LINE
  8
1
 62
7
  6
CONTINUOUS
 10
293.596640
 20
237.711382
 11
253.965203
 21
237.711382
  0
LINE
  8
1
 62
7
  6
CONTINUOUS
 10
253.965203
 20
237.711382
 11
253.965203
 21
233.863219
  0
LINE
  8
1
 62
7
  6
CONTINUOUS
 10
293.596640
 20
233.825747
 11
293.596640
 21
237.711382
  0
LINE
  8
1
 62
7
  6
CONTINUOUS
 10
293.590718
 20
238.060081
 11
293.590718
 21
236.973393
  0
LINE
  8
1
 62
7
  6
CONTINUOUS
 10
293.590718
 20
236.973393
 11
295.614205
 21
236.973393
  0
LINE
  8
1
 62
7
  6
CONTINUOUS
 10
295.614205
 20
236.973393
 11
295.614205
 21
238.060081
  0
LINE
  8
1
 62
7
  6
CONTINUOUS
 10
295.614205
 20
238.060081
 11
293.590718
 21
238.060081
  0
TEXT
  8
1
 62
7
  6
CONTINUOUS
 10
254.242964
 20
230.043544
 40
2.000000
 41
0.500000
  1
15
  7
KANJI
 50
0.000000
 51
0.000000
  0
TEXT
  8
1
 62
7
  6
CONTINUOUS
 10
254.242964
 20
229.917077
 40
2.000000
 41
0.500000
  1
1
  7
KANJI
 50
0.000000
 51
0.000000
  0
TEXT
  8
1
 62
7
  6
CONTINUOUS
 10
291.750074
 20
229.907416
 40
2.000000
 41
0.500000
  1
1
  7
KANJI
 50
0.000000
 51
0.000000
  0
TEXT
  8
1
 62
7
  6
CONTINUOUS
 10
334.856018
 20
229.828825
 40
2.000000
 41
0.500000
  1
1
  7
KANJI
 50
0.000000
 51
0.000000
  0
TEXT
  8
1
 62
7
  6
CONTINUOUS
 10
310.048908
 20
229.838486
 40
2.000000
 41
0.500000
  1
1
  7
KANJI
 50
0.000000
 51
0.000000
  0
TEXT
  8
1
 62
7
  6
CONTINUOUS
 10
310.048908
 20
229.964954
 40
2.000000
 41
0.500000
  1
10
  7
KANJI
 50
0.000000
 51
0.000000
  0
LINE
  8
1
 62
7
  6
CONTINUOUS
 10
309.841225
 20
161.828775
 11
309.841225
 21
160.690563
  0
LINE
  8
1
 62
7
  6
CONTINUOUS
 10
309.841225
 20
160.690563
 11
310.979436
 21
160.690563
  0
LINE
  8
1
 62
7
  6
CONTINUOUS
 10
310.979436
 20
160.690563
 11
310.979436
 21
161.828775
  0
LINE
  8
1
 62
7
  6
CONTINUOUS
 10
310.979436
 20
161.828775
 11
309.841225
 21
161.828775
  0
LINE
  8
1
 62
7
  6
CONTINUOUS
 10
312.381225
 20
161.828775
 11
312.381225
 21
160.690563
  0
LINE
  8
1
 62
7
  6
CONTINUOUS
 10
312.381225
 20
160.690563
 11
313.519436
 21
160.690563
  0
LINE
  8
1
 62
7
  6
CONTINUOUS
 10
313.519436
 20
160.690563
 11
313.519436
 21
161.828775
  0
LINE
  8
1
 62
7
  6
CONTINUOUS
 10
313.519436
 20
161.828775
 11
312.381225
 21
161.828775
  0
LINE
  8
1
 62
7
  6
CONTINUOUS
 10
314.921225
 20
161.828775
 11
314.921225
 21
160.690563
  0
LINE
  8
1
 62
7
  6
CONTINUOUS
 10
314.921225
 20
160.690563
 11
316.059436
 21
160.690563
  0
LINE
  8
1
 62
7
  6
CONTINUOUS
 10
316.059436
 20
160.690563
 11
316.059436
 21
161.828775
  0
LINE
  8
1
 62
7
  6
CONTINUOUS
 10
316.059436
 20
161.828775
 11
314.921225
 21
161.828775
  0
LINE
  8
1
 62
7
  6
CONTINUOUS
 10
317.461225
 20
161.828775
 11
317.461225
 21
160.690563
  0
LINE
  8
1
 62
7
  6
CONTINUOUS
 10
317.461225
 20
160.690563
 11
318.599436
 21
160.690563
  0
LINE
  8
1
 62
7
  6
CONTINUOUS
 10
318.599436
 20
160.690563
 11
318.599436
 21
161.828775
  0
LINE
  8
1
 62
7
  6
CONTINUOUS
 10
318.599436
 20
161.828775
 11
317.461225
 21
161.828775
  0
LINE
  8
1
 62
7
  6
CONTINUOUS
 10
320.001225
 20
161.828775
 11
320.001225
 21
160.690563
  0
LINE
  8
1
 62
7
  6
CONTINUOUS
 10
320.001225
 20
160.690563
 11
321.139436
 21
160.690563
  0
LINE
  8
1
 62
7
  6
CONTINUOUS
 10
321.139436
 20
160.690563
 11
321.139436
 21
161.828775
  0
LINE
  8
1
 62
7
  6
CONTINUOUS
 10
321.139436
 20
161.828775
 11
320.001225
 21
161.828775
  0
LINE
  8
1
 62
7
  6
CONTINUOUS
 10
322.541225
 20
161.828775
 11
322.541225
 21
160.690563
  0
LINE
  8
1
 62
7
  6
CONTINUOUS
 10
322.541225
 20
160.690563
 11
323.679436
 21
160.690563
  0
LINE
  8
1
 62
7
  6
CONTINUOUS
 10
323.679436
 20
160.690563
 11
323.679436
 21
161.828775
  0
LINE
  8
1
 62
7
  6
CONTINUOUS
 10
323.679436
 20
161.828775
 11
322.541225
 21
161.828775
  0
LINE
  8
1
 62
7
  6
CONTINUOUS
 10
325.081225
 20
161.828775
 11
325.081225
 21
160.690563
  0
LINE
  8
1
 62
7
  6
CONTINUOUS
 10
325.081225
 20
160.690563
 11
326.219436
 21
160.690563
  0
LINE
  8
1
 62
7
  6
CONTINUOUS
 10
326.219436
 20
160.690563
 11
326.219436
 21
161.828775
  0
LINE
  8
1
 62
7
  6
CONTINUOUS
 10
326.219436
 20
161.828775
 11
325.081225
 21
161.828775
  0
LINE
  8
1
 62
7
  6
CONTINUOUS
 10
327.621225
 20
161.828775
 11
327.621225
 21
160.690563
  0
LINE
  8
1
 62
7
  6
CONTINUOUS
 10
327.621225
 20
160.690563
 11
328.759436
 21
160.690563
  0
LINE
  8
1
 62
7
  6
CONTINUOUS
 10
328.759436
 20
160.690563
 11
328.759436
 21
161.828775
  0
LINE
  8
1
 62
7
  6
CONTINUOUS
 10
328.759436
 20
161.828775
 11
327.621225
 21
161.828775
  0
LINE
  8
1
 62
7
  6
CONTINUOUS
 10
330.161225
 20
161.828775
 11
330.161225
 21
160.690563
  0
LINE
  8
1
 62
7
  6
CONTINUOUS
 10
330.161225
 20
160.690563
 11
331.299436
 21
160.690563
  0
LINE
  8
1
 62
7
  6
CONTINUOUS
 10
331.299436
 20
160.690563
 11
331.299436
 21
161.828775
  0
LINE
  8
1
 62
7
  6
CONTINUOUS
 10
331.299436
 20
161.828775
 11
330.161225
 21
161.828775
  0
LINE
  8
1
 62
7
  6
CONTINUOUS
 10
332.701225
 20
161.828775
 11
332.701225
 21
160.690563
  0
LINE
  8
1
 62
7
  6
CONTINUOUS
 10
332.701225
 20
160.690563
 11
333.839436
 21
160.690563
  0
LINE
  8
1
 62
7
  6
CONTINUOUS
 10
333.839436
 20
160.690563
 11
333.839436
 21
161.828775
  0
LINE
  8
1
 62
7
  6
CONTINUOUS
 10
333.839436
 20
161.828775
 11
332.701225
 21
161.828775
  0
LINE
  8
1
 62
7
  6
CONTINUOUS
 10
336.046507
 20
159.745308
 11
336.046507
 21
158.698693
  0
LINE
  8
1
 62
7
  6
CONTINUOUS
 10
335.452878
 20
159.745308
 11
336.046507
 21
159.745308
  0
LINE
  8
1
 62
7
  6
CONTINUOUS
 10
335.452878
 20
159.745308
 11
335.452878
 21
163.630943
  0
LINE
  8
1
 62
7
  6
CONTINUOUS
 10
335.446956
 20
163.979641
 11
335.446956
 21
162.892954
  0
LINE
  8
1
 62
7
  6
CONTINUOUS
 10
335.446956
 20
162.892954
 11
337.470443
 21
162.892954
  0
LINE
  8
1
 62
7
  6
CONTINUOUS
 10
337.470443
 20
162.892954
 11
337.470443
 21
163.979641
  0
LINE
  8
1
 62
7
  6
CONTINUOUS
 10
337.470443
 20
163.979641
 11
335.446956
 21
163.979641
  0
LINE
  8
1
 62
7
  6
CONTINUOUS
 10
306.609266
 20
163.914065
 11
306.609266
 21
162.902322
  0
LINE
  8
1
 62
7
  6
CONTINUOUS
 10
306.609266
 20
162.902322
 11
308.521441
 21
162.902322
  0
LINE
  8
1
 62
7
  6
CONTINUOUS
 10
308.521441
 20
162.902322
 11
308.521441
 21
163.914065
  0
LINE
  8
1
 62
7
  6
CONTINUOUS
 10
308.521441
 20
163.914065
 11
306.609266
 21
163.914065
  0
LINE
  8
1
 62
7
  6
CONTINUOUS
 10
308.014466
 20
159.745308
 11
308.014466
 21
158.698693
  0
LINE
  8
1
 62
7
  6
CONTINUOUS
 10
308.521441
 20
159.745308
 11
308.014466
 21
159.745308
  0
LINE
  8
1
 62
7
  6
CONTINUOUS
 10
308.521441
 20
158.698693
 11
335.452878
 21
158.698693
  0
LINE
  8
1
 62
7
  6
CONTINUOUS
 10
335.452878
 20
163.630943
 11
308.521441
 21
163.630943
  0
LINE
  8
1
 62
7
  6
CONTINUOUS
 10
308.521441
 20
163.630943
 11
308.521441
 21
159.782780
  0
LINE
  8
1
 62
7
  6
CONTINUOUS
 10
250.323647
 20
163.889675
 11
250.323647
 21
162.877932
  0
LINE
  8
1
 62
7
  6
CONTINUOUS
 10
250.323647
 20
162.877932
 11
252.235823
 21
162.877932
  0
LINE
  8
1
 62
7
  6
CONTINUOUS
 10
252.235823
 20
162.877932
 11
252.235823
 21
163.889675
  0
LINE
  8
1
 62
7
  6
CONTINUOUS
 10
252.235823
 20
163.889675
 11
250.323647
 21
163.889675
  0
LINE
  8
1
 62
7
  6
CONTINUOUS
 10
251.728847
 20
159.720917
 11
251.728847
 21
158.674303
  0
LINE
  8
1
 62
7
  6
CONTINUOUS
 10
252.235823
 20
159.720917
 11
251.728847
 21
159.720917
  0
LINE
  8
1
 62
7
  6
CONTINUOUS
 10
253.555606
 20
161.804385
 11
253.555606
 21
160.666173
  0
LINE
  8
1
 62
7
  6
CONTINUOUS
 10
253.555606
 20
160.666173
 11
254.693817
 21
160.666173
  0
LINE
  8
1
 62
7
  6
CONTINUOUS
 10
254.693817
 20
160.666173
 11
254.693817
 21
161.804385
  0
LINE
  8
1
 62
7
  6
CONTINUOUS
 10
254.693817
 20
161.804385
 11
253.555606
 21
161.804385
  0
LINE
  8
1
 62
7
  6
CONTINUOUS
 10
256.095606
 20
161.804385
 11
256.095606
 21
160.666173
  0
LINE
  8
1
 62
7
  6
CONTINUOUS
 10
256.095606
 20
160.666173
 11
257.233817
 21
160.666173
  0
LINE
  8
1
 62
7
  6
CONTINUOUS
 10
257.233817
 20
160.666173
 11
257.233817
 21
161.804385
  0
LINE
  8
1
 62
7
  6
CONTINUOUS
 10
257.233817
 20
161.804385
 11
256.095606
 21
161.804385
  0
LINE
  8
1
 62
7
  6
CONTINUOUS
 10
258.635606
 20
161.804385
 11
258.635606
 21
160.666173
  0
LINE
  8
1
 62
7
  6
CONTINUOUS
 10
258.635606
 20
160.666173
 11
259.773817
 21
160.666173
  0
LINE
  8
1
 62
7
  6
CONTINUOUS
 10
259.773817
 20
160.666173
 11
259.773817
 21
161.804385
  0
LINE
  8
1
 62
7
  6
CONTINUOUS
 10
259.773817
 20
161.804385
 11
258.635606
 21
161.804385
  0
LINE
  8
1
 62
7
  6
CONTINUOUS
 10
261.175606
 20
161.804385
 11
261.175606
 21
160.666173
  0
LINE
  8
1
 62
7
  6
CONTINUOUS
 10
261.175606
 20
160.666173
 11
262.313817
 21
160.666173
  0
LINE
  8
1
 62
7
  6
CONTINUOUS
 10
262.313817
 20
160.666173
 11
262.313817
 21
161.804385
  0
LINE
  8
1
 62
7
  6
CONTINUOUS
 10
262.313817
 20
161.804385
 11
261.175606
 21
161.804385
  0
LINE
  8
1
 62
7
  6
CONTINUOUS
 10
263.715606
 20
161.804385
 11
263.715606
 21
160.666173
  0
LINE
  8
1
 62
7
  6
CONTINUOUS
 10
263.715606
 20
160.666173
 11
264.853817
 21
160.666173
  0
LINE
  8
1
 62
7
  6
CONTINUOUS
 10
264.853817
 20
160.666173
 11
264.853817
 21
161.804385
  0
LINE
  8
1
 62
7
  6
CONTINUOUS
 10
264.853817
 20
161.804385
 11
263.715606
 21
161.804385
  0
LINE
  8
1
 62
7
  6
CONTINUOUS
 10
266.255606
 20
161.804385
 11
266.255606
 21
160.666173
  0
LINE
  8
1
 62
7
  6
CONTINUOUS
 10
266.255606
 20
160.666173
 11
267.393817
 21
160.666173
  0
LINE
  8
1
 62
7
  6
CONTINUOUS
 10
267.393817
 20
160.666173
 11
267.393817
 21
161.804385
  0
LINE
  8
1
 62
7
  6
CONTINUOUS
 10
267.393817
 20
161.804385
 11
266.255606
 21
161.804385
  0
LINE
  8
1
 62
7
  6
CONTINUOUS
 10
268.795606
 20
161.804385
 11
268.795606
 21
160.666173
  0
LINE
  8
1
 62
7
  6
CONTINUOUS
 10
268.795606
 20
160.666173
 11
269.933817
 21
160.666173
  0
LINE
  8
1
 62
7
  6
CONTINUOUS
 10
269.933817
 20
160.666173
 11
269.933817
 21
161.804385
  0
LINE
  8
1
 62
7
  6
CONTINUOUS
 10
269.933817
 20
161.804385
 11
268.795606
 21
161.804385
  0
LINE
  8
1
 62
7
  6
CONTINUOUS
 10
271.335606
 20
161.804385
 11
271.335606
 21
160.666173
  0
LINE
  8
1
 62
7
  6
CONTINUOUS
 10
271.335606
 20
160.666173
 11
272.473817
 21
160.666173
  0
LINE
  8
1
 62
7
  6
CONTINUOUS
 10
272.473817
 20
160.666173
 11
272.473817
 21
161.804385
  0
LINE
  8
1
 62
7
  6
CONTINUOUS
 10
272.473817
 20
161.804385
 11
271.335606
 21
161.804385
  0
LINE
  8
1
 62
7
  6
CONTINUOUS
 10
273.875606
 20
161.804385
 11
273.875606
 21
160.666173
  0
LINE
  8
1
 62
7
  6
CONTINUOUS
 10
273.875606
 20
160.666173
 11
275.013817
 21
160.666173
  0
LINE
  8
1
 62
7
  6
CONTINUOUS
 10
275.013817
 20
160.666173
 11
275.013817
 21
161.804385
  0
LINE
  8
1
 62
7
  6
CONTINUOUS
 10
275.013817
 20
161.804385
 11
273.875606
 21
161.804385
  0
LINE
  8
1
 62
7
  6
CONTINUOUS
 10
276.415606
 20
161.804385
 11
276.415606
 21
160.666173
  0
LINE
  8
1
 62
7
  6
CONTINUOUS
 10
276.415606
 20
160.666173
 11
277.553817
 21
160.666173
  0
LINE
  8
1
 62
7
  6
CONTINUOUS
 10
277.553817
 20
160.666173
 11
277.553817
 21
161.804385
  0
LINE
  8
1
 62
7
  6
CONTINUOUS
 10
277.553817
 20
161.804385
 11
276.415606
 21
161.804385
  0
LINE
  8
1
 62
7
  6
CONTINUOUS
 10
278.955606
 20
161.804385
 11
278.955606
 21
160.666173
  0
LINE
  8
1
 62
7
  6
CONTINUOUS
 10
278.955606
 20
160.666173
 11
280.093817
 21
160.666173
  0
LINE
  8
1
 62
7
  6
CONTINUOUS
 10
280.093817
 20
160.666173
 11
280.093817
 21
161.804385
  0
LINE
  8
1
 62
7
  6
CONTINUOUS
 10
280.093817
 20
161.804385
 11
278.955606
 21
161.804385
  0
LINE
  8
1
 62
7
  6
CONTINUOUS
 10
281.495606
 20
161.804385
 11
281.495606
 21
160.666173
  0
LINE
  8
1
 62
7
  6
CONTINUOUS
 10
281.495606
 20
160.666173
 11
282.633817
 21
160.666173
  0
LINE
  8
1
 62
7
  6
CONTINUOUS
 10
282.633817
 20
160.666173
 11
282.633817
 21
161.804385
  0
LINE
  8
1
 62
7
  6
CONTINUOUS
 10
282.633817
 20
161.804385
 11
281.495606
 21
161.804385
  0
LINE
  8
1
 62
7
  6
CONTINUOUS
 10
284.035606
 20
161.804385
 11
284.035606
 21
160.666173
  0
LINE
  8
1
 62
7
  6
CONTINUOUS
 10
284.035606
 20
160.666173
 11
285.173817
 21
160.666173
  0
LINE
  8
1
 62
7
  6
CONTINUOUS
 10
285.173817
 20
160.666173
 11
285.173817
 21
161.804385
  0
LINE
  8
1
 62
7
  6
CONTINUOUS
 10
285.173817
 20
161.804385
 11
284.035606
 21
161.804385
  0
LINE
  8
1
 62
7
  6
CONTINUOUS
 10
286.575606
 20
161.804385
 11
286.575606
 21
160.666173
  0
LINE
  8
1
 62
7
  6
CONTINUOUS
 10
286.575606
 20
160.666173
 11
287.713817
 21
160.666173
  0
LINE
  8
1
 62
7
  6
CONTINUOUS
 10
287.713817
 20
160.666173
 11
287.713817
 21
161.804385
  0
LINE
  8
1
 62
7
  6
CONTINUOUS
 10
287.713817
 20
161.804385
 11
286.575606
 21
161.804385
  0
LINE
  8
1
 62
7
  6
CONTINUOUS
 10
289.115606
 20
161.804385
 11
289.115606
 21
160.666173
  0
LINE
  8
1
 62
7
  6
CONTINUOUS
 10
289.115606
 20
160.666173
 11
290.253817
 21
160.666173
  0
LINE
  8
1
 62
7
  6
CONTINUOUS
 10
290.253817
 20
160.666173
 11
290.253817
 21
161.804385
  0
LINE
  8
1
 62
7
  6
CONTINUOUS
 10
290.253817
 20
161.804385
 11
289.115606
 21
161.804385
  0
LINE
  8
1
 62
7
  6
CONTINUOUS
 10
292.460889
 20
159.720917
 11
292.460889
 21
158.674303
  0
LINE
  8
1
 62
7
  6
CONTINUOUS
 10
291.867259
 20
159.720917
 11
292.460889
 21
159.720917
  0
LINE
  8
1
 62
7
  6
CONTINUOUS
 10
252.235823
 20
158.674303
 11
291.867259
 21
158.674303
  0
LINE
  8
1
 62
7
  6
CONTINUOUS
 10
291.867259
 20
163.606553
 11
252.235823
 21
163.606553
  0
LINE
  8
1
 62
7
  6
CONTINUOUS
 10
252.235823
 20
163.606553
 11
252.235823
 21
159.758389
  0
LINE
  8
1
 62
7
  6
CONTINUOUS
 10
291.867259
 20
159.720917
 11
291.867259
 21
163.606553
  0
LINE
  8
1
 62
7
  6
CONTINUOUS
 10
291.861337
 20
163.955251
 11
291.861337
 21
162.868564
  0
LINE
  8
1
 62
7
  6
CONTINUOUS
 10
291.861337
 20
162.868564
 11
293.884824
 21
162.868564
  0
LINE
  8
1
 62
7
  6
CONTINUOUS
 10
293.884824
 20
162.868564
 11
293.884824
 21
163.955251
  0
LINE
  8
1
 62
7
  6
CONTINUOUS
 10
293.884824
 20
163.955251
 11
291.861337
 21
163.955251
  0
TEXT
  8
1
 62
7
  6
CONTINUOUS
 10
252.275485
 20
165.116715
 40
2.000000
 41
0.500000
  1
15
  7
KANJI
 50
0.000000
 51
0.000000
  0
TEXT
  8
1
 62
7
  6
CONTINUOUS
 10
252.275485
 20
164.990247
 40
2.000000
 41
0.500000
  1
1
  7
KANJI
 50
0.000000
 51
0.000000
  0
TEXT
  8
1
 62
7
  6
CONTINUOUS
 10
289.782594
 20
164.980587
 40
2.000000
 41
0.500000
  1
1
  7
KANJI
 50
0.000000
 51
0.000000
  0
TEXT
  8
1
 62
7
  6
CONTINUOUS
 10
332.888538
 20
164.901996
 40
2.000000
 41
0.500000
  1
1
  7
KANJI
 50
0.000000
 51
0.000000
  0
TEXT
  8
1
 62
7
  6
CONTINUOUS
 10
308.081429
 20
164.911656
 40
2.000000
 41
0.500000
  1
1
  7
KANJI
 50
0.000000
 51
0.000000
  0
TEXT
  8
1
 62
7
  6
CONTINUOUS
 10
308.081429
 20
165.038124
 40
2.000000
 41
0.500000
  1
10
  7
KANJI
 50
0.000000
 51
0.000000
  0
CIRCLE
  8
1
 62
7
  6
CONTINUOUS
 10
219.459350
 20
77.300562
 40
0.500000
  0
CIRCLE
  8
1
 62
7
  6
CONTINUOUS
 10
219.459350
 20
77.300562
 40
0.250000
  0
CIRCLE
  8
1
 62
7
  6
CONTINUOUS
 10
224.459350
 20
77.300562
 40
0.500000
  0
CIRCLE
  8
1
 62
7
  6
CONTINUOUS
 10
224.459350
 20
77.300562
 40
0.250000
  0
CIRCLE
  8
1
 62
7
  6
CONTINUOUS
 10
229.459350
 20
77.300562
 40
0.500000
  0
CIRCLE
  8
1
 62
7
  6
CONTINUOUS
 10
229.459350
 20
77.300562
 40
0.250000
  0
CIRCLE
  8
1
 62
7
  6
CONTINUOUS
 10
234.459350
 20
77.300562
 40
0.500000
  0
CIRCLE
  8
1
 62
7
  6
CONTINUOUS
 10
234.459350
 20
77.300562
 40
0.250000
  0
CIRCLE
  8
1
 62
7
  6
CONTINUOUS
 10
239.459350
 20
77.300562
 40
0.500000
  0
CIRCLE
  8
1
 62
7
  6
CONTINUOUS
 10
239.459350
 20
77.300562
 40
0.250000
  0
CIRCLE
  8
1
 62
7
  6
CONTINUOUS
 10
244.459350
 20
77.300562
 40
0.500000
  0
CIRCLE
  8
1
 62
7
  6
CONTINUOUS
 10
244.459350
 20
77.300562
 40
0.250000
  0
CIRCLE
  8
1
 62
7
  6
CONTINUOUS
 10
249.459350
 20
77.300562
 40
0.500000
  0
CIRCLE
  8
1
 62
7
  6
CONTINUOUS
 10
249.459350
 20
77.300562
 40
0.250000
  0
CIRCLE
  8
1
 62
7
  6
CONTINUOUS
 10
254.459350
 20
77.300562
 40
0.500000
  0
CIRCLE
  8
1
 62
7
  6
CONTINUOUS
 10
254.459350
 20
77.300562
 40
0.250000
  0
TEXT
  8
1
 62
7
  6
CONTINUOUS
 10
376.260163
 20
8.752033
 40
4.000000
 41
0.500000
  1
LFB-24SS
  7
KANJI
 50
0.000000
 51
0.000000
  0
TEXT
  8
1
 62
7
  6
CONTINUOUS
 10
318.388889
 20
165.193767
 40
3.000000
 41
0.500000
  1
J1-1
  7
KANJI
 50
0.000000
 51
0.000000
  0
TEXT
  8
1
 62
7
  6
CONTINUOUS
 10
269.917344
 20
165.551491
 40
3.000000
 41
0.500000
  1
J1-2
  7
KANJI
 50
0.000000
 51
0.000000
  0
TEXT
  8
1
 62
7
  6
CONTINUOUS
 10
269.738482
 20
228.153117
 40
3.000000
 41
0.500000
  1
J2-2
  7
KANJI
 50
0.000000
 51
0.000000
  0
TEXT
  8
1
 62
7
  6
CONTINUOUS
 10
319.998645
 20
227.616531
 40
3.000000
 41
0.500000
  1
J2-1
  7
KANJI
 50
0.000000
 51
0.000000
  0
ENDSEC
  0
EOF
