  0
SECTION
  2
HEADER
  9
$ACADVER
  1
AC1009
  9
$INSBASE
 10
0.000000
 20
0.000000
  9
$EXTMIN
 10
0.000000
 20
0.000000
  9
$EXTMAX
 10
297.000000
 20
210.000000
  9
$LIMMIN
 10
0.000000
 20
0.000000
  9
$LIMMAX
 10
297.000000
 20
210.000000
  9
$VIEWCTR
 10
148.500000
 20
105.000000
  9
$VIEWSIZE
 40
210.000000
  9
$PEXTMIN
 10
0.000000
 20
0.000000
 30
0.000000
  9
$PEXTMAX
 10
297.000000
 20
210.000000
 30
0.000000
  9
$SNAPMODE
 70
     0
  9
$SNAPUNIT
 10
1.000000
 20
1.000000
  9
$SNAPBASE
 10
0.000000
 20
0.000000
  9
$SNAPANG
 50
0.000000
  9
$SNAPISOPAIR
 70
     0
  9
$SNAPSTYLE
 70
     0
  9
$GRIDMODE
 70
     0
  9
$GRIDUNIT
 10
0.000000
 20
0.000000
  9
$ORTHOMODE
 70
     0
  9
$REGENMODE
 70
     1
  9
$FILLMODE
 70
     1
  9
$QTEXTMODE
 70
     0
  9
$DRAGMODE
 70
     2
  9
$LTSCALE
 40
0.250000
  9
$OSMODE
 70
     0
  9
$ATTMODE
 70
     1
  9
$TEXTSIZE
 40
2.000000
  9
$TRACEWID
 40
0.050000
  9
$TEXTSTYLE
  7
STANDARD
  9
$CLAYER
  8
0
  9
$CELTYPE
  6
BYLAYER
  9
$CECOLOR
 62
   256
  9
$DIMSCALE
 40
1.000000
  9
$DIMASZ
 40
1.000000
  9
$DIMEXO
 40
0.000000
  9
$DIMDLI
 40
0.500000
  9
$DIMRND
 40
0.000000
  9
$DIMDLE
 40
0.000000
  9
$DIMEXE
 40
0.000000
  9
$DIMTP
 40
0.000000
  9
$DIMTM
 40
0.000000
  9
$DIMTXT
 40
3.000000
  9
$DIMCEN
 40
0.000000
  9
$DIMTSZ
 40
0.000000
  9
$DIMTOL
 70
     0
  9
$DIMLIM
 70
     0
  9
$DIMTIH
 70
     1
  9
$DIMTOH
 70
     1
  9
$DIMSE1
 70
     0
  9
$DIMSE2
 70
     0
  9
$DIMTAD
 70
     0
  9
$DIMZIN
 70
     0
  9
$DIMBLK
  1

  9
$DIMASO
 70
     0
  9
$DIMSHO
 70
     0
  9
$DIMPOST
  1

  9
$DIMAPOST
  1

  9
$DIMALT
 70
     0
  9
$DIMALTD
 70
     0
  9
$DIMALTF
 40
25.400000
  9
$DIMLFAC
 40
1.000000
  9
$DIMTOFL
 70
     0
  9
$DIMTVP
 40
0.000000
  9
$DIMTIX
 70
     0
  9
$DIMSOXD
 70
     0
  9
$DIMSAH
 70
     0
  9
$DIMBLKL
  1

  9
$DIMBLKR
  1

  9
$LUNITS
 70
     2
  9
$LUPREC
 70
     2
  9
$AXISMODE
 70
     0
  9
$AXISUNIT
 10
1.000000
 20
1.000000
  9
$SKETCHINC
 40
0.000000
  9
$FILLETRAD
 40
0.000000
  9
$AUNITS
 70
     1
  9
$AUPREC
 70
     2
  9
$MENU
  1
ACAD
  9
$ELEVATION
 40
0.000000
  9
$THICKNESS
 40
0.000000
  9
$VIEWDIR
 10
0.000000
 20
0.000000
 30
1.000000
  9
$LIMCHECK
 70
     1
  9
$BLIPMODE
 70
     1
  9
$CHAMFERA
 40
0.000000
  9
$CHAMFERB
 40
0.000000
  9
$FASTZOOM
 70
     1
  9
$SKPOLY
 70
     0
  9
$TDCREATE
 40
0.000000
  9
$TDUPDATE
 40
0.000000
  9
$TDINDWG
 40
0.000000
  9
$TDUSRTIMER
 40
0.000000
  9
$USRTIMER
 70
     1
  9
$ANGBASE
 50
0.000000
  9
$ANGDIR
 70
     0
  9
$PDMODE
 70
     0
  9
$PDSIZE
 40
0.000000
  9
$PLINEWID
 40
0.000000
  9
$COORDS
 70
     2
  9
$USERI1
 70
     0
  9
$USERI2
 70
     0
  9
$USERI3
 70
     0
  9
$USERI4
 70
     0
  9
$USERI5
 70
     0
  9
$USERR1
 40
0.000000
  9
$USERR2
 40
0.000000
  9
$USERR3
 40
0.000000
  9
$USERR4
 40
0.000000
  9
$USERR5
 40
0.000000
  0
ENDSEC
  0
SECTION
  2
TABLES
  0
TABLE
  2
LTYPE
 70
     5
  0
LTYPE
  2
CONTINUOUS
 70
    64
  3
Solid line
 72
    65
 73
     0
 40
0.0
  0
LTYPE
  2
HIDDEN
 70
    64
  3
------------------------
 72
    65
 73
     2
 40
12.6
 49
8.4
 49
-4.2
  0
LTYPE
  2
DOT
 70
    64
  3
････････････････････････
 72
    65
 73
     2
 40
8.0
 49
6.0
 49
-2.0
  0
LTYPE
  2
DASHDOT
 70
    64
  3
--･--･--･--･--･--･--･--
 72
    65
 73
     4
 40
50.5
 49
30.0
 49
-9.0
 49
2.5
 49
-9.0
  0
LTYPE
  2
DIVIDE
 70
    64
  3
--･･--･･--･･--･･--･･--
 72
    65
 73
     6
 40
58.0
 49
30.0
 49
-9.0
 49
2.5
 49
-5.0
 49
2.5
 49
-9.0
  0
LTYPE
  2
ACAD_ISO06W100
 70
    64
  3
____ ... ____ ... ____
 72
    65
 73
     8
 40
37.5
 49
24.0
 49
-3.0
 49
0.5
 49
-3.0
 49
0.5
 49
-3.0
 49
0.5
 49
-3.0
  0
LTYPE
  2
ACAD_ISO14W100
 70
    64
  3
__ . . . __ . . . __ . . . 
 72
    65
 73
     8
 40
25.5
 49
12.0
 49
-3.0
 49
0.5
 49
-3.0
 49
0.5
 49
-3.0
 49
0.5
 49
-3.0
  0
ENDTAB
  0
TABLE
  2
LAYER
 70
1
  0
LAYER
  2
1
 70
64
 62
7
  6
CONTINUOUS
  0
ENDTAB
  0
TABLE
  2
STYLE
 70
     2
  0
STYLE
  2
STANDARD
 70
    64
 40
0.0
 41
1.0
 50
0.0
 71
     0
 42
0.2
  3
TXT
  4

  0
STYLE
  2
KANJI
 70
    64
 40
0.0
 41
1.0
 50
0.0
 71
     0
 42
0.2
  3
TXT
  4
BIGFONT
  0
ENDTAB
  0
TABLE
  2
VIEW
 70
     0
  0
ENDTAB
  0
ENDSEC
  0
SECTION
  2
BLOCKS
  0
BLOCK
  8
1
 62
7
  6
CONTINUOUS
  2
*D1
 70
    65
 10
0.0
 20
0.0
  0
LINE
  8
1
 62
7
  6
CONTINUOUS
 10
114.520507
 20
104.312081
 11
114.520507
 21
188.312081
  0
LINE
  8
1
 62
7
  6
CONTINUOUS
 10
112.520507
 20
104.312081
 11
128.946309
 21
104.312081
  0
LINE
  8
1
 62
7
  6
CONTINUOUS
 10
112.520507
 20
188.312081
 11
128.946309
 21
188.312081
  0
LINE
  8
1
 62
7
  6
CONTINUOUS
 10
114.520507
 20
104.312081
 11
113.744050
 21
107.209858
  0
LINE
  8
1
 62
7
  6
CONTINUOUS
 10
114.520507
 20
104.312081
 11
115.296964
 21
107.209858
  0
LINE
  8
1
 62
7
  6
CONTINUOUS
 10
114.520507
 20
188.312081
 11
115.296964
 21
185.414303
  0
LINE
  8
1
 62
7
  6
CONTINUOUS
 10
114.520507
 20
188.312081
 11
113.744050
 21
185.414303
  0
TEXT
  8
1
 62
7
  6
CONTINUOUS
 10
114.520507
 20
144.812081
 40
3.000000
 41
0.500000
  1
84
  7
KANJI
 50
90.000000
 51
30.000000
  0
ENDBLK
  0
BLOCK
  8
1
 62
7
  6
CONTINUOUS
  2
*D2
 70
    65
 10
0.0
 20
0.0
  0
LINE
  8
1
 62
7
  6
CONTINUOUS
 10
109.822521
 20
97.812081
 11
109.822521
 21
194.812081
  0
LINE
  8
1
 62
7
  6
CONTINUOUS
 10
107.822521
 20
97.812081
 11
135.946309
 21
97.812081
  0
LINE
  8
1
 62
7
  6
CONTINUOUS
 10
107.822521
 20
194.812081
 11
135.946309
 21
194.812081
  0
LINE
  8
1
 62
7
  6
CONTINUOUS
 10
109.822521
 20
97.812081
 11
109.046063
 21
100.709858
  0
LINE
  8
1
 62
7
  6
CONTINUOUS
 10
109.822521
 20
97.812081
 11
110.598978
 21
100.709858
  0
LINE
  8
1
 62
7
  6
CONTINUOUS
 10
109.822521
 20
194.812081
 11
110.598978
 21
191.914303
  0
LINE
  8
1
 62
7
  6
CONTINUOUS
 10
109.822521
 20
194.812081
 11
109.046063
 21
191.914303
  0
TEXT
  8
1
 62
7
  6
CONTINUOUS
 10
109.822521
 20
144.812081
 40
3.000000
 41
0.500000
  1
97
  7
KANJI
 50
90.000000
 51
30.000000
  0
ENDBLK
  0
BLOCK
  8
1
 62
7
  6
CONTINUOUS
  2
*D3
 70
    65
 10
0.0
 20
0.0
  0
LINE
  8
1
 62
7
  6
CONTINUOUS
 10
119.030574
 20
121.312081
 11
119.030574
 21
171.312081
  0
LINE
  8
1
 62
7
  6
CONTINUOUS
 10
117.030574
 20
121.312081
 11
129.346309
 21
121.312081
  0
LINE
  8
1
 62
7
  6
CONTINUOUS
 10
117.030574
 20
171.312081
 11
128.055183
 21
171.312081
  0
LINE
  8
1
 62
7
  6
CONTINUOUS
 10
119.030574
 20
121.312081
 11
118.254117
 21
124.209858
  0
LINE
  8
1
 62
7
  6
CONTINUOUS
 10
119.030574
 20
121.312081
 11
119.807031
 21
124.209858
  0
LINE
  8
1
 62
7
  6
CONTINUOUS
 10
119.030574
 20
171.312081
 11
119.807031
 21
168.414303
  0
LINE
  8
1
 62
7
  6
CONTINUOUS
 10
119.030574
 20
171.312081
 11
118.254117
 21
168.414303
  0
TEXT
  8
1
 62
7
  6
CONTINUOUS
 10
119.030574
 20
144.812081
 40
3.000000
 41
0.500000
  1
50
  7
KANJI
 50
90.000000
 51
30.000000
  0
ENDBLK
  0
BLOCK
  8
1
 62
7
  6
CONTINUOUS
  2
*D4
 70
    65
 10
0.0
 20
0.0
  0
LINE
  8
1
 62
7
  6
CONTINUOUS
 10
110.807137
 20
29.343773
 11
110.807137
 21
48.343773
  0
LINE
  8
1
 62
7
  6
CONTINUOUS
 10
108.807137
 20
29.343773
 11
130.091364
 21
29.343773
  0
LINE
  8
1
 62
7
  6
CONTINUOUS
 10
108.807137
 20
48.343773
 11
125.946309
 21
48.343773
  0
LINE
  8
1
 62
7
  6
CONTINUOUS
 10
110.807137
 20
29.343773
 11
110.030680
 21
32.241551
  0
LINE
  8
1
 62
7
  6
CONTINUOUS
 10
110.807137
 20
29.343773
 11
111.583594
 21
32.241551
  0
LINE
  8
1
 62
7
  6
CONTINUOUS
 10
110.807137
 20
48.343773
 11
111.583594
 21
45.445996
  0
LINE
  8
1
 62
7
  6
CONTINUOUS
 10
110.807137
 20
48.343773
 11
110.030680
 21
45.445996
  0
TEXT
  8
1
 62
7
  6
CONTINUOUS
 10
110.807137
 20
37.343773
 40
3.000000
 41
0.500000
  1
19
  7
KANJI
 50
90.000000
 51
30.000000
  0
ENDBLK
  0
BLOCK
  8
1
 62
7
  6
CONTINUOUS
  2
*D5
 70
    65
 10
0.0
 20
0.0
  0
LINE
  8
1
 62
7
  6
CONTINUOUS
 10
110.807137
 20
48.343773
 11
110.807137
 21
60.041574
  0
LINE
  8
1
 62
7
  6
CONTINUOUS
 10
108.807137
 20
48.343773
 11
125.946309
 21
48.343773
  0
LINE
  8
1
 62
7
  6
CONTINUOUS
 10
108.807137
 20
60.041574
 11
137.146309
 21
60.041574
  0
LINE
  8
1
 62
7
  6
CONTINUOUS
 10
110.807137
 20
48.343773
 11
110.030680
 21
51.241551
  0
LINE
  8
1
 62
7
  6
CONTINUOUS
 10
110.807137
 20
48.343773
 11
111.583594
 21
51.241551
  0
LINE
  8
1
 62
7
  6
CONTINUOUS
 10
110.807137
 20
60.041574
 11
111.583594
 21
57.143797
  0
LINE
  8
1
 62
7
  6
CONTINUOUS
 10
110.807137
 20
60.041574
 11
110.030680
 21
57.143797
  0
TEXT
  8
1
 62
7
  6
CONTINUOUS
 10
110.807137
 20
51.192674
 40
3.000000
 41
0.500000
  1
11.7
  7
KANJI
 50
90.000000
 51
30.000000
  0
ENDBLK
  0
BLOCK
  8
1
 62
7
  6
CONTINUOUS
  2
*D6
 70
    65
 10
0.0
 20
0.0
  0
LINE
  8
1
 62
7
  6
CONTINUOUS
 10
118.657994
 20
55.543773
 11
118.657994
 21
64.041574
  0
LINE
  8
1
 62
7
  6
CONTINUOUS
 10
116.657994
 20
59.543773
 11
137.146309
 21
59.543773
  0
LINE
  8
1
 62
7
  6
CONTINUOUS
 10
116.657994
 20
60.041574
 11
137.146309
 21
60.041574
  0
LINE
  8
1
 62
7
  6
CONTINUOUS
 10
118.657994
 20
59.543773
 11
119.434451
 21
56.645996
  0
LINE
  8
1
 62
7
  6
CONTINUOUS
 10
118.657994
 20
59.543773
 11
117.881537
 21
56.645996
  0
LINE
  8
1
 62
7
  6
CONTINUOUS
 10
118.657994
 20
60.041574
 11
117.881537
 21
62.939351
  0
LINE
  8
1
 62
7
  6
CONTINUOUS
 10
118.657994
 20
60.041574
 11
119.434451
 21
62.939351
  0
TEXT
  8
1
 62
7
  6
CONTINUOUS
 10
118.657994
 20
57.542674
 40
3.000000
 41
0.500000
  1
0.5
  7
KANJI
 50
90.000000
 51
30.000000
  0
ENDBLK
  0
BLOCK
  8
1
 62
7
  6
CONTINUOUS
  2
*D7
 70
    65
 10
0.0
 20
0.0
  0
LINE
  8
1
 62
7
  6
CONTINUOUS
 10
118.490955
 20
44.343773
 11
118.490955
 21
53.543773
  0
LINE
  8
1
 62
7
  6
CONTINUOUS
 10
116.490955
 20
48.343773
 11
125.946309
 21
48.343773
  0
LINE
  8
1
 62
7
  6
CONTINUOUS
 10
116.490955
 20
49.543773
 11
125.946309
 21
49.543773
  0
LINE
  8
1
 62
7
  6
CONTINUOUS
 10
118.490955
 20
48.343773
 11
119.267412
 21
45.445996
  0
LINE
  8
1
 62
7
  6
CONTINUOUS
 10
118.490955
 20
48.343773
 11
117.714498
 21
45.445996
  0
LINE
  8
1
 62
7
  6
CONTINUOUS
 10
118.490955
 20
49.543773
 11
117.714498
 21
52.441551
  0
LINE
  8
1
 62
7
  6
CONTINUOUS
 10
118.490955
 20
49.543773
 11
119.267412
 21
52.441551
  0
TEXT
  8
1
 62
7
  6
CONTINUOUS
 10
118.490955
 20
46.693773
 40
3.000000
 41
0.500000
  1
1.2
  7
KANJI
 50
90.000000
 51
30.000000
  0
ENDBLK
  0
BLOCK
  8
1
 62
7
  6
CONTINUOUS
  2
*D8
 70
    65
 10
0.0
 20
0.0
  0
LINE
  8
1
 62
7
  6
CONTINUOUS
 10
137.946309
 20
88.604027
 11
161.946309
 21
88.604027
  0
LINE
  8
1
 62
7
  6
CONTINUOUS
 10
137.946309
 20
86.604027
 11
137.946309
 21
102.312081
  0
LINE
  8
1
 62
7
  6
CONTINUOUS
 10
161.946309
 20
86.604027
 11
161.946309
 21
102.312081
  0
LINE
  8
1
 62
7
  6
CONTINUOUS
 10
137.946309
 20
88.604027
 11
140.844086
 21
89.380484
  0
LINE
  8
1
 62
7
  6
CONTINUOUS
 10
137.946309
 20
88.604027
 11
140.844086
 21
87.827570
  0
LINE
  8
1
 62
7
  6
CONTINUOUS
 10
161.946309
 20
88.604027
 11
159.048531
 21
87.827570
  0
LINE
  8
1
 62
7
  6
CONTINUOUS
 10
161.946309
 20
88.604027
 11
159.048531
 21
89.380484
  0
TEXT
  8
1
 62
7
  6
CONTINUOUS
 10
148.446309
 20
88.604027
 40
3.000000
 41
0.500000
  1
24
  7
KANJI
 50
0.000000
 51
30.000000
  0
ENDBLK
  0
BLOCK
  8
1
 62
7
  6
CONTINUOUS
  2
*D9
 70
    65
 10
0.0
 20
0.0
  0
LINE
  8
1
 62
7
  6
CONTINUOUS
 10
132.946309
 20
84.093960
 11
166.946309
 21
84.093960
  0
LINE
  8
1
 62
7
  6
CONTINUOUS
 10
132.946309
 20
82.093960
 11
132.946309
 21
116.159582
  0
LINE
  8
1
 62
7
  6
CONTINUOUS
 10
166.946309
 20
82.093960
 11
166.946309
 21
115.825503
  0
LINE
  8
1
 62
7
  6
CONTINUOUS
 10
132.946309
 20
84.093960
 11
135.844086
 21
84.870417
  0
LINE
  8
1
 62
7
  6
CONTINUOUS
 10
132.946309
 20
84.093960
 11
135.844086
 21
83.317503
  0
LINE
  8
1
 62
7
  6
CONTINUOUS
 10
166.946309
 20
84.093960
 11
164.048531
 21
83.317503
  0
LINE
  8
1
 62
7
  6
CONTINUOUS
 10
166.946309
 20
84.093960
 11
164.048531
 21
84.870417
  0
TEXT
  8
1
 62
7
  6
CONTINUOUS
 10
148.446309
 20
84.093960
 40
3.000000
 41
0.500000
  1
34
  7
KANJI
 50
0.000000
 51
30.000000
  0
ENDBLK
  0
BLOCK
  8
1
 62
7
  6
CONTINUOUS
  2
*D10
 70
    65
 10
0.0
 20
0.0
  0
LINE
  8
1
 62
7
  6
CONTINUOUS
 10
127.946309
 20
79.771812
 11
171.946309
 21
79.771812
  0
LINE
  8
1
 62
7
  6
CONTINUOUS
 10
127.946309
 20
77.771812
 11
127.946309
 21
105.312081
  0
LINE
  8
1
 62
7
  6
CONTINUOUS
 10
171.946309
 20
77.771812
 11
171.946309
 21
105.312081
  0
LINE
  8
1
 62
7
  6
CONTINUOUS
 10
127.946309
 20
79.771812
 11
130.844086
 21
80.548269
  0
LINE
  8
1
 62
7
  6
CONTINUOUS
 10
127.946309
 20
79.771812
 11
130.844086
 21
78.995355
  0
LINE
  8
1
 62
7
  6
CONTINUOUS
 10
171.946309
 20
79.771812
 11
169.048531
 21
78.995355
  0
LINE
  8
1
 62
7
  6
CONTINUOUS
 10
171.946309
 20
79.771812
 11
169.048531
 21
80.548269
  0
TEXT
  8
1
 62
7
  6
CONTINUOUS
 10
148.446309
 20
79.771812
 40
3.000000
 41
0.500000
  1
44
  7
KANJI
 50
0.000000
 51
30.000000
  0
ENDBLK
  0
ENDSEC
  0
SECTION
  2
ENTITIES
  0
LINE
  8
1
 62
7
  6
CONTINUOUS
 10
74.161074
 20
4904.785235
 11
30.161074
 21
4904.785235
  0
LINE
  8
1
 62
7
  6
CONTINUOUS
 10
186.771812
 20
4904.221477
 11
121.771812
 21
4904.221477
  0
LINE
  8
1
 62
7
  6
CONTINUOUS
 10
74.161074
 20
4953.285235
 11
30.161074
 21
4953.285235
  0
LINE
  8
1
 62
7
  6
CONTINUOUS
 10
186.771812
 20
4952.721477
 11
121.771812
 21
4952.721477
  0
LINE
  8
1
 62
7
  6
CONTINUOUS
 10
327.262342
 20
169.976137
 11
331.204474
 21
169.976137
  0
LINE
  8
1
 62
7
  6
CONTINUOUS
 10
329.352722
 20
171.627442
 11
329.352722
 21
168.487099
  0
ARC
  8
1
 62
7
  6
CONTINUOUS
 10
323.752722
 20
175.576137
 40
0.800000
 50
90.000000
 51
180.000000
  0
LINE
  8
1
 62
7
  6
CONTINUOUS
 10
323.752722
 20
176.376137
 11
334.952722
 21
176.376137
  0
ARC
  8
1
 62
7
  6
CONTINUOUS
 10
334.952722
 20
175.576137
 40
0.800000
 50
-0.000000
 51
90.000000
  0
LINE
  8
1
 62
7
  6
CONTINUOUS
 10
335.752722
 20
175.576137
 11
335.752722
 21
164.376137
  0
ARC
  8
1
 62
7
  6
CONTINUOUS
 10
334.952722
 20
164.376137
 40
0.800000
 50
-90.000000
 51
0.000000
  0
LINE
  8
1
 62
7
  6
CONTINUOUS
 10
334.952722
 20
163.576137
 11
323.752722
 21
163.576137
  0
LINE
  8
1
 62
7
  6
CONTINUOUS
 10
322.952722
 20
164.376137
 11
322.952722
 21
175.576137
  0
ARC
  8
1
 62
7
  6
CONTINUOUS
 10
323.752722
 20
164.376137
 40
0.800000
 50
180.000000
 51
-90.000000
  0
LINE
  8
1
 62
7
  6
CONTINUOUS
 10
344.762342
 20
169.976137
 11
348.704474
 21
169.976137
  0
LINE
  8
1
 62
7
  6
CONTINUOUS
 10
346.852722
 20
171.627442
 11
346.852722
 21
168.487099
  0
ARC
  8
1
 62
7
  6
CONTINUOUS
 10
341.252722
 20
175.576137
 40
0.800000
 50
90.000000
 51
180.000000
  0
LINE
  8
1
 62
7
  6
CONTINUOUS
 10
341.252722
 20
176.376137
 11
352.452722
 21
176.376137
  0
ARC
  8
1
 62
7
  6
CONTINUOUS
 10
352.452722
 20
175.576137
 40
0.800000
 50
-0.000000
 51
90.000000
  0
LINE
  8
1
 62
7
  6
CONTINUOUS
 10
353.252722
 20
175.576137
 11
353.252722
 21
164.376137
  0
ARC
  8
1
 62
7
  6
CONTINUOUS
 10
352.452722
 20
164.376137
 40
0.800000
 50
-90.000000
 51
0.000000
  0
LINE
  8
1
 62
7
  6
CONTINUOUS
 10
352.452722
 20
163.576137
 11
341.252722
 21
163.576137
  0
LINE
  8
1
 62
7
  6
CONTINUOUS
 10
340.452722
 20
164.376137
 11
340.452722
 21
175.576137
  0
ARC
  8
1
 62
7
  6
CONTINUOUS
 10
341.252722
 20
164.376137
 40
0.800000
 50
180.000000
 51
-90.000000
  0
LINE
  8
1
 62
7
  6
CONTINUOUS
 10
362.262342
 20
169.976137
 11
366.204474
 21
169.976137
  0
LINE
  8
1
 62
7
  6
CONTINUOUS
 10
364.352722
 20
171.627442
 11
364.352722
 21
168.487099
  0
ARC
  8
1
 62
7
  6
CONTINUOUS
 10
358.752722
 20
175.576137
 40
0.800000
 50
90.000000
 51
180.000000
  0
LINE
  8
1
 62
7
  6
CONTINUOUS
 10
358.752722
 20
176.376137
 11
369.952722
 21
176.376137
  0
ARC
  8
1
 62
7
  6
CONTINUOUS
 10
369.952722
 20
175.576137
 40
0.800000
 50
-0.000000
 51
90.000000
  0
LINE
  8
1
 62
7
  6
CONTINUOUS
 10
370.752722
 20
175.576137
 11
370.752722
 21
164.376137
  0
ARC
  8
1
 62
7
  6
CONTINUOUS
 10
369.952722
 20
164.376137
 40
0.800000
 50
-90.000000
 51
0.000000
  0
LINE
  8
1
 62
7
  6
CONTINUOUS
 10
369.952722
 20
163.576137
 11
358.752722
 21
163.576137
  0
LINE
  8
1
 62
7
  6
CONTINUOUS
 10
357.952722
 20
164.376137
 11
357.952722
 21
175.576137
  0
ARC
  8
1
 62
7
  6
CONTINUOUS
 10
358.752722
 20
164.376137
 40
0.800000
 50
180.000000
 51
-90.000000
  0
LINE
  8
1
 62
7
  6
CONTINUOUS
 10
327.262342
 20
152.476137
 11
331.204474
 21
152.476137
  0
LINE
  8
1
 62
7
  6
CONTINUOUS
 10
329.352722
 20
154.127442
 11
329.352722
 21
150.987099
  0
ARC
  8
1
 62
7
  6
CONTINUOUS
 10
323.752722
 20
158.076137
 40
0.800000
 50
90.000000
 51
180.000000
  0
LINE
  8
1
 62
7
  6
CONTINUOUS
 10
323.752722
 20
158.876137
 11
334.952722
 21
158.876137
  0
ARC
  8
1
 62
7
  6
CONTINUOUS
 10
334.952722
 20
158.076137
 40
0.800000
 50
-0.000000
 51
90.000000
  0
LINE
  8
1
 62
7
  6
CONTINUOUS
 10
335.752722
 20
158.076137
 11
335.752722
 21
146.876137
  0
ARC
  8
1
 62
7
  6
CONTINUOUS
 10
334.952722
 20
146.876137
 40
0.800000
 50
-90.000000
 51
0.000000
  0
LINE
  8
1
 62
7
  6
CONTINUOUS
 10
334.952722
 20
146.076137
 11
323.752722
 21
146.076137
  0
LINE
  8
1
 62
7
  6
CONTINUOUS
 10
322.952722
 20
146.876137
 11
322.952722
 21
158.076137
  0
ARC
  8
1
 62
7
  6
CONTINUOUS
 10
323.752722
 20
146.876137
 40
0.800000
 50
180.000000
 51
-90.000000
  0
LINE
  8
1
 62
7
  6
CONTINUOUS
 10
344.762342
 20
152.476137
 11
348.704474
 21
152.476137
  0
LINE
  8
1
 62
7
  6
CONTINUOUS
 10
346.852722
 20
154.127442
 11
346.852722
 21
150.987099
  0
ARC
  8
1
 62
7
  6
CONTINUOUS
 10
341.252722
 20
158.076137
 40
0.800000
 50
90.000000
 51
180.000000
  0
LINE
  8
1
 62
7
  6
CONTINUOUS
 10
341.252722
 20
158.876137
 11
352.452722
 21
158.876137
  0
ARC
  8
1
 62
7
  6
CONTINUOUS
 10
352.452722
 20
158.076137
 40
0.800000
 50
-0.000000
 51
90.000000
  0
LINE
  8
1
 62
7
  6
CONTINUOUS
 10
353.252722
 20
158.076137
 11
353.252722
 21
146.876137
  0
ARC
  8
1
 62
7
  6
CONTINUOUS
 10
352.452722
 20
146.876137
 40
0.800000
 50
-90.000000
 51
0.000000
  0
LINE
  8
1
 62
7
  6
CONTINUOUS
 10
352.452722
 20
146.076137
 11
341.252722
 21
146.076137
  0
LINE
  8
1
 62
7
  6
CONTINUOUS
 10
340.452722
 20
146.876137
 11
340.452722
 21
158.076137
  0
ARC
  8
1
 62
7
  6
CONTINUOUS
 10
341.252722
 20
146.876137
 40
0.800000
 50
180.000000
 51
-90.000000
  0
LINE
  8
1
 62
7
  6
CONTINUOUS
 10
362.262342
 20
152.476137
 11
366.204474
 21
152.476137
  0
LINE
  8
1
 62
7
  6
CONTINUOUS
 10
364.352722
 20
154.127442
 11
364.352722
 21
150.987099
  0
ARC
  8
1
 62
7
  6
CONTINUOUS
 10
358.752722
 20
158.076137
 40
0.800000
 50
90.000000
 51
180.000000
  0
LINE
  8
1
 62
7
  6
CONTINUOUS
 10
358.752722
 20
158.876137
 11
369.952722
 21
158.876137
  0
ARC
  8
1
 62
7
  6
CONTINUOUS
 10
369.952722
 20
158.076137
 40
0.800000
 50
-0.000000
 51
90.000000
  0
LINE
  8
1
 62
7
  6
CONTINUOUS
 10
370.752722
 20
158.076137
 11
370.752722
 21
146.876137
  0
ARC
  8
1
 62
7
  6
CONTINUOUS
 10
369.952722
 20
146.876137
 40
0.800000
 50
-90.000000
 51
0.000000
  0
LINE
  8
1
 62
7
  6
CONTINUOUS
 10
369.952722
 20
146.076137
 11
358.752722
 21
146.076137
  0
LINE
  8
1
 62
7
  6
CONTINUOUS
 10
357.952722
 20
146.876137
 11
357.952722
 21
158.076137
  0
ARC
  8
1
 62
7
  6
CONTINUOUS
 10
358.752722
 20
146.876137
 40
0.800000
 50
180.000000
 51
-90.000000
  0
LINE
  8
1
 62
7
  6
CONTINUOUS
 10
327.262342
 20
134.976137
 11
331.204474
 21
134.976137
  0
LINE
  8
1
 62
7
  6
CONTINUOUS
 10
329.352722
 20
136.627442
 11
329.352722
 21
133.487099
  0
ARC
  8
1
 62
7
  6
CONTINUOUS
 10
323.752722
 20
140.576137
 40
0.800000
 50
90.000000
 51
180.000000
  0
LINE
  8
1
 62
7
  6
CONTINUOUS
 10
323.752722
 20
141.376137
 11
334.952722
 21
141.376137
  0
ARC
  8
1
 62
7
  6
CONTINUOUS
 10
334.952722
 20
140.576137
 40
0.800000
 50
-0.000000
 51
90.000000
  0
LINE
  8
1
 62
7
  6
CONTINUOUS
 10
335.752722
 20
140.576137
 11
335.752722
 21
129.376137
  0
ARC
  8
1
 62
7
  6
CONTINUOUS
 10
334.952722
 20
129.376137
 40
0.800000
 50
-90.000000
 51
0.000000
  0
LINE
  8
1
 62
7
  6
CONTINUOUS
 10
334.952722
 20
128.576137
 11
323.752722
 21
128.576137
  0
LINE
  8
1
 62
7
  6
CONTINUOUS
 10
322.952722
 20
129.376137
 11
322.952722
 21
140.576137
  0
ARC
  8
1
 62
7
  6
CONTINUOUS
 10
323.752722
 20
129.376137
 40
0.800000
 50
180.000000
 51
-90.000000
  0
LINE
  8
1
 62
7
  6
CONTINUOUS
 10
344.762342
 20
134.976137
 11
348.704474
 21
134.976137
  0
LINE
  8
1
 62
7
  6
CONTINUOUS
 10
346.852722
 20
136.627442
 11
346.852722
 21
133.487099
  0
ARC
  8
1
 62
7
  6
CONTINUOUS
 10
341.252722
 20
140.576137
 40
0.800000
 50
90.000000
 51
180.000000
  0
LINE
  8
1
 62
7
  6
CONTINUOUS
 10
341.252722
 20
141.376137
 11
352.452722
 21
141.376137
  0
ARC
  8
1
 62
7
  6
CONTINUOUS
 10
352.452722
 20
140.576137
 40
0.800000
 50
-0.000000
 51
90.000000
  0
LINE
  8
1
 62
7
  6
CONTINUOUS
 10
353.252722
 20
140.576137
 11
353.252722
 21
129.376137
  0
ARC
  8
1
 62
7
  6
CONTINUOUS
 10
352.452722
 20
129.376137
 40
0.800000
 50
-90.000000
 51
0.000000
  0
LINE
  8
1
 62
7
  6
CONTINUOUS
 10
352.452722
 20
128.576137
 11
341.252722
 21
128.576137
  0
LINE
  8
1
 62
7
  6
CONTINUOUS
 10
340.452722
 20
129.376137
 11
340.452722
 21
140.576137
  0
ARC
  8
1
 62
7
  6
CONTINUOUS
 10
341.252722
 20
129.376137
 40
0.800000
 50
180.000000
 51
-90.000000
  0
LINE
  8
1
 62
7
  6
CONTINUOUS
 10
362.262342
 20
134.976137
 11
366.204474
 21
134.976137
  0
LINE
  8
1
 62
7
  6
CONTINUOUS
 10
364.352722
 20
136.627442
 11
364.352722
 21
133.487099
  0
ARC
  8
1
 62
7
  6
CONTINUOUS
 10
358.752722
 20
140.576137
 40
0.800000
 50
90.000000
 51
180.000000
  0
LINE
  8
1
 62
7
  6
CONTINUOUS
 10
358.752722
 20
141.376137
 11
369.952722
 21
141.376137
  0
ARC
  8
1
 62
7
  6
CONTINUOUS
 10
369.952722
 20
140.576137
 40
0.800000
 50
-0.000000
 51
90.000000
  0
LINE
  8
1
 62
7
  6
CONTINUOUS
 10
370.752722
 20
140.576137
 11
370.752722
 21
129.376137
  0
ARC
  8
1
 62
7
  6
CONTINUOUS
 10
369.952722
 20
129.376137
 40
0.800000
 50
-90.000000
 51
0.000000
  0
LINE
  8
1
 62
7
  6
CONTINUOUS
 10
369.952722
 20
128.576137
 11
358.752722
 21
128.576137
  0
LINE
  8
1
 62
7
  6
CONTINUOUS
 10
357.952722
 20
129.376137
 11
357.952722
 21
140.576137
  0
ARC
  8
1
 62
7
  6
CONTINUOUS
 10
358.752722
 20
129.376137
 40
0.800000
 50
180.000000
 51
-90.000000
  0
LINE
  8
1
 62
7
  6
CONTINUOUS
 10
327.262342
 20
117.476137
 11
331.204474
 21
117.476137
  0
LINE
  8
1
 62
7
  6
CONTINUOUS
 10
329.352722
 20
119.127442
 11
329.352722
 21
115.987099
  0
ARC
  8
1
 62
7
  6
CONTINUOUS
 10
323.752722
 20
123.076137
 40
0.800000
 50
90.000000
 51
180.000000
  0
LINE
  8
1
 62
7
  6
CONTINUOUS
 10
323.752722
 20
123.876137
 11
334.952722
 21
123.876137
  0
ARC
  8
1
 62
7
  6
CONTINUOUS
 10
334.952722
 20
123.076137
 40
0.800000
 50
-0.000000
 51
90.000000
  0
LINE
  8
1
 62
7
  6
CONTINUOUS
 10
335.752722
 20
123.076137
 11
335.752722
 21
111.876137
  0
ARC
  8
1
 62
7
  6
CONTINUOUS
 10
334.952722
 20
111.876137
 40
0.800000
 50
-90.000000
 51
0.000000
  0
LINE
  8
1
 62
7
  6
CONTINUOUS
 10
334.952722
 20
111.076137
 11
323.752722
 21
111.076137
  0
LINE
  8
1
 62
7
  6
CONTINUOUS
 10
322.952722
 20
111.876137
 11
322.952722
 21
123.076137
  0
ARC
  8
1
 62
7
  6
CONTINUOUS
 10
323.752722
 20
111.876137
 40
0.800000
 50
180.000000
 51
-90.000000
  0
LINE
  8
1
 62
7
  6
CONTINUOUS
 10
344.762342
 20
117.476137
 11
348.704474
 21
117.476137
  0
LINE
  8
1
 62
7
  6
CONTINUOUS
 10
346.852722
 20
119.127442
 11
346.852722
 21
115.987099
  0
ARC
  8
1
 62
7
  6
CONTINUOUS
 10
341.252722
 20
123.076137
 40
0.800000
 50
90.000000
 51
180.000000
  0
LINE
  8
1
 62
7
  6
CONTINUOUS
 10
341.252722
 20
123.876137
 11
352.452722
 21
123.876137
  0
ARC
  8
1
 62
7
  6
CONTINUOUS
 10
352.452722
 20
123.076137
 40
0.800000
 50
-0.000000
 51
90.000000
  0
LINE
  8
1
 62
7
  6
CONTINUOUS
 10
353.252722
 20
123.076137
 11
353.252722
 21
111.876137
  0
ARC
  8
1
 62
7
  6
CONTINUOUS
 10
352.452722
 20
111.876137
 40
0.800000
 50
-90.000000
 51
0.000000
  0
LINE
  8
1
 62
7
  6
CONTINUOUS
 10
352.452722
 20
111.076137
 11
341.252722
 21
111.076137
  0
LINE
  8
1
 62
7
  6
CONTINUOUS
 10
340.452722
 20
111.876137
 11
340.452722
 21
123.076137
  0
ARC
  8
1
 62
7
  6
CONTINUOUS
 10
341.252722
 20
111.876137
 40
0.800000
 50
180.000000
 51
-90.000000
  0
LINE
  8
1
 62
7
  6
CONTINUOUS
 10
362.262342
 20
117.476137
 11
366.204474
 21
117.476137
  0
LINE
  8
1
 62
7
  6
CONTINUOUS
 10
364.352722
 20
119.127442
 11
364.352722
 21
115.987099
  0
ARC
  8
1
 62
7
  6
CONTINUOUS
 10
358.752722
 20
123.076137
 40
0.800000
 50
90.000000
 51
180.000000
  0
LINE
  8
1
 62
7
  6
CONTINUOUS
 10
358.752722
 20
123.876137
 11
369.952722
 21
123.876137
  0
ARC
  8
1
 62
7
  6
CONTINUOUS
 10
369.952722
 20
123.076137
 40
0.800000
 50
-0.000000
 51
90.000000
  0
LINE
  8
1
 62
7
  6
CONTINUOUS
 10
370.752722
 20
123.076137
 11
370.752722
 21
111.876137
  0
ARC
  8
1
 62
7
  6
CONTINUOUS
 10
369.952722
 20
111.876137
 40
0.800000
 50
-90.000000
 51
0.000000
  0
LINE
  8
1
 62
7
  6
CONTINUOUS
 10
369.952722
 20
111.076137
 11
358.752722
 21
111.076137
  0
LINE
  8
1
 62
7
  6
CONTINUOUS
 10
357.952722
 20
111.876137
 11
357.952722
 21
123.076137
  0
ARC
  8
1
 62
7
  6
CONTINUOUS
 10
358.752722
 20
111.876137
 40
0.800000
 50
180.000000
 51
-90.000000
  0
LINE
  8
1
 62
7
  6
CONTINUOUS
 10
325.289187
 20
77.801641
 11
329.231320
 21
77.801641
  0
LINE
  8
1
 62
7
  6
CONTINUOUS
 10
327.379567
 20
79.452946
 11
327.379567
 21
76.312603
  0
ARC
  8
1
 62
7
  6
CONTINUOUS
 10
321.779567
 20
83.401641
 40
0.800000
 50
90.000000
 51
180.000000
  0
LINE
  8
1
 62
7
  6
CONTINUOUS
 10
321.779567
 20
84.201641
 11
332.979567
 21
84.201641
  0
ARC
  8
1
 62
7
  6
CONTINUOUS
 10
332.979567
 20
83.401641
 40
0.800000
 50
-0.000000
 51
90.000000
  0
LINE
  8
1
 62
7
  6
CONTINUOUS
 10
333.779567
 20
83.401641
 11
333.779567
 21
72.201641
  0
ARC
  8
1
 62
7
  6
CONTINUOUS
 10
332.979567
 20
72.201641
 40
0.800000
 50
-90.000000
 51
0.000000
  0
LINE
  8
1
 62
7
  6
CONTINUOUS
 10
332.979567
 20
71.401641
 11
321.779567
 21
71.401641
  0
LINE
  8
1
 62
7
  6
CONTINUOUS
 10
320.979567
 20
72.201641
 11
320.979567
 21
83.401641
  0
ARC
  8
1
 62
7
  6
CONTINUOUS
 10
321.779567
 20
72.201641
 40
0.800000
 50
180.000000
 51
-90.000000
  0
LINE
  8
1
 62
7
  6
CONTINUOUS
 10
325.289187
 20
60.301641
 11
329.231320
 21
60.301641
  0
LINE
  8
1
 62
7
  6
CONTINUOUS
 10
327.379567
 20
61.952946
 11
327.379567
 21
58.812603
  0
ARC
  8
1
 62
7
  6
CONTINUOUS
 10
321.779567
 20
65.901641
 40
0.800000
 50
90.000000
 51
180.000000
  0
LINE
  8
1
 62
7
  6
CONTINUOUS
 10
321.779567
 20
66.701641
 11
332.979567
 21
66.701641
  0
ARC
  8
1
 62
7
  6
CONTINUOUS
 10
332.979567
 20
65.901641
 40
0.800000
 50
-0.000000
 51
90.000000
  0
LINE
  8
1
 62
7
  6
CONTINUOUS
 10
333.779567
 20
65.901641
 11
333.779567
 21
54.701641
  0
ARC
  8
1
 62
7
  6
CONTINUOUS
 10
332.979567
 20
54.701641
 40
0.800000
 50
-90.000000
 51
0.000000
  0
LINE
  8
1
 62
7
  6
CONTINUOUS
 10
332.979567
 20
53.901641
 11
321.779567
 21
53.901641
  0
LINE
  8
1
 62
7
  6
CONTINUOUS
 10
320.979567
 20
54.701641
 11
320.979567
 21
65.901641
  0
ARC
  8
1
 62
7
  6
CONTINUOUS
 10
321.779567
 20
54.701641
 40
0.800000
 50
180.000000
 51
-90.000000
  0
LINE
  8
1
 62
7
  6
CONTINUOUS
 10
325.289187
 20
42.801641
 11
329.231320
 21
42.801641
  0
LINE
  8
1
 62
7
  6
CONTINUOUS
 10
327.379567
 20
44.452946
 11
327.379567
 21
41.312603
  0
ARC
  8
1
 62
7
  6
CONTINUOUS
 10
321.779567
 20
48.401641
 40
0.800000
 50
90.000000
 51
180.000000
  0
LINE
  8
1
 62
7
  6
CONTINUOUS
 10
321.779567
 20
49.201641
 11
332.979567
 21
49.201641
  0
ARC
  8
1
 62
7
  6
CONTINUOUS
 10
332.979567
 20
48.401641
 40
0.800000
 50
-0.000000
 51
90.000000
  0
LINE
  8
1
 62
7
  6
CONTINUOUS
 10
333.779567
 20
48.401641
 11
333.779567
 21
37.201641
  0
ARC
  8
1
 62
7
  6
CONTINUOUS
 10
332.979567
 20
37.201641
 40
0.800000
 50
-90.000000
 51
0.000000
  0
LINE
  8
1
 62
7
  6
CONTINUOUS
 10
332.979567
 20
36.401641
 11
321.779567
 21
36.401641
  0
LINE
  8
1
 62
7
  6
CONTINUOUS
 10
320.979567
 20
37.201641
 11
320.979567
 21
48.401641
  0
ARC
  8
1
 62
7
  6
CONTINUOUS
 10
321.779567
 20
37.201641
 40
0.800000
 50
180.000000
 51
-90.000000
  0
LINE
  8
1
 62
7
  6
CONTINUOUS
 10
325.289187
 20
25.301641
 11
329.231320
 21
25.301641
  0
LINE
  8
1
 62
7
  6
CONTINUOUS
 10
327.379567
 20
26.952946
 11
327.379567
 21
23.812603
  0
ARC
  8
1
 62
7
  6
CONTINUOUS
 10
321.779567
 20
30.901641
 40
0.800000
 50
90.000000
 51
180.000000
  0
LINE
  8
1
 62
7
  6
CONTINUOUS
 10
321.779567
 20
31.701641
 11
332.979567
 21
31.701641
  0
ARC
  8
1
 62
7
  6
CONTINUOUS
 10
332.979567
 20
30.901641
 40
0.800000
 50
-0.000000
 51
90.000000
  0
LINE
  8
1
 62
7
  6
CONTINUOUS
 10
333.779567
 20
30.901641
 11
333.779567
 21
19.701641
  0
ARC
  8
1
 62
7
  6
CONTINUOUS
 10
332.979567
 20
19.701641
 40
0.800000
 50
-90.000000
 51
0.000000
  0
LINE
  8
1
 62
7
  6
CONTINUOUS
 10
332.979567
 20
18.901641
 11
321.779567
 21
18.901641
  0
LINE
  8
1
 62
7
  6
CONTINUOUS
 10
320.979567
 20
19.701641
 11
320.979567
 21
30.901641
  0
ARC
  8
1
 62
7
  6
CONTINUOUS
 10
321.779567
 20
19.701641
 40
0.800000
 50
180.000000
 51
-90.000000
  0
LINE
  8
1
 62
7
  6
CONTINUOUS
 10
346.289187
 20
77.801641
 11
350.231320
 21
77.801641
  0
LINE
  8
1
 62
7
  6
CONTINUOUS
 10
348.379567
 20
79.452946
 11
348.379567
 21
76.312603
  0
ARC
  8
1
 62
7
  6
CONTINUOUS
 10
342.779567
 20
83.401641
 40
0.800000
 50
90.000000
 51
180.000000
  0
LINE
  8
1
 62
7
  6
CONTINUOUS
 10
342.779567
 20
84.201641
 11
353.979567
 21
84.201641
  0
ARC
  8
1
 62
7
  6
CONTINUOUS
 10
353.979567
 20
83.401641
 40
0.800000
 50
-0.000000
 51
90.000000
  0
LINE
  8
1
 62
7
  6
CONTINUOUS
 10
354.779567
 20
83.401641
 11
354.779567
 21
72.201641
  0
ARC
  8
1
 62
7
  6
CONTINUOUS
 10
353.979567
 20
72.201641
 40
0.800000
 50
-90.000000
 51
0.000000
  0
LINE
  8
1
 62
7
  6
CONTINUOUS
 10
353.979567
 20
71.401641
 11
342.779567
 21
71.401641
  0
LINE
  8
1
 62
7
  6
CONTINUOUS
 10
341.979567
 20
72.201641
 11
341.979567
 21
83.401641
  0
ARC
  8
1
 62
7
  6
CONTINUOUS
 10
342.779567
 20
72.201641
 40
0.800000
 50
180.000000
 51
-90.000000
  0
LINE
  8
1
 62
7
  6
CONTINUOUS
 10
346.289187
 20
60.301641
 11
350.231320
 21
60.301641
  0
LINE
  8
1
 62
7
  6
CONTINUOUS
 10
348.379567
 20
61.952946
 11
348.379567
 21
58.812603
  0
ARC
  8
1
 62
7
  6
CONTINUOUS
 10
342.779567
 20
65.901641
 40
0.800000
 50
90.000000
 51
180.000000
  0
LINE
  8
1
 62
7
  6
CONTINUOUS
 10
342.779567
 20
66.701641
 11
353.979567
 21
66.701641
  0
ARC
  8
1
 62
7
  6
CONTINUOUS
 10
353.979567
 20
65.901641
 40
0.800000
 50
-0.000000
 51
90.000000
  0
LINE
  8
1
 62
7
  6
CONTINUOUS
 10
354.779567
 20
65.901641
 11
354.779567
 21
54.701641
  0
ARC
  8
1
 62
7
  6
CONTINUOUS
 10
353.979567
 20
54.701641
 40
0.800000
 50
-90.000000
 51
0.000000
  0
LINE
  8
1
 62
7
  6
CONTINUOUS
 10
353.979567
 20
53.901641
 11
342.779567
 21
53.901641
  0
LINE
  8
1
 62
7
  6
CONTINUOUS
 10
341.979567
 20
54.701641
 11
341.979567
 21
65.901641
  0
ARC
  8
1
 62
7
  6
CONTINUOUS
 10
342.779567
 20
54.701641
 40
0.800000
 50
180.000000
 51
-90.000000
  0
LINE
  8
1
 62
7
  6
CONTINUOUS
 10
346.289187
 20
42.801641
 11
350.231320
 21
42.801641
  0
LINE
  8
1
 62
7
  6
CONTINUOUS
 10
348.379567
 20
44.452946
 11
348.379567
 21
41.312603
  0
ARC
  8
1
 62
7
  6
CONTINUOUS
 10
342.779567
 20
48.401641
 40
0.800000
 50
90.000000
 51
180.000000
  0
LINE
  8
1
 62
7
  6
CONTINUOUS
 10
342.779567
 20
49.201641
 11
353.979567
 21
49.201641
  0
ARC
  8
1
 62
7
  6
CONTINUOUS
 10
353.979567
 20
48.401641
 40
0.800000
 50
-0.000000
 51
90.000000
  0
LINE
  8
1
 62
7
  6
CONTINUOUS
 10
354.779567
 20
48.401641
 11
354.779567
 21
37.201641
  0
ARC
  8
1
 62
7
  6
CONTINUOUS
 10
353.979567
 20
37.201641
 40
0.800000
 50
-90.000000
 51
0.000000
  0
LINE
  8
1
 62
7
  6
CONTINUOUS
 10
353.979567
 20
36.401641
 11
342.779567
 21
36.401641
  0
LINE
  8
1
 62
7
  6
CONTINUOUS
 10
341.979567
 20
37.201641
 11
341.979567
 21
48.401641
  0
ARC
  8
1
 62
7
  6
CONTINUOUS
 10
342.779567
 20
37.201641
 40
0.800000
 50
180.000000
 51
-90.000000
  0
LINE
  8
1
 62
7
  6
CONTINUOUS
 10
346.289187
 20
25.301641
 11
350.231320
 21
25.301641
  0
LINE
  8
1
 62
7
  6
CONTINUOUS
 10
348.379567
 20
26.952946
 11
348.379567
 21
23.812603
  0
ARC
  8
1
 62
7
  6
CONTINUOUS
 10
342.779567
 20
30.901641
 40
0.800000
 50
90.000000
 51
180.000000
  0
LINE
  8
1
 62
7
  6
CONTINUOUS
 10
342.779567
 20
31.701641
 11
353.979567
 21
31.701641
  0
ARC
  8
1
 62
7
  6
CONTINUOUS
 10
353.979567
 20
30.901641
 40
0.800000
 50
-0.000000
 51
90.000000
  0
LINE
  8
1
 62
7
  6
CONTINUOUS
 10
354.779567
 20
30.901641
 11
354.779567
 21
19.701641
  0
ARC
  8
1
 62
7
  6
CONTINUOUS
 10
353.979567
 20
19.701641
 40
0.800000
 50
-90.000000
 51
0.000000
  0
LINE
  8
1
 62
7
  6
CONTINUOUS
 10
353.979567
 20
18.901641
 11
342.779567
 21
18.901641
  0
LINE
  8
1
 62
7
  6
CONTINUOUS
 10
341.979567
 20
19.701641
 11
341.979567
 21
30.901641
  0
ARC
  8
1
 62
7
  6
CONTINUOUS
 10
342.779567
 20
19.701641
 40
0.800000
 50
180.000000
 51
-90.000000
  0
LINE
  8
1
 62
7
  6
CONTINUOUS
 10
132.946309
 20
118.159582
 11
132.946309
 21
124.173005
  0
LINE
  8
1
 62
7
  6
CONTINUOUS
 10
132.946309
 20
168.187919
 11
132.946309
 21
174.389262
  0
LINE
  8
1
 62
7
  6
CONTINUOUS
 10
166.946309
 20
174.577181
 11
166.946309
 21
168.521999
  0
LINE
  8
1
 62
7
  6
CONTINUOUS
 10
166.946309
 20
124.173005
 11
166.946309
 21
117.825503
  0
LINE
  8
1
 62
7
  6
CONTINUOUS
 10
170.144668
 20
121.312081
 11
163.880686
 21
121.312081
  0
LINE
  8
1
 62
7
  6
CONTINUOUS
 10
135.734526
 20
121.312081
 11
129.554064
 21
121.312081
  0
LINE
  8
1
 62
7
  6
CONTINUOUS
 10
169.727069
 20
171.312081
 11
163.964206
 21
171.312081
  0
LINE
  8
1
 62
7
  6
CONTINUOUS
 10
135.651007
 20
171.312081
 11
130.055183
 21
171.312081
  0
LINE
  8
1
 62
7
  6
CONTINUOUS
 10
161.946309
 20
188.312081
 11
161.946309
 21
104.312081
  0
LINE
  8
1
 62
7
  6
CONTINUOUS
 10
137.946309
 20
104.312081
 11
137.946309
 21
188.312081
  0
ARC
  8
1
 62
7
  6
CONTINUOUS
 10
130.946309
 20
107.312081
 40
3.000000
 50
180.000000
 51
-90.000000
  0
LINE
  8
1
 62
7
  6
CONTINUOUS
 10
127.946309
 20
107.312081
 11
127.946309
 21
185.312081
  0
LINE
  8
1
 62
7
  6
CONTINUOUS
 10
168.946309
 20
104.312081
 11
130.946309
 21
104.312081
  0
ARC
  8
1
 62
7
  6
CONTINUOUS
 10
168.946309
 20
107.312081
 40
3.000000
 50
-90.000000
 51
0.000000
  0
LINE
  8
1
 62
7
  6
CONTINUOUS
 10
171.946309
 20
185.312081
 11
171.946309
 21
107.312081
  0
ARC
  8
1
 62
7
  6
CONTINUOUS
 10
168.946309
 20
185.312081
 40
3.000000
 50
0.000000
 51
90.000000
  0
LINE
  8
1
 62
7
  6
CONTINUOUS
 10
130.946309
 20
188.312081
 11
168.946309
 21
188.312081
  0
ARC
  8
1
 62
7
  6
CONTINUOUS
 10
130.946309
 20
185.312081
 40
3.000000
 50
90.000000
 51
180.000000
  0
DIMENSION
  8
1
 62
7
  6
CONTINUOUS
  2
*D1
 10
114.520507
 20
104.312081
 11
114.520507
 21
146.312081
 70
     0
  1
84
 13
128.946309
 23
104.312081
 14
128.946309
 24
188.312081
 50
90.000000
  0
DIMENSION
  8
1
 62
7
  6
CONTINUOUS
  2
*D2
 10
109.822521
 20
97.812081
 11
109.822521
 21
146.312081
 70
     0
  1
97
 13
135.946309
 23
97.812081
 14
135.946309
 24
194.812081
 50
90.000000
  0
DIMENSION
  8
1
 62
7
  6
CONTINUOUS
  2
*D3
 10
119.030574
 20
121.312081
 11
119.030574
 21
146.312081
 70
     0
  1
50
 13
129.346309
 23
121.312081
 14
128.055183
 24
171.312081
 50
90.000000
  0
ARC
  8
1
 62
7
  6
CONTINUOUS
 10
144.119612
 20
178.098509
 40
0.800000
 50
90.000000
 51
180.000000
  0
LINE
  8
1
 62
7
  6
CONTINUOUS
 10
144.119612
 20
178.898509
 11
155.319612
 21
178.898509
  0
ARC
  8
1
 62
7
  6
CONTINUOUS
 10
155.319612
 20
178.098509
 40
0.800000
 50
0.000000
 51
90.000000
  0
LINE
  8
1
 62
7
  6
CONTINUOUS
 10
156.119612
 20
178.098509
 11
156.119612
 21
166.898509
  0
ARC
  8
1
 62
7
  6
CONTINUOUS
 10
155.319612
 20
166.898509
 40
0.800000
 50
-90.000000
 51
0.000000
  0
LINE
  8
1
 62
7
  6
CONTINUOUS
 10
155.319612
 20
166.098509
 11
144.119612
 21
166.098509
  0
LINE
  8
1
 62
7
  6
CONTINUOUS
 10
143.319612
 20
166.898509
 11
143.319612
 21
178.098509
  0
ARC
  8
1
 62
7
  6
CONTINUOUS
 10
144.119612
 20
166.898509
 40
0.800000
 50
180.000000
 51
-90.000000
  0
ARC
  8
1
 62
7
  6
CONTINUOUS
 10
144.119612
 20
160.598509
 40
0.800000
 50
90.000000
 51
180.000000
  0
LINE
  8
1
 62
7
  6
CONTINUOUS
 10
144.119612
 20
161.398509
 11
155.319612
 21
161.398509
  0
ARC
  8
1
 62
7
  6
CONTINUOUS
 10
155.319612
 20
160.598509
 40
0.800000
 50
0.000000
 51
90.000000
  0
LINE
  8
1
 62
7
  6
CONTINUOUS
 10
156.119612
 20
160.598509
 11
156.119612
 21
149.398509
  0
ARC
  8
1
 62
7
  6
CONTINUOUS
 10
155.319612
 20
149.398509
 40
0.800000
 50
-90.000000
 51
0.000000
  0
LINE
  8
1
 62
7
  6
CONTINUOUS
 10
155.319612
 20
148.598509
 11
144.119612
 21
148.598509
  0
LINE
  8
1
 62
7
  6
CONTINUOUS
 10
143.319612
 20
149.398509
 11
143.319612
 21
160.598509
  0
ARC
  8
1
 62
7
  6
CONTINUOUS
 10
144.119612
 20
149.398509
 40
0.800000
 50
180.000000
 51
-90.000000
  0
ARC
  8
1
 62
7
  6
CONTINUOUS
 10
144.119612
 20
143.098509
 40
0.800000
 50
90.000000
 51
180.000000
  0
LINE
  8
1
 62
7
  6
CONTINUOUS
 10
144.119612
 20
143.898509
 11
155.319612
 21
143.898509
  0
ARC
  8
1
 62
7
  6
CONTINUOUS
 10
155.319612
 20
143.098509
 40
0.800000
 50
0.000000
 51
90.000000
  0
LINE
  8
1
 62
7
  6
CONTINUOUS
 10
156.119612
 20
143.098509
 11
156.119612
 21
131.898509
  0
ARC
  8
1
 62
7
  6
CONTINUOUS
 10
155.319612
 20
131.898509
 40
0.800000
 50
-90.000000
 51
0.000000
  0
LINE
  8
1
 62
7
  6
CONTINUOUS
 10
155.319612
 20
131.098509
 11
144.119612
 21
131.098509
  0
LINE
  8
1
 62
7
  6
CONTINUOUS
 10
143.319612
 20
131.898509
 11
143.319612
 21
143.098509
  0
ARC
  8
1
 62
7
  6
CONTINUOUS
 10
144.119612
 20
131.898509
 40
0.800000
 50
180.000000
 51
-90.000000
  0
ARC
  8
1
 62
7
  6
CONTINUOUS
 10
144.119612
 20
125.598509
 40
0.800000
 50
90.000000
 51
180.000000
  0
LINE
  8
1
 62
7
  6
CONTINUOUS
 10
144.119612
 20
126.398509
 11
155.319612
 21
126.398509
  0
ARC
  8
1
 62
7
  6
CONTINUOUS
 10
155.319612
 20
125.598509
 40
0.800000
 50
-0.000000
 51
90.000000
  0
LINE
  8
1
 62
7
  6
CONTINUOUS
 10
156.119612
 20
125.598509
 11
156.119612
 21
114.398509
  0
ARC
  8
1
 62
7
  6
CONTINUOUS
 10
155.319612
 20
114.398509
 40
0.800000
 50
-90.000000
 51
0.000000
  0
LINE
  8
1
 62
7
  6
CONTINUOUS
 10
155.319612
 20
113.598509
 11
144.119612
 21
113.598509
  0
LINE
  8
1
 62
7
  6
CONTINUOUS
 10
143.319612
 20
114.398509
 11
143.319612
 21
125.598509
  0
ARC
  8
1
 62
7
  6
CONTINUOUS
 10
144.119612
 20
114.398509
 40
0.800000
 50
180.000000
 51
-90.000000
  0
LINE
  8
1
 62
7
  6
CONTINUOUS
 10
140.192394
 20
194.812081
 11
159.986577
 21
194.812081
  0
LINE
  8
1
 62
7
  6
CONTINUOUS
 10
159.986577
 20
188.312081
 11
159.986577
 21
194.812081
  0
LINE
  8
1
 62
7
  6
CONTINUOUS
 10
140.192394
 20
188.312081
 11
140.192394
 21
194.812081
  0
LINE
  8
1
 62
7
  6
CONTINUOUS
 10
160.362416
 20
97.812081
 11
139.565996
 21
97.812081
  0
LINE
  8
1
 62
7
  6
CONTINUOUS
 10
160.362416
 20
104.312081
 11
160.362416
 21
97.812081
  0
LINE
  8
1
 62
7
  6
CONTINUOUS
 10
139.565996
 20
104.312081
 11
139.565996
 21
97.812081
  0
LINE
  8
1
 62
7
  6
DOT
 10
140.881432
 20
104.312081
 11
140.881432
 21
99.075317
  0
LINE
  8
1
 62
7
  6
DOT
 10
140.881432
 20
99.075317
 11
144.890380
 21
99.075317
  0
LINE
  8
1
 62
7
  6
DOT
 10
144.890380
 20
99.075317
 11
144.890380
 21
104.312081
  0
LINE
  8
1
 62
7
  6
DOT
 10
144.890380
 20
104.312081
 11
140.881432
 21
104.312081
  0
TEXT
  8
1
 62
7
  6
CONTINUOUS
 10
151.954760
 20
115.500870
 40
6.000000
 41
0.500000
  1
1
  7
KANJI
 50
0.000000
 51
0.000000
  0
TEXT
  8
1
 62
7
  6
CONTINUOUS
 10
152.142680
 20
133.165300
 40
6.000000
 41
0.500000
  1
2
  7
KANJI
 50
0.000000
 51
0.000000
  0
TEXT
  8
1
 62
7
  6
CONTINUOUS
 10
152.142680
 20
150.829729
 40
6.000000
 41
0.500000
  1
3
  7
KANJI
 50
0.000000
 51
0.000000
  0
TEXT
  8
1
 62
7
  6
CONTINUOUS
 10
152.142680
 20
166.802883
 40
6.000000
 41
0.500000
  1
4
  7
KANJI
 50
0.000000
 51
0.000000
  0
LINE
  8
1
 62
7
  6
CONTINUOUS
 10
139.146309
 20
48.343773
 11
160.746309
 21
48.343773
  0
ARC
  8
1
 62
7
  6
CONTINUOUS
 10
137.946309
 20
49.543773
 40
1.200000
 50
-90.000000
 51
0.000000
  0
LINE
  8
1
 62
7
  6
CONTINUOUS
 10
127.946309
 20
48.343773
 11
137.946309
 21
48.343773
  0
ARC
  8
1
 62
7
  6
CONTINUOUS
 10
161.946309
 20
49.543773
 40
1.200000
 50
180.000000
 51
-90.000000
  0
LINE
  8
1
 62
7
  6
CONTINUOUS
 10
161.946309
 20
48.343773
 11
171.946309
 21
48.343773
  0
LINE
  8
1
 62
7
  6
CONTINUOUS
 10
161.946309
 20
49.543773
 11
171.946309
 21
49.543773
  0
LINE
  8
1
 62
7
  6
CONTINUOUS
 10
139.146309
 20
49.543773
 11
160.746309
 21
49.543773
  0
LINE
  8
1
 62
7
  6
CONTINUOUS
 10
127.946309
 20
49.543773
 11
137.946309
 21
49.543773
  0
LINE
  8
1
 62
7
  6
CONTINUOUS
 10
171.946309
 20
48.343773
 11
171.946309
 21
49.543773
  0
LINE
  8
1
 62
7
  6
CONTINUOUS
 10
127.946309
 20
48.343773
 11
127.946309
 21
49.543773
  0
LINE
  8
1
 62
7
  6
CONTINUOUS
 10
140.881432
 20
48.343773
 11
140.881432
 21
43.981357
  0
LINE
  8
1
 62
7
  6
CONTINUOUS
 10
140.881432
 20
43.981357
 11
144.890380
 21
43.981357
  0
LINE
  8
1
 62
7
  6
CONTINUOUS
 10
144.890380
 20
43.981357
 11
144.890380
 21
48.343773
  0
LINE
  8
1
 62
7
  6
CONTINUOUS
 10
144.890380
 20
48.343773
 11
140.881432
 21
48.343773
  0
LINE
  8
1
 62
7
  6
CONTINUOUS
 10
140.881432
 20
48.343773
 11
140.881432
 21
40.584887
  0
LINE
  8
1
 62
7
  6
CONTINUOUS
 10
140.881432
 20
40.584887
 11
140.140194
 21
40.584887
  0
LINE
  8
1
 62
7
  6
CONTINUOUS
 10
140.140194
 20
40.584887
 11
140.140194
 21
48.343773
  0
LINE
  8
1
 62
7
  6
CONTINUOUS
 10
140.140194
 20
48.343773
 11
140.881432
 21
48.343773
  0
LINE
  8
1
 62
7
  6
CONTINUOUS
 10
142.311708
 20
43.981357
 11
142.311708
 21
38.079294
  0
LINE
  8
1
 62
7
  6
CONTINUOUS
 10
142.311708
 20
38.079294
 11
143.035546
 21
38.079294
  0
LINE
  8
1
 62
7
  6
CONTINUOUS
 10
143.035546
 20
38.079294
 11
143.035546
 21
43.981357
  0
LINE
  8
1
 62
7
  6
CONTINUOUS
 10
143.035546
 20
43.981357
 11
142.311708
 21
43.981357
  0
LINE
  8
1
 62
7
  6
DOT
 10
140.140194
 20
43.981357
 11
140.140194
 21
32.622670
  0
LINE
  8
1
 62
7
  6
DOT
 10
140.140194
 20
32.622670
 11
144.890380
 21
32.622670
  0
LINE
  8
1
 62
7
  6
DOT
 10
144.890380
 20
32.622670
 11
144.890380
 21
43.981357
  0
LINE
  8
1
 62
7
  6
DOT
 10
144.890380
 20
43.981357
 11
140.140194
 21
43.981357
  0
LINE
  8
1
 62
7
  6
CONTINUOUS
 10
142.311708
 20
32.622670
 11
142.311708
 21
32.339796
  0
LINE
  8
1
 62
7
  6
CONTINUOUS
 10
143.369625
 20
32.622670
 11
143.369625
 21
32.343773
  0
ARC
  8
1
 62
7
  6
DOT
 10
140.369625
 20
32.343773
 40
3.000000
 50
-90.000000
 51
0.000000
  0
LINE
  8
1
 62
7
  6
DOT
 10
140.369625
 20
29.343773
 11
132.091364
 21
29.343773
  0
ARC
  8
1
 62
7
  6
DOT
 10
140.311708
 20
32.339796
 40
2.000000
 50
-90.000000
 51
0.000000
  0
LINE
  8
1
 62
7
  6
DOT
 10
140.311708
 20
30.339796
 11
132.122297
 21
30.339796
  0
LINE
  8
1
 62
7
  6
CONTINUOUS
 10
160.746309
 20
48.343773
 11
160.746309
 21
58.343773
  0
LINE
  8
1
 62
7
  6
CONTINUOUS
 10
139.146309
 20
48.343773
 11
139.146309
 21
58.343773
  0
ARC
  8
1
 62
7
  6
CONTINUOUS
 10
160.746309
 20
58.343773
 40
1.200000
 50
0.000000
 51
90.000000
  0
LINE
  8
1
 62
7
  6
CONTINUOUS
 10
161.946309
 20
49.543773
 11
161.946309
 21
58.343773
  0
LINE
  8
1
 62
7
  6
CONTINUOUS
 10
139.146309
 20
59.543773
 11
160.746309
 21
59.543773
  0
ARC
  8
1
 62
7
  6
CONTINUOUS
 10
139.146309
 20
58.343773
 40
1.200000
 50
90.000000
 51
180.000000
  0
LINE
  8
1
 62
7
  6
CONTINUOUS
 10
137.946309
 20
49.543773
 11
137.946309
 21
58.343773
  0
LINE
  8
1
 62
7
  6
CONTINUOUS
 10
139.146309
 20
58.343773
 11
160.746309
 21
58.343773
  0
DIMENSION
  8
1
 62
7
  6
CONTINUOUS
  2
*D4
 10
110.807137
 20
29.343773
 11
110.807137
 21
38.843773
 70
     0
  1
19
 13
130.091364
 23
29.343773
 14
125.946309
 24
48.343773
 50
90.000000
  0
LINE
  8
1
 62
7
  6
CONTINUOUS
 10
139.146309
 20
59.543773
 11
139.146309
 21
60.041574
  0
LINE
  8
1
 62
7
  6
CONTINUOUS
 10
139.146309
 20
60.041574
 11
160.878780
 21
60.041574
  0
LINE
  8
1
 62
7
  6
CONTINUOUS
 10
160.878780
 20
60.041574
 11
160.878780
 21
59.543773
  0
LINE
  8
1
 62
7
  6
CONTINUOUS
 10
160.878780
 20
59.543773
 11
139.146309
 21
59.543773
  0
DIMENSION
  8
1
 62
7
  6
CONTINUOUS
  2
*D5
 10
110.807137
 20
48.343773
 11
110.807137
 21
54.192674
 70
     0
  1
11.7
 13
125.946309
 23
48.343773
 14
137.146309
 24
60.041574
 50
90.000000
  0
DIMENSION
  8
1
 62
7
  6
CONTINUOUS
  2
*D6
 10
118.657994
 20
59.543773
 11
118.657994
 21
59.792674
 70
     0
  1
0.5
 13
137.146309
 23
59.543773
 14
137.146309
 24
60.041574
 50
90.000000
  0
DIMENSION
  8
1
 62
7
  6
CONTINUOUS
  2
*D7
 10
118.490955
 20
48.343773
 11
118.490955
 21
48.943773
 70
     0
  1
1.2
 13
125.946309
 23
48.343773
 14
125.946309
 24
49.543773
 50
90.000000
  0
LINE
  8
1
 62
7
  6
DOT
 10
141.507684
 20
188.292463
 11
141.585782
 21
193.528644
  0
LINE
  8
1
 62
7
  6
DOT
 10
141.585782
 20
193.528644
 11
145.594284
 21
193.468857
  0
LINE
  8
1
 62
7
  6
DOT
 10
145.594284
 20
193.468857
 11
145.516186
 21
188.232676
  0
LINE
  8
1
 62
7
  6
DOT
 10
145.516186
 20
188.232676
 11
141.507684
 21
188.292463
  0
DIMENSION
  8
1
 62
7
  6
CONTINUOUS
  2
*D8
 10
137.946309
 20
88.604027
 11
149.946309
 21
88.604027
 70
     0
  1
24
 13
137.946309
 23
102.312081
 14
161.946309
 24
102.312081
 50
0.000000
  0
DIMENSION
  8
1
 62
7
  6
CONTINUOUS
  2
*D9
 10
132.946309
 20
84.093960
 11
149.946309
 21
84.093960
 70
     0
  1
34
 13
132.946309
 23
116.159582
 14
166.946309
 24
115.825503
 50
0.000000
  0
DIMENSION
  8
1
 62
7
  6
CONTINUOUS
  2
*D10
 10
127.946309
 20
79.771812
 11
149.946309
 21
79.771812
 70
     0
  1
44
 13
127.946309
 23
105.312081
 14
171.946309
 24
105.312081
 50
0.000000
  0
CIRCLE
  8
1
 62
7
  6
CONTINUOUS
 10
166.946309
 20
171.312081
 40
2.000000
  0
CIRCLE
  8
1
 62
7
  6
CONTINUOUS
 10
166.946309
 20
121.312081
 40
2.000000
  0
CIRCLE
  8
1
 62
7
  6
CONTINUOUS
 10
132.946309
 20
121.312081
 40
2.000000
  0
CIRCLE
  8
1
 62
7
  6
CONTINUOUS
 10
132.946309
 20
171.312081
 40
2.000000
  0
LINE
  8
1
 62
7
  6
CONTINUOUS
 10
168.143854
 20
172.913919
 11
176.626895
 21
191.576933
  0
LINE
  8
1
 62
7
  6
CONTINUOUS
 10
176.626895
 20
191.576933
 11
167.308911
 21
191.576933
  0
TEXT
  8
1
 62
7
  6
CONTINUOUS
 10
167.308911
 20
191.576933
 40
3.000000
 41
0.625000
  1
4-φ4
  7
KANJI
 50
0.000000
 51
30.000000
  0
LINE
  8
1
 62
7
  6
CONTINUOUS
 10
168.143854
 20
172.913919
 11
168.636083
 21
175.873262
  0
LINE
  8
1
 62
7
  6
CONTINUOUS
 10
168.143854
 20
172.913919
 11
170.049808
 21
175.230670
  0
LINE
  8
1
 62
7
  6
CONTINUOUS
 10
144.917355
 20
177.281910
 11
144.917355
 21
175.353535
  0
LINE
  8
1
 62
7
  6
CONTINUOUS
 10
144.917355
 20
175.353535
 11
149.802571
 21
175.353535
  0
LINE
  8
1
 62
7
  6
CONTINUOUS
 10
149.802571
 20
175.353535
 11
149.802571
 21
177.281910
  0
LINE
  8
1
 62
7
  6
CONTINUOUS
 10
149.802571
 20
177.281910
 11
144.917355
 21
177.281910
  0
LINE
  8
1
 62
7
  6
CONTINUOUS
 10
144.917355
 20
159.781910
 11
144.917355
 21
157.853535
  0
LINE
  8
1
 62
7
  6
CONTINUOUS
 10
144.917355
 20
157.853535
 11
149.802571
 21
157.853535
  0
LINE
  8
1
 62
7
  6
CONTINUOUS
 10
149.802571
 20
157.853535
 11
149.802571
 21
159.781910
  0
LINE
  8
1
 62
7
  6
CONTINUOUS
 10
149.802571
 20
159.781910
 11
144.917355
 21
159.781910
  0
LINE
  8
1
 62
7
  6
CONTINUOUS
 10
144.917355
 20
142.281910
 11
144.917355
 21
140.353535
  0
LINE
  8
1
 62
7
  6
CONTINUOUS
 10
144.917355
 20
140.353535
 11
149.802571
 21
140.353535
  0
LINE
  8
1
 62
7
  6
CONTINUOUS
 10
149.802571
 20
140.353535
 11
149.802571
 21
142.281910
  0
LINE
  8
1
 62
7
  6
CONTINUOUS
 10
149.802571
 20
142.281910
 11
144.917355
 21
142.281910
  0
LINE
  8
1
 62
7
  6
CONTINUOUS
 10
144.917355
 20
124.781910
 11
144.917355
 21
122.853535
  0
LINE
  8
1
 62
7
  6
CONTINUOUS
 10
144.917355
 20
122.853535
 11
149.802571
 21
122.853535
  0
LINE
  8
1
 62
7
  6
CONTINUOUS
 10
149.802571
 20
122.853535
 11
149.802571
 21
124.781910
  0
LINE
  8
1
 62
7
  6
CONTINUOUS
 10
149.802571
 20
124.781910
 11
144.917355
 21
124.781910
  0
TEXT
  8
1
 62
7
  6
CONTINUOUS
 10
251.718121
 20
14.093960
 40
6.000000
 41
0.500000
  1
LFB-4SS
  7
KANJI
 50
0.000000
 51
0.000000
  0
ENDSEC
  0
EOF
