  0
SECTION
  2
HEADER
  9
$ACADVER
  1
AC1009
  9
$INSBASE
 10
0.000000
 20
0.000000
  9
$EXTMIN
 10
0.000000
 20
0.000000
  9
$EXTMAX
 10
594.000000
 20
420.000000
  9
$LIMMIN
 10
0.000000
 20
0.000000
  9
$LIMMAX
 10
594.000000
 20
420.000000
  9
$VIEWCTR
 10
297.000000
 20
210.000000
  9
$VIEWSIZE
 40
420.000000
  9
$PEXTMIN
 10
0.000000
 20
0.000000
 30
0.000000
  9
$PEXTMAX
 10
297.000000
 20
210.000000
 30
0.000000
  9
$SNAPMODE
 70
     0
  9
$SNAPUNIT
 10
1.000000
 20
1.000000
  9
$SNAPBASE
 10
0.000000
 20
0.000000
  9
$SNAPANG
 50
0.000000
  9
$SNAPISOPAIR
 70
     0
  9
$SNAPSTYLE
 70
     0
  9
$GRIDMODE
 70
     0
  9
$GRIDUNIT
 10
0.000000
 20
0.000000
  9
$ORTHOMODE
 70
     0
  9
$REGENMODE
 70
     1
  9
$FILLMODE
 70
     1
  9
$QTEXTMODE
 70
     0
  9
$DRAGMODE
 70
     2
  9
$LTSCALE
 40
0.500000
  9
$OSMODE
 70
     0
  9
$ATTMODE
 70
     1
  9
$TEXTSIZE
 40
4.000000
  9
$TRACEWID
 40
0.050000
  9
$TEXTSTYLE
  7
STANDARD
  9
$CLAYER
  8
0
  9
$CELTYPE
  6
BYLAYER
  9
$CECOLOR
 62
   256
  9
$DIMSCALE
 40
1.000000
  9
$DIMASZ
 40
1.000000
  9
$DIMEXO
 40
0.000000
  9
$DIMDLI
 40
0.500000
  9
$DIMRND
 40
0.000000
  9
$DIMDLE
 40
0.000000
  9
$DIMEXE
 40
0.000000
  9
$DIMTP
 40
0.000000
  9
$DIMTM
 40
0.000000
  9
$DIMTXT
 40
3.000000
  9
$DIMCEN
 40
0.000000
  9
$DIMTSZ
 40
0.000000
  9
$DIMTOL
 70
     0
  9
$DIMLIM
 70
     0
  9
$DIMTIH
 70
     1
  9
$DIMTOH
 70
     1
  9
$DIMSE1
 70
     0
  9
$DIMSE2
 70
     0
  9
$DIMTAD
 70
     0
  9
$DIMZIN
 70
     0
  9
$DIMBLK
  1

  9
$DIMASO
 70
     0
  9
$DIMSHO
 70
     0
  9
$DIMPOST
  1

  9
$DIMAPOST
  1

  9
$DIMALT
 70
     0
  9
$DIMALTD
 70
     0
  9
$DIMALTF
 40
25.400000
  9
$DIMLFAC
 40
1.000000
  9
$DIMTOFL
 70
     0
  9
$DIMTVP
 40
0.000000
  9
$DIMTIX
 70
     0
  9
$DIMSOXD
 70
     0
  9
$DIMSAH
 70
     0
  9
$DIMBLKL
  1

  9
$DIMBLKR
  1

  9
$LUNITS
 70
     2
  9
$LUPREC
 70
     2
  9
$AXISMODE
 70
     0
  9
$AXISUNIT
 10
1.000000
 20
1.000000
  9
$SKETCHINC
 40
0.000000
  9
$FILLETRAD
 40
0.000000
  9
$AUNITS
 70
     1
  9
$AUPREC
 70
     2
  9
$MENU
  1
ACAD
  9
$ELEVATION
 40
0.000000
  9
$THICKNESS
 40
0.000000
  9
$VIEWDIR
 10
0.000000
 20
0.000000
 30
1.000000
  9
$LIMCHECK
 70
     1
  9
$BLIPMODE
 70
     1
  9
$CHAMFERA
 40
0.000000
  9
$CHAMFERB
 40
0.000000
  9
$FASTZOOM
 70
     1
  9
$SKPOLY
 70
     0
  9
$TDCREATE
 40
0.000000
  9
$TDUPDATE
 40
0.000000
  9
$TDINDWG
 40
0.000000
  9
$TDUSRTIMER
 40
0.000000
  9
$USRTIMER
 70
     1
  9
$ANGBASE
 50
0.000000
  9
$ANGDIR
 70
     0
  9
$PDMODE
 70
     0
  9
$PDSIZE
 40
0.000000
  9
$PLINEWID
 40
0.000000
  9
$COORDS
 70
     2
  9
$USERI1
 70
     0
  9
$USERI2
 70
     0
  9
$USERI3
 70
     0
  9
$USERI4
 70
     0
  9
$USERI5
 70
     0
  9
$USERR1
 40
0.000000
  9
$USERR2
 40
0.000000
  9
$USERR3
 40
0.000000
  9
$USERR4
 40
0.000000
  9
$USERR5
 40
0.000000
  0
ENDSEC
  0
SECTION
  2
TABLES
  0
TABLE
  2
LTYPE
 70
     5
  0
LTYPE
  2
CONTINUOUS
 70
    64
  3
Solid line
 72
    65
 73
     0
 40
0.0
  0
LTYPE
  2
HIDDEN
 70
    64
  3
------------------------
 72
    65
 73
     2
 40
12.6
 49
8.4
 49
-4.2
  0
LTYPE
  2
DOT
 70
    64
  3
････････････････････････
 72
    65
 73
     2
 40
8.0
 49
6.0
 49
-2.0
  0
LTYPE
  2
DASHDOT
 70
    64
  3
--･--･--･--･--･--･--･--
 72
    65
 73
     4
 40
50.5
 49
30.0
 49
-9.0
 49
2.5
 49
-9.0
  0
LTYPE
  2
DIVIDE
 70
    64
  3
--･･--･･--･･--･･--･･--
 72
    65
 73
     6
 40
58.0
 49
30.0
 49
-9.0
 49
2.5
 49
-5.0
 49
2.5
 49
-9.0
  0
LTYPE
  2
ACAD_ISO06W100
 70
    64
  3
____ ... ____ ... ____
 72
    65
 73
     8
 40
37.5
 49
24.0
 49
-3.0
 49
0.5
 49
-3.0
 49
0.5
 49
-3.0
 49
0.5
 49
-3.0
  0
LTYPE
  2
ACAD_ISO14W100
 70
    64
  3
__ . . . __ . . . __ . . . 
 72
    65
 73
     8
 40
25.5
 49
12.0
 49
-3.0
 49
0.5
 49
-3.0
 49
0.5
 49
-3.0
 49
0.5
 49
-3.0
  0
ENDTAB
  0
TABLE
  2
LAYER
 70
1
  0
LAYER
  2
1
 70
64
 62
7
  6
CONTINUOUS
  0
ENDTAB
  0
TABLE
  2
STYLE
 70
     2
  0
STYLE
  2
STANDARD
 70
    64
 40
0.0
 41
1.0
 50
0.0
 71
     0
 42
0.2
  3
TXT
  4

  0
STYLE
  2
KANJI
 70
    64
 40
0.0
 41
1.0
 50
0.0
 71
     0
 42
0.2
  3
TXT
  4
BIGFONT
  0
ENDTAB
  0
TABLE
  2
VIEW
 70
     0
  0
ENDTAB
  0
ENDSEC
  0
SECTION
  2
BLOCKS
  0
BLOCK
  8
1
 62
7
  6
CONTINUOUS
  2
*D1
 70
    65
 10
0.0
 20
0.0
  0
LINE
  8
1
 62
7
  6
CONTINUOUS
 10
184.941541
 20
427.927556
 11
247.941541
 21
427.927556
  0
LINE
  8
1
 62
7
  6
CONTINUOUS
 10
184.941541
 20
423.927556
 11
184.941541
 21
445.591930
  0
LINE
  8
1
 62
7
  6
CONTINUOUS
 10
247.941541
 20
423.927556
 11
247.941541
 21
445.591930
  0
LINE
  8
1
 62
7
  6
CONTINUOUS
 10
184.941541
 20
427.927556
 11
189.771170
 21
429.221651
  0
LINE
  8
1
 62
7
  6
CONTINUOUS
 10
184.941541
 20
427.927556
 11
189.771170
 21
426.633461
  0
LINE
  8
1
 62
7
  6
CONTINUOUS
 10
247.941541
 20
427.927556
 11
243.111911
 21
426.633461
  0
LINE
  8
1
 62
7
  6
CONTINUOUS
 10
247.941541
 20
427.927556
 11
243.111911
 21
429.221651
  0
TEXT
  8
1
 62
7
  6
CONTINUOUS
 10
213.441541
 20
427.927556
 40
6.000000
 41
0.500000
  1
63
  7
KANJI
 50
0.000000
 51
30.000000
  0
ENDBLK
  0
BLOCK
  8
1
 62
7
  6
CONTINUOUS
  2
*D2
 70
    65
 10
0.0
 20
0.0
  0
LINE
  8
1
 62
7
  6
CONTINUOUS
 10
131.574966
 20
194.904478
 11
231.574966
 21
194.904478
  0
LINE
  8
1
 62
7
  6
CONTINUOUS
 10
131.574966
 20
190.904478
 11
131.574966
 21
224.414718
  0
LINE
  8
1
 62
7
  6
CONTINUOUS
 10
231.574966
 20
190.904478
 11
231.574966
 21
224.414718
  0
LINE
  8
1
 62
7
  6
CONTINUOUS
 10
131.574966
 20
194.904478
 11
136.404595
 21
196.198573
  0
LINE
  8
1
 62
7
  6
CONTINUOUS
 10
131.574966
 20
194.904478
 11
136.404595
 21
193.610383
  0
LINE
  8
1
 62
7
  6
CONTINUOUS
 10
231.574966
 20
194.904478
 11
226.745336
 21
193.610383
  0
LINE
  8
1
 62
7
  6
CONTINUOUS
 10
231.574966
 20
194.904478
 11
226.745336
 21
196.198573
  0
TEXT
  8
1
 62
7
  6
CONTINUOUS
 10
177.074966
 20
194.904478
 40
6.000000
 41
0.500000
  1
100
  7
KANJI
 50
0.000000
 51
30.000000
  0
ENDBLK
  0
BLOCK
  8
1
 62
7
  6
CONTINUOUS
  2
*D3
 70
    65
 10
0.0
 20
0.0
  0
LINE
  8
1
 62
7
  6
CONTINUOUS
 10
141.574966
 20
202.265016
 11
221.574966
 21
202.265016
  0
LINE
  8
1
 62
7
  6
CONTINUOUS
 10
141.574966
 20
198.265016
 11
141.574966
 21
234.414718
  0
LINE
  8
1
 62
7
  6
CONTINUOUS
 10
221.574966
 20
198.265016
 11
221.574966
 21
234.414718
  0
LINE
  8
1
 62
7
  6
CONTINUOUS
 10
141.574966
 20
202.265016
 11
146.404595
 21
203.559111
  0
LINE
  8
1
 62
7
  6
CONTINUOUS
 10
141.574966
 20
202.265016
 11
146.404595
 21
200.970921
  0
LINE
  8
1
 62
7
  6
CONTINUOUS
 10
221.574966
 20
202.265016
 11
216.745336
 21
200.970921
  0
LINE
  8
1
 62
7
  6
CONTINUOUS
 10
221.574966
 20
202.265016
 11
216.745336
 21
203.559111
  0
TEXT
  8
1
 62
7
  6
CONTINUOUS
 10
178.574966
 20
202.265016
 40
6.000000
 41
0.500000
  1
80
  7
KANJI
 50
0.000000
 51
30.000000
  0
ENDBLK
  0
BLOCK
  8
1
 62
7
  6
CONTINUOUS
  2
*D4
 70
    65
 10
0.0
 20
0.0
  0
LINE
  8
1
 62
7
  6
CONTINUOUS
 10
261.876815
 20
228.414718
 11
261.876815
 21
328.414718
  0
LINE
  8
1
 62
7
  6
CONTINUOUS
 10
265.876815
 20
228.414718
 11
235.574966
 21
228.414718
  0
LINE
  8
1
 62
7
  6
CONTINUOUS
 10
265.876815
 20
328.414718
 11
235.574966
 21
328.414718
  0
LINE
  8
1
 62
7
  6
CONTINUOUS
 10
261.876815
 20
228.414718
 11
260.582720
 21
233.244347
  0
LINE
  8
1
 62
7
  6
CONTINUOUS
 10
261.876815
 20
228.414718
 11
263.170910
 21
233.244347
  0
LINE
  8
1
 62
7
  6
CONTINUOUS
 10
261.876815
 20
328.414718
 11
263.170910
 21
323.585089
  0
LINE
  8
1
 62
7
  6
CONTINUOUS
 10
261.876815
 20
328.414718
 11
260.582720
 21
323.585089
  0
TEXT
  8
1
 62
7
  6
CONTINUOUS
 10
261.876815
 20
273.914718
 40
6.000000
 41
0.500000
  1
100
  7
KANJI
 50
90.000000
 51
30.000000
  0
ENDBLK
  0
BLOCK
  8
1
 62
7
  6
CONTINUOUS
  2
*D5
 70
    65
 10
0.0
 20
0.0
  0
LINE
  8
1
 62
7
  6
CONTINUOUS
 10
254.002751
 20
238.414718
 11
254.002751
 21
318.414718
  0
LINE
  8
1
 62
7
  6
CONTINUOUS
 10
258.002751
 20
238.414718
 11
225.574966
 21
238.414718
  0
LINE
  8
1
 62
7
  6
CONTINUOUS
 10
258.002751
 20
318.414718
 11
225.574966
 21
318.414718
  0
LINE
  8
1
 62
7
  6
CONTINUOUS
 10
254.002751
 20
238.414718
 11
252.708656
 21
243.244347
  0
LINE
  8
1
 62
7
  6
CONTINUOUS
 10
254.002751
 20
238.414718
 11
255.296846
 21
243.244347
  0
LINE
  8
1
 62
7
  6
CONTINUOUS
 10
254.002751
 20
318.414718
 11
255.296846
 21
313.585089
  0
LINE
  8
1
 62
7
  6
CONTINUOUS
 10
254.002751
 20
318.414718
 11
252.708656
 21
313.585089
  0
TEXT
  8
1
 62
7
  6
CONTINUOUS
 10
254.002751
 20
275.414718
 40
6.000000
 41
0.500000
  1
80
  7
KANJI
 50
90.000000
 51
30.000000
  0
ENDBLK
  0
BLOCK
  8
1
 62
7
  6
CONTINUOUS
  2
*D6
 70
    65
 10
0.0
 20
0.0
  0
LINE
  8
1
 62
7
  6
CONTINUOUS
 10
172.523307
 20
211.101941
 11
190.023307
 21
211.101941
  0
LINE
  8
1
 62
7
  6
CONTINUOUS
 10
172.523307
 20
207.101941
 11
172.523307
 21
224.414718
  0
LINE
  8
1
 62
7
  6
CONTINUOUS
 10
190.023307
 20
207.101941
 11
190.023307
 21
224.414718
  0
LINE
  8
1
 62
7
  6
CONTINUOUS
 10
172.523307
 20
211.101941
 11
177.352936
 21
212.396036
  0
LINE
  8
1
 62
7
  6
CONTINUOUS
 10
172.523307
 20
211.101941
 11
177.352936
 21
209.807846
  0
LINE
  8
1
 62
7
  6
CONTINUOUS
 10
190.023307
 20
211.101941
 11
185.193678
 21
209.807846
  0
LINE
  8
1
 62
7
  6
CONTINUOUS
 10
190.023307
 20
211.101941
 11
185.193678
 21
212.396036
  0
TEXT
  8
1
 62
7
  6
CONTINUOUS
 10
175.273307
 20
211.101941
 40
6.000000
 41
0.500000
  1
17.5
  7
KANJI
 50
0.000000
 51
30.000000
  0
ENDBLK
  0
BLOCK
  8
1
 62
7
  6
CONTINUOUS
  2
*D7
 70
    65
 10
0.0
 20
0.0
  0
LINE
  8
1
 62
7
  6
CONTINUOUS
 10
245.529574
 20
269.365734
 11
245.529574
 21
286.865734
  0
LINE
  8
1
 62
7
  6
CONTINUOUS
 10
249.529574
 20
269.365734
 11
235.574966
 21
269.365734
  0
LINE
  8
1
 62
7
  6
CONTINUOUS
 10
249.529574
 20
286.865734
 11
235.574966
 21
286.865734
  0
LINE
  8
1
 62
7
  6
CONTINUOUS
 10
245.529574
 20
269.365734
 11
244.235478
 21
274.195364
  0
LINE
  8
1
 62
7
  6
CONTINUOUS
 10
245.529574
 20
269.365734
 11
246.823669
 21
274.195364
  0
LINE
  8
1
 62
7
  6
CONTINUOUS
 10
245.529574
 20
286.865734
 11
246.823669
 21
282.036105
  0
LINE
  8
1
 62
7
  6
CONTINUOUS
 10
245.529574
 20
286.865734
 11
244.235478
 21
282.036105
  0
TEXT
  8
1
 62
7
  6
CONTINUOUS
 10
245.529574
 20
272.115734
 40
6.000000
 41
0.500000
  1
17.5
  7
KANJI
 50
90.000000
 51
30.000000
  0
ENDBLK
  0
BLOCK
  8
1
 62
7
  6
CONTINUOUS
  2
*D8
 70
    65
 10
0.0
 20
0.0
  0
LINE
  8
1
 62
7
  6
CONTINUOUS
 10
296.574966
 20
200.275103
 11
309.574966
 21
200.275103
  0
LINE
  8
1
 62
7
  6
CONTINUOUS
 10
296.574966
 20
196.275103
 11
296.574966
 21
232.914718
  0
LINE
  8
1
 62
7
  6
CONTINUOUS
 10
309.574966
 20
196.275103
 11
309.574966
 21
229.703576
  0
LINE
  8
1
 62
7
  6
CONTINUOUS
 10
296.574966
 20
200.275103
 11
301.404595
 21
201.569198
  0
LINE
  8
1
 62
7
  6
CONTINUOUS
 10
296.574966
 20
200.275103
 11
301.404595
 21
198.981008
  0
LINE
  8
1
 62
7
  6
CONTINUOUS
 10
309.574966
 20
200.275103
 11
304.745336
 21
198.981008
  0
LINE
  8
1
 62
7
  6
CONTINUOUS
 10
309.574966
 20
200.275103
 11
304.745336
 21
201.569198
  0
TEXT
  8
1
 62
7
  6
CONTINUOUS
 10
300.074966
 20
200.275103
 40
6.000000
 41
0.500000
  1
13
  7
KANJI
 50
0.000000
 51
30.000000
  0
ENDBLK
  0
BLOCK
  8
1
 62
7
  6
CONTINUOUS
  2
*D9
 70
    65
 10
0.0
 20
0.0
  0
LINE
  8
1
 62
7
  6
CONTINUOUS
 10
290.574966
 20
209.689745
 11
305.574966
 21
209.689745
  0
LINE
  8
1
 62
7
  6
CONTINUOUS
 10
296.574966
 20
205.689745
 11
296.574966
 21
232.914718
  0
LINE
  8
1
 62
7
  6
CONTINUOUS
 10
299.574966
 20
205.689745
 11
299.574966
 21
224.414718
  0
LINE
  8
1
 62
7
  6
CONTINUOUS
 10
296.574966
 20
209.689745
 11
291.745336
 21
208.395650
  0
LINE
  8
1
 62
7
  6
CONTINUOUS
 10
296.574966
 20
209.689745
 11
291.745336
 21
210.983840
  0
LINE
  8
1
 62
7
  6
CONTINUOUS
 10
299.574966
 20
209.689745
 11
304.404595
 21
210.983840
  0
LINE
  8
1
 62
7
  6
CONTINUOUS
 10
299.574966
 20
209.689745
 11
304.404595
 21
208.395650
  0
TEXT
  8
1
 62
7
  6
CONTINUOUS
 10
296.574966
 20
209.689745
 40
6.000000
 41
0.500000
  1
3
  7
KANJI
 50
0.000000
 51
30.000000
  0
ENDBLK
  0
BLOCK
  8
1
 62
7
  6
CONTINUOUS
  2
*D10
 70
    65
 10
0.0
 20
0.0
  0
LINE
  8
1
 62
7
  6
CONTINUOUS
 10
362.214580
 20
204.811249
 11
452.214580
 21
204.811249
  0
LINE
  8
1
 62
7
  6
CONTINUOUS
 10
362.214580
 20
200.811249
 11
362.214580
 21
229.703576
  0
LINE
  8
1
 62
7
  6
CONTINUOUS
 10
452.214580
 20
200.811249
 11
452.214580
 21
229.703576
  0
LINE
  8
1
 62
7
  6
CONTINUOUS
 10
362.214580
 20
204.811249
 11
367.044210
 21
206.105344
  0
LINE
  8
1
 62
7
  6
CONTINUOUS
 10
362.214580
 20
204.811249
 11
367.044210
 21
203.517153
  0
LINE
  8
1
 62
7
  6
CONTINUOUS
 10
452.214580
 20
204.811249
 11
447.384951
 21
203.517153
  0
LINE
  8
1
 62
7
  6
CONTINUOUS
 10
452.214580
 20
204.811249
 11
447.384951
 21
206.105344
  0
TEXT
  8
1
 62
7
  6
CONTINUOUS
 10
404.214580
 20
204.811249
 40
6.000000
 41
0.500000
  1
90
  7
KANJI
 50
0.000000
 51
30.000000
  0
ENDBLK
  0
BLOCK
  8
1
 62
7
  6
CONTINUOUS
  2
*D11
 70
    65
 10
0.0
 20
0.0
  0
LINE
  8
1
 62
7
  6
CONTINUOUS
 10
483.778083
 20
233.703576
 11
483.778083
 21
323.703576
  0
LINE
  8
1
 62
7
  6
CONTINUOUS
 10
487.778083
 20
233.703576
 11
456.214580
 21
233.703576
  0
LINE
  8
1
 62
7
  6
CONTINUOUS
 10
487.778083
 20
323.703576
 11
456.214580
 21
323.703576
  0
LINE
  8
1
 62
7
  6
CONTINUOUS
 10
483.778083
 20
233.703576
 11
482.483988
 21
238.533205
  0
LINE
  8
1
 62
7
  6
CONTINUOUS
 10
483.778083
 20
233.703576
 11
485.072179
 21
238.533205
  0
LINE
  8
1
 62
7
  6
CONTINUOUS
 10
483.778083
 20
323.703576
 11
485.072179
 21
318.873947
  0
LINE
  8
1
 62
7
  6
CONTINUOUS
 10
483.778083
 20
323.703576
 11
482.483988
 21
318.873947
  0
TEXT
  8
1
 62
7
  6
CONTINUOUS
 10
483.778083
 20
275.703576
 40
6.000000
 41
0.500000
  1
90
  7
KANJI
 50
90.000000
 51
30.000000
  0
ENDBLK
  0
BLOCK
  8
1
 62
7
  6
CONTINUOUS
  2
*D12
 70
    65
 10
0.0
 20
0.0
  0
LINE
  8
1
 62
7
  6
CONTINUOUS
 10
254.773040
 20
139.992868
 11
254.773040
 21
165.357589
  0
LINE
  8
1
 62
7
  6
CONTINUOUS
 10
258.773040
 20
139.992868
 11
216.435682
 21
139.992868
  0
LINE
  8
1
 62
7
  6
CONTINUOUS
 10
258.773040
 20
165.357589
 11
235.825626
 21
165.357589
  0
LINE
  8
1
 62
7
  6
CONTINUOUS
 10
254.773040
 20
139.992868
 11
253.478945
 21
144.822497
  0
LINE
  8
1
 62
7
  6
CONTINUOUS
 10
254.773040
 20
139.992868
 11
256.067135
 21
144.822497
  0
LINE
  8
1
 62
7
  6
CONTINUOUS
 10
254.773040
 20
165.357589
 11
256.067135
 21
160.527959
  0
LINE
  8
1
 62
7
  6
CONTINUOUS
 10
254.773040
 20
165.357589
 11
253.478945
 21
160.527959
  0
TEXT
  8
1
 62
7
  6
CONTINUOUS
 10
254.773040
 20
149.675228
 40
6.000000
 41
0.500000
  1
29
  7
KANJI
 50
90.000000
 51
30.000000
  0
ENDBLK
  0
ENDSEC
  0
SECTION
  2
ENTITIES
  0
LINE
  8
1
 62
7
  6
CONTINUOUS
 10
138.724209
 20
479.055479
 11
138.724209
 21
489.555479
  0
LINE
  8
1
 62
7
  6
CONTINUOUS
 10
138.724209
 20
489.555479
 11
149.224209
 21
489.555479
  0
LINE
  8
1
 62
7
  6
CONTINUOUS
 10
149.224209
 20
489.555479
 11
149.224209
 21
479.055479
  0
LINE
  8
1
 62
7
  6
CONTINUOUS
 10
149.224209
 20
479.055479
 11
138.724209
 21
479.055479
  0
LINE
  8
1
 62
7
  6
CONTINUOUS
 10
184.941541
 20
449.591930
 11
184.941541
 21
460.091930
  0
LINE
  8
1
 62
7
  6
CONTINUOUS
 10
184.941541
 20
460.091930
 11
195.441541
 21
460.091930
  0
LINE
  8
1
 62
7
  6
CONTINUOUS
 10
195.441541
 20
460.091930
 11
195.441541
 21
449.591930
  0
LINE
  8
1
 62
7
  6
CONTINUOUS
 10
195.441541
 20
449.591930
 11
184.941541
 21
449.591930
  0
LINE
  8
1
 62
7
  6
CONTINUOUS
 10
202.441541
 20
449.591930
 11
202.441541
 21
460.091930
  0
LINE
  8
1
 62
7
  6
CONTINUOUS
 10
202.441541
 20
460.091930
 11
212.941541
 21
460.091930
  0
LINE
  8
1
 62
7
  6
CONTINUOUS
 10
212.941541
 20
460.091930
 11
212.941541
 21
449.591930
  0
LINE
  8
1
 62
7
  6
CONTINUOUS
 10
212.941541
 20
449.591930
 11
202.441541
 21
449.591930
  0
LINE
  8
1
 62
7
  6
CONTINUOUS
 10
219.941541
 20
449.591930
 11
219.941541
 21
460.091930
  0
LINE
  8
1
 62
7
  6
CONTINUOUS
 10
219.941541
 20
460.091930
 11
230.441541
 21
460.091930
  0
LINE
  8
1
 62
7
  6
CONTINUOUS
 10
230.441541
 20
460.091930
 11
230.441541
 21
449.591930
  0
LINE
  8
1
 62
7
  6
CONTINUOUS
 10
230.441541
 20
449.591930
 11
219.941541
 21
449.591930
  0
LINE
  8
1
 62
7
  6
CONTINUOUS
 10
237.441541
 20
449.591930
 11
237.441541
 21
460.091930
  0
LINE
  8
1
 62
7
  6
CONTINUOUS
 10
237.441541
 20
460.091930
 11
247.941541
 21
460.091930
  0
LINE
  8
1
 62
7
  6
CONTINUOUS
 10
247.941541
 20
460.091930
 11
247.941541
 21
449.591930
  0
LINE
  8
1
 62
7
  6
CONTINUOUS
 10
247.941541
 20
449.591930
 11
237.441541
 21
449.591930
  0
LINE
  8
1
 62
7
  6
CONTINUOUS
 10
184.941541
 20
467.091930
 11
184.941541
 21
477.591930
  0
LINE
  8
1
 62
7
  6
CONTINUOUS
 10
184.941541
 20
477.591930
 11
195.441541
 21
477.591930
  0
LINE
  8
1
 62
7
  6
CONTINUOUS
 10
195.441541
 20
477.591930
 11
195.441541
 21
467.091930
  0
LINE
  8
1
 62
7
  6
CONTINUOUS
 10
195.441541
 20
467.091930
 11
184.941541
 21
467.091930
  0
LINE
  8
1
 62
7
  6
CONTINUOUS
 10
202.441541
 20
467.091930
 11
202.441541
 21
477.591930
  0
LINE
  8
1
 62
7
  6
CONTINUOUS
 10
202.441541
 20
477.591930
 11
212.941541
 21
477.591930
  0
LINE
  8
1
 62
7
  6
CONTINUOUS
 10
212.941541
 20
477.591930
 11
212.941541
 21
467.091930
  0
LINE
  8
1
 62
7
  6
CONTINUOUS
 10
212.941541
 20
467.091930
 11
202.441541
 21
467.091930
  0
LINE
  8
1
 62
7
  6
CONTINUOUS
 10
219.941541
 20
467.091930
 11
219.941541
 21
477.591930
  0
LINE
  8
1
 62
7
  6
CONTINUOUS
 10
219.941541
 20
477.591930
 11
230.441541
 21
477.591930
  0
LINE
  8
1
 62
7
  6
CONTINUOUS
 10
230.441541
 20
477.591930
 11
230.441541
 21
467.091930
  0
LINE
  8
1
 62
7
  6
CONTINUOUS
 10
230.441541
 20
467.091930
 11
219.941541
 21
467.091930
  0
LINE
  8
1
 62
7
  6
CONTINUOUS
 10
237.441541
 20
467.091930
 11
237.441541
 21
477.591930
  0
LINE
  8
1
 62
7
  6
CONTINUOUS
 10
237.441541
 20
477.591930
 11
247.941541
 21
477.591930
  0
LINE
  8
1
 62
7
  6
CONTINUOUS
 10
247.941541
 20
477.591930
 11
247.941541
 21
467.091930
  0
LINE
  8
1
 62
7
  6
CONTINUOUS
 10
247.941541
 20
467.091930
 11
237.441541
 21
467.091930
  0
LINE
  8
1
 62
7
  6
CONTINUOUS
 10
184.941541
 20
484.591930
 11
184.941541
 21
495.091930
  0
LINE
  8
1
 62
7
  6
CONTINUOUS
 10
184.941541
 20
495.091930
 11
195.441541
 21
495.091930
  0
LINE
  8
1
 62
7
  6
CONTINUOUS
 10
195.441541
 20
495.091930
 11
195.441541
 21
484.591930
  0
LINE
  8
1
 62
7
  6
CONTINUOUS
 10
195.441541
 20
484.591930
 11
184.941541
 21
484.591930
  0
LINE
  8
1
 62
7
  6
CONTINUOUS
 10
202.441541
 20
484.591930
 11
202.441541
 21
495.091930
  0
LINE
  8
1
 62
7
  6
CONTINUOUS
 10
202.441541
 20
495.091930
 11
212.941541
 21
495.091930
  0
LINE
  8
1
 62
7
  6
CONTINUOUS
 10
212.941541
 20
495.091930
 11
212.941541
 21
484.591930
  0
LINE
  8
1
 62
7
  6
CONTINUOUS
 10
212.941541
 20
484.591930
 11
202.441541
 21
484.591930
  0
LINE
  8
1
 62
7
  6
CONTINUOUS
 10
219.941541
 20
484.591930
 11
219.941541
 21
495.091930
  0
LINE
  8
1
 62
7
  6
CONTINUOUS
 10
219.941541
 20
495.091930
 11
230.441541
 21
495.091930
  0
LINE
  8
1
 62
7
  6
CONTINUOUS
 10
230.441541
 20
495.091930
 11
230.441541
 21
484.591930
  0
LINE
  8
1
 62
7
  6
CONTINUOUS
 10
230.441541
 20
484.591930
 11
219.941541
 21
484.591930
  0
LINE
  8
1
 62
7
  6
CONTINUOUS
 10
237.441541
 20
484.591930
 11
237.441541
 21
495.091930
  0
LINE
  8
1
 62
7
  6
CONTINUOUS
 10
237.441541
 20
495.091930
 11
247.941541
 21
495.091930
  0
LINE
  8
1
 62
7
  6
CONTINUOUS
 10
247.941541
 20
495.091930
 11
247.941541
 21
484.591930
  0
LINE
  8
1
 62
7
  6
CONTINUOUS
 10
247.941541
 20
484.591930
 11
237.441541
 21
484.591930
  0
LINE
  8
1
 62
7
  6
CONTINUOUS
 10
184.941541
 20
502.091930
 11
184.941541
 21
512.591930
  0
LINE
  8
1
 62
7
  6
CONTINUOUS
 10
184.941541
 20
512.591930
 11
195.441541
 21
512.591930
  0
LINE
  8
1
 62
7
  6
CONTINUOUS
 10
195.441541
 20
512.591930
 11
195.441541
 21
502.091930
  0
LINE
  8
1
 62
7
  6
CONTINUOUS
 10
195.441541
 20
502.091930
 11
184.941541
 21
502.091930
  0
LINE
  8
1
 62
7
  6
CONTINUOUS
 10
202.441541
 20
502.091930
 11
202.441541
 21
512.591930
  0
LINE
  8
1
 62
7
  6
CONTINUOUS
 10
202.441541
 20
512.591930
 11
212.941541
 21
512.591930
  0
LINE
  8
1
 62
7
  6
CONTINUOUS
 10
212.941541
 20
512.591930
 11
212.941541
 21
502.091930
  0
LINE
  8
1
 62
7
  6
CONTINUOUS
 10
212.941541
 20
502.091930
 11
202.441541
 21
502.091930
  0
LINE
  8
1
 62
7
  6
CONTINUOUS
 10
219.941541
 20
502.091930
 11
219.941541
 21
512.591930
  0
LINE
  8
1
 62
7
  6
CONTINUOUS
 10
219.941541
 20
512.591930
 11
230.441541
 21
512.591930
  0
LINE
  8
1
 62
7
  6
CONTINUOUS
 10
230.441541
 20
512.591930
 11
230.441541
 21
502.091930
  0
LINE
  8
1
 62
7
  6
CONTINUOUS
 10
230.441541
 20
502.091930
 11
219.941541
 21
502.091930
  0
LINE
  8
1
 62
7
  6
CONTINUOUS
 10
237.441541
 20
502.091930
 11
237.441541
 21
512.591930
  0
LINE
  8
1
 62
7
  6
CONTINUOUS
 10
237.441541
 20
512.591930
 11
247.941541
 21
512.591930
  0
LINE
  8
1
 62
7
  6
CONTINUOUS
 10
247.941541
 20
512.591930
 11
247.941541
 21
502.091930
  0
LINE
  8
1
 62
7
  6
CONTINUOUS
 10
247.941541
 20
502.091930
 11
237.441541
 21
502.091930
  0
DIMENSION
  8
1
 62
7
  6
CONTINUOUS
  2
*D1
 10
184.941541
 20
427.927556
 11
216.441541
 21
427.927556
 70
     0
  1
63
 13
184.941541
 23
445.591930
 14
247.941541
 24
445.591930
 50
0.000000
  0
LINE
  8
1
 62
7
  6
CONTINUOUS
 10
216.441541
 20
480.153854
 11
216.441541
 21
482.074821
  0
LINE
  8
1
 62
7
  6
CONTINUOUS
 10
215.421443
 20
481.091930
 11
217.431168
 21
481.091930
  0
LINE
  8
1
 62
7
  6
CONTINUOUS
 10
131.574966
 20
228.414718
 11
131.574966
 21
328.414718
  0
LINE
  8
1
 62
7
  6
CONTINUOUS
 10
131.574966
 20
328.414718
 11
231.574966
 21
328.414718
  0
LINE
  8
1
 62
7
  6
CONTINUOUS
 10
231.574966
 20
328.414718
 11
231.574966
 21
228.414718
  0
LINE
  8
1
 62
7
  6
CONTINUOUS
 10
231.574966
 20
228.414718
 11
131.574966
 21
228.414718
  0
LINE
  8
1
 62
7
  6
CONTINUOUS
 10
141.574966
 20
318.414718
 11
221.574966
 21
318.414718
  0
LINE
  8
1
 62
7
  6
CONTINUOUS
 10
221.574966
 20
318.414718
 11
221.574966
 21
238.414718
  0
LINE
  8
1
 62
7
  6
CONTINUOUS
 10
221.574966
 20
238.414718
 11
141.574966
 21
238.414718
  0
LINE
  8
1
 62
7
  6
CONTINUOUS
 10
141.574966
 20
238.414718
 11
141.574966
 21
318.414718
  0
LINE
  8
1
 62
7
  6
CONTINUOUS
 10
140.074966
 20
319.914718
 11
223.074966
 21
319.914718
  0
LINE
  8
1
 62
7
  6
CONTINUOUS
 10
223.074966
 20
319.914718
 11
223.074966
 21
236.914718
  0
LINE
  8
1
 62
7
  6
CONTINUOUS
 10
223.074966
 20
236.914718
 11
140.074966
 21
236.914718
  0
LINE
  8
1
 62
7
  6
CONTINUOUS
 10
140.074966
 20
236.914718
 11
140.074966
 21
319.914718
  0
LINE
  8
1
 62
7
  6
CONTINUOUS
 10
140.074966
 20
319.914718
 11
131.574966
 21
328.414718
  0
LINE
  8
1
 62
7
  6
CONTINUOUS
 10
223.074966
 20
319.914718
 11
231.574966
 21
328.414718
  0
LINE
  8
1
 62
7
  6
CONTINUOUS
 10
223.074966
 20
236.914718
 11
231.574966
 21
228.414718
  0
LINE
  8
1
 62
7
  6
CONTINUOUS
 10
140.074966
 20
236.914718
 11
131.574966
 21
228.414718
  0
LINE
  8
1
 62
7
  6
CONTINUOUS
 10
150.074966
 20
246.914718
 11
150.074966
 21
257.414718
  0
LINE
  8
1
 62
7
  6
CONTINUOUS
 10
150.074966
 20
257.414718
 11
160.574966
 21
257.414718
  0
LINE
  8
1
 62
7
  6
CONTINUOUS
 10
160.574966
 20
257.414718
 11
160.574966
 21
246.914718
  0
LINE
  8
1
 62
7
  6
CONTINUOUS
 10
160.574966
 20
246.914718
 11
150.074966
 21
246.914718
  0
LINE
  8
1
 62
7
  6
CONTINUOUS
 10
167.574966
 20
246.914718
 11
167.574966
 21
257.414718
  0
LINE
  8
1
 62
7
  6
CONTINUOUS
 10
167.574966
 20
257.414718
 11
178.074966
 21
257.414718
  0
LINE
  8
1
 62
7
  6
CONTINUOUS
 10
178.074966
 20
257.414718
 11
178.074966
 21
246.914718
  0
LINE
  8
1
 62
7
  6
CONTINUOUS
 10
178.074966
 20
246.914718
 11
167.574966
 21
246.914718
  0
LINE
  8
1
 62
7
  6
CONTINUOUS
 10
185.074966
 20
246.914718
 11
185.074966
 21
257.414718
  0
LINE
  8
1
 62
7
  6
CONTINUOUS
 10
185.074966
 20
257.414718
 11
195.574966
 21
257.414718
  0
LINE
  8
1
 62
7
  6
CONTINUOUS
 10
195.574966
 20
257.414718
 11
195.574966
 21
246.914718
  0
LINE
  8
1
 62
7
  6
CONTINUOUS
 10
195.574966
 20
246.914718
 11
185.074966
 21
246.914718
  0
LINE
  8
1
 62
7
  6
CONTINUOUS
 10
202.574966
 20
246.914718
 11
202.574966
 21
257.414718
  0
LINE
  8
1
 62
7
  6
CONTINUOUS
 10
202.574966
 20
257.414718
 11
213.074966
 21
257.414718
  0
LINE
  8
1
 62
7
  6
CONTINUOUS
 10
213.074966
 20
257.414718
 11
213.074966
 21
246.914718
  0
LINE
  8
1
 62
7
  6
CONTINUOUS
 10
213.074966
 20
246.914718
 11
202.574966
 21
246.914718
  0
LINE
  8
1
 62
7
  6
CONTINUOUS
 10
150.074966
 20
264.414718
 11
150.074966
 21
274.914718
  0
LINE
  8
1
 62
7
  6
CONTINUOUS
 10
150.074966
 20
274.914718
 11
160.574966
 21
274.914718
  0
LINE
  8
1
 62
7
  6
CONTINUOUS
 10
160.574966
 20
274.914718
 11
160.574966
 21
264.414718
  0
LINE
  8
1
 62
7
  6
CONTINUOUS
 10
160.574966
 20
264.414718
 11
150.074966
 21
264.414718
  0
LINE
  8
1
 62
7
  6
CONTINUOUS
 10
167.574966
 20
264.414718
 11
167.574966
 21
274.914718
  0
LINE
  8
1
 62
7
  6
CONTINUOUS
 10
167.574966
 20
274.914718
 11
178.074966
 21
274.914718
  0
LINE
  8
1
 62
7
  6
CONTINUOUS
 10
178.074966
 20
274.914718
 11
178.074966
 21
264.414718
  0
LINE
  8
1
 62
7
  6
CONTINUOUS
 10
178.074966
 20
264.414718
 11
167.574966
 21
264.414718
  0
LINE
  8
1
 62
7
  6
CONTINUOUS
 10
185.074966
 20
264.414718
 11
185.074966
 21
274.914718
  0
LINE
  8
1
 62
7
  6
CONTINUOUS
 10
185.074966
 20
274.914718
 11
195.574966
 21
274.914718
  0
LINE
  8
1
 62
7
  6
CONTINUOUS
 10
195.574966
 20
274.914718
 11
195.574966
 21
264.414718
  0
LINE
  8
1
 62
7
  6
CONTINUOUS
 10
195.574966
 20
264.414718
 11
185.074966
 21
264.414718
  0
LINE
  8
1
 62
7
  6
CONTINUOUS
 10
202.574966
 20
264.414718
 11
202.574966
 21
274.914718
  0
LINE
  8
1
 62
7
  6
CONTINUOUS
 10
202.574966
 20
274.914718
 11
213.074966
 21
274.914718
  0
LINE
  8
1
 62
7
  6
CONTINUOUS
 10
213.074966
 20
274.914718
 11
213.074966
 21
264.414718
  0
LINE
  8
1
 62
7
  6
CONTINUOUS
 10
213.074966
 20
264.414718
 11
202.574966
 21
264.414718
  0
LINE
  8
1
 62
7
  6
CONTINUOUS
 10
150.074966
 20
281.914718
 11
150.074966
 21
292.414718
  0
LINE
  8
1
 62
7
  6
CONTINUOUS
 10
150.074966
 20
292.414718
 11
160.574966
 21
292.414718
  0
LINE
  8
1
 62
7
  6
CONTINUOUS
 10
160.574966
 20
292.414718
 11
160.574966
 21
281.914718
  0
LINE
  8
1
 62
7
  6
CONTINUOUS
 10
160.574966
 20
281.914718
 11
150.074966
 21
281.914718
  0
LINE
  8
1
 62
7
  6
CONTINUOUS
 10
167.574966
 20
281.914718
 11
167.574966
 21
292.414718
  0
LINE
  8
1
 62
7
  6
CONTINUOUS
 10
167.574966
 20
292.414718
 11
178.074966
 21
292.414718
  0
LINE
  8
1
 62
7
  6
CONTINUOUS
 10
178.074966
 20
292.414718
 11
178.074966
 21
281.914718
  0
LINE
  8
1
 62
7
  6
CONTINUOUS
 10
178.074966
 20
281.914718
 11
167.574966
 21
281.914718
  0
LINE
  8
1
 62
7
  6
CONTINUOUS
 10
185.074966
 20
281.914718
 11
185.074966
 21
292.414718
  0
LINE
  8
1
 62
7
  6
CONTINUOUS
 10
185.074966
 20
292.414718
 11
195.574966
 21
292.414718
  0
LINE
  8
1
 62
7
  6
CONTINUOUS
 10
195.574966
 20
292.414718
 11
195.574966
 21
281.914718
  0
LINE
  8
1
 62
7
  6
CONTINUOUS
 10
195.574966
 20
281.914718
 11
185.074966
 21
281.914718
  0
LINE
  8
1
 62
7
  6
CONTINUOUS
 10
202.574966
 20
281.914718
 11
202.574966
 21
292.414718
  0
LINE
  8
1
 62
7
  6
CONTINUOUS
 10
202.574966
 20
292.414718
 11
213.074966
 21
292.414718
  0
LINE
  8
1
 62
7
  6
CONTINUOUS
 10
213.074966
 20
292.414718
 11
213.074966
 21
281.914718
  0
LINE
  8
1
 62
7
  6
CONTINUOUS
 10
213.074966
 20
281.914718
 11
202.574966
 21
281.914718
  0
LINE
  8
1
 62
7
  6
CONTINUOUS
 10
150.074966
 20
299.414718
 11
150.074966
 21
309.914718
  0
LINE
  8
1
 62
7
  6
CONTINUOUS
 10
150.074966
 20
309.914718
 11
160.574966
 21
309.914718
  0
LINE
  8
1
 62
7
  6
CONTINUOUS
 10
160.574966
 20
309.914718
 11
160.574966
 21
299.414718
  0
LINE
  8
1
 62
7
  6
CONTINUOUS
 10
160.574966
 20
299.414718
 11
150.074966
 21
299.414718
  0
LINE
  8
1
 62
7
  6
CONTINUOUS
 10
167.574966
 20
299.414718
 11
167.574966
 21
309.914718
  0
LINE
  8
1
 62
7
  6
CONTINUOUS
 10
167.574966
 20
309.914718
 11
178.074966
 21
309.914718
  0
LINE
  8
1
 62
7
  6
CONTINUOUS
 10
178.074966
 20
309.914718
 11
178.074966
 21
299.414718
  0
LINE
  8
1
 62
7
  6
CONTINUOUS
 10
178.074966
 20
299.414718
 11
167.574966
 21
299.414718
  0
LINE
  8
1
 62
7
  6
CONTINUOUS
 10
185.074966
 20
299.414718
 11
185.074966
 21
309.914718
  0
LINE
  8
1
 62
7
  6
CONTINUOUS
 10
185.074966
 20
309.914718
 11
195.574966
 21
309.914718
  0
LINE
  8
1
 62
7
  6
CONTINUOUS
 10
195.574966
 20
309.914718
 11
195.574966
 21
299.414718
  0
LINE
  8
1
 62
7
  6
CONTINUOUS
 10
195.574966
 20
299.414718
 11
185.074966
 21
299.414718
  0
LINE
  8
1
 62
7
  6
CONTINUOUS
 10
202.574966
 20
299.414718
 11
202.574966
 21
309.914718
  0
LINE
  8
1
 62
7
  6
CONTINUOUS
 10
202.574966
 20
309.914718
 11
213.074966
 21
309.914718
  0
LINE
  8
1
 62
7
  6
CONTINUOUS
 10
213.074966
 20
309.914718
 11
213.074966
 21
299.414718
  0
LINE
  8
1
 62
7
  6
CONTINUOUS
 10
213.074966
 20
299.414718
 11
202.574966
 21
299.414718
  0
DIMENSION
  8
1
 62
7
  6
CONTINUOUS
  2
*D2
 10
131.574966
 20
194.904478
 11
181.574966
 21
194.904478
 70
     0
  1
100
 13
131.574966
 23
224.414718
 14
231.574966
 24
224.414718
 50
0.000000
  0
DIMENSION
  8
1
 62
7
  6
CONTINUOUS
  2
*D3
 10
141.574966
 20
202.265016
 11
181.574966
 21
202.265016
 70
     0
  1
80
 13
141.574966
 23
234.414718
 14
221.574966
 24
234.414718
 50
0.000000
  0
DIMENSION
  8
1
 62
7
  6
CONTINUOUS
  2
*D4
 10
261.876815
 20
228.414718
 11
261.876815
 21
278.414718
 70
     0
  1
100
 13
235.574966
 23
228.414718
 14
235.574966
 24
328.414718
 50
90.000000
  0
DIMENSION
  8
1
 62
7
  6
CONTINUOUS
  2
*D5
 10
254.002751
 20
238.414718
 11
254.002751
 21
278.414718
 70
     0
  1
80
 13
225.574966
 23
238.414718
 14
225.574966
 24
318.414718
 50
90.000000
  0
DIMENSION
  8
1
 62
7
  6
CONTINUOUS
  2
*D6
 10
172.523307
 20
211.101941
 11
181.273307
 21
211.101941
 70
     0
  1
17.5
 13
172.523307
 23
224.414718
 14
190.023307
 24
224.414718
 50
0.000000
  0
DIMENSION
  8
1
 62
7
  6
CONTINUOUS
  2
*D7
 10
245.529574
 20
269.365734
 11
245.529574
 21
278.115734
 70
     0
  1
17.5
 13
235.574966
 23
269.365734
 14
235.574966
 24
286.865734
 50
90.000000
  0
LINE
  8
1
 62
7
  6
CONTINUOUS
 10
457.214580
 20
228.703576
 11
457.214580
 21
328.703576
  0
LINE
  8
1
 62
7
  6
CONTINUOUS
 10
457.214580
 20
328.703576
 11
357.214580
 21
328.703576
  0
LINE
  8
1
 62
7
  6
CONTINUOUS
 10
357.214580
 20
328.703576
 11
357.214580
 21
228.703576
  0
LINE
  8
1
 62
7
  6
CONTINUOUS
 10
357.214580
 20
228.703576
 11
457.214580
 21
228.703576
  0
LINE
  8
1
 62
7
  6
CONTINUOUS
 10
447.214580
 20
318.703576
 11
367.214580
 21
318.703576
  0
LINE
  8
1
 62
7
  6
CONTINUOUS
 10
367.214580
 20
318.703576
 11
367.214580
 21
238.703576
  0
LINE
  8
1
 62
7
  6
CONTINUOUS
 10
447.214580
 20
238.703576
 11
447.214580
 21
318.703576
  0
LINE
  8
1
 62
7
  6
CONTINUOUS
 10
362.214580
 20
323.703576
 11
362.214580
 21
313.703576
  0
LINE
  8
1
 62
7
  6
CONTINUOUS
 10
362.214580
 20
243.703576
 11
362.214580
 21
233.703576
  0
LINE
  8
1
 62
7
  6
CONTINUOUS
 10
452.214580
 20
323.703576
 11
442.214580
 21
323.703576
  0
LINE
  8
1
 62
7
  6
CONTINUOUS
 10
372.214580
 20
323.703576
 11
362.214580
 21
323.703576
  0
LINE
  8
1
 62
7
  6
CONTINUOUS
 10
452.214580
 20
233.703576
 11
452.214580
 21
243.703576
  0
LINE
  8
1
 62
7
  6
CONTINUOUS
 10
452.214580
 20
313.703576
 11
452.214580
 21
323.703576
  0
LINE
  8
1
 62
7
  6
CONTINUOUS
 10
362.214580
 20
233.703576
 11
372.214580
 21
233.703576
  0
LINE
  8
1
 62
7
  6
CONTINUOUS
 10
442.214580
 20
233.703576
 11
452.214580
 21
233.703576
  0
LINE
  8
1
 62
7
  6
CONTINUOUS
 10
364.214580
 20
314.623771
 11
366.214580
 21
314.623771
  0
LINE
  8
1
 62
7
  6
CONTINUOUS
 10
371.122319
 20
321.703576
 11
371.122319
 21
319.703576
  0
LINE
  8
1
 62
7
  6
CONTINUOUS
 10
372.214580
 20
323.703576
 11
372.214580
 21
321.703576
  0
LINE
  8
1
 62
7
  6
CONTINUOUS
 10
364.214580
 20
321.703576
 11
364.214580
 21
314.623771
  0
LINE
  8
1
 62
7
  6
CONTINUOUS
 10
371.122319
 20
321.703576
 11
364.214580
 21
321.703576
  0
LINE
  8
1
 62
7
  6
CONTINUOUS
 10
364.214580
 20
313.703576
 11
362.214580
 21
313.703576
  0
LINE
  8
1
 62
7
  6
CONTINUOUS
 10
442.214580
 20
321.703576
 11
442.214580
 21
323.703576
  0
LINE
  8
1
 62
7
  6
CONTINUOUS
 10
452.214580
 20
313.703576
 11
450.214580
 21
313.703576
  0
LINE
  8
1
 62
7
  6
CONTINUOUS
 10
443.615059
 20
319.703576
 11
371.122319
 21
319.703576
  0
LINE
  8
1
 62
7
  6
CONTINUOUS
 10
443.615059
 20
321.703576
 11
443.615059
 21
319.703576
  0
LINE
  8
1
 62
7
  6
CONTINUOUS
 10
450.214580
 20
314.966122
 11
448.214580
 21
314.966122
  0
LINE
  8
1
 62
7
  6
CONTINUOUS
 10
450.214580
 20
321.703576
 11
443.615059
 21
321.703576
  0
LINE
  8
1
 62
7
  6
CONTINUOUS
 10
442.214580
 20
321.703576
 11
372.214580
 21
321.703576
  0
LINE
  8
1
 62
7
  6
CONTINUOUS
 10
450.214580
 20
314.966122
 11
450.214580
 21
321.703576
  0
LINE
  8
1
 62
7
  6
CONTINUOUS
 10
448.214580
 20
242.216618
 11
448.214580
 21
314.966122
  0
LINE
  8
1
 62
7
  6
CONTINUOUS
 10
450.214580
 20
242.216618
 11
448.214580
 21
242.216618
  0
LINE
  8
1
 62
7
  6
CONTINUOUS
 10
366.214580
 20
314.623771
 11
366.214580
 21
242.216618
  0
LINE
  8
1
 62
7
  6
CONTINUOUS
 10
364.214580
 20
242.216618
 11
366.214580
 21
242.216618
  0
LINE
  8
1
 62
7
  6
CONTINUOUS
 10
362.214580
 20
243.703576
 11
364.214580
 21
243.703576
  0
LINE
  8
1
 62
7
  6
CONTINUOUS
 10
450.214580
 20
243.703576
 11
452.214580
 21
243.703576
  0
LINE
  8
1
 62
7
  6
CONTINUOUS
 10
364.214580
 20
242.216618
 11
364.214580
 21
235.703576
  0
LINE
  8
1
 62
7
  6
CONTINUOUS
 10
364.214580
 20
235.703576
 11
370.694381
 21
235.703576
  0
LINE
  8
1
 62
7
  6
CONTINUOUS
 10
443.957410
 20
235.703576
 11
450.214580
 21
235.703576
  0
LINE
  8
1
 62
7
  6
CONTINUOUS
 10
450.214580
 20
235.703576
 11
450.214580
 21
242.216618
  0
LINE
  8
1
 62
7
  6
CONTINUOUS
 10
442.214580
 20
233.703576
 11
442.214580
 21
235.703576
  0
LINE
  8
1
 62
7
  6
CONTINUOUS
 10
372.214580
 20
235.703576
 11
372.214580
 21
233.703576
  0
LINE
  8
1
 62
7
  6
CONTINUOUS
 10
370.694381
 20
235.703576
 11
370.694381
 21
237.703576
  0
LINE
  8
1
 62
7
  6
CONTINUOUS
 10
443.957410
 20
235.703576
 11
443.957410
 21
237.703576
  0
CIRCLE
  8
1
 62
7
  6
CONTINUOUS
 10
371.714580
 20
314.203576
 40
2.500000
  0
CIRCLE
  8
1
 62
7
  6
CONTINUOUS
 10
442.714580
 20
314.203576
 40
2.500000
  0
CIRCLE
  8
1
 62
7
  6
CONTINUOUS
 10
442.714580
 20
243.203576
 40
2.500000
  0
CIRCLE
  8
1
 62
7
  6
CONTINUOUS
 10
371.714580
 20
243.203576
 40
2.500000
  0
LINE
  8
1
 62
7
  6
CONTINUOUS
 10
370.102400
 20
243.203576
 11
373.354730
 21
243.203576
  0
LINE
  8
1
 62
7
  6
CONTINUOUS
 10
371.714580
 20
244.884100
 11
371.714580
 21
241.745886
  0
LINE
  8
1
 62
7
  6
CONTINUOUS
 10
441.311325
 20
243.203576
 11
444.335422
 21
243.203576
  0
LINE
  8
1
 62
7
  6
CONTINUOUS
 10
442.714580
 20
241.574711
 11
442.714580
 21
244.827042
  0
LINE
  8
1
 62
7
  6
CONTINUOUS
 10
442.714580
 20
312.783636
 11
442.714580
 21
315.693617
  0
LINE
  8
1
 62
7
  6
CONTINUOUS
 10
444.107188
 20
314.203576
 11
441.311325
 21
314.203576
  0
LINE
  8
1
 62
7
  6
CONTINUOUS
 10
371.714580
 20
315.636558
 11
371.714580
 21
312.783636
  0
LINE
  8
1
 62
7
  6
CONTINUOUS
 10
373.069438
 20
314.203576
 11
370.216516
 21
314.203576
  0
TEXT
  8
1
 62
7
  6
CONTINUOUS
 10
416.276937
 20
312.968363
 40
3.000000
 41
0.500000
  1
MODEL.
  7
KANJI
 50
0.000000
 51
0.000000
  0
TEXT
  8
1
 62
7
  6
CONTINUOUS
 10
426.825615
 20
313.079627
 40
3.000000
 41
0.500000
  1
S-41
  7
KANJI
 50
0.000000
 51
0.000000
  0
CIRCLE
  8
1
 62
7
  6
CONTINUOUS
 10
407.718172
 20
278.951551
 40
2.500000
  0
LINE
  8
1
 62
7
  6
CONTINUOUS
 10
407.718172
 20
280.384533
 11
407.718172
 21
277.531611
  0
LINE
  8
1
 62
7
  6
CONTINUOUS
 10
409.073030
 20
278.951551
 11
406.220108
 21
278.951551
  0
LINE
  8
1
 62
7
  6
CONTINUOUS
 10
364.214580
 20
306.360996
 11
366.214580
 21
306.360996
  0
LINE
  8
1
 62
7
  6
CONTINUOUS
 10
448.214580
 20
306.360996
 11
450.214580
 21
306.360996
  0
LINE
  8
1
 62
7
  6
CONTINUOUS
 10
364.214580
 20
292.367416
 11
366.214580
 21
292.367416
  0
LINE
  8
1
 62
7
  6
CONTINUOUS
 10
448.214580
 20
292.367416
 11
450.214580
 21
292.367416
  0
LINE
  8
1
 62
7
  6
CONTINUOUS
 10
364.214580
 20
265.792450
 11
366.214580
 21
265.792450
  0
LINE
  8
1
 62
7
  6
CONTINUOUS
 10
448.214580
 20
265.792450
 11
450.214580
 21
265.792450
  0
LINE
  8
1
 62
7
  6
CONTINUOUS
 10
364.214580
 20
251.798869
 11
366.214580
 21
251.798869
  0
LINE
  8
1
 62
7
  6
CONTINUOUS
 10
448.214580
 20
251.798869
 11
450.214580
 21
251.798869
  0
LINE
  8
1
 62
7
  6
CONTINUOUS
 10
364.214580
 20
313.703576
 11
364.214580
 21
304.756228
  0
LINE
  8
1
 62
7
  6
CONTINUOUS
 10
364.214580
 20
294.164756
 11
364.214580
 21
263.738346
  0
LINE
  8
1
 62
7
  6
CONTINUOUS
 10
364.214580
 20
253.146875
 11
364.214580
 21
243.703576
  0
LINE
  8
1
 62
7
  6
CONTINUOUS
 10
450.214580
 20
304.756228
 11
450.214580
 21
313.703576
  0
LINE
  8
1
 62
7
  6
CONTINUOUS
 10
450.214580
 20
243.703576
 11
450.214580
 21
253.146875
  0
LINE
  8
1
 62
7
  6
CONTINUOUS
 10
450.214580
 20
263.738346
 11
450.214580
 21
294.164756
  0
LINE
  8
1
 62
7
  6
CONTINUOUS
 10
364.214580
 20
294.164756
 11
360.686230
 21
294.164756
  0
LINE
  8
1
 62
7
  6
CONTINUOUS
 10
360.686230
 20
294.164756
 11
360.686230
 21
304.756228
  0
LINE
  8
1
 62
7
  6
CONTINUOUS
 10
360.686230
 20
304.756228
 11
364.214580
 21
304.756228
  0
LINE
  8
1
 62
7
  6
CONTINUOUS
 10
364.214580
 20
253.146875
 11
360.686230
 21
253.146875
  0
LINE
  8
1
 62
7
  6
CONTINUOUS
 10
360.686230
 20
253.146875
 11
360.686230
 21
263.738346
  0
LINE
  8
1
 62
7
  6
CONTINUOUS
 10
360.686230
 20
263.738346
 11
364.214580
 21
263.738346
  0
LINE
  8
1
 62
7
  6
CONTINUOUS
 10
450.214580
 20
253.146875
 11
453.742931
 21
253.146875
  0
LINE
  8
1
 62
7
  6
CONTINUOUS
 10
453.742931
 20
253.146875
 11
453.742931
 21
263.738346
  0
LINE
  8
1
 62
7
  6
CONTINUOUS
 10
453.742931
 20
263.738346
 11
450.214580
 21
263.738346
  0
LINE
  8
1
 62
7
  6
CONTINUOUS
 10
450.214580
 20
294.164756
 11
453.742931
 21
294.164756
  0
LINE
  8
1
 62
7
  6
CONTINUOUS
 10
453.742931
 20
294.164756
 11
453.742931
 21
304.756228
  0
LINE
  8
1
 62
7
  6
CONTINUOUS
 10
453.742931
 20
304.756228
 11
450.214580
 21
304.756228
  0
LINE
  8
1
 62
7
  6
CONTINUOUS
 10
299.574966
 20
328.414718
 11
299.574966
 21
228.414718
  0
LINE
  8
1
 62
7
  6
CONTINUOUS
 10
296.574966
 20
319.914718
 11
296.574966
 21
236.914718
  0
LINE
  8
1
 62
7
  6
CONTINUOUS
 10
299.574966
 20
323.703576
 11
309.574966
 21
323.703576
  0
LINE
  8
1
 62
7
  6
CONTINUOUS
 10
309.574966
 20
323.703576
 11
309.574966
 21
233.703576
  0
LINE
  8
1
 62
7
  6
CONTINUOUS
 10
299.574966
 20
233.703576
 11
309.574966
 21
233.703576
  0
LINE
  8
1
 62
7
  6
CONTINUOUS
 10
299.574966
 20
313.703576
 11
309.574966
 21
313.703576
  0
LINE
  8
1
 62
7
  6
CONTINUOUS
 10
299.574966
 20
304.756228
 11
309.574966
 21
304.756228
  0
LINE
  8
1
 62
7
  6
CONTINUOUS
 10
299.574966
 20
294.164756
 11
309.574966
 21
294.164756
  0
LINE
  8
1
 62
7
  6
CONTINUOUS
 10
299.574966
 20
263.738346
 11
309.574966
 21
263.738346
  0
LINE
  8
1
 62
7
  6
CONTINUOUS
 10
299.574966
 20
253.146875
 11
309.574966
 21
253.146875
  0
LINE
  8
1
 62
7
  6
CONTINUOUS
 10
299.574966
 20
243.703576
 11
309.574966
 21
243.703576
  0
LINE
  8
1
 62
7
  6
CONTINUOUS
 10
303.516735
 20
304.756228
 11
303.516735
 21
294.164756
  0
LINE
  8
1
 62
7
  6
CONTINUOUS
 10
303.516735
 20
263.738346
 11
303.516735
 21
253.146875
  0
LINE
  8
1
 62
7
  6
CONTINUOUS
 10
302.921848
 20
304.756228
 11
302.921848
 21
294.164756
  0
LINE
  8
1
 62
7
  6
CONTINUOUS
 10
302.921848
 20
263.738346
 11
302.921848
 21
253.146875
  0
LINE
  8
1
 62
7
  6
CONTINUOUS
 10
302.290684
 20
304.756228
 11
302.290684
 21
294.164756
  0
LINE
  8
1
 62
7
  6
CONTINUOUS
 10
302.290684
 20
263.738346
 11
302.290684
 21
253.146875
  0
LINE
  8
1
 62
7
  6
CONTINUOUS
 10
301.636977
 20
304.756228
 11
301.636977
 21
294.164756
  0
LINE
  8
1
 62
7
  6
CONTINUOUS
 10
301.636977
 20
263.738346
 11
301.636977
 21
253.146875
  0
LINE
  8
1
 62
7
  6
CONTINUOUS
 10
300.938187
 20
304.756228
 11
300.938187
 21
294.164756
  0
LINE
  8
1
 62
7
  6
CONTINUOUS
 10
300.938187
 20
263.738346
 11
300.938187
 21
253.146875
  0
LINE
  8
1
 62
7
  6
CONTINUOUS
 10
300.374647
 20
304.756228
 11
300.374647
 21
294.164756
  0
LINE
  8
1
 62
7
  6
CONTINUOUS
 10
300.374647
 20
263.738346
 11
300.374647
 21
253.146875
  0
LINE
  8
1
 62
7
  6
CONTINUOUS
 10
299.574966
 20
228.414718
 11
299.490632
 21
228.414718
  0
LINE
  8
1
 62
7
  6
CONTINUOUS
 10
296.574966
 20
236.914718
 11
299.490632
 21
228.414718
  0
LINE
  8
1
 62
7
  6
CONTINUOUS
 10
299.574966
 20
328.414718
 11
299.510332
 21
328.414718
  0
LINE
  8
1
 62
7
  6
CONTINUOUS
 10
296.574966
 20
319.914718
 11
299.510332
 21
328.414718
  0
DIMENSION
  8
1
 62
7
  6
CONTINUOUS
  2
*D8
 10
296.574966
 20
200.275103
 11
303.074966
 21
200.275103
 70
     0
  1
13
 13
296.574966
 23
232.914718
 14
309.574966
 24
229.703576
 50
0.000000
  0
DIMENSION
  8
1
 62
7
  6
CONTINUOUS
  2
*D9
 10
296.574966
 20
209.689745
 11
298.074966
 21
209.689745
 70
     0
  1
3
 13
296.574966
 23
232.914718
 14
299.574966
 24
224.414718
 50
0.000000
  0
DIMENSION
  8
1
 62
7
  6
CONTINUOUS
  2
*D10
 10
362.214580
 20
204.811249
 11
407.214580
 21
204.811249
 70
     0
  1
90
 13
362.214580
 23
229.703576
 14
452.214580
 24
229.703576
 50
0.000000
  0
DIMENSION
  8
1
 62
7
  6
CONTINUOUS
  2
*D11
 10
483.778083
 20
233.703576
 11
483.778083
 21
278.703576
 70
     0
  1
90
 13
456.214580
 23
233.703576
 14
456.214580
 24
323.703576
 50
90.000000
  0
LINE
  8
1
 62
7
  6
CONTINUOUS
 10
231.574966
 20
165.414718
 11
131.574966
 21
165.414718
  0
LINE
  8
1
 62
7
  6
CONTINUOUS
 10
136.574966
 20
155.414718
 11
136.574966
 21
165.414718
  0
LINE
  8
1
 62
7
  6
CONTINUOUS
 10
226.574966
 20
155.414718
 11
226.574966
 21
165.414718
  0
LINE
  8
1
 62
7
  6
CONTINUOUS
 10
131.574966
 20
165.871245
 11
140.074966
 21
168.414718
  0
LINE
  8
1
 62
7
  6
CONTINUOUS
 10
231.574966
 20
165.972682
 11
223.074966
 21
168.414718
  0
LINE
  8
1
 62
7
  6
CONTINUOUS
 10
223.074966
 20
168.414718
 11
140.074966
 21
168.414718
  0
LINE
  8
1
 62
7
  6
CONTINUOUS
 10
231.574966
 20
165.414718
 11
231.574966
 21
165.972682
  0
LINE
  8
1
 62
7
  6
CONTINUOUS
 10
131.574966
 20
165.414718
 11
131.574966
 21
165.871245
  0
LINE
  8
1
 62
7
  6
CONTINUOUS
 10
136.243024
 20
164.157589
 11
136.243024
 21
165.357589
  0
LINE
  8
1
 62
7
  6
CONTINUOUS
 10
125.028136
 20
166.458370
 11
122.503476
 21
163.009505
  0
LINE
  8
1
 62
7
  6
CONTINUOUS
 10
136.243024
 20
164.157589
 11
123.240728
 21
164.157589
  0
LINE
  8
1
 62
7
  6
CONTINUOUS
 10
136.243024
 20
165.357589
 11
124.222335
 21
165.357589
  0
LINE
  8
1
 62
7
  6
CONTINUOUS
 10
135.873317
 20
164.157589
 11
136.243024
 21
164.527295
  0
LINE
  8
1
 62
7
  6
CONTINUOUS
 10
134.459104
 20
164.157589
 11
135.659104
 21
165.357589
  0
LINE
  8
1
 62
7
  6
CONTINUOUS
 10
133.044890
 20
164.157589
 11
134.244890
 21
165.357589
  0
LINE
  8
1
 62
7
  6
CONTINUOUS
 10
131.630677
 20
164.157589
 11
132.830677
 21
165.357589
  0
LINE
  8
1
 62
7
  6
CONTINUOUS
 10
130.216463
 20
164.157589
 11
131.416463
 21
165.357589
  0
LINE
  8
1
 62
7
  6
CONTINUOUS
 10
128.802250
 20
164.157589
 11
130.002250
 21
165.357589
  0
LINE
  8
1
 62
7
  6
CONTINUOUS
 10
127.388036
 20
164.157589
 11
128.588036
 21
165.357589
  0
LINE
  8
1
 62
7
  6
CONTINUOUS
 10
125.973822
 20
164.157589
 11
127.173822
 21
165.357589
  0
LINE
  8
1
 62
7
  6
CONTINUOUS
 10
124.559609
 20
164.157589
 11
125.759609
 21
165.357589
  0
LINE
  8
1
 62
7
  6
CONTINUOUS
 10
123.886169
 20
164.898363
 11
124.345395
 21
165.357589
  0
LINE
  8
1
 62
7
  6
CONTINUOUS
 10
226.906907
 20
164.157589
 11
226.906907
 21
165.357589
  0
LINE
  8
1
 62
7
  6
CONTINUOUS
 10
238.121796
 20
166.458370
 11
240.646455
 21
163.009505
  0
LINE
  8
1
 62
7
  6
CONTINUOUS
 10
226.906907
 20
164.157589
 11
239.909204
 21
164.157589
  0
LINE
  8
1
 62
7
  6
CONTINUOUS
 10
226.906907
 20
165.357589
 11
238.927597
 21
165.357589
  0
LINE
  8
1
 62
7
  6
CONTINUOUS
 10
239.110907
 20
164.157589
 11
239.512241
 21
164.558922
  0
LINE
  8
1
 62
7
  6
CONTINUOUS
 10
237.696694
 20
164.157589
 11
238.896694
 21
165.357589
  0
LINE
  8
1
 62
7
  6
CONTINUOUS
 10
236.282480
 20
164.157589
 11
237.482480
 21
165.357589
  0
LINE
  8
1
 62
7
  6
CONTINUOUS
 10
234.868267
 20
164.157589
 11
236.068267
 21
165.357589
  0
LINE
  8
1
 62
7
  6
CONTINUOUS
 10
233.454053
 20
164.157589
 11
234.654053
 21
165.357589
  0
LINE
  8
1
 62
7
  6
CONTINUOUS
 10
232.039840
 20
164.157589
 11
233.239840
 21
165.357589
  0
LINE
  8
1
 62
7
  6
CONTINUOUS
 10
230.625626
 20
164.157589
 11
231.825626
 21
165.357589
  0
LINE
  8
1
 62
7
  6
CONTINUOUS
 10
229.211412
 20
164.157589
 11
230.411412
 21
165.357589
  0
LINE
  8
1
 62
7
  6
CONTINUOUS
 10
227.797199
 20
164.157589
 11
228.997199
 21
165.357589
  0
LINE
  8
1
 62
7
  6
CONTINUOUS
 10
226.906907
 20
164.681510
 11
227.582985
 21
165.357589
  0
LINE
  8
1
 62
7
  6
CONTINUOUS
 10
135.264946
 20
162.769896
 11
136.574966
 21
157.495161
  0
LINE
  8
1
 62
7
  6
CONTINUOUS
 10
136.423785
 20
164.654247
 11
136.423785
 21
164.387882
  0
LINE
  8
1
 62
7
  6
CONTINUOUS
 10
136.423785
 20
164.387882
 11
136.259976
 21
164.387882
  0
LINE
  8
1
 62
7
  6
CONTINUOUS
 10
136.259976
 20
164.387882
 11
136.259976
 21
164.137420
  0
LINE
  8
1
 62
7
  6
CONTINUOUS
 10
136.259976
 20
164.137420
 11
136.105946
 21
164.137420
  0
LINE
  8
1
 62
7
  6
CONTINUOUS
 10
136.105946
 20
164.137420
 11
136.105946
 21
163.856902
  0
LINE
  8
1
 62
7
  6
CONTINUOUS
 10
136.105946
 20
163.856902
 11
135.933433
 21
163.856902
  0
LINE
  8
1
 62
7
  6
CONTINUOUS
 10
135.933433
 20
163.856902
 11
135.933433
 21
163.546329
  0
LINE
  8
1
 62
7
  6
CONTINUOUS
 10
135.933433
 20
163.546329
 11
135.742437
 21
163.546329
  0
LINE
  8
1
 62
7
  6
CONTINUOUS
 10
136.574966
 20
164.900078
 11
136.423785
 21
164.654247
  0
LINE
  8
1
 62
7
  6
CONTINUOUS
 10
135.742437
 20
163.546329
 11
135.264946
 21
162.769896
  0
LINE
  8
1
 62
7
  6
CONTINUOUS
 10
227.883922
 20
162.746774
 11
226.571268
 21
157.472694
  0
LINE
  8
1
 62
7
  6
CONTINUOUS
 10
226.726024
 20
164.631703
 11
226.725891
 21
164.365339
  0
LINE
  8
1
 62
7
  6
CONTINUOUS
 10
226.725891
 20
164.365339
 11
226.889700
 21
164.365257
  0
LINE
  8
1
 62
7
  6
CONTINUOUS
 10
226.889700
 20
164.365257
 11
226.889575
 21
164.114795
  0
LINE
  8
1
 62
7
  6
CONTINUOUS
 10
226.889575
 20
164.114795
 11
227.043604
 21
164.114718
  0
LINE
  8
1
 62
7
  6
CONTINUOUS
 10
227.043604
 20
164.114718
 11
227.043464
 21
163.834200
  0
LINE
  8
1
 62
7
  6
CONTINUOUS
 10
227.043464
 20
163.834200
 11
227.215977
 21
163.834114
  0
LINE
  8
1
 62
7
  6
CONTINUOUS
 10
227.215977
 20
163.834114
 11
227.215822
 21
163.523541
  0
LINE
  8
1
 62
7
  6
CONTINUOUS
 10
227.215822
 20
163.523541
 11
227.406818
 21
163.523445
  0
LINE
  8
1
 62
7
  6
CONTINUOUS
 10
226.574966
 20
164.877609
 11
226.726024
 21
164.631703
  0
LINE
  8
1
 62
7
  6
CONTINUOUS
 10
227.406818
 20
163.523445
 11
227.883922
 21
162.746774
  0
LINE
  8
1
 62
7
  6
CONTINUOUS
 10
153.865199
 20
325.333563
 11
176.973865
 21
356.836314
  0
LINE
  8
1
 62
7
  6
CONTINUOUS
 10
176.973865
 20
356.836314
 11
223.580315
 21
356.836314
  0
TEXT
  8
1
 62
7
  6
CONTINUOUS
 10
179.580315
 20
357.285649
 40
4.000000
 41
0.578947
  1
ABS ﾀﾞｰｸｸﾞﾚｰ(ﾏｯﾄ処理）
  7
KANJI
 50
0.000000
 51
30.000000
  0
LINE
  8
1
 62
7
  6
CONTINUOUS
 10
153.865199
 20
325.333563
 11
156.766226
 21
332.789033
  0
LINE
  8
1
 62
7
  6
CONTINUOUS
 10
153.865199
 20
325.333563
 11
160.105298
 21
330.339676
  0
TEXT
  8
1
 62
7
  6
CONTINUOUS
 10
274.993122
 20
159.407000
 40
5.000000
 41
0.647059
  1
※　ﾊﾟﾈﾙ厚　1.2～3.0mm
  7
KANJI
 50
0.000000
 51
0.000000
  0
TEXT
  8
1
 62
7
  6
CONTINUOUS
 10
274.936064
 20
166.425187
 40
5.000000
 41
0.608696
  1
※　ﾊﾟﾈﾙｶｯﾄ寸法　90.3x90.3mm
  7
KANJI
 50
0.000000
 51
0.000000
  0
TEXT
  8
1
 62
7
  6
CONTINUOUS
 10
392.904376
 20
312.573233
 40
4.000000
 41
1.000000
  1
ＢＩＲＤ
  7
KANJI
 50
0.000000
 51
0.000000
  0
LINE
  8
1
 62
7
  6
CONTINUOUS
 10
312.929849
 20
239.624026
 11
312.929849
 21
284.624026
  0
LINE
  8
1
 62
7
  6
CONTINUOUS
 10
312.929849
 20
284.624026
 11
314.529849
 21
284.624026
  0
LINE
  8
1
 62
7
  6
CONTINUOUS
 10
314.529849
 20
284.624026
 11
314.529849
 21
239.624026
  0
LINE
  8
1
 62
7
  6
CONTINUOUS
 10
314.529849
 20
239.624026
 11
312.929849
 21
239.624026
  0
LINE
  8
1
 62
7
  6
CONTINUOUS
 10
309.574966
 20
279.679046
 11
312.929849
 21
279.679046
  0
LINE
  8
1
 62
7
  6
CONTINUOUS
 10
309.574966
 20
273.773498
 11
312.929849
 21
273.773498
  0
LINE
  8
1
 62
7
  6
CONTINUOUS
 10
309.574966
 20
247.840440
 11
312.929849
 21
247.840440
  0
LINE
  8
1
 62
7
  6
CONTINUOUS
 10
309.574966
 20
241.934892
 11
312.929849
 21
241.934892
  0
LINE
  8
1
 62
7
  6
CONTINUOUS
 10
368.133884
 20
284.624026
 11
368.133884
 21
239.624026
  0
LINE
  8
1
 62
7
  6
CONTINUOUS
 10
446.303938
 20
284.624026
 11
446.303938
 21
239.624026
  0
LINE
  8
1
 62
7
  6
CONTINUOUS
 10
368.133884
 20
284.624026
 11
446.303938
 21
284.624026
  0
LINE
  8
1
 62
7
  6
CONTINUOUS
 10
379.317337
 20
284.624026
 11
379.317337
 21
274.058791
  0
LINE
  8
1
 62
7
  6
CONTINUOUS
 10
379.317337
 20
274.058791
 11
390.044322
 21
274.058791
  0
LINE
  8
1
 62
7
  6
CONTINUOUS
 10
390.044322
 20
274.058791
 11
390.044322
 21
284.624026
  0
LINE
  8
1
 62
7
  6
CONTINUOUS
 10
379.317337
 20
282.731673
 11
390.044322
 21
282.731673
  0
LINE
  8
1
 62
7
  6
CONTINUOUS
 10
389.701972
 20
242.220184
 11
418.231189
 21
242.220184
  0
LINE
  8
1
 62
7
  6
CONTINUOUS
 10
368.133884
 20
239.624026
 11
389.701972
 21
239.624026
  0
LINE
  8
1
 62
7
  6
CONTINUOUS
 10
418.231189
 20
239.624026
 11
446.303938
 21
239.624026
  0
LINE
  8
1
 62
7
  6
CONTINUOUS
 10
367.214580
 20
238.703576
 11
389.701972
 21
238.703576
  0
LINE
  8
1
 62
7
  6
CONTINUOUS
 10
418.231189
 20
238.703576
 11
447.214580
 21
238.703576
  0
LINE
  8
1
 62
7
  6
CONTINUOUS
 10
314.529849
 20
284.624026
 11
326.627043
 21
284.624026
  0
LINE
  8
1
 62
7
  6
CONTINUOUS
 10
314.529849
 20
282.351283
 11
326.627043
 21
282.351283
  0
LINE
  8
1
 62
7
  6
CONTINUOUS
 10
326.627043
 20
284.624026
 11
326.627043
 21
274.058791
  0
LINE
  8
1
 62
7
  6
CONTINUOUS
 10
326.627043
 20
274.058791
 11
314.529849
 21
274.058791
  0
LINE
  8
1
 62
7
  6
CONTINUOUS
 10
314.529849
 20
268.300644
 11
314.529849
 21
245.962267
  0
LINE
  8
1
 62
7
  6
CONTINUOUS
 10
314.529849
 20
245.962267
 11
319.994000
 21
245.962267
  0
LINE
  8
1
 62
7
  6
CONTINUOUS
 10
319.994000
 20
245.962267
 11
319.994000
 21
268.300644
  0
LINE
  8
1
 62
7
  6
CONTINUOUS
 10
319.994000
 20
268.300644
 11
314.529849
 21
268.300644
  0
LINE
  8
1
 62
7
  6
CONTINUOUS
 10
319.480474
 20
242.137174
 11
314.529849
 21
242.137174
  0
LINE
  8
1
 62
7
  6
CONTINUOUS
 10
319.323563
 20
235.058588
 11
309.574966
 21
235.064106
  0
LINE
  8
1
 62
7
  6
CONTINUOUS
 10
319.323563
 20
241.127813
 11
314.529849
 21
241.127813
  0
LINE
  8
1
 62
7
  6
CONTINUOUS
 10
319.323563
 20
236.075644
 11
309.574966
 21
236.075644
  0
ARC
  8
1
 62
7
  6
CONTINUOUS
 10
319.323563
 20
238.601729
 40
3.543140
 50
-90.000000
 51
93.776763
  0
ARC
  8
1
 62
7
  6
CONTINUOUS
 10
319.323563
 20
238.601729
 40
2.526085
 50
-90.000000
 51
90.000000
  0
LINE
  8
1
 62
7
  6
CONTINUOUS
 10
389.733671
 20
233.038531
 11
418.491121
 21
233.038531
  0
LINE
  8
1
 62
7
  6
CONTINUOUS
 10
370.694381
 20
237.703576
 11
389.701972
 21
237.703576
  0
LINE
  8
1
 62
7
  6
CONTINUOUS
 10
418.231189
 20
237.703576
 11
443.957410
 21
237.703576
  0
LINE
  8
1
 62
7
  6
CONTINUOUS
 10
389.701972
 20
233.038531
 11
389.701972
 21
242.220184
  0
LINE
  8
1
 62
7
  6
CONTINUOUS
 10
418.231189
 20
242.220184
 11
418.231189
 21
233.038531
  0
LINE
  8
1
 62
7
  6
CONTINUOUS
 10
391.413725
 20
242.220184
 11
391.413725
 21
233.038531
  0
LINE
  8
1
 62
7
  6
CONTINUOUS
 10
393.413725
 20
242.220184
 11
393.413725
 21
233.038531
  0
LINE
  8
1
 62
7
  6
CONTINUOUS
 10
395.413725
 20
242.220184
 11
395.413725
 21
233.038531
  0
LINE
  8
1
 62
7
  6
CONTINUOUS
 10
397.413725
 20
242.220184
 11
397.413725
 21
233.038531
  0
LINE
  8
1
 62
7
  6
CONTINUOUS
 10
399.413725
 20
242.220184
 11
399.413725
 21
233.038531
  0
LINE
  8
1
 62
7
  6
CONTINUOUS
 10
401.413725
 20
242.220184
 11
401.413725
 21
233.038531
  0
LINE
  8
1
 62
7
  6
CONTINUOUS
 10
403.413725
 20
242.220184
 11
403.413725
 21
233.038531
  0
LINE
  8
1
 62
7
  6
CONTINUOUS
 10
405.413725
 20
242.220184
 11
405.413725
 21
233.038531
  0
LINE
  8
1
 62
7
  6
CONTINUOUS
 10
407.413725
 20
242.220184
 11
407.413725
 21
233.038531
  0
LINE
  8
1
 62
7
  6
CONTINUOUS
 10
409.413725
 20
242.220184
 11
409.413725
 21
233.038531
  0
LINE
  8
1
 62
7
  6
CONTINUOUS
 10
411.320778
 20
242.220184
 11
411.320778
 21
233.038531
  0
LINE
  8
1
 62
7
  6
CONTINUOUS
 10
413.320778
 20
242.220184
 11
413.320778
 21
233.038531
  0
LINE
  8
1
 62
7
  6
CONTINUOUS
 10
415.320778
 20
242.220184
 11
415.320778
 21
233.038531
  0
LINE
  8
1
 62
7
  6
CONTINUOUS
 10
417.320778
 20
242.220184
 11
417.320778
 21
233.038531
  0
LINE
  8
1
 62
7
  6
CONTINUOUS
 10
372.214580
 20
235.703576
 11
389.701972
 21
235.703576
  0
LINE
  8
1
 62
7
  6
CONTINUOUS
 10
418.231189
 20
235.703576
 11
442.214580
 21
235.703576
  0
TEXT
  8
1
 62
7
  6
CONTINUOUS
 10
376.728310
 20
259.423302
 40
4.000000
 41
1.000000
  1
ＢＩＲＤ
  7
KANJI
 50
0.000000
 51
0.000000
  0
TEXT
  8
1
 62
7
  6
CONTINUOUS
 10
377.865516
 20
254.021771
 40
4.000000
 41
0.500000
  1
WATT.DV
  7
KANJI
 50
0.000000
 51
0.000000
  0
LINE
  8
1
 62
7
  6
CONTINUOUS
 10
429.474870
 20
270.197837
 11
429.474870
 21
246.746820
  0
LINE
  8
1
 62
7
  6
CONTINUOUS
 10
429.474870
 20
246.746820
 11
439.659800
 21
246.746820
  0
LINE
  8
1
 62
7
  6
CONTINUOUS
 10
439.659800
 20
246.746820
 11
439.659800
 21
270.197837
  0
LINE
  8
1
 62
7
  6
CONTINUOUS
 10
439.659800
 20
270.197837
 11
429.474870
 21
270.197837
  0
LINE
  8
1
 62
7
  6
CONTINUOUS
 10
400.460656
 20
264.377876
 11
400.460656
 21
256.332637
  0
LINE
  8
1
 62
7
  6
CONTINUOUS
 10
400.460656
 20
256.332637
 11
420.488167
 21
256.332637
  0
LINE
  8
1
 62
7
  6
CONTINUOUS
 10
420.488167
 20
256.332637
 11
420.488167
 21
264.377876
  0
LINE
  8
1
 62
7
  6
CONTINUOUS
 10
420.488167
 20
264.377876
 11
400.460656
 21
264.377876
  0
LINE
  8
1
 62
7
  6
CONTINUOUS
 10
398.064202
 20
252.737956
 11
398.064202
 21
250.683852
  0
LINE
  8
1
 62
7
  6
CONTINUOUS
 10
398.064202
 20
250.683852
 11
425.452250
 21
250.683852
  0
LINE
  8
1
 62
7
  6
CONTINUOUS
 10
425.452250
 20
250.683852
 11
425.452250
 21
252.737956
  0
LINE
  8
1
 62
7
  6
CONTINUOUS
 10
425.452250
 20
252.737956
 11
398.064202
 21
252.737956
  0
LINE
  8
1
 62
7
  6
CONTINUOUS
 10
146.574966
 20
155.414718
 11
146.574966
 21
165.414718
  0
LINE
  8
1
 62
7
  6
CONTINUOUS
 10
216.574966
 20
155.414718
 11
216.574966
 21
165.414718
  0
LINE
  8
1
 62
7
  6
CONTINUOUS
 10
140.808328
 20
155.414718
 11
140.808328
 21
152.014718
  0
LINE
  8
1
 62
7
  6
CONTINUOUS
 10
140.808328
 20
152.014718
 11
144.916535
 21
152.014718
  0
LINE
  8
1
 62
7
  6
CONTINUOUS
 10
144.916535
 20
152.014718
 11
144.916535
 21
155.414718
  0
LINE
  8
1
 62
7
  6
CONTINUOUS
 10
144.916535
 20
155.414718
 11
140.808328
 21
155.414718
  0
LINE
  8
1
 62
7
  6
CONTINUOUS
 10
218.940343
 20
155.414718
 11
218.940343
 21
152.014718
  0
LINE
  8
1
 62
7
  6
CONTINUOUS
 10
218.940343
 20
152.014718
 11
223.048551
 21
152.014718
  0
LINE
  8
1
 62
7
  6
CONTINUOUS
 10
223.048551
 20
152.014718
 11
223.048551
 21
155.414718
  0
LINE
  8
1
 62
7
  6
CONTINUOUS
 10
223.048551
 20
155.414718
 11
218.940343
 21
155.414718
  0
LINE
  8
1
 62
7
  6
CONTINUOUS
 10
224.475011
 20
152.014718
 11
224.475011
 21
150.414718
  0
LINE
  8
1
 62
7
  6
CONTINUOUS
 10
139.400886
 20
152.014718
 11
139.400886
 21
150.414718
  0
LINE
  8
1
 62
7
  6
CONTINUOUS
 10
174.548882
 20
160.648021
 11
174.548882
 21
143.644607
  0
LINE
  8
1
 62
7
  6
CONTINUOUS
 10
174.548882
 20
143.644607
 11
201.936930
 21
143.644607
  0
LINE
  8
1
 62
7
  6
CONTINUOUS
 10
201.936930
 20
143.644607
 11
201.936930
 21
160.648021
  0
LINE
  8
1
 62
7
  6
CONTINUOUS
 10
201.936930
 20
160.648021
 11
174.548882
 21
160.648021
  0
LINE
  8
1
 62
7
  6
CONTINUOUS
 10
216.574966
 20
157.014718
 11
201.936930
 21
157.014718
  0
LINE
  8
1
 62
7
  6
CONTINUOUS
 10
174.548882
 20
157.014718
 11
146.574966
 21
157.014718
  0
LINE
  8
1
 62
7
  6
CONTINUOUS
 10
226.574966
 20
155.414718
 11
201.936930
 21
155.414718
  0
LINE
  8
1
 62
7
  6
CONTINUOUS
 10
174.548882
 20
155.414718
 11
136.574966
 21
155.414718
  0
LINE
  8
1
 62
7
  6
CONTINUOUS
 10
224.475011
 20
152.014718
 11
201.936930
 21
152.014718
  0
LINE
  8
1
 62
7
  6
CONTINUOUS
 10
174.548882
 20
152.014718
 11
139.400886
 21
152.014718
  0
LINE
  8
1
 62
7
  6
CONTINUOUS
 10
174.548882
 20
150.414718
 11
139.400886
 21
150.414718
  0
LINE
  8
1
 62
7
  6
CONTINUOUS
 10
177.515920
 20
160.648021
 11
177.515920
 21
143.644607
  0
LINE
  8
1
 62
7
  6
CONTINUOUS
 10
179.570024
 20
160.648021
 11
179.570024
 21
143.644607
  0
LINE
  8
1
 62
7
  6
CONTINUOUS
 10
181.624128
 20
160.648021
 11
181.624128
 21
143.644607
  0
LINE
  8
1
 62
7
  6
CONTINUOUS
 10
183.792348
 20
160.648021
 11
183.792348
 21
143.644607
  0
LINE
  8
1
 62
7
  6
CONTINUOUS
 10
186.074685
 20
160.648021
 11
186.074685
 21
143.644607
  0
LINE
  8
1
 62
7
  6
CONTINUOUS
 10
188.471140
 20
160.648021
 11
188.471140
 21
143.644607
  0
LINE
  8
1
 62
7
  6
CONTINUOUS
 10
190.867594
 20
160.648021
 11
190.867594
 21
143.644607
  0
LINE
  8
1
 62
7
  6
CONTINUOUS
 10
193.264048
 20
160.648021
 11
193.264048
 21
143.644607
  0
LINE
  8
1
 62
7
  6
CONTINUOUS
 10
195.318152
 20
160.648021
 11
195.318152
 21
143.644607
  0
LINE
  8
1
 62
7
  6
CONTINUOUS
 10
197.600489
 20
160.648021
 11
197.600489
 21
143.644607
  0
LINE
  8
1
 62
7
  6
CONTINUOUS
 10
199.882826
 20
160.648021
 11
199.882826
 21
143.644607
  0
LINE
  8
1
 62
7
  6
CONTINUOUS
 10
223.219726
 20
150.414718
 11
219.035441
 21
150.414718
  0
LINE
  8
1
 62
7
  6
CONTINUOUS
 10
219.035441
 20
150.414718
 11
219.035441
 21
149.504084
  0
ARC
  8
1
 62
7
  6
CONTINUOUS
 10
220.035441
 20
149.504084
 40
1.000000
 50
180.000000
 51
-90.000000
  0
LINE
  8
1
 62
7
  6
CONTINUOUS
 10
220.035441
 20
148.504084
 11
222.219726
 21
148.504084
  0
LINE
  8
1
 62
7
  6
CONTINUOUS
 10
223.219726
 20
149.504084
 11
223.219726
 21
150.414718
  0
ARC
  8
1
 62
7
  6
CONTINUOUS
 10
222.219726
 20
149.504084
 40
1.000000
 50
-90.000000
 51
0.000000
  0
LINE
  8
1
 62
7
  6
CONTINUOUS
 10
144.935555
 20
150.414718
 11
140.827347
 21
150.414718
  0
LINE
  8
1
 62
7
  6
CONTINUOUS
 10
140.827347
 20
150.414718
 11
140.827347
 21
149.580162
  0
ARC
  8
1
 62
7
  6
CONTINUOUS
 10
141.827347
 20
149.580162
 40
1.000000
 50
-180.000000
 51
-90.000000
  0
LINE
  8
1
 62
7
  6
CONTINUOUS
 10
141.827347
 20
148.580162
 11
143.935555
 21
148.580162
  0
LINE
  8
1
 62
7
  6
CONTINUOUS
 10
144.935555
 20
149.580162
 11
144.935555
 21
150.414718
  0
ARC
  8
1
 62
7
  6
CONTINUOUS
 10
143.935555
 20
149.580162
 40
1.000000
 50
-90.000000
 51
0.000000
  0
LINE
  8
1
 62
7
  6
CONTINUOUS
 10
224.475011
 20
150.414718
 11
207.871007
 21
150.414718
  0
LINE
  8
1
 62
7
  6
CONTINUOUS
 10
199.426359
 20
139.992868
 11
212.435682
 21
139.992868
  0
LINE
  8
1
 62
7
  6
CONTINUOUS
 10
212.435682
 20
139.992868
 11
212.435682
 21
150.414718
  0
LINE
  8
1
 62
7
  6
CONTINUOUS
 10
199.426359
 20
143.644607
 11
199.426359
 21
139.992868
  0
LINE
  8
1
 62
7
  6
CONTINUOUS
 10
212.435682
 20
150.414718
 11
201.936930
 21
150.414718
  0
LINE
  8
1
 62
7
  6
CONTINUOUS
 10
212.435682
 20
147.248799
 11
212.435682
 21
144.002808
  0
LINE
  8
1
 62
7
  6
CONTINUOUS
 10
212.435682
 20
144.002808
 11
209.107273
 21
144.002808
  0
LINE
  8
1
 62
7
  6
CONTINUOUS
 10
209.107273
 20
144.002808
 11
209.107273
 21
147.248799
  0
LINE
  8
1
 62
7
  6
CONTINUOUS
 10
209.107273
 20
147.248799
 11
212.435682
 21
147.248799
  0
LINE
  8
1
 62
7
  6
CONTINUOUS
 10
201.936930
 20
147.096643
 11
203.477508
 21
147.096643
  0
LINE
  8
1
 62
7
  6
CONTINUOUS
 10
203.477508
 20
147.096643
 11
203.477508
 21
143.952089
  0
LINE
  8
1
 62
7
  6
CONTINUOUS
 10
203.477508
 20
143.952089
 11
201.936930
 21
143.952089
  0
LINE
  8
1
 62
7
  6
CONTINUOUS
 10
147.205212
 20
150.414718
 11
147.205212
 21
143.089873
  0
LINE
  8
1
 62
7
  6
CONTINUOUS
 10
147.205212
 20
143.089873
 11
159.872185
 21
143.089873
  0
LINE
  8
1
 62
7
  6
CONTINUOUS
 10
159.872185
 20
143.089873
 11
159.872185
 21
150.414718
  0
LINE
  8
1
 62
7
  6
CONTINUOUS
 10
159.872185
 20
150.414718
 11
147.205212
 21
150.414718
  0
LINE
  8
1
 62
7
  6
CONTINUOUS
 10
162.268639
 20
150.414718
 11
162.268639
 21
145.657502
  0
LINE
  8
1
 62
7
  6
CONTINUOUS
 10
162.268639
 20
145.657502
 11
174.548882
 21
145.657502
  0
LINE
  8
1
 62
7
  6
CONTINUOUS
 10
174.548882
 20
145.657502
 11
174.548882
 21
150.414718
  0
LINE
  8
1
 62
7
  6
CONTINUOUS
 10
174.548882
 20
150.414718
 11
162.268639
 21
150.414718
  0
DIMENSION
  8
1
 62
7
  6
CONTINUOUS
  2
*D12
 10
254.773040
 20
139.992868
 11
254.773040
 21
152.675228
 70
     0
  1
29
 13
216.435682
 23
139.992868
 14
235.825626
 24
165.357589
 50
90.000000
  0
LINE
  8
1
 62
7
  6
CONTINUOUS
 10
384.181568
 20
294.442916
 11
384.181568
 21
284.624026
  0
LINE
  8
1
 62
7
  6
CONTINUOUS
 10
384.181568
 20
284.624026
 11
382.887473
 21
289.453655
  0
LINE
  8
1
 62
7
  6
CONTINUOUS
 10
384.181568
 20
284.624026
 11
385.475663
 21
289.453655
  0
LINE
  8
1
 62
7
  6
CONTINUOUS
 10
384.181568
 20
284.624026
 11
384.181568
 21
289.307657
  0
TEXT
  8
1
 62
7
  6
CONTINUOUS
 10
380.586887
 20
295.213205
 40
4.000000
 41
0.500000
  1
PS/2
  7
KANJI
 50
0.000000
 51
0.000000
  0
TEXT
  8
1
 62
7
  6
CONTINUOUS
 10
449.656121
 20
39.862448
 40
8.000000
 41
1.000000
  1
スタンダードキーボード　
  7
KANJI
 50
0.000000
 51
0.000000
  0
TEXT
  8
1
 62
7
  6
CONTINUOUS
 10
480.339294
 20
28.436497
 40
8.000000
 41
0.500000
  1
S-16DV
  7
KANJI
 50
0.000000
 51
0.000000
  0
TEXT
  8
1
 62
7
  6
CONTINUOUS
 10
15.020633
 20
9.821183
 40
5.000000
 41
0.500000
  1
2015/04/02
  7
KANJI
 50
0.000000
 51
0.000000
  0
LINE
  8
1
 62
7
  6
CONTINUOUS
 10
320.632737
 20
295.598349
 11
320.632737
 21
285.779459
  0
LINE
  8
1
 62
7
  6
CONTINUOUS
 10
320.632737
 20
285.779459
 11
319.338642
 21
290.609088
  0
LINE
  8
1
 62
7
  6
CONTINUOUS
 10
320.632737
 20
285.779459
 11
321.926833
 21
290.609088
  0
LINE
  8
1
 62
7
  6
CONTINUOUS
 10
320.632737
 20
285.779459
 11
320.632737
 21
290.463090
  0
TEXT
  8
1
 62
7
  6
CONTINUOUS
 10
317.038056
 20
296.368638
 40
4.000000
 41
0.500000
  1
PS/2
  7
KANJI
 50
0.000000
 51
0.000000
  0
ENDSEC
  0
EOF
