  0
SECTION
  2
HEADER
  9
$ACADVER
  1
AC1009
  9
$INSBASE
 10
0.000000
 20
0.000000
  9
$EXTMIN
 10
0.000000
 20
0.000000
  9
$EXTMAX
 10
594.000000
 20
420.000000
  9
$LIMMIN
 10
0.000000
 20
0.000000
  9
$LIMMAX
 10
594.000000
 20
420.000000
  9
$VIEWCTR
 10
297.000000
 20
210.000000
  9
$VIEWSIZE
 40
420.000000
  9
$PEXTMIN
 10
0.000000
 20
0.000000
 30
0.000000
  9
$PEXTMAX
 10
297.000000
 20
210.000000
 30
0.000000
  9
$SNAPMODE
 70
     0
  9
$SNAPUNIT
 10
1.000000
 20
1.000000
  9
$SNAPBASE
 10
0.000000
 20
0.000000
  9
$SNAPANG
 50
0.000000
  9
$SNAPISOPAIR
 70
     0
  9
$SNAPSTYLE
 70
     0
  9
$GRIDMODE
 70
     0
  9
$GRIDUNIT
 10
0.000000
 20
0.000000
  9
$ORTHOMODE
 70
     0
  9
$REGENMODE
 70
     1
  9
$FILLMODE
 70
     1
  9
$QTEXTMODE
 70
     0
  9
$DRAGMODE
 70
     2
  9
$LTSCALE
 40
0.500000
  9
$OSMODE
 70
     0
  9
$ATTMODE
 70
     1
  9
$TEXTSIZE
 40
4.000000
  9
$TRACEWID
 40
0.050000
  9
$TEXTSTYLE
  7
STANDARD
  9
$CLAYER
  8
0
  9
$CELTYPE
  6
BYLAYER
  9
$CECOLOR
 62
   256
  9
$DIMSCALE
 40
1.000000
  9
$DIMASZ
 40
1.000000
  9
$DIMEXO
 40
0.000000
  9
$DIMDLI
 40
0.500000
  9
$DIMRND
 40
0.000000
  9
$DIMDLE
 40
0.000000
  9
$DIMEXE
 40
0.000000
  9
$DIMTP
 40
0.000000
  9
$DIMTM
 40
0.000000
  9
$DIMTXT
 40
3.000000
  9
$DIMCEN
 40
0.000000
  9
$DIMTSZ
 40
0.000000
  9
$DIMTOL
 70
     0
  9
$DIMLIM
 70
     0
  9
$DIMTIH
 70
     1
  9
$DIMTOH
 70
     1
  9
$DIMSE1
 70
     0
  9
$DIMSE2
 70
     0
  9
$DIMTAD
 70
     0
  9
$DIMZIN
 70
     0
  9
$DIMBLK
  1

  9
$DIMASO
 70
     0
  9
$DIMSHO
 70
     0
  9
$DIMPOST
  1

  9
$DIMAPOST
  1

  9
$DIMALT
 70
     0
  9
$DIMALTD
 70
     0
  9
$DIMALTF
 40
25.400000
  9
$DIMLFAC
 40
1.000000
  9
$DIMTOFL
 70
     0
  9
$DIMTVP
 40
0.000000
  9
$DIMTIX
 70
     0
  9
$DIMSOXD
 70
     0
  9
$DIMSAH
 70
     0
  9
$DIMBLKL
  1

  9
$DIMBLKR
  1

  9
$LUNITS
 70
     2
  9
$LUPREC
 70
     2
  9
$AXISMODE
 70
     0
  9
$AXISUNIT
 10
1.000000
 20
1.000000
  9
$SKETCHINC
 40
0.000000
  9
$FILLETRAD
 40
0.000000
  9
$AUNITS
 70
     1
  9
$AUPREC
 70
     2
  9
$MENU
  1
ACAD
  9
$ELEVATION
 40
0.000000
  9
$THICKNESS
 40
0.000000
  9
$VIEWDIR
 10
0.000000
 20
0.000000
 30
1.000000
  9
$LIMCHECK
 70
     1
  9
$BLIPMODE
 70
     1
  9
$CHAMFERA
 40
0.000000
  9
$CHAMFERB
 40
0.000000
  9
$FASTZOOM
 70
     1
  9
$SKPOLY
 70
     0
  9
$TDCREATE
 40
0.000000
  9
$TDUPDATE
 40
0.000000
  9
$TDINDWG
 40
0.000000
  9
$TDUSRTIMER
 40
0.000000
  9
$USRTIMER
 70
     1
  9
$ANGBASE
 50
0.000000
  9
$ANGDIR
 70
     0
  9
$PDMODE
 70
     0
  9
$PDSIZE
 40
0.000000
  9
$PLINEWID
 40
0.000000
  9
$COORDS
 70
     2
  9
$USERI1
 70
     0
  9
$USERI2
 70
     0
  9
$USERI3
 70
     0
  9
$USERI4
 70
     0
  9
$USERI5
 70
     0
  9
$USERR1
 40
0.000000
  9
$USERR2
 40
0.000000
  9
$USERR3
 40
0.000000
  9
$USERR4
 40
0.000000
  9
$USERR5
 40
0.000000
  0
ENDSEC
  0
SECTION
  2
TABLES
  0
TABLE
  2
LTYPE
 70
     5
  0
LTYPE
  2
CONTINUOUS
 70
    64
  3
Solid line
 72
    65
 73
     0
 40
0.0
  0
LTYPE
  2
HIDDEN
 70
    64
  3
------------------------
 72
    65
 73
     2
 40
12.6
 49
8.4
 49
-4.2
  0
LTYPE
  2
DOT
 70
    64
  3
････････････････････････
 72
    65
 73
     2
 40
8.0
 49
6.0
 49
-2.0
  0
LTYPE
  2
DASHDOT
 70
    64
  3
--･--･--･--･--･--･--･--
 72
    65
 73
     4
 40
50.5
 49
30.0
 49
-9.0
 49
2.5
 49
-9.0
  0
LTYPE
  2
DIVIDE
 70
    64
  3
--･･--･･--･･--･･--･･--
 72
    65
 73
     6
 40
58.0
 49
30.0
 49
-9.0
 49
2.5
 49
-5.0
 49
2.5
 49
-9.0
  0
LTYPE
  2
ACAD_ISO06W100
 70
    64
  3
____ ... ____ ... ____
 72
    65
 73
     8
 40
37.5
 49
24.0
 49
-3.0
 49
0.5
 49
-3.0
 49
0.5
 49
-3.0
 49
0.5
 49
-3.0
  0
LTYPE
  2
ACAD_ISO14W100
 70
    64
  3
__ . . . __ . . . __ . . . 
 72
    65
 73
     8
 40
25.5
 49
12.0
 49
-3.0
 49
0.5
 49
-3.0
 49
0.5
 49
-3.0
 49
0.5
 49
-3.0
  0
ENDTAB
  0
TABLE
  2
LAYER
 70
1
  0
LAYER
  2
1
 70
64
 62
7
  6
CONTINUOUS
  0
ENDTAB
  0
TABLE
  2
STYLE
 70
     2
  0
STYLE
  2
STANDARD
 70
    64
 40
0.0
 41
1.0
 50
0.0
 71
     0
 42
0.2
  3
TXT
  4

  0
STYLE
  2
KANJI
 70
    64
 40
0.0
 41
1.0
 50
0.0
 71
     0
 42
0.2
  3
TXT
  4
BIGFONT
  0
ENDTAB
  0
TABLE
  2
VIEW
 70
     0
  0
ENDTAB
  0
ENDSEC
  0
SECTION
  2
BLOCKS
  0
BLOCK
  8
1
 62
7
  6
CONTINUOUS
  2
*D1
 70
    65
 10
0.0
 20
0.0
  0
LINE
  8
1
 62
7
  6
CONTINUOUS
 10
184.941541
 20
427.927556
 11
247.941541
 21
427.927556
  0
LINE
  8
1
 62
7
  6
CONTINUOUS
 10
184.941541
 20
423.927556
 11
184.941541
 21
445.591930
  0
LINE
  8
1
 62
7
  6
CONTINUOUS
 10
247.941541
 20
423.927556
 11
247.941541
 21
445.591930
  0
LINE
  8
1
 62
7
  6
CONTINUOUS
 10
184.941541
 20
427.927556
 11
189.771170
 21
429.221651
  0
LINE
  8
1
 62
7
  6
CONTINUOUS
 10
184.941541
 20
427.927556
 11
189.771170
 21
426.633461
  0
LINE
  8
1
 62
7
  6
CONTINUOUS
 10
247.941541
 20
427.927556
 11
243.111911
 21
426.633461
  0
LINE
  8
1
 62
7
  6
CONTINUOUS
 10
247.941541
 20
427.927556
 11
243.111911
 21
429.221651
  0
TEXT
  8
1
 62
7
  6
CONTINUOUS
 10
213.441541
 20
427.927556
 40
6.000000
 41
0.500000
  1
63
  7
KANJI
 50
0.000000
 51
30.000000
  0
ENDBLK
  0
BLOCK
  8
1
 62
7
  6
CONTINUOUS
  2
*D2
 70
    65
 10
0.0
 20
0.0
  0
LINE
  8
1
 62
7
  6
CONTINUOUS
 10
131.574966
 20
194.904478
 11
231.574966
 21
194.904478
  0
LINE
  8
1
 62
7
  6
CONTINUOUS
 10
131.574966
 20
190.904478
 11
131.574966
 21
224.414718
  0
LINE
  8
1
 62
7
  6
CONTINUOUS
 10
231.574966
 20
190.904478
 11
231.574966
 21
224.414718
  0
LINE
  8
1
 62
7
  6
CONTINUOUS
 10
131.574966
 20
194.904478
 11
136.404595
 21
196.198573
  0
LINE
  8
1
 62
7
  6
CONTINUOUS
 10
131.574966
 20
194.904478
 11
136.404595
 21
193.610383
  0
LINE
  8
1
 62
7
  6
CONTINUOUS
 10
231.574966
 20
194.904478
 11
226.745336
 21
193.610383
  0
LINE
  8
1
 62
7
  6
CONTINUOUS
 10
231.574966
 20
194.904478
 11
226.745336
 21
196.198573
  0
TEXT
  8
1
 62
7
  6
CONTINUOUS
 10
177.074966
 20
194.904478
 40
6.000000
 41
0.500000
  1
100
  7
KANJI
 50
0.000000
 51
30.000000
  0
ENDBLK
  0
BLOCK
  8
1
 62
7
  6
CONTINUOUS
  2
*D3
 70
    65
 10
0.0
 20
0.0
  0
LINE
  8
1
 62
7
  6
CONTINUOUS
 10
141.574966
 20
202.265016
 11
221.574966
 21
202.265016
  0
LINE
  8
1
 62
7
  6
CONTINUOUS
 10
141.574966
 20
198.265016
 11
141.574966
 21
234.414718
  0
LINE
  8
1
 62
7
  6
CONTINUOUS
 10
221.574966
 20
198.265016
 11
221.574966
 21
234.414718
  0
LINE
  8
1
 62
7
  6
CONTINUOUS
 10
141.574966
 20
202.265016
 11
146.404595
 21
203.559111
  0
LINE
  8
1
 62
7
  6
CONTINUOUS
 10
141.574966
 20
202.265016
 11
146.404595
 21
200.970921
  0
LINE
  8
1
 62
7
  6
CONTINUOUS
 10
221.574966
 20
202.265016
 11
216.745336
 21
200.970921
  0
LINE
  8
1
 62
7
  6
CONTINUOUS
 10
221.574966
 20
202.265016
 11
216.745336
 21
203.559111
  0
TEXT
  8
1
 62
7
  6
CONTINUOUS
 10
178.574966
 20
202.265016
 40
6.000000
 41
0.500000
  1
80
  7
KANJI
 50
0.000000
 51
30.000000
  0
ENDBLK
  0
BLOCK
  8
1
 62
7
  6
CONTINUOUS
  2
*D4
 70
    65
 10
0.0
 20
0.0
  0
LINE
  8
1
 62
7
  6
CONTINUOUS
 10
261.876815
 20
228.414718
 11
261.876815
 21
328.414718
  0
LINE
  8
1
 62
7
  6
CONTINUOUS
 10
265.876815
 20
228.414718
 11
235.574966
 21
228.414718
  0
LINE
  8
1
 62
7
  6
CONTINUOUS
 10
265.876815
 20
328.414718
 11
235.574966
 21
328.414718
  0
LINE
  8
1
 62
7
  6
CONTINUOUS
 10
261.876815
 20
228.414718
 11
260.582720
 21
233.244347
  0
LINE
  8
1
 62
7
  6
CONTINUOUS
 10
261.876815
 20
228.414718
 11
263.170910
 21
233.244347
  0
LINE
  8
1
 62
7
  6
CONTINUOUS
 10
261.876815
 20
328.414718
 11
263.170910
 21
323.585089
  0
LINE
  8
1
 62
7
  6
CONTINUOUS
 10
261.876815
 20
328.414718
 11
260.582720
 21
323.585089
  0
TEXT
  8
1
 62
7
  6
CONTINUOUS
 10
261.876815
 20
273.914718
 40
6.000000
 41
0.500000
  1
100
  7
KANJI
 50
90.000000
 51
30.000000
  0
ENDBLK
  0
BLOCK
  8
1
 62
7
  6
CONTINUOUS
  2
*D5
 70
    65
 10
0.0
 20
0.0
  0
LINE
  8
1
 62
7
  6
CONTINUOUS
 10
254.002751
 20
238.414718
 11
254.002751
 21
318.414718
  0
LINE
  8
1
 62
7
  6
CONTINUOUS
 10
258.002751
 20
238.414718
 11
225.574966
 21
238.414718
  0
LINE
  8
1
 62
7
  6
CONTINUOUS
 10
258.002751
 20
318.414718
 11
225.574966
 21
318.414718
  0
LINE
  8
1
 62
7
  6
CONTINUOUS
 10
254.002751
 20
238.414718
 11
252.708656
 21
243.244347
  0
LINE
  8
1
 62
7
  6
CONTINUOUS
 10
254.002751
 20
238.414718
 11
255.296846
 21
243.244347
  0
LINE
  8
1
 62
7
  6
CONTINUOUS
 10
254.002751
 20
318.414718
 11
255.296846
 21
313.585089
  0
LINE
  8
1
 62
7
  6
CONTINUOUS
 10
254.002751
 20
318.414718
 11
252.708656
 21
313.585089
  0
TEXT
  8
1
 62
7
  6
CONTINUOUS
 10
254.002751
 20
275.414718
 40
6.000000
 41
0.500000
  1
80
  7
KANJI
 50
90.000000
 51
30.000000
  0
ENDBLK
  0
BLOCK
  8
1
 62
7
  6
CONTINUOUS
  2
*D6
 70
    65
 10
0.0
 20
0.0
  0
LINE
  8
1
 62
7
  6
CONTINUOUS
 10
172.523307
 20
211.101941
 11
190.023307
 21
211.101941
  0
LINE
  8
1
 62
7
  6
CONTINUOUS
 10
172.523307
 20
207.101941
 11
172.523307
 21
224.414718
  0
LINE
  8
1
 62
7
  6
CONTINUOUS
 10
190.023307
 20
207.101941
 11
190.023307
 21
224.414718
  0
LINE
  8
1
 62
7
  6
CONTINUOUS
 10
172.523307
 20
211.101941
 11
177.352936
 21
212.396036
  0
LINE
  8
1
 62
7
  6
CONTINUOUS
 10
172.523307
 20
211.101941
 11
177.352936
 21
209.807846
  0
LINE
  8
1
 62
7
  6
CONTINUOUS
 10
190.023307
 20
211.101941
 11
185.193678
 21
209.807846
  0
LINE
  8
1
 62
7
  6
CONTINUOUS
 10
190.023307
 20
211.101941
 11
185.193678
 21
212.396036
  0
TEXT
  8
1
 62
7
  6
CONTINUOUS
 10
175.273307
 20
211.101941
 40
6.000000
 41
0.500000
  1
17.5
  7
KANJI
 50
0.000000
 51
30.000000
  0
ENDBLK
  0
BLOCK
  8
1
 62
7
  6
CONTINUOUS
  2
*D7
 70
    65
 10
0.0
 20
0.0
  0
LINE
  8
1
 62
7
  6
CONTINUOUS
 10
245.529574
 20
269.365734
 11
245.529574
 21
286.865734
  0
LINE
  8
1
 62
7
  6
CONTINUOUS
 10
249.529574
 20
269.365734
 11
235.574966
 21
269.365734
  0
LINE
  8
1
 62
7
  6
CONTINUOUS
 10
249.529574
 20
286.865734
 11
235.574966
 21
286.865734
  0
LINE
  8
1
 62
7
  6
CONTINUOUS
 10
245.529574
 20
269.365734
 11
244.235478
 21
274.195364
  0
LINE
  8
1
 62
7
  6
CONTINUOUS
 10
245.529574
 20
269.365734
 11
246.823669
 21
274.195364
  0
LINE
  8
1
 62
7
  6
CONTINUOUS
 10
245.529574
 20
286.865734
 11
246.823669
 21
282.036105
  0
LINE
  8
1
 62
7
  6
CONTINUOUS
 10
245.529574
 20
286.865734
 11
244.235478
 21
282.036105
  0
TEXT
  8
1
 62
7
  6
CONTINUOUS
 10
245.529574
 20
272.115734
 40
6.000000
 41
0.500000
  1
17.5
  7
KANJI
 50
90.000000
 51
30.000000
  0
ENDBLK
  0
BLOCK
  8
1
 62
7
  6
CONTINUOUS
  2
*D8
 70
    65
 10
0.0
 20
0.0
  0
LINE
  8
1
 62
7
  6
CONTINUOUS
 10
296.574966
 20
200.275103
 11
309.574966
 21
200.275103
  0
LINE
  8
1
 62
7
  6
CONTINUOUS
 10
296.574966
 20
196.275103
 11
296.574966
 21
232.914718
  0
LINE
  8
1
 62
7
  6
CONTINUOUS
 10
309.574966
 20
196.275103
 11
309.574966
 21
229.703576
  0
LINE
  8
1
 62
7
  6
CONTINUOUS
 10
296.574966
 20
200.275103
 11
301.404595
 21
201.569198
  0
LINE
  8
1
 62
7
  6
CONTINUOUS
 10
296.574966
 20
200.275103
 11
301.404595
 21
198.981008
  0
LINE
  8
1
 62
7
  6
CONTINUOUS
 10
309.574966
 20
200.275103
 11
304.745336
 21
198.981008
  0
LINE
  8
1
 62
7
  6
CONTINUOUS
 10
309.574966
 20
200.275103
 11
304.745336
 21
201.569198
  0
TEXT
  8
1
 62
7
  6
CONTINUOUS
 10
300.074966
 20
200.275103
 40
6.000000
 41
0.500000
  1
13
  7
KANJI
 50
0.000000
 51
30.000000
  0
ENDBLK
  0
BLOCK
  8
1
 62
7
  6
CONTINUOUS
  2
*D9
 70
    65
 10
0.0
 20
0.0
  0
LINE
  8
1
 62
7
  6
CONTINUOUS
 10
290.574966
 20
209.689745
 11
305.574966
 21
209.689745
  0
LINE
  8
1
 62
7
  6
CONTINUOUS
 10
296.574966
 20
205.689745
 11
296.574966
 21
232.914718
  0
LINE
  8
1
 62
7
  6
CONTINUOUS
 10
299.574966
 20
205.689745
 11
299.574966
 21
224.414718
  0
LINE
  8
1
 62
7
  6
CONTINUOUS
 10
296.574966
 20
209.689745
 11
291.745336
 21
208.395650
  0
LINE
  8
1
 62
7
  6
CONTINUOUS
 10
296.574966
 20
209.689745
 11
291.745336
 21
210.983840
  0
LINE
  8
1
 62
7
  6
CONTINUOUS
 10
299.574966
 20
209.689745
 11
304.404595
 21
210.983840
  0
LINE
  8
1
 62
7
  6
CONTINUOUS
 10
299.574966
 20
209.689745
 11
304.404595
 21
208.395650
  0
TEXT
  8
1
 62
7
  6
CONTINUOUS
 10
296.574966
 20
209.689745
 40
6.000000
 41
0.500000
  1
3
  7
KANJI
 50
0.000000
 51
30.000000
  0
ENDBLK
  0
BLOCK
  8
1
 62
7
  6
CONTINUOUS
  2
*D10
 70
    65
 10
0.0
 20
0.0
  0
LINE
  8
1
 62
7
  6
CONTINUOUS
 10
362.214580
 20
204.811249
 11
452.214580
 21
204.811249
  0
LINE
  8
1
 62
7
  6
CONTINUOUS
 10
362.214580
 20
200.811249
 11
362.214580
 21
229.703576
  0
LINE
  8
1
 62
7
  6
CONTINUOUS
 10
452.214580
 20
200.811249
 11
452.214580
 21
229.703576
  0
LINE
  8
1
 62
7
  6
CONTINUOUS
 10
362.214580
 20
204.811249
 11
367.044210
 21
206.105344
  0
LINE
  8
1
 62
7
  6
CONTINUOUS
 10
362.214580
 20
204.811249
 11
367.044210
 21
203.517153
  0
LINE
  8
1
 62
7
  6
CONTINUOUS
 10
452.214580
 20
204.811249
 11
447.384951
 21
203.517153
  0
LINE
  8
1
 62
7
  6
CONTINUOUS
 10
452.214580
 20
204.811249
 11
447.384951
 21
206.105344
  0
TEXT
  8
1
 62
7
  6
CONTINUOUS
 10
404.214580
 20
204.811249
 40
6.000000
 41
0.500000
  1
90
  7
KANJI
 50
0.000000
 51
30.000000
  0
ENDBLK
  0
BLOCK
  8
1
 62
7
  6
CONTINUOUS
  2
*D11
 70
    65
 10
0.0
 20
0.0
  0
LINE
  8
1
 62
7
  6
CONTINUOUS
 10
483.778083
 20
233.703576
 11
483.778083
 21
323.703576
  0
LINE
  8
1
 62
7
  6
CONTINUOUS
 10
487.778083
 20
233.703576
 11
456.214580
 21
233.703576
  0
LINE
  8
1
 62
7
  6
CONTINUOUS
 10
487.778083
 20
323.703576
 11
456.214580
 21
323.703576
  0
LINE
  8
1
 62
7
  6
CONTINUOUS
 10
483.778083
 20
233.703576
 11
482.483988
 21
238.533205
  0
LINE
  8
1
 62
7
  6
CONTINUOUS
 10
483.778083
 20
233.703576
 11
485.072179
 21
238.533205
  0
LINE
  8
1
 62
7
  6
CONTINUOUS
 10
483.778083
 20
323.703576
 11
485.072179
 21
318.873947
  0
LINE
  8
1
 62
7
  6
CONTINUOUS
 10
483.778083
 20
323.703576
 11
482.483988
 21
318.873947
  0
TEXT
  8
1
 62
7
  6
CONTINUOUS
 10
483.778083
 20
275.703576
 40
6.000000
 41
0.500000
  1
90
  7
KANJI
 50
90.000000
 51
30.000000
  0
ENDBLK
  0
BLOCK
  8
1
 62
7
  6
CONTINUOUS
  2
*D12
 70
    65
 10
0.0
 20
0.0
  0
LINE
  8
1
 62
7
  6
CONTINUOUS
 10
384.115645
 20
151.925213
 11
401.250904
 21
151.925213
  0
LINE
  8
1
 62
7
  6
CONTINUOUS
 10
390.115645
 20
147.925213
 11
390.115645
 21
160.363951
  0
LINE
  8
1
 62
7
  6
CONTINUOUS
 10
395.250904
 20
147.925213
 11
395.250904
 21
160.363951
  0
LINE
  8
1
 62
7
  6
CONTINUOUS
 10
390.115645
 20
151.925213
 11
385.286016
 21
150.631117
  0
LINE
  8
1
 62
7
  6
CONTINUOUS
 10
390.115645
 20
151.925213
 11
385.286016
 21
153.219308
  0
LINE
  8
1
 62
7
  6
CONTINUOUS
 10
395.250904
 20
151.925213
 11
400.080533
 21
153.219308
  0
LINE
  8
1
 62
7
  6
CONTINUOUS
 10
395.250904
 20
151.925213
 11
400.080533
 21
150.631117
  0
TEXT
  8
1
 62
7
  6
CONTINUOUS
 10
386.683275
 20
151.925213
 40
6.000000
 41
0.500000
  1
2.54
  7
KANJI
 50
0.000000
 51
30.000000
  0
ENDBLK
  0
ENDSEC
  0
SECTION
  2
ENTITIES
  0
LINE
  8
1
 62
7
  6
CONTINUOUS
 10
138.724209
 20
479.055479
 11
138.724209
 21
489.555479
  0
LINE
  8
1
 62
7
  6
CONTINUOUS
 10
138.724209
 20
489.555479
 11
149.224209
 21
489.555479
  0
LINE
  8
1
 62
7
  6
CONTINUOUS
 10
149.224209
 20
489.555479
 11
149.224209
 21
479.055479
  0
LINE
  8
1
 62
7
  6
CONTINUOUS
 10
149.224209
 20
479.055479
 11
138.724209
 21
479.055479
  0
LINE
  8
1
 62
7
  6
CONTINUOUS
 10
184.941541
 20
449.591930
 11
184.941541
 21
460.091930
  0
LINE
  8
1
 62
7
  6
CONTINUOUS
 10
184.941541
 20
460.091930
 11
195.441541
 21
460.091930
  0
LINE
  8
1
 62
7
  6
CONTINUOUS
 10
195.441541
 20
460.091930
 11
195.441541
 21
449.591930
  0
LINE
  8
1
 62
7
  6
CONTINUOUS
 10
195.441541
 20
449.591930
 11
184.941541
 21
449.591930
  0
LINE
  8
1
 62
7
  6
CONTINUOUS
 10
202.441541
 20
449.591930
 11
202.441541
 21
460.091930
  0
LINE
  8
1
 62
7
  6
CONTINUOUS
 10
202.441541
 20
460.091930
 11
212.941541
 21
460.091930
  0
LINE
  8
1
 62
7
  6
CONTINUOUS
 10
212.941541
 20
460.091930
 11
212.941541
 21
449.591930
  0
LINE
  8
1
 62
7
  6
CONTINUOUS
 10
212.941541
 20
449.591930
 11
202.441541
 21
449.591930
  0
LINE
  8
1
 62
7
  6
CONTINUOUS
 10
219.941541
 20
449.591930
 11
219.941541
 21
460.091930
  0
LINE
  8
1
 62
7
  6
CONTINUOUS
 10
219.941541
 20
460.091930
 11
230.441541
 21
460.091930
  0
LINE
  8
1
 62
7
  6
CONTINUOUS
 10
230.441541
 20
460.091930
 11
230.441541
 21
449.591930
  0
LINE
  8
1
 62
7
  6
CONTINUOUS
 10
230.441541
 20
449.591930
 11
219.941541
 21
449.591930
  0
LINE
  8
1
 62
7
  6
CONTINUOUS
 10
237.441541
 20
449.591930
 11
237.441541
 21
460.091930
  0
LINE
  8
1
 62
7
  6
CONTINUOUS
 10
237.441541
 20
460.091930
 11
247.941541
 21
460.091930
  0
LINE
  8
1
 62
7
  6
CONTINUOUS
 10
247.941541
 20
460.091930
 11
247.941541
 21
449.591930
  0
LINE
  8
1
 62
7
  6
CONTINUOUS
 10
247.941541
 20
449.591930
 11
237.441541
 21
449.591930
  0
LINE
  8
1
 62
7
  6
CONTINUOUS
 10
184.941541
 20
467.091930
 11
184.941541
 21
477.591930
  0
LINE
  8
1
 62
7
  6
CONTINUOUS
 10
184.941541
 20
477.591930
 11
195.441541
 21
477.591930
  0
LINE
  8
1
 62
7
  6
CONTINUOUS
 10
195.441541
 20
477.591930
 11
195.441541
 21
467.091930
  0
LINE
  8
1
 62
7
  6
CONTINUOUS
 10
195.441541
 20
467.091930
 11
184.941541
 21
467.091930
  0
LINE
  8
1
 62
7
  6
CONTINUOUS
 10
202.441541
 20
467.091930
 11
202.441541
 21
477.591930
  0
LINE
  8
1
 62
7
  6
CONTINUOUS
 10
202.441541
 20
477.591930
 11
212.941541
 21
477.591930
  0
LINE
  8
1
 62
7
  6
CONTINUOUS
 10
212.941541
 20
477.591930
 11
212.941541
 21
467.091930
  0
LINE
  8
1
 62
7
  6
CONTINUOUS
 10
212.941541
 20
467.091930
 11
202.441541
 21
467.091930
  0
LINE
  8
1
 62
7
  6
CONTINUOUS
 10
219.941541
 20
467.091930
 11
219.941541
 21
477.591930
  0
LINE
  8
1
 62
7
  6
CONTINUOUS
 10
219.941541
 20
477.591930
 11
230.441541
 21
477.591930
  0
LINE
  8
1
 62
7
  6
CONTINUOUS
 10
230.441541
 20
477.591930
 11
230.441541
 21
467.091930
  0
LINE
  8
1
 62
7
  6
CONTINUOUS
 10
230.441541
 20
467.091930
 11
219.941541
 21
467.091930
  0
LINE
  8
1
 62
7
  6
CONTINUOUS
 10
237.441541
 20
467.091930
 11
237.441541
 21
477.591930
  0
LINE
  8
1
 62
7
  6
CONTINUOUS
 10
237.441541
 20
477.591930
 11
247.941541
 21
477.591930
  0
LINE
  8
1
 62
7
  6
CONTINUOUS
 10
247.941541
 20
477.591930
 11
247.941541
 21
467.091930
  0
LINE
  8
1
 62
7
  6
CONTINUOUS
 10
247.941541
 20
467.091930
 11
237.441541
 21
467.091930
  0
LINE
  8
1
 62
7
  6
CONTINUOUS
 10
184.941541
 20
484.591930
 11
184.941541
 21
495.091930
  0
LINE
  8
1
 62
7
  6
CONTINUOUS
 10
184.941541
 20
495.091930
 11
195.441541
 21
495.091930
  0
LINE
  8
1
 62
7
  6
CONTINUOUS
 10
195.441541
 20
495.091930
 11
195.441541
 21
484.591930
  0
LINE
  8
1
 62
7
  6
CONTINUOUS
 10
195.441541
 20
484.591930
 11
184.941541
 21
484.591930
  0
LINE
  8
1
 62
7
  6
CONTINUOUS
 10
202.441541
 20
484.591930
 11
202.441541
 21
495.091930
  0
LINE
  8
1
 62
7
  6
CONTINUOUS
 10
202.441541
 20
495.091930
 11
212.941541
 21
495.091930
  0
LINE
  8
1
 62
7
  6
CONTINUOUS
 10
212.941541
 20
495.091930
 11
212.941541
 21
484.591930
  0
LINE
  8
1
 62
7
  6
CONTINUOUS
 10
212.941541
 20
484.591930
 11
202.441541
 21
484.591930
  0
LINE
  8
1
 62
7
  6
CONTINUOUS
 10
219.941541
 20
484.591930
 11
219.941541
 21
495.091930
  0
LINE
  8
1
 62
7
  6
CONTINUOUS
 10
219.941541
 20
495.091930
 11
230.441541
 21
495.091930
  0
LINE
  8
1
 62
7
  6
CONTINUOUS
 10
230.441541
 20
495.091930
 11
230.441541
 21
484.591930
  0
LINE
  8
1
 62
7
  6
CONTINUOUS
 10
230.441541
 20
484.591930
 11
219.941541
 21
484.591930
  0
LINE
  8
1
 62
7
  6
CONTINUOUS
 10
237.441541
 20
484.591930
 11
237.441541
 21
495.091930
  0
LINE
  8
1
 62
7
  6
CONTINUOUS
 10
237.441541
 20
495.091930
 11
247.941541
 21
495.091930
  0
LINE
  8
1
 62
7
  6
CONTINUOUS
 10
247.941541
 20
495.091930
 11
247.941541
 21
484.591930
  0
LINE
  8
1
 62
7
  6
CONTINUOUS
 10
247.941541
 20
484.591930
 11
237.441541
 21
484.591930
  0
LINE
  8
1
 62
7
  6
CONTINUOUS
 10
184.941541
 20
502.091930
 11
184.941541
 21
512.591930
  0
LINE
  8
1
 62
7
  6
CONTINUOUS
 10
184.941541
 20
512.591930
 11
195.441541
 21
512.591930
  0
LINE
  8
1
 62
7
  6
CONTINUOUS
 10
195.441541
 20
512.591930
 11
195.441541
 21
502.091930
  0
LINE
  8
1
 62
7
  6
CONTINUOUS
 10
195.441541
 20
502.091930
 11
184.941541
 21
502.091930
  0
LINE
  8
1
 62
7
  6
CONTINUOUS
 10
202.441541
 20
502.091930
 11
202.441541
 21
512.591930
  0
LINE
  8
1
 62
7
  6
CONTINUOUS
 10
202.441541
 20
512.591930
 11
212.941541
 21
512.591930
  0
LINE
  8
1
 62
7
  6
CONTINUOUS
 10
212.941541
 20
512.591930
 11
212.941541
 21
502.091930
  0
LINE
  8
1
 62
7
  6
CONTINUOUS
 10
212.941541
 20
502.091930
 11
202.441541
 21
502.091930
  0
LINE
  8
1
 62
7
  6
CONTINUOUS
 10
219.941541
 20
502.091930
 11
219.941541
 21
512.591930
  0
LINE
  8
1
 62
7
  6
CONTINUOUS
 10
219.941541
 20
512.591930
 11
230.441541
 21
512.591930
  0
LINE
  8
1
 62
7
  6
CONTINUOUS
 10
230.441541
 20
512.591930
 11
230.441541
 21
502.091930
  0
LINE
  8
1
 62
7
  6
CONTINUOUS
 10
230.441541
 20
502.091930
 11
219.941541
 21
502.091930
  0
LINE
  8
1
 62
7
  6
CONTINUOUS
 10
237.441541
 20
502.091930
 11
237.441541
 21
512.591930
  0
LINE
  8
1
 62
7
  6
CONTINUOUS
 10
237.441541
 20
512.591930
 11
247.941541
 21
512.591930
  0
LINE
  8
1
 62
7
  6
CONTINUOUS
 10
247.941541
 20
512.591930
 11
247.941541
 21
502.091930
  0
LINE
  8
1
 62
7
  6
CONTINUOUS
 10
247.941541
 20
502.091930
 11
237.441541
 21
502.091930
  0
DIMENSION
  8
1
 62
7
  6
CONTINUOUS
  2
*D1
 10
184.941541
 20
427.927556
 11
216.441541
 21
427.927556
 70
     0
  1
63
 13
184.941541
 23
445.591930
 14
247.941541
 24
445.591930
 50
0.000000
  0
LINE
  8
1
 62
7
  6
CONTINUOUS
 10
216.441541
 20
480.153854
 11
216.441541
 21
482.074821
  0
LINE
  8
1
 62
7
  6
CONTINUOUS
 10
215.421443
 20
481.091930
 11
217.431168
 21
481.091930
  0
LINE
  8
1
 62
7
  6
CONTINUOUS
 10
131.574966
 20
228.414718
 11
131.574966
 21
328.414718
  0
LINE
  8
1
 62
7
  6
CONTINUOUS
 10
131.574966
 20
328.414718
 11
231.574966
 21
328.414718
  0
LINE
  8
1
 62
7
  6
CONTINUOUS
 10
231.574966
 20
328.414718
 11
231.574966
 21
228.414718
  0
LINE
  8
1
 62
7
  6
CONTINUOUS
 10
231.574966
 20
228.414718
 11
131.574966
 21
228.414718
  0
LINE
  8
1
 62
7
  6
CONTINUOUS
 10
141.574966
 20
318.414718
 11
221.574966
 21
318.414718
  0
LINE
  8
1
 62
7
  6
CONTINUOUS
 10
221.574966
 20
318.414718
 11
221.574966
 21
238.414718
  0
LINE
  8
1
 62
7
  6
CONTINUOUS
 10
221.574966
 20
238.414718
 11
141.574966
 21
238.414718
  0
LINE
  8
1
 62
7
  6
CONTINUOUS
 10
141.574966
 20
238.414718
 11
141.574966
 21
318.414718
  0
LINE
  8
1
 62
7
  6
CONTINUOUS
 10
140.074966
 20
319.914718
 11
223.074966
 21
319.914718
  0
LINE
  8
1
 62
7
  6
CONTINUOUS
 10
223.074966
 20
319.914718
 11
223.074966
 21
236.914718
  0
LINE
  8
1
 62
7
  6
CONTINUOUS
 10
223.074966
 20
236.914718
 11
140.074966
 21
236.914718
  0
LINE
  8
1
 62
7
  6
CONTINUOUS
 10
140.074966
 20
236.914718
 11
140.074966
 21
319.914718
  0
LINE
  8
1
 62
7
  6
CONTINUOUS
 10
140.074966
 20
319.914718
 11
131.574966
 21
328.414718
  0
LINE
  8
1
 62
7
  6
CONTINUOUS
 10
223.074966
 20
319.914718
 11
231.574966
 21
328.414718
  0
LINE
  8
1
 62
7
  6
CONTINUOUS
 10
223.074966
 20
236.914718
 11
231.574966
 21
228.414718
  0
LINE
  8
1
 62
7
  6
CONTINUOUS
 10
140.074966
 20
236.914718
 11
131.574966
 21
228.414718
  0
LINE
  8
1
 62
7
  6
CONTINUOUS
 10
150.074966
 20
246.914718
 11
150.074966
 21
257.414718
  0
LINE
  8
1
 62
7
  6
CONTINUOUS
 10
150.074966
 20
257.414718
 11
160.574966
 21
257.414718
  0
LINE
  8
1
 62
7
  6
CONTINUOUS
 10
160.574966
 20
257.414718
 11
160.574966
 21
246.914718
  0
LINE
  8
1
 62
7
  6
CONTINUOUS
 10
160.574966
 20
246.914718
 11
150.074966
 21
246.914718
  0
LINE
  8
1
 62
7
  6
CONTINUOUS
 10
167.574966
 20
246.914718
 11
167.574966
 21
257.414718
  0
LINE
  8
1
 62
7
  6
CONTINUOUS
 10
167.574966
 20
257.414718
 11
178.074966
 21
257.414718
  0
LINE
  8
1
 62
7
  6
CONTINUOUS
 10
178.074966
 20
257.414718
 11
178.074966
 21
246.914718
  0
LINE
  8
1
 62
7
  6
CONTINUOUS
 10
178.074966
 20
246.914718
 11
167.574966
 21
246.914718
  0
LINE
  8
1
 62
7
  6
CONTINUOUS
 10
185.074966
 20
246.914718
 11
185.074966
 21
257.414718
  0
LINE
  8
1
 62
7
  6
CONTINUOUS
 10
185.074966
 20
257.414718
 11
195.574966
 21
257.414718
  0
LINE
  8
1
 62
7
  6
CONTINUOUS
 10
195.574966
 20
257.414718
 11
195.574966
 21
246.914718
  0
LINE
  8
1
 62
7
  6
CONTINUOUS
 10
195.574966
 20
246.914718
 11
185.074966
 21
246.914718
  0
LINE
  8
1
 62
7
  6
CONTINUOUS
 10
202.574966
 20
246.914718
 11
202.574966
 21
257.414718
  0
LINE
  8
1
 62
7
  6
CONTINUOUS
 10
202.574966
 20
257.414718
 11
213.074966
 21
257.414718
  0
LINE
  8
1
 62
7
  6
CONTINUOUS
 10
213.074966
 20
257.414718
 11
213.074966
 21
246.914718
  0
LINE
  8
1
 62
7
  6
CONTINUOUS
 10
213.074966
 20
246.914718
 11
202.574966
 21
246.914718
  0
LINE
  8
1
 62
7
  6
CONTINUOUS
 10
150.074966
 20
264.414718
 11
150.074966
 21
274.914718
  0
LINE
  8
1
 62
7
  6
CONTINUOUS
 10
150.074966
 20
274.914718
 11
160.574966
 21
274.914718
  0
LINE
  8
1
 62
7
  6
CONTINUOUS
 10
160.574966
 20
274.914718
 11
160.574966
 21
264.414718
  0
LINE
  8
1
 62
7
  6
CONTINUOUS
 10
160.574966
 20
264.414718
 11
150.074966
 21
264.414718
  0
LINE
  8
1
 62
7
  6
CONTINUOUS
 10
167.574966
 20
264.414718
 11
167.574966
 21
274.914718
  0
LINE
  8
1
 62
7
  6
CONTINUOUS
 10
167.574966
 20
274.914718
 11
178.074966
 21
274.914718
  0
LINE
  8
1
 62
7
  6
CONTINUOUS
 10
178.074966
 20
274.914718
 11
178.074966
 21
264.414718
  0
LINE
  8
1
 62
7
  6
CONTINUOUS
 10
178.074966
 20
264.414718
 11
167.574966
 21
264.414718
  0
LINE
  8
1
 62
7
  6
CONTINUOUS
 10
185.074966
 20
264.414718
 11
185.074966
 21
274.914718
  0
LINE
  8
1
 62
7
  6
CONTINUOUS
 10
185.074966
 20
274.914718
 11
195.574966
 21
274.914718
  0
LINE
  8
1
 62
7
  6
CONTINUOUS
 10
195.574966
 20
274.914718
 11
195.574966
 21
264.414718
  0
LINE
  8
1
 62
7
  6
CONTINUOUS
 10
195.574966
 20
264.414718
 11
185.074966
 21
264.414718
  0
LINE
  8
1
 62
7
  6
CONTINUOUS
 10
202.574966
 20
264.414718
 11
202.574966
 21
274.914718
  0
LINE
  8
1
 62
7
  6
CONTINUOUS
 10
202.574966
 20
274.914718
 11
213.074966
 21
274.914718
  0
LINE
  8
1
 62
7
  6
CONTINUOUS
 10
213.074966
 20
274.914718
 11
213.074966
 21
264.414718
  0
LINE
  8
1
 62
7
  6
CONTINUOUS
 10
213.074966
 20
264.414718
 11
202.574966
 21
264.414718
  0
LINE
  8
1
 62
7
  6
CONTINUOUS
 10
150.074966
 20
281.914718
 11
150.074966
 21
292.414718
  0
LINE
  8
1
 62
7
  6
CONTINUOUS
 10
150.074966
 20
292.414718
 11
160.574966
 21
292.414718
  0
LINE
  8
1
 62
7
  6
CONTINUOUS
 10
160.574966
 20
292.414718
 11
160.574966
 21
281.914718
  0
LINE
  8
1
 62
7
  6
CONTINUOUS
 10
160.574966
 20
281.914718
 11
150.074966
 21
281.914718
  0
LINE
  8
1
 62
7
  6
CONTINUOUS
 10
167.574966
 20
281.914718
 11
167.574966
 21
292.414718
  0
LINE
  8
1
 62
7
  6
CONTINUOUS
 10
167.574966
 20
292.414718
 11
178.074966
 21
292.414718
  0
LINE
  8
1
 62
7
  6
CONTINUOUS
 10
178.074966
 20
292.414718
 11
178.074966
 21
281.914718
  0
LINE
  8
1
 62
7
  6
CONTINUOUS
 10
178.074966
 20
281.914718
 11
167.574966
 21
281.914718
  0
LINE
  8
1
 62
7
  6
CONTINUOUS
 10
185.074966
 20
281.914718
 11
185.074966
 21
292.414718
  0
LINE
  8
1
 62
7
  6
CONTINUOUS
 10
185.074966
 20
292.414718
 11
195.574966
 21
292.414718
  0
LINE
  8
1
 62
7
  6
CONTINUOUS
 10
195.574966
 20
292.414718
 11
195.574966
 21
281.914718
  0
LINE
  8
1
 62
7
  6
CONTINUOUS
 10
195.574966
 20
281.914718
 11
185.074966
 21
281.914718
  0
LINE
  8
1
 62
7
  6
CONTINUOUS
 10
202.574966
 20
281.914718
 11
202.574966
 21
292.414718
  0
LINE
  8
1
 62
7
  6
CONTINUOUS
 10
202.574966
 20
292.414718
 11
213.074966
 21
292.414718
  0
LINE
  8
1
 62
7
  6
CONTINUOUS
 10
213.074966
 20
292.414718
 11
213.074966
 21
281.914718
  0
LINE
  8
1
 62
7
  6
CONTINUOUS
 10
213.074966
 20
281.914718
 11
202.574966
 21
281.914718
  0
LINE
  8
1
 62
7
  6
CONTINUOUS
 10
150.074966
 20
299.414718
 11
150.074966
 21
309.914718
  0
LINE
  8
1
 62
7
  6
CONTINUOUS
 10
150.074966
 20
309.914718
 11
160.574966
 21
309.914718
  0
LINE
  8
1
 62
7
  6
CONTINUOUS
 10
160.574966
 20
309.914718
 11
160.574966
 21
299.414718
  0
LINE
  8
1
 62
7
  6
CONTINUOUS
 10
160.574966
 20
299.414718
 11
150.074966
 21
299.414718
  0
LINE
  8
1
 62
7
  6
CONTINUOUS
 10
167.574966
 20
299.414718
 11
167.574966
 21
309.914718
  0
LINE
  8
1
 62
7
  6
CONTINUOUS
 10
167.574966
 20
309.914718
 11
178.074966
 21
309.914718
  0
LINE
  8
1
 62
7
  6
CONTINUOUS
 10
178.074966
 20
309.914718
 11
178.074966
 21
299.414718
  0
LINE
  8
1
 62
7
  6
CONTINUOUS
 10
178.074966
 20
299.414718
 11
167.574966
 21
299.414718
  0
LINE
  8
1
 62
7
  6
CONTINUOUS
 10
185.074966
 20
299.414718
 11
185.074966
 21
309.914718
  0
LINE
  8
1
 62
7
  6
CONTINUOUS
 10
185.074966
 20
309.914718
 11
195.574966
 21
309.914718
  0
LINE
  8
1
 62
7
  6
CONTINUOUS
 10
195.574966
 20
309.914718
 11
195.574966
 21
299.414718
  0
LINE
  8
1
 62
7
  6
CONTINUOUS
 10
195.574966
 20
299.414718
 11
185.074966
 21
299.414718
  0
LINE
  8
1
 62
7
  6
CONTINUOUS
 10
202.574966
 20
299.414718
 11
202.574966
 21
309.914718
  0
LINE
  8
1
 62
7
  6
CONTINUOUS
 10
202.574966
 20
309.914718
 11
213.074966
 21
309.914718
  0
LINE
  8
1
 62
7
  6
CONTINUOUS
 10
213.074966
 20
309.914718
 11
213.074966
 21
299.414718
  0
LINE
  8
1
 62
7
  6
CONTINUOUS
 10
213.074966
 20
299.414718
 11
202.574966
 21
299.414718
  0
DIMENSION
  8
1
 62
7
  6
CONTINUOUS
  2
*D2
 10
131.574966
 20
194.904478
 11
181.574966
 21
194.904478
 70
     0
  1
100
 13
131.574966
 23
224.414718
 14
231.574966
 24
224.414718
 50
0.000000
  0
DIMENSION
  8
1
 62
7
  6
CONTINUOUS
  2
*D3
 10
141.574966
 20
202.265016
 11
181.574966
 21
202.265016
 70
     0
  1
80
 13
141.574966
 23
234.414718
 14
221.574966
 24
234.414718
 50
0.000000
  0
DIMENSION
  8
1
 62
7
  6
CONTINUOUS
  2
*D4
 10
261.876815
 20
228.414718
 11
261.876815
 21
278.414718
 70
     0
  1
100
 13
235.574966
 23
228.414718
 14
235.574966
 24
328.414718
 50
90.000000
  0
DIMENSION
  8
1
 62
7
  6
CONTINUOUS
  2
*D5
 10
254.002751
 20
238.414718
 11
254.002751
 21
278.414718
 70
     0
  1
80
 13
225.574966
 23
238.414718
 14
225.574966
 24
318.414718
 50
90.000000
  0
DIMENSION
  8
1
 62
7
  6
CONTINUOUS
  2
*D6
 10
172.523307
 20
211.101941
 11
181.273307
 21
211.101941
 70
     0
  1
17.5
 13
172.523307
 23
224.414718
 14
190.023307
 24
224.414718
 50
0.000000
  0
DIMENSION
  8
1
 62
7
  6
CONTINUOUS
  2
*D7
 10
245.529574
 20
269.365734
 11
245.529574
 21
278.115734
 70
     0
  1
17.5
 13
235.574966
 23
269.365734
 14
235.574966
 24
286.865734
 50
90.000000
  0
LINE
  8
1
 62
7
  6
CONTINUOUS
 10
457.214580
 20
228.703576
 11
457.214580
 21
328.703576
  0
LINE
  8
1
 62
7
  6
CONTINUOUS
 10
457.214580
 20
328.703576
 11
357.214580
 21
328.703576
  0
LINE
  8
1
 62
7
  6
CONTINUOUS
 10
357.214580
 20
328.703576
 11
357.214580
 21
228.703576
  0
LINE
  8
1
 62
7
  6
CONTINUOUS
 10
357.214580
 20
228.703576
 11
457.214580
 21
228.703576
  0
LINE
  8
1
 62
7
  6
CONTINUOUS
 10
447.214580
 20
318.703576
 11
367.214580
 21
318.703576
  0
LINE
  8
1
 62
7
  6
CONTINUOUS
 10
367.214580
 20
318.703576
 11
367.214580
 21
238.703576
  0
LINE
  8
1
 62
7
  6
CONTINUOUS
 10
367.214580
 20
238.703576
 11
447.214580
 21
238.703576
  0
LINE
  8
1
 62
7
  6
CONTINUOUS
 10
447.214580
 20
238.703576
 11
447.214580
 21
318.703576
  0
LINE
  8
1
 62
7
  6
CONTINUOUS
 10
362.214580
 20
323.703576
 11
362.214580
 21
313.703576
  0
LINE
  8
1
 62
7
  6
CONTINUOUS
 10
362.214580
 20
243.703576
 11
362.214580
 21
233.703576
  0
LINE
  8
1
 62
7
  6
CONTINUOUS
 10
452.214580
 20
323.703576
 11
442.214580
 21
323.703576
  0
LINE
  8
1
 62
7
  6
CONTINUOUS
 10
372.214580
 20
323.703576
 11
362.214580
 21
323.703576
  0
LINE
  8
1
 62
7
  6
CONTINUOUS
 10
452.214580
 20
233.703576
 11
452.214580
 21
243.703576
  0
LINE
  8
1
 62
7
  6
CONTINUOUS
 10
452.214580
 20
313.703576
 11
452.214580
 21
323.703576
  0
LINE
  8
1
 62
7
  6
CONTINUOUS
 10
362.214580
 20
233.703576
 11
372.214580
 21
233.703576
  0
LINE
  8
1
 62
7
  6
CONTINUOUS
 10
442.214580
 20
233.703576
 11
452.214580
 21
233.703576
  0
LINE
  8
1
 62
7
  6
CONTINUOUS
 10
364.214580
 20
314.623771
 11
366.214580
 21
314.623771
  0
LINE
  8
1
 62
7
  6
CONTINUOUS
 10
371.122319
 20
321.703576
 11
371.122319
 21
319.703576
  0
LINE
  8
1
 62
7
  6
CONTINUOUS
 10
372.214580
 20
323.703576
 11
372.214580
 21
321.703576
  0
LINE
  8
1
 62
7
  6
CONTINUOUS
 10
364.214580
 20
321.703576
 11
364.214580
 21
314.623771
  0
LINE
  8
1
 62
7
  6
CONTINUOUS
 10
371.122319
 20
321.703576
 11
364.214580
 21
321.703576
  0
LINE
  8
1
 62
7
  6
CONTINUOUS
 10
364.214580
 20
313.703576
 11
362.214580
 21
313.703576
  0
LINE
  8
1
 62
7
  6
CONTINUOUS
 10
442.214580
 20
321.703576
 11
442.214580
 21
323.703576
  0
LINE
  8
1
 62
7
  6
CONTINUOUS
 10
452.214580
 20
313.703576
 11
450.214580
 21
313.703576
  0
LINE
  8
1
 62
7
  6
CONTINUOUS
 10
443.615059
 20
319.703576
 11
371.122319
 21
319.703576
  0
LINE
  8
1
 62
7
  6
CONTINUOUS
 10
443.615059
 20
321.703576
 11
443.615059
 21
319.703576
  0
LINE
  8
1
 62
7
  6
CONTINUOUS
 10
450.214580
 20
314.966122
 11
448.214580
 21
314.966122
  0
LINE
  8
1
 62
7
  6
CONTINUOUS
 10
450.214580
 20
321.703576
 11
443.615059
 21
321.703576
  0
LINE
  8
1
 62
7
  6
CONTINUOUS
 10
442.214580
 20
321.703576
 11
372.214580
 21
321.703576
  0
LINE
  8
1
 62
7
  6
CONTINUOUS
 10
450.214580
 20
314.966122
 11
450.214580
 21
321.703576
  0
LINE
  8
1
 62
7
  6
CONTINUOUS
 10
448.214580
 20
242.216618
 11
448.214580
 21
314.966122
  0
LINE
  8
1
 62
7
  6
CONTINUOUS
 10
450.214580
 20
242.216618
 11
448.214580
 21
242.216618
  0
LINE
  8
1
 62
7
  6
CONTINUOUS
 10
366.214580
 20
314.623771
 11
366.214580
 21
242.216618
  0
LINE
  8
1
 62
7
  6
CONTINUOUS
 10
364.214580
 20
242.216618
 11
366.214580
 21
242.216618
  0
LINE
  8
1
 62
7
  6
CONTINUOUS
 10
362.214580
 20
243.703576
 11
364.214580
 21
243.703576
  0
LINE
  8
1
 62
7
  6
CONTINUOUS
 10
450.214580
 20
243.703576
 11
452.214580
 21
243.703576
  0
LINE
  8
1
 62
7
  6
CONTINUOUS
 10
364.214580
 20
242.216618
 11
364.214580
 21
235.703576
  0
LINE
  8
1
 62
7
  6
CONTINUOUS
 10
364.214580
 20
235.703576
 11
370.694381
 21
235.703576
  0
LINE
  8
1
 62
7
  6
CONTINUOUS
 10
372.214580
 20
235.703576
 11
442.214580
 21
235.703576
  0
LINE
  8
1
 62
7
  6
CONTINUOUS
 10
443.957410
 20
235.703576
 11
450.214580
 21
235.703576
  0
LINE
  8
1
 62
7
  6
CONTINUOUS
 10
450.214580
 20
235.703576
 11
450.214580
 21
242.216618
  0
LINE
  8
1
 62
7
  6
CONTINUOUS
 10
442.214580
 20
233.703576
 11
442.214580
 21
235.703576
  0
LINE
  8
1
 62
7
  6
CONTINUOUS
 10
372.214580
 20
235.703576
 11
372.214580
 21
233.703576
  0
LINE
  8
1
 62
7
  6
CONTINUOUS
 10
370.694381
 20
235.703576
 11
370.694381
 21
237.703576
  0
LINE
  8
1
 62
7
  6
CONTINUOUS
 10
370.694381
 20
237.703576
 11
443.957410
 21
237.703576
  0
LINE
  8
1
 62
7
  6
CONTINUOUS
 10
443.957410
 20
235.703576
 11
443.957410
 21
237.703576
  0
CIRCLE
  8
1
 62
7
  6
CONTINUOUS
 10
371.714580
 20
314.203576
 40
2.500000
  0
CIRCLE
  8
1
 62
7
  6
CONTINUOUS
 10
442.714580
 20
314.203576
 40
2.500000
  0
CIRCLE
  8
1
 62
7
  6
CONTINUOUS
 10
442.714580
 20
243.203576
 40
2.500000
  0
CIRCLE
  8
1
 62
7
  6
CONTINUOUS
 10
371.714580
 20
243.203576
 40
2.500000
  0
LINE
  8
1
 62
7
  6
CONTINUOUS
 10
370.102400
 20
243.203576
 11
373.354730
 21
243.203576
  0
LINE
  8
1
 62
7
  6
CONTINUOUS
 10
371.714580
 20
244.884100
 11
371.714580
 21
241.745886
  0
LINE
  8
1
 62
7
  6
CONTINUOUS
 10
441.311325
 20
243.203576
 11
444.335422
 21
243.203576
  0
LINE
  8
1
 62
7
  6
CONTINUOUS
 10
442.714580
 20
241.574711
 11
442.714580
 21
244.827042
  0
LINE
  8
1
 62
7
  6
CONTINUOUS
 10
442.714580
 20
312.783636
 11
442.714580
 21
315.693617
  0
LINE
  8
1
 62
7
  6
CONTINUOUS
 10
444.107188
 20
314.203576
 11
441.311325
 21
314.203576
  0
LINE
  8
1
 62
7
  6
CONTINUOUS
 10
371.714580
 20
315.636558
 11
371.714580
 21
312.783636
  0
LINE
  8
1
 62
7
  6
CONTINUOUS
 10
373.069438
 20
314.203576
 11
370.216516
 21
314.203576
  0
CIRCLE
  8
1
 62
7
  6
CONTINUOUS
 10
400.864580
 20
242.703576
 40
0.500000
  0
LINE
  8
1
 62
7
  6
CONTINUOUS
 10
400.055613
 20
242.703576
 11
400.055613
 21
238.703576
  0
LINE
  8
1
 62
7
  6
CONTINUOUS
 10
401.673548
 20
242.703576
 11
401.673548
 21
238.703576
  0
ARC
  8
1
 62
7
  6
CONTINUOUS
 10
400.864580
 20
242.703576
 40
0.808968
 50
0.000000
 51
180.000000
  0
CIRCLE
  8
1
 62
7
  6
CONTINUOUS
 10
398.324580
 20
242.703576
 40
0.500000
  0
LINE
  8
1
 62
7
  6
CONTINUOUS
 10
397.515613
 20
242.703576
 11
397.515613
 21
238.703576
  0
LINE
  8
1
 62
7
  6
CONTINUOUS
 10
399.133548
 20
242.703576
 11
399.133548
 21
238.703576
  0
ARC
  8
1
 62
7
  6
CONTINUOUS
 10
398.324580
 20
242.703576
 40
0.808968
 50
0.000000
 51
180.000000
  0
CIRCLE
  8
1
 62
7
  6
CONTINUOUS
 10
403.404580
 20
242.703576
 40
0.500000
  0
LINE
  8
1
 62
7
  6
CONTINUOUS
 10
402.595613
 20
242.703576
 11
402.595613
 21
238.703576
  0
LINE
  8
1
 62
7
  6
CONTINUOUS
 10
404.213548
 20
242.703576
 11
404.213548
 21
238.703576
  0
ARC
  8
1
 62
7
  6
CONTINUOUS
 10
403.404580
 20
242.703576
 40
0.808968
 50
0.000000
 51
180.000000
  0
CIRCLE
  8
1
 62
7
  6
CONTINUOUS
 10
405.944580
 20
242.703576
 40
0.500000
  0
LINE
  8
1
 62
7
  6
CONTINUOUS
 10
405.135613
 20
242.703576
 11
405.135613
 21
238.703576
  0
LINE
  8
1
 62
7
  6
CONTINUOUS
 10
406.753548
 20
242.703576
 11
406.753548
 21
238.703576
  0
ARC
  8
1
 62
7
  6
CONTINUOUS
 10
405.944580
 20
242.703576
 40
0.808968
 50
0.000000
 51
180.000000
  0
CIRCLE
  8
1
 62
7
  6
CONTINUOUS
 10
408.484580
 20
242.703576
 40
0.500000
  0
LINE
  8
1
 62
7
  6
CONTINUOUS
 10
407.675613
 20
242.703576
 11
407.675613
 21
238.703576
  0
LINE
  8
1
 62
7
  6
CONTINUOUS
 10
409.293548
 20
242.703576
 11
409.293548
 21
238.703576
  0
ARC
  8
1
 62
7
  6
CONTINUOUS
 10
408.484580
 20
242.703576
 40
0.808968
 50
0.000000
 51
180.000000
  0
CIRCLE
  8
1
 62
7
  6
CONTINUOUS
 10
411.024580
 20
242.703576
 40
0.500000
  0
LINE
  8
1
 62
7
  6
CONTINUOUS
 10
410.215613
 20
242.703576
 11
410.215613
 21
238.703576
  0
LINE
  8
1
 62
7
  6
CONTINUOUS
 10
411.833548
 20
242.703576
 11
411.833548
 21
238.703576
  0
ARC
  8
1
 62
7
  6
CONTINUOUS
 10
411.024580
 20
242.703576
 40
0.808968
 50
0.000000
 51
180.000000
  0
CIRCLE
  8
1
 62
7
  6
CONTINUOUS
 10
413.564580
 20
242.703576
 40
0.500000
  0
LINE
  8
1
 62
7
  6
CONTINUOUS
 10
412.755613
 20
242.703576
 11
412.755613
 21
238.703576
  0
LINE
  8
1
 62
7
  6
CONTINUOUS
 10
414.373548
 20
242.703576
 11
414.373548
 21
238.703576
  0
ARC
  8
1
 62
7
  6
CONTINUOUS
 10
413.564580
 20
242.703576
 40
0.808968
 50
0.000000
 51
180.000000
  0
CIRCLE
  8
1
 62
7
  6
CONTINUOUS
 10
416.104580
 20
242.703576
 40
0.500000
  0
LINE
  8
1
 62
7
  6
CONTINUOUS
 10
415.295613
 20
242.703576
 11
415.295613
 21
238.703576
  0
LINE
  8
1
 62
7
  6
CONTINUOUS
 10
416.913548
 20
242.703576
 11
416.913548
 21
238.703576
  0
ARC
  8
1
 62
7
  6
CONTINUOUS
 10
416.104580
 20
242.703576
 40
0.808968
 50
0.000000
 51
180.000000
  0
TEXT
  8
1
 62
7
  6
CONTINUOUS
 10
417.558375
 20
243.072099
 40
2.000000
 41
0.500000
  1
1
  7
KANJI
 50
0.000000
 51
0.000000
  0
TEXT
  8
1
 62
7
  6
CONTINUOUS
 10
395.733524
 20
242.729748
 40
2.000000
 41
0.500000
  1
8
  7
KANJI
 50
0.000000
 51
0.000000
  0
TEXT
  8
1
 62
7
  6
CONTINUOUS
 10
416.276937
 20
312.968363
 40
3.000000
 41
0.500000
  1
MODEL.
  7
KANJI
 50
0.000000
 51
0.000000
  0
TEXT
  8
1
 62
7
  6
CONTINUOUS
 10
426.825615
 20
313.079627
 40
3.000000
 41
0.500000
  1
S-41
  7
KANJI
 50
0.000000
 51
0.000000
  0
CIRCLE
  8
1
 62
7
  6
CONTINUOUS
 10
407.718172
 20
278.951551
 40
2.500000
  0
LINE
  8
1
 62
7
  6
CONTINUOUS
 10
407.718172
 20
280.384533
 11
407.718172
 21
277.531611
  0
LINE
  8
1
 62
7
  6
CONTINUOUS
 10
409.073030
 20
278.951551
 11
406.220108
 21
278.951551
  0
LINE
  8
1
 62
7
  6
CONTINUOUS
 10
364.214580
 20
306.360996
 11
366.214580
 21
306.360996
  0
LINE
  8
1
 62
7
  6
CONTINUOUS
 10
448.214580
 20
306.360996
 11
450.214580
 21
306.360996
  0
LINE
  8
1
 62
7
  6
CONTINUOUS
 10
364.214580
 20
292.367416
 11
366.214580
 21
292.367416
  0
LINE
  8
1
 62
7
  6
CONTINUOUS
 10
448.214580
 20
292.367416
 11
450.214580
 21
292.367416
  0
LINE
  8
1
 62
7
  6
CONTINUOUS
 10
364.214580
 20
265.792450
 11
366.214580
 21
265.792450
  0
LINE
  8
1
 62
7
  6
CONTINUOUS
 10
448.214580
 20
265.792450
 11
450.214580
 21
265.792450
  0
LINE
  8
1
 62
7
  6
CONTINUOUS
 10
364.214580
 20
251.798869
 11
366.214580
 21
251.798869
  0
LINE
  8
1
 62
7
  6
CONTINUOUS
 10
448.214580
 20
251.798869
 11
450.214580
 21
251.798869
  0
LINE
  8
1
 62
7
  6
CONTINUOUS
 10
364.214580
 20
313.703576
 11
364.214580
 21
304.756228
  0
LINE
  8
1
 62
7
  6
CONTINUOUS
 10
364.214580
 20
294.164756
 11
364.214580
 21
263.738346
  0
LINE
  8
1
 62
7
  6
CONTINUOUS
 10
364.214580
 20
253.146875
 11
364.214580
 21
243.703576
  0
LINE
  8
1
 62
7
  6
CONTINUOUS
 10
450.214580
 20
304.756228
 11
450.214580
 21
313.703576
  0
LINE
  8
1
 62
7
  6
CONTINUOUS
 10
450.214580
 20
243.703576
 11
450.214580
 21
253.146875
  0
LINE
  8
1
 62
7
  6
CONTINUOUS
 10
450.214580
 20
263.738346
 11
450.214580
 21
294.164756
  0
LINE
  8
1
 62
7
  6
CONTINUOUS
 10
364.214580
 20
294.164756
 11
360.686230
 21
294.164756
  0
LINE
  8
1
 62
7
  6
CONTINUOUS
 10
360.686230
 20
294.164756
 11
360.686230
 21
304.756228
  0
LINE
  8
1
 62
7
  6
CONTINUOUS
 10
360.686230
 20
304.756228
 11
364.214580
 21
304.756228
  0
LINE
  8
1
 62
7
  6
CONTINUOUS
 10
364.214580
 20
253.146875
 11
360.686230
 21
253.146875
  0
LINE
  8
1
 62
7
  6
CONTINUOUS
 10
360.686230
 20
253.146875
 11
360.686230
 21
263.738346
  0
LINE
  8
1
 62
7
  6
CONTINUOUS
 10
360.686230
 20
263.738346
 11
364.214580
 21
263.738346
  0
LINE
  8
1
 62
7
  6
CONTINUOUS
 10
450.214580
 20
253.146875
 11
453.742931
 21
253.146875
  0
LINE
  8
1
 62
7
  6
CONTINUOUS
 10
453.742931
 20
253.146875
 11
453.742931
 21
263.738346
  0
LINE
  8
1
 62
7
  6
CONTINUOUS
 10
453.742931
 20
263.738346
 11
450.214580
 21
263.738346
  0
LINE
  8
1
 62
7
  6
CONTINUOUS
 10
450.214580
 20
294.164756
 11
453.742931
 21
294.164756
  0
LINE
  8
1
 62
7
  6
CONTINUOUS
 10
453.742931
 20
294.164756
 11
453.742931
 21
304.756228
  0
LINE
  8
1
 62
7
  6
CONTINUOUS
 10
453.742931
 20
304.756228
 11
450.214580
 21
304.756228
  0
LINE
  8
1
 62
7
  6
CONTINUOUS
 10
299.574966
 20
328.414718
 11
299.574966
 21
228.414718
  0
LINE
  8
1
 62
7
  6
CONTINUOUS
 10
296.574966
 20
319.914718
 11
296.574966
 21
236.914718
  0
LINE
  8
1
 62
7
  6
CONTINUOUS
 10
299.574966
 20
323.703576
 11
309.574966
 21
323.703576
  0
LINE
  8
1
 62
7
  6
CONTINUOUS
 10
309.574966
 20
323.703576
 11
309.574966
 21
233.703576
  0
LINE
  8
1
 62
7
  6
CONTINUOUS
 10
299.574966
 20
233.703576
 11
309.574966
 21
233.703576
  0
LINE
  8
1
 62
7
  6
CONTINUOUS
 10
299.574966
 20
313.703576
 11
309.574966
 21
313.703576
  0
LINE
  8
1
 62
7
  6
CONTINUOUS
 10
299.574966
 20
304.756228
 11
309.574966
 21
304.756228
  0
LINE
  8
1
 62
7
  6
CONTINUOUS
 10
299.574966
 20
294.164756
 11
309.574966
 21
294.164756
  0
LINE
  8
1
 62
7
  6
CONTINUOUS
 10
299.574966
 20
263.738346
 11
309.574966
 21
263.738346
  0
LINE
  8
1
 62
7
  6
CONTINUOUS
 10
299.574966
 20
253.146875
 11
309.574966
 21
253.146875
  0
LINE
  8
1
 62
7
  6
CONTINUOUS
 10
299.574966
 20
243.703576
 11
309.574966
 21
243.703576
  0
LINE
  8
1
 62
7
  6
CONTINUOUS
 10
303.516735
 20
304.756228
 11
303.516735
 21
294.164756
  0
LINE
  8
1
 62
7
  6
CONTINUOUS
 10
303.516735
 20
263.738346
 11
303.516735
 21
253.146875
  0
LINE
  8
1
 62
7
  6
CONTINUOUS
 10
302.921848
 20
304.756228
 11
302.921848
 21
294.164756
  0
LINE
  8
1
 62
7
  6
CONTINUOUS
 10
302.921848
 20
263.738346
 11
302.921848
 21
253.146875
  0
LINE
  8
1
 62
7
  6
CONTINUOUS
 10
302.290684
 20
304.756228
 11
302.290684
 21
294.164756
  0
LINE
  8
1
 62
7
  6
CONTINUOUS
 10
302.290684
 20
263.738346
 11
302.290684
 21
253.146875
  0
LINE
  8
1
 62
7
  6
CONTINUOUS
 10
301.636977
 20
304.756228
 11
301.636977
 21
294.164756
  0
LINE
  8
1
 62
7
  6
CONTINUOUS
 10
301.636977
 20
263.738346
 11
301.636977
 21
253.146875
  0
LINE
  8
1
 62
7
  6
CONTINUOUS
 10
300.938187
 20
304.756228
 11
300.938187
 21
294.164756
  0
LINE
  8
1
 62
7
  6
CONTINUOUS
 10
300.938187
 20
263.738346
 11
300.938187
 21
253.146875
  0
LINE
  8
1
 62
7
  6
CONTINUOUS
 10
300.374647
 20
304.756228
 11
300.374647
 21
294.164756
  0
LINE
  8
1
 62
7
  6
CONTINUOUS
 10
300.374647
 20
263.738346
 11
300.374647
 21
253.146875
  0
LINE
  8
1
 62
7
  6
CONTINUOUS
 10
299.574966
 20
228.414718
 11
299.490632
 21
228.414718
  0
LINE
  8
1
 62
7
  6
CONTINUOUS
 10
296.574966
 20
236.914718
 11
299.490632
 21
228.414718
  0
LINE
  8
1
 62
7
  6
CONTINUOUS
 10
299.574966
 20
328.414718
 11
299.510332
 21
328.414718
  0
LINE
  8
1
 62
7
  6
CONTINUOUS
 10
296.574966
 20
319.914718
 11
299.510332
 21
328.414718
  0
DIMENSION
  8
1
 62
7
  6
CONTINUOUS
  2
*D8
 10
296.574966
 20
200.275103
 11
303.074966
 21
200.275103
 70
     0
  1
13
 13
296.574966
 23
232.914718
 14
309.574966
 24
229.703576
 50
0.000000
  0
DIMENSION
  8
1
 62
7
  6
CONTINUOUS
  2
*D9
 10
296.574966
 20
209.689745
 11
298.074966
 21
209.689745
 70
     0
  1
3
 13
296.574966
 23
232.914718
 14
299.574966
 24
224.414718
 50
0.000000
  0
DIMENSION
  8
1
 62
7
  6
CONTINUOUS
  2
*D10
 10
362.214580
 20
204.811249
 11
407.214580
 21
204.811249
 70
     0
  1
90
 13
362.214580
 23
229.703576
 14
452.214580
 24
229.703576
 50
0.000000
  0
DIMENSION
  8
1
 62
7
  6
CONTINUOUS
  2
*D11
 10
483.778083
 20
233.703576
 11
483.778083
 21
278.703576
 70
     0
  1
90
 13
456.214580
 23
233.703576
 14
456.214580
 24
323.703576
 50
90.000000
  0
CIRCLE
  8
1
 62
7
  6
CONTINUOUS
 10
395.209216
 20
173.632737
 40
1.000000
  0
LINE
  8
1
 62
7
  6
CONTINUOUS
 10
393.591281
 20
173.632737
 11
393.591281
 21
165.632737
  0
LINE
  8
1
 62
7
  6
CONTINUOUS
 10
396.827151
 20
173.632737
 11
396.827151
 21
165.632737
  0
ARC
  8
1
 62
7
  6
CONTINUOUS
 10
395.209216
 20
173.632737
 40
1.617935
 50
0.000000
 51
180.000000
  0
CIRCLE
  8
1
 62
7
  6
CONTINUOUS
 10
390.129216
 20
173.632737
 40
1.000000
  0
LINE
  8
1
 62
7
  6
CONTINUOUS
 10
388.511281
 20
173.632737
 11
388.511281
 21
165.632737
  0
LINE
  8
1
 62
7
  6
CONTINUOUS
 10
391.747151
 20
173.632737
 11
391.747151
 21
165.632737
  0
ARC
  8
1
 62
7
  6
CONTINUOUS
 10
390.129216
 20
173.632737
 40
1.617935
 50
0.000000
 51
180.000000
  0
CIRCLE
  8
1
 62
7
  6
CONTINUOUS
 10
400.289216
 20
173.632737
 40
1.000000
  0
LINE
  8
1
 62
7
  6
CONTINUOUS
 10
398.671281
 20
173.632737
 11
398.671281
 21
165.632737
  0
LINE
  8
1
 62
7
  6
CONTINUOUS
 10
401.907151
 20
173.632737
 11
401.907151
 21
165.632737
  0
ARC
  8
1
 62
7
  6
CONTINUOUS
 10
400.289216
 20
173.632737
 40
1.617935
 50
0.000000
 51
180.000000
  0
CIRCLE
  8
1
 62
7
  6
CONTINUOUS
 10
405.369216
 20
173.632737
 40
1.000000
  0
LINE
  8
1
 62
7
  6
CONTINUOUS
 10
403.751281
 20
173.632737
 11
403.751281
 21
165.632737
  0
LINE
  8
1
 62
7
  6
CONTINUOUS
 10
406.987151
 20
173.632737
 11
406.987151
 21
165.632737
  0
ARC
  8
1
 62
7
  6
CONTINUOUS
 10
405.369216
 20
173.632737
 40
1.617935
 50
0.000000
 51
180.000000
  0
CIRCLE
  8
1
 62
7
  6
CONTINUOUS
 10
410.449216
 20
173.632737
 40
1.000000
  0
LINE
  8
1
 62
7
  6
CONTINUOUS
 10
408.831281
 20
173.632737
 11
408.831281
 21
165.632737
  0
LINE
  8
1
 62
7
  6
CONTINUOUS
 10
412.067151
 20
173.632737
 11
412.067151
 21
165.632737
  0
ARC
  8
1
 62
7
  6
CONTINUOUS
 10
410.449216
 20
173.632737
 40
1.617935
 50
0.000000
 51
180.000000
  0
CIRCLE
  8
1
 62
7
  6
CONTINUOUS
 10
415.529216
 20
173.632737
 40
1.000000
  0
LINE
  8
1
 62
7
  6
CONTINUOUS
 10
413.911281
 20
173.632737
 11
413.911281
 21
165.632737
  0
LINE
  8
1
 62
7
  6
CONTINUOUS
 10
417.147151
 20
173.632737
 11
417.147151
 21
165.632737
  0
ARC
  8
1
 62
7
  6
CONTINUOUS
 10
415.529216
 20
173.632737
 40
1.617935
 50
0.000000
 51
180.000000
  0
CIRCLE
  8
1
 62
7
  6
CONTINUOUS
 10
420.609216
 20
173.632737
 40
1.000000
  0
LINE
  8
1
 62
7
  6
CONTINUOUS
 10
418.991281
 20
173.632737
 11
418.991281
 21
165.632737
  0
LINE
  8
1
 62
7
  6
CONTINUOUS
 10
422.227151
 20
173.632737
 11
422.227151
 21
165.632737
  0
ARC
  8
1
 62
7
  6
CONTINUOUS
 10
420.609216
 20
173.632737
 40
1.617935
 50
0.000000
 51
180.000000
  0
CIRCLE
  8
1
 62
7
  6
CONTINUOUS
 10
425.689216
 20
173.632737
 40
1.000000
  0
LINE
  8
1
 62
7
  6
CONTINUOUS
 10
424.071281
 20
173.632737
 11
424.071281
 21
165.632737
  0
LINE
  8
1
 62
7
  6
CONTINUOUS
 10
427.307151
 20
173.632737
 11
427.307151
 21
165.632737
  0
ARC
  8
1
 62
7
  6
CONTINUOUS
 10
425.689216
 20
173.632737
 40
1.617935
 50
0.000000
 51
180.000000
  0
TEXT
  8
1
 62
7
  6
CONTINUOUS
 10
428.596804
 20
174.369782
 40
4.000000
 41
0.500000
  1
1
  7
KANJI
 50
0.000000
 51
0.000000
  0
TEXT
  8
1
 62
7
  6
CONTINUOUS
 10
384.947102
 20
173.685080
 40
4.000000
 41
0.500000
  1
8
  7
KANJI
 50
0.000000
 51
0.000000
  0
LINE
  8
1
 62
7
  6
CONTINUOUS
 10
369.289317
 20
165.632737
 11
447.345254
 21
165.632737
  0
DIMENSION
  8
1
 62
7
  6
CONTINUOUS
  2
*D12
 10
390.115645
 20
151.925213
 11
392.683275
 21
151.925213
 70
     0
  1
2.54
 13
390.115645
 23
160.363951
 14
395.250904
 24
160.363951
 50
0.000000
  0
LINE
  8
1
 62
7
  6
CONTINUOUS
 10
410.449216
 20
174.632737
 11
415.906057
 21
185.019104
  0
LINE
  8
1
 62
7
  6
CONTINUOUS
 10
415.906057
 20
185.019104
 11
433.290692
 21
185.019104
  0
TEXT
  8
1
 62
7
  6
CONTINUOUS
 10
419.290692
 20
185.133221
 40
4.000000
 41
0.583333
  1
8-φ1.0
  7
KANJI
 50
0.000000
 51
30.000000
  0
LINE
  8
1
 62
7
  6
CONTINUOUS
 10
410.449216
 20
174.632737
 11
412.210269
 21
182.436499
  0
LINE
  8
1
 62
7
  6
CONTINUOUS
 10
410.449216
 20
174.632737
 11
415.876213
 21
180.510467
  0
LINE
  8
1
 62
7
  6
CONTINUOUS
 10
231.574966
 20
165.414718
 11
131.574966
 21
165.414718
  0
LINE
  8
1
 62
7
  6
CONTINUOUS
 10
136.574966
 20
155.414718
 11
136.574966
 21
165.414718
  0
LINE
  8
1
 62
7
  6
CONTINUOUS
 10
226.574966
 20
155.414718
 11
226.574966
 21
165.414718
  0
LINE
  8
1
 62
7
  6
CONTINUOUS
 10
131.574966
 20
165.871245
 11
140.074966
 21
168.414718
  0
LINE
  8
1
 62
7
  6
CONTINUOUS
 10
231.574966
 20
165.972682
 11
223.074966
 21
168.414718
  0
LINE
  8
1
 62
7
  6
CONTINUOUS
 10
223.074966
 20
168.414718
 11
140.074966
 21
168.414718
  0
LINE
  8
1
 62
7
  6
CONTINUOUS
 10
226.574966
 20
155.414718
 11
136.574966
 21
155.414718
  0
LINE
  8
1
 62
7
  6
CONTINUOUS
 10
231.574966
 20
165.414718
 11
231.574966
 21
165.972682
  0
LINE
  8
1
 62
7
  6
CONTINUOUS
 10
131.574966
 20
165.414718
 11
131.574966
 21
165.871245
  0
LINE
  8
1
 62
7
  6
CONTINUOUS
 10
136.243024
 20
164.157589
 11
136.243024
 21
165.357589
  0
LINE
  8
1
 62
7
  6
CONTINUOUS
 10
125.028136
 20
166.458370
 11
122.503476
 21
163.009505
  0
LINE
  8
1
 62
7
  6
CONTINUOUS
 10
136.243024
 20
164.157589
 11
123.240728
 21
164.157589
  0
LINE
  8
1
 62
7
  6
CONTINUOUS
 10
136.243024
 20
165.357589
 11
124.222335
 21
165.357589
  0
LINE
  8
1
 62
7
  6
CONTINUOUS
 10
135.873317
 20
164.157589
 11
136.243024
 21
164.527295
  0
LINE
  8
1
 62
7
  6
CONTINUOUS
 10
134.459104
 20
164.157589
 11
135.659104
 21
165.357589
  0
LINE
  8
1
 62
7
  6
CONTINUOUS
 10
133.044890
 20
164.157589
 11
134.244890
 21
165.357589
  0
LINE
  8
1
 62
7
  6
CONTINUOUS
 10
131.630677
 20
164.157589
 11
132.830677
 21
165.357589
  0
LINE
  8
1
 62
7
  6
CONTINUOUS
 10
130.216463
 20
164.157589
 11
131.416463
 21
165.357589
  0
LINE
  8
1
 62
7
  6
CONTINUOUS
 10
128.802250
 20
164.157589
 11
130.002250
 21
165.357589
  0
LINE
  8
1
 62
7
  6
CONTINUOUS
 10
127.388036
 20
164.157589
 11
128.588036
 21
165.357589
  0
LINE
  8
1
 62
7
  6
CONTINUOUS
 10
125.973822
 20
164.157589
 11
127.173822
 21
165.357589
  0
LINE
  8
1
 62
7
  6
CONTINUOUS
 10
124.559609
 20
164.157589
 11
125.759609
 21
165.357589
  0
LINE
  8
1
 62
7
  6
CONTINUOUS
 10
123.886169
 20
164.898363
 11
124.345395
 21
165.357589
  0
LINE
  8
1
 62
7
  6
CONTINUOUS
 10
226.906907
 20
164.157589
 11
226.906907
 21
165.357589
  0
LINE
  8
1
 62
7
  6
CONTINUOUS
 10
238.121796
 20
166.458370
 11
240.646455
 21
163.009505
  0
LINE
  8
1
 62
7
  6
CONTINUOUS
 10
226.906907
 20
164.157589
 11
239.909204
 21
164.157589
  0
LINE
  8
1
 62
7
  6
CONTINUOUS
 10
226.906907
 20
165.357589
 11
238.927597
 21
165.357589
  0
LINE
  8
1
 62
7
  6
CONTINUOUS
 10
239.110907
 20
164.157589
 11
239.512241
 21
164.558922
  0
LINE
  8
1
 62
7
  6
CONTINUOUS
 10
237.696694
 20
164.157589
 11
238.896694
 21
165.357589
  0
LINE
  8
1
 62
7
  6
CONTINUOUS
 10
236.282480
 20
164.157589
 11
237.482480
 21
165.357589
  0
LINE
  8
1
 62
7
  6
CONTINUOUS
 10
234.868267
 20
164.157589
 11
236.068267
 21
165.357589
  0
LINE
  8
1
 62
7
  6
CONTINUOUS
 10
233.454053
 20
164.157589
 11
234.654053
 21
165.357589
  0
LINE
  8
1
 62
7
  6
CONTINUOUS
 10
232.039840
 20
164.157589
 11
233.239840
 21
165.357589
  0
LINE
  8
1
 62
7
  6
CONTINUOUS
 10
230.625626
 20
164.157589
 11
231.825626
 21
165.357589
  0
LINE
  8
1
 62
7
  6
CONTINUOUS
 10
229.211412
 20
164.157589
 11
230.411412
 21
165.357589
  0
LINE
  8
1
 62
7
  6
CONTINUOUS
 10
227.797199
 20
164.157589
 11
228.997199
 21
165.357589
  0
LINE
  8
1
 62
7
  6
CONTINUOUS
 10
226.906907
 20
164.681510
 11
227.582985
 21
165.357589
  0
LINE
  8
1
 62
7
  6
CONTINUOUS
 10
135.264946
 20
162.769896
 11
136.574966
 21
157.495161
  0
LINE
  8
1
 62
7
  6
CONTINUOUS
 10
136.423785
 20
164.654247
 11
136.423785
 21
164.387882
  0
LINE
  8
1
 62
7
  6
CONTINUOUS
 10
136.423785
 20
164.387882
 11
136.259976
 21
164.387882
  0
LINE
  8
1
 62
7
  6
CONTINUOUS
 10
136.259976
 20
164.387882
 11
136.259976
 21
164.137420
  0
LINE
  8
1
 62
7
  6
CONTINUOUS
 10
136.259976
 20
164.137420
 11
136.105946
 21
164.137420
  0
LINE
  8
1
 62
7
  6
CONTINUOUS
 10
136.105946
 20
164.137420
 11
136.105946
 21
163.856902
  0
LINE
  8
1
 62
7
  6
CONTINUOUS
 10
136.105946
 20
163.856902
 11
135.933433
 21
163.856902
  0
LINE
  8
1
 62
7
  6
CONTINUOUS
 10
135.933433
 20
163.856902
 11
135.933433
 21
163.546329
  0
LINE
  8
1
 62
7
  6
CONTINUOUS
 10
135.933433
 20
163.546329
 11
135.742437
 21
163.546329
  0
LINE
  8
1
 62
7
  6
CONTINUOUS
 10
136.574966
 20
164.900078
 11
136.423785
 21
164.654247
  0
LINE
  8
1
 62
7
  6
CONTINUOUS
 10
135.742437
 20
163.546329
 11
135.264946
 21
162.769896
  0
LINE
  8
1
 62
7
  6
CONTINUOUS
 10
227.883922
 20
162.746774
 11
226.571268
 21
157.472694
  0
LINE
  8
1
 62
7
  6
CONTINUOUS
 10
226.726024
 20
164.631703
 11
226.725891
 21
164.365339
  0
LINE
  8
1
 62
7
  6
CONTINUOUS
 10
226.725891
 20
164.365339
 11
226.889700
 21
164.365257
  0
LINE
  8
1
 62
7
  6
CONTINUOUS
 10
226.889700
 20
164.365257
 11
226.889575
 21
164.114795
  0
LINE
  8
1
 62
7
  6
CONTINUOUS
 10
226.889575
 20
164.114795
 11
227.043604
 21
164.114718
  0
LINE
  8
1
 62
7
  6
CONTINUOUS
 10
227.043604
 20
164.114718
 11
227.043464
 21
163.834200
  0
LINE
  8
1
 62
7
  6
CONTINUOUS
 10
227.043464
 20
163.834200
 11
227.215977
 21
163.834114
  0
LINE
  8
1
 62
7
  6
CONTINUOUS
 10
227.215977
 20
163.834114
 11
227.215822
 21
163.523541
  0
LINE
  8
1
 62
7
  6
CONTINUOUS
 10
227.215822
 20
163.523541
 11
227.406818
 21
163.523445
  0
LINE
  8
1
 62
7
  6
CONTINUOUS
 10
226.574966
 20
164.877609
 11
226.726024
 21
164.631703
  0
LINE
  8
1
 62
7
  6
CONTINUOUS
 10
227.406818
 20
163.523445
 11
227.883922
 21
162.746774
  0
TEXT
  8
1
 62
7
  6
CONTINUOUS
 10
445.419532
 20
20.220083
 40
8.000000
 41
0.875000
  1
スタンダードキーボード　S-41
  7
KANJI
 50
0.000000
 51
0.000000
  0
CIRCLE
  8
1
 62
7
  6
CONTINUOUS
 10
268.682256
 20
102.833563
 40
4.000000
  0
CIRCLE
  8
1
 62
7
  6
CONTINUOUS
 10
278.682256
 20
102.833563
 40
4.000000
  0
CIRCLE
  8
1
 62
7
  6
CONTINUOUS
 10
288.682256
 20
102.833563
 40
4.000000
  0
CIRCLE
  8
1
 62
7
  6
CONTINUOUS
 10
298.682256
 20
102.833563
 40
4.000000
  0
CIRCLE
  8
1
 62
7
  6
CONTINUOUS
 10
268.682256
 20
112.833563
 40
4.000000
  0
CIRCLE
  8
1
 62
7
  6
CONTINUOUS
 10
278.682256
 20
112.833563
 40
4.000000
  0
CIRCLE
  8
1
 62
7
  6
CONTINUOUS
 10
288.682256
 20
112.833563
 40
4.000000
  0
CIRCLE
  8
1
 62
7
  6
CONTINUOUS
 10
298.682256
 20
112.833563
 40
4.000000
  0
CIRCLE
  8
1
 62
7
  6
CONTINUOUS
 10
268.682256
 20
122.833563
 40
4.000000
  0
CIRCLE
  8
1
 62
7
  6
CONTINUOUS
 10
278.682256
 20
122.833563
 40
4.000000
  0
CIRCLE
  8
1
 62
7
  6
CONTINUOUS
 10
288.682256
 20
122.833563
 40
4.000000
  0
CIRCLE
  8
1
 62
7
  6
CONTINUOUS
 10
298.682256
 20
122.833563
 40
4.000000
  0
CIRCLE
  8
1
 62
7
  6
CONTINUOUS
 10
268.682256
 20
132.833563
 40
4.000000
  0
CIRCLE
  8
1
 62
7
  6
CONTINUOUS
 10
278.682256
 20
132.833563
 40
4.000000
  0
CIRCLE
  8
1
 62
7
  6
CONTINUOUS
 10
288.682256
 20
132.833563
 40
4.000000
  0
CIRCLE
  8
1
 62
7
  6
CONTINUOUS
 10
298.682256
 20
132.833563
 40
4.000000
  0
LINE
  8
1
 62
7
  6
CONTINUOUS
 10
272.682256
 20
132.833563
 11
274.682256
 21
132.833563
  0
LINE
  8
1
 62
7
  6
CONTINUOUS
 10
282.446288
 20
132.833563
 11
284.682256
 21
132.833563
  0
LINE
  8
1
 62
7
  6
CONTINUOUS
 10
292.682256
 20
132.833563
 11
294.682256
 21
132.833563
  0
LINE
  8
1
 62
7
  6
CONTINUOUS
 10
272.682256
 20
122.833563
 11
274.682256
 21
122.833563
  0
LINE
  8
1
 62
7
  6
CONTINUOUS
 10
282.682256
 20
122.833563
 11
284.682256
 21
122.833563
  0
LINE
  8
1
 62
7
  6
CONTINUOUS
 10
292.682256
 20
122.833563
 11
294.682256
 21
122.833563
  0
LINE
  8
1
 62
7
  6
CONTINUOUS
 10
272.682256
 20
112.833563
 11
274.682256
 21
112.833563
  0
LINE
  8
1
 62
7
  6
CONTINUOUS
 10
282.682256
 20
112.833563
 11
284.682256
 21
112.833563
  0
LINE
  8
1
 62
7
  6
CONTINUOUS
 10
292.682256
 20
112.833563
 11
294.682256
 21
112.833563
  0
LINE
  8
1
 62
7
  6
CONTINUOUS
 10
272.682256
 20
102.833563
 11
274.682256
 21
102.833563
  0
LINE
  8
1
 62
7
  6
CONTINUOUS
 10
282.682256
 20
102.833563
 11
284.682256
 21
102.833563
  0
LINE
  8
1
 62
7
  6
CONTINUOUS
 10
292.682256
 20
102.833563
 11
294.682256
 21
102.833563
  0
LINE
  8
1
 62
7
  6
CONTINUOUS
 10
268.682256
 20
128.833563
 11
268.682256
 21
126.833563
  0
LINE
  8
1
 62
7
  6
CONTINUOUS
 10
268.682256
 20
118.833563
 11
268.682256
 21
116.833563
  0
LINE
  8
1
 62
7
  6
CONTINUOUS
 10
268.682256
 20
108.833563
 11
268.682256
 21
106.772916
  0
LINE
  8
1
 62
7
  6
CONTINUOUS
 10
278.682256
 20
128.833563
 11
278.682256
 21
126.833563
  0
LINE
  8
1
 62
7
  6
CONTINUOUS
 10
278.682256
 20
118.833563
 11
278.682256
 21
116.833563
  0
LINE
  8
1
 62
7
  6
CONTINUOUS
 10
278.682256
 20
108.833563
 11
278.682256
 21
106.833563
  0
LINE
  8
1
 62
7
  6
CONTINUOUS
 10
288.682256
 20
128.833563
 11
288.682256
 21
126.833563
  0
LINE
  8
1
 62
7
  6
CONTINUOUS
 10
288.682256
 20
118.833563
 11
288.682256
 21
116.833563
  0
LINE
  8
1
 62
7
  6
CONTINUOUS
 10
288.682256
 20
108.833563
 11
288.682256
 21
106.833563
  0
LINE
  8
1
 62
7
  6
CONTINUOUS
 10
298.682256
 20
128.833563
 11
298.682256
 21
126.833563
  0
LINE
  8
1
 62
7
  6
CONTINUOUS
 10
298.682256
 20
118.833563
 11
298.682256
 21
116.833563
  0
LINE
  8
1
 62
7
  6
CONTINUOUS
 10
298.682256
 20
108.833563
 11
298.682256
 21
106.833563
  0
TEXT
  8
1
 62
7
  6
CONTINUOUS
 10
267.214156
 20
99.821353
 40
6.000000
 41
0.500000
  1
1
  7
KANJI
 50
0.000000
 51
0.000000
  0
TEXT
  8
1
 62
7
  6
CONTINUOUS
 10
277.408596
 20
100.201742
 40
5.000000
 41
0.500000
  1
2
  7
KANJI
 50
0.000000
 51
0.000000
  0
TEXT
  8
1
 62
7
  6
CONTINUOUS
 10
287.526958
 20
100.353898
 40
5.000000
 41
0.500000
  1
3
  7
KANJI
 50
0.000000
 51
0.000000
  0
TEXT
  8
1
 62
7
  6
CONTINUOUS
 10
297.493165
 20
100.201742
 40
5.000000
 41
0.500000
  1
4
  7
KANJI
 50
0.000000
 51
0.000000
  0
TEXT
  8
1
 62
7
  6
CONTINUOUS
 10
267.594545
 20
110.091871
 40
5.000000
 41
0.500000
  1
5
  7
KANJI
 50
0.000000
 51
0.000000
  0
TEXT
  8
1
 62
7
  6
CONTINUOUS
 10
277.484674
 20
110.167949
 40
5.000000
 41
0.500000
  1
6
  7
KANJI
 50
0.000000
 51
0.000000
  0
TEXT
  8
1
 62
7
  6
CONTINUOUS
 10
287.526958
 20
110.091871
 40
5.000000
 41
0.500000
  1
7
  7
KANJI
 50
0.000000
 51
0.000000
  0
TEXT
  8
1
 62
7
  6
CONTINUOUS
 10
297.417087
 20
110.015793
 40
5.000000
 41
0.500000
  1
8
  7
KANJI
 50
0.000000
 51
0.000000
  0
TEXT
  8
1
 62
7
  6
CONTINUOUS
 10
267.594545
 20
120.210233
 40
5.000000
 41
0.500000
  1
9
  7
KANJI
 50
0.000000
 51
0.000000
  0
TEXT
  8
1
 62
7
  6
CONTINUOUS
 10
276.015341
 20
119.852361
 40
5.000000
 41
0.500000
  1
10
  7
KANJI
 50
0.000000
 51
0.000000
  0
TEXT
  8
1
 62
7
  6
CONTINUOUS
 10
286.041585
 20
119.829089
 40
5.000000
 41
0.500000
  1
11
  7
KANJI
 50
0.000000
 51
0.000000
  0
TEXT
  8
1
 62
7
  6
CONTINUOUS
 10
295.932938
 20
119.928180
 40
5.000000
 41
0.500000
  1
12
  7
KANJI
 50
0.000000
 51
0.000000
  0
TEXT
  8
1
 62
7
  6
CONTINUOUS
 10
266.095986
 20
129.782136
 40
5.000000
 41
0.500000
  1
13
  7
KANJI
 50
0.000000
 51
0.000000
  0
TEXT
  8
1
 62
7
  6
CONTINUOUS
 10
286.080708
 20
129.795150
 40
5.000000
 41
0.500000
  1
15
  7
KANJI
 50
0.000000
 51
0.000000
  0
TEXT
  8
1
 62
7
  6
CONTINUOUS
 10
296.120341
 20
129.761659
 40
5.000000
 41
0.500000
  1
16
  7
KANJI
 50
0.000000
 51
0.000000
  0
TEXT
  8
1
 62
7
  6
CONTINUOUS
 10
276.267427
 20
130.100362
 40
5.000000
 41
0.500000
  1
14
  7
KANJI
 50
0.000000
 51
0.000000
  0
CIRCLE
  8
1
 62
7
  6
CONTINUOUS
 10
268.682256
 20
79.831881
 40
2.000000
  0
CIRCLE
  8
1
 62
7
  6
CONTINUOUS
 10
278.682256
 20
79.831881
 40
2.000000
  0
CIRCLE
  8
1
 62
7
  6
CONTINUOUS
 10
288.682256
 20
79.831881
 40
2.000000
  0
CIRCLE
  8
1
 62
7
  6
CONTINUOUS
 10
298.682256
 20
79.831881
 40
2.000000
  0
CIRCLE
  8
1
 62
7
  6
CONTINUOUS
 10
308.682256
 20
79.831881
 40
2.000000
  0
CIRCLE
  8
1
 62
7
  6
CONTINUOUS
 10
318.682256
 20
79.831881
 40
2.000000
  0
CIRCLE
  8
1
 62
7
  6
CONTINUOUS
 10
328.682256
 20
79.831881
 40
2.000000
  0
CIRCLE
  8
1
 62
7
  6
CONTINUOUS
 10
338.682256
 20
79.831881
 40
2.000000
  0
LINE
  8
1
 62
7
  6
CONTINUOUS
 10
302.682256
 20
132.833563
 11
338.682256
 21
132.833563
  0
LINE
  8
1
 62
7
  6
CONTINUOUS
 10
338.682256
 20
81.831881
 11
338.682256
 21
132.833563
  0
LINE
  8
1
 62
7
  6
CONTINUOUS
 10
302.682256
 20
122.833563
 11
328.682256
 21
122.833563
  0
LINE
  8
1
 62
7
  6
CONTINUOUS
 10
328.682256
 20
81.831881
 11
328.682256
 21
122.833563
  0
LINE
  8
1
 62
7
  6
CONTINUOUS
 10
302.682256
 20
112.833563
 11
318.682256
 21
112.833563
  0
LINE
  8
1
 62
7
  6
CONTINUOUS
 10
318.682256
 20
81.831881
 11
318.682256
 21
112.833563
  0
LINE
  8
1
 62
7
  6
CONTINUOUS
 10
302.682256
 20
102.833563
 11
308.682256
 21
102.833563
  0
LINE
  8
1
 62
7
  6
CONTINUOUS
 10
308.682256
 20
81.831881
 11
308.682256
 21
102.833563
  0
LINE
  8
1
 62
7
  6
CONTINUOUS
 10
298.682256
 20
98.833563
 11
298.682256
 21
81.831881
  0
LINE
  8
1
 62
7
  6
CONTINUOUS
 10
288.682256
 20
98.833563
 11
288.682256
 21
81.831881
  0
LINE
  8
1
 62
7
  6
CONTINUOUS
 10
278.682256
 20
98.833563
 11
278.682256
 21
81.831881
  0
LINE
  8
1
 62
7
  6
CONTINUOUS
 10
268.682256
 20
98.860378
 11
268.682256
 21
81.831881
  0
LINE
  8
1
 62
7
  6
CONTINUOUS
 10
261.432235
 20
84.453615
 11
261.432235
 21
74.981915
  0
LINE
  8
1
 62
7
  6
CONTINUOUS
 10
261.432235
 20
74.981915
 11
347.704587
 21
74.981915
  0
LINE
  8
1
 62
7
  6
CONTINUOUS
 10
347.704587
 20
74.981915
 11
347.704587
 21
84.453615
  0
LINE
  8
1
 62
7
  6
CONTINUOUS
 10
347.704587
 20
84.453615
 11
261.432235
 21
84.453615
  0
TEXT
  8
1
 62
7
  6
CONTINUOUS
 10
267.480429
 20
68.249019
 40
5.000000
 41
0.500000
  1
5
  7
KANJI
 50
0.000000
 51
0.000000
  0
TEXT
  8
1
 62
7
  6
CONTINUOUS
 10
277.636830
 20
67.792552
 40
5.000000
 41
0.500000
  1
6
  7
KANJI
 50
0.000000
 51
0.000000
  0
TEXT
  8
1
 62
7
  6
CONTINUOUS
 10
287.679114
 20
67.678435
 40
5.000000
 41
0.500000
  1
7
  7
KANJI
 50
0.000000
 51
0.000000
  0
TEXT
  8
1
 62
7
  6
CONTINUOUS
 10
297.949632
 20
67.792552
 40
5.000000
 41
0.500000
  1
8
  7
KANJI
 50
0.000000
 51
0.000000
  0
TEXT
  8
1
 62
7
  6
CONTINUOUS
 10
307.877800
 20
68.134902
 40
5.000000
 41
0.500000
  1
1
  7
KANJI
 50
0.000000
 51
0.000000
  0
TEXT
  8
1
 62
7
  6
CONTINUOUS
 10
328.190602
 20
67.906669
 40
5.000000
 41
0.500000
  1
3
  7
KANJI
 50
0.000000
 51
0.000000
  0
TEXT
  8
1
 62
7
  6
CONTINUOUS
 10
338.232887
 20
68.363136
 40
5.000000
 41
0.500000
  1
4
  7
KANJI
 50
0.000000
 51
0.000000
  0
TEXT
  8
1
 62
7
  6
CONTINUOUS
 10
317.691850
 20
68.249019
 40
5.000000
 41
0.500000
  1
2
  7
KANJI
 50
0.000000
 51
0.000000
  0
CIRCLE
  8
1
 62
7
  6
CONTINUOUS
 10
224.603393
 20
122.989454
 40
9.777242
  0
LINE
  8
1
 62
7
  6
CONTINUOUS
 10
220.110041
 20
137.881706
 11
220.110041
 21
105.144429
  0
LINE
  8
1
 62
7
  6
CONTINUOUS
 10
205.667125
 20
119.009629
 11
245.144429
 21
119.009629
  0
CIRCLE
  8
1
 62
7
  6
CONTINUOUS
 10
223.664853
 20
124.929882
 40
1.119501
  0
CIRCLE
  8
1
 62
7
  6
CONTINUOUS
 10
227.418030
 20
121.582454
 40
1.119501
  0
LINE
  8
1
 62
7
  6
CONTINUOUS
 10
220.110041
 20
128.124713
 11
222.832211
 21
125.678207
  0
LINE
  8
1
 62
7
  6
CONTINUOUS
 10
228.237784
 20
120.820033
 11
230.252178
 21
119.009629
  0
LINE
  8
1
 62
7
  6
CONTINUOUS
 10
225.131428
 20
128.632061
 11
230.685930
 21
123.640040
  0
TEXT
  8
1
 62
7
  6
CONTINUOUS
 10
212.599725
 20
99.367263
 40
5.000000
 41
1.000000
  1
スイッチ略図
  7
KANJI
 50
0.000000
 51
0.000000
  0
LINE
  8
1
 62
7
  6
CONTINUOUS
 10
153.865199
 20
325.333563
 11
176.973865
 21
356.836314
  0
LINE
  8
1
 62
7
  6
CONTINUOUS
 10
176.973865
 20
356.836314
 11
223.580315
 21
356.836314
  0
TEXT
  8
1
 62
7
  6
CONTINUOUS
 10
179.580315
 20
357.285649
 40
4.000000
 41
0.578947
  1
ABS ﾀﾞｰｸｸﾞﾚｰ(ﾏｯﾄ処理）
  7
KANJI
 50
0.000000
 51
30.000000
  0
LINE
  8
1
 62
7
  6
CONTINUOUS
 10
153.865199
 20
325.333563
 11
156.766226
 21
332.789033
  0
LINE
  8
1
 62
7
  6
CONTINUOUS
 10
153.865199
 20
325.333563
 11
160.105298
 21
330.339676
  0
LINE
  8
1
 62
7
  6
CONTINUOUS
 10
180.012227
 20
315.005349
 11
204.319120
 21
347.699832
  0
LINE
  8
1
 62
7
  6
CONTINUOUS
 10
204.319120
 20
347.699832
 11
228.841969
 21
347.699832
  0
TEXT
  8
1
 62
7
  6
CONTINUOUS
 10
206.841969
 20
347.871007
 40
4.000000
 41
0.550000
  1
ﾄｯﾌﾟｼｰﾄ(黒)
  7
KANJI
 50
0.000000
 51
30.000000
  0
LINE
  8
1
 62
7
  6
CONTINUOUS
 10
180.012227
 20
315.005349
 11
182.961008
 21
322.442061
  0
LINE
  8
1
 62
7
  6
CONTINUOUS
 10
180.012227
 20
315.005349
 11
186.284303
 21
319.971340
  0
LINE
  8
1
 62
7
  6
CONTINUOUS
 10
191.309797
 20
306.446584
 11
214.076112
 21
339.483417
  0
LINE
  8
1
 62
7
  6
CONTINUOUS
 10
214.076112
 20
339.483417
 11
245.680116
 21
339.483417
  0
TEXT
  8
1
 62
7
  6
CONTINUOUS
 10
215.680116
 20
339.654593
 40
4.000000
 41
0.535714
  1
ｷｰﾄｯﾌﾟ(ｱｲﾎﾞﾘｰ）
  7
KANJI
 50
0.000000
 51
30.000000
  0
LINE
  8
1
 62
7
  6
CONTINUOUS
 10
191.309797
 20
306.446584
 11
193.989656
 21
313.984379
  0
LINE
  8
1
 62
7
  6
CONTINUOUS
 10
191.309797
 20
306.446584
 11
197.399521
 21
311.634576
  0
TEXT
  8
1
 62
7
  6
CONTINUOUS
 10
274.993122
 20
159.407000
 40
5.000000
 41
0.647059
  1
※　ﾊﾟﾈﾙ厚　1.2～3.0mm
  7
KANJI
 50
0.000000
 51
0.000000
  0
TEXT
  8
1
 62
7
  6
CONTINUOUS
 10
274.936064
 20
166.425187
 40
5.000000
 41
0.608696
  1
※　ﾊﾟﾈﾙｶｯﾄ寸法　90.3x90.3mm
  7
KANJI
 50
0.000000
 51
0.000000
  0
TEXT
  8
1
 62
7
  6
CONTINUOUS
 10
15.020633
 20
9.821183
 40
5.000000
 41
0.500000
  1
2015/04/01
  7
KANJI
 50
0.000000
 51
0.000000
  0
TEXT
  8
1
 62
7
  6
CONTINUOUS
 10
392.904376
 20
312.573233
 40
4.000000
 41
1.000000
  1
ＢＩＲＤ
  7
KANJI
 50
0.000000
 51
0.000000
  0
TEXT
  8
1
 62
7
  6
CONTINUOUS
 10
292.902338
 20
56.616231
 40
6.000000
 41
1.000000
  1
回路図
  7
KANJI
 50
0.000000
 51
0.000000
  0
TEXT
  8
1
 62
7
  6
CONTINUOUS
 10
236.863824
 20
68.170564
 40
6.000000
 41
0.700000
  1
端子NO,
  7
KANJI
 50
0.000000
 51
0.000000
  0
ENDSEC
  0
EOF
