  0
SECTION
  2
HEADER
  9
$ACADVER
  1
AC1009
  9
$INSBASE
 10
0.000000
 20
0.000000
  9
$EXTMIN
 10
0.000000
 20
0.000000
  9
$EXTMAX
 10
594.000000
 20
420.000000
  9
$LIMMIN
 10
0.000000
 20
0.000000
  9
$LIMMAX
 10
594.000000
 20
420.000000
  9
$VIEWCTR
 10
297.000000
 20
210.000000
  9
$VIEWSIZE
 40
420.000000
  9
$PEXTMIN
 10
0.000000
 20
0.000000
 30
0.000000
  9
$PEXTMAX
 10
297.000000
 20
210.000000
 30
0.000000
  9
$SNAPMODE
 70
     0
  9
$SNAPUNIT
 10
1.000000
 20
1.000000
  9
$SNAPBASE
 10
0.000000
 20
0.000000
  9
$SNAPANG
 50
0.000000
  9
$SNAPISOPAIR
 70
     0
  9
$SNAPSTYLE
 70
     0
  9
$GRIDMODE
 70
     0
  9
$GRIDUNIT
 10
0.000000
 20
0.000000
  9
$ORTHOMODE
 70
     0
  9
$REGENMODE
 70
     1
  9
$FILLMODE
 70
     1
  9
$QTEXTMODE
 70
     0
  9
$DRAGMODE
 70
     2
  9
$LTSCALE
 40
0.500000
  9
$OSMODE
 70
     0
  9
$ATTMODE
 70
     1
  9
$TEXTSIZE
 40
4.000000
  9
$TRACEWID
 40
0.050000
  9
$TEXTSTYLE
  7
STANDARD
  9
$CLAYER
  8
0
  9
$CELTYPE
  6
BYLAYER
  9
$CECOLOR
 62
   256
  9
$DIMSCALE
 40
1.000000
  9
$DIMASZ
 40
1.000000
  9
$DIMEXO
 40
0.000000
  9
$DIMDLI
 40
0.500000
  9
$DIMRND
 40
0.000000
  9
$DIMDLE
 40
0.000000
  9
$DIMEXE
 40
0.000000
  9
$DIMTP
 40
0.000000
  9
$DIMTM
 40
0.000000
  9
$DIMTXT
 40
3.000000
  9
$DIMCEN
 40
0.000000
  9
$DIMTSZ
 40
0.000000
  9
$DIMTOL
 70
     0
  9
$DIMLIM
 70
     0
  9
$DIMTIH
 70
     1
  9
$DIMTOH
 70
     1
  9
$DIMSE1
 70
     0
  9
$DIMSE2
 70
     0
  9
$DIMTAD
 70
     0
  9
$DIMZIN
 70
     0
  9
$DIMBLK
  1

  9
$DIMASO
 70
     0
  9
$DIMSHO
 70
     0
  9
$DIMPOST
  1

  9
$DIMAPOST
  1

  9
$DIMALT
 70
     0
  9
$DIMALTD
 70
     0
  9
$DIMALTF
 40
25.400000
  9
$DIMLFAC
 40
1.000000
  9
$DIMTOFL
 70
     0
  9
$DIMTVP
 40
0.000000
  9
$DIMTIX
 70
     0
  9
$DIMSOXD
 70
     0
  9
$DIMSAH
 70
     0
  9
$DIMBLKL
  1

  9
$DIMBLKR
  1

  9
$LUNITS
 70
     2
  9
$LUPREC
 70
     2
  9
$AXISMODE
 70
     0
  9
$AXISUNIT
 10
1.000000
 20
1.000000
  9
$SKETCHINC
 40
0.000000
  9
$FILLETRAD
 40
0.000000
  9
$AUNITS
 70
     1
  9
$AUPREC
 70
     2
  9
$MENU
  1
ACAD
  9
$ELEVATION
 40
0.000000
  9
$THICKNESS
 40
0.000000
  9
$VIEWDIR
 10
0.000000
 20
0.000000
 30
1.000000
  9
$LIMCHECK
 70
     1
  9
$BLIPMODE
 70
     1
  9
$CHAMFERA
 40
0.000000
  9
$CHAMFERB
 40
0.000000
  9
$FASTZOOM
 70
     1
  9
$SKPOLY
 70
     0
  9
$TDCREATE
 40
0.000000
  9
$TDUPDATE
 40
0.000000
  9
$TDINDWG
 40
0.000000
  9
$TDUSRTIMER
 40
0.000000
  9
$USRTIMER
 70
     1
  9
$ANGBASE
 50
0.000000
  9
$ANGDIR
 70
     0
  9
$PDMODE
 70
     0
  9
$PDSIZE
 40
0.000000
  9
$PLINEWID
 40
0.000000
  9
$COORDS
 70
     2
  9
$USERI1
 70
     0
  9
$USERI2
 70
     0
  9
$USERI3
 70
     0
  9
$USERI4
 70
     0
  9
$USERI5
 70
     0
  9
$USERR1
 40
0.000000
  9
$USERR2
 40
0.000000
  9
$USERR3
 40
0.000000
  9
$USERR4
 40
0.000000
  9
$USERR5
 40
0.000000
  0
ENDSEC
  0
SECTION
  2
TABLES
  0
TABLE
  2
LTYPE
 70
     5
  0
LTYPE
  2
CONTINUOUS
 70
    64
  3
Solid line
 72
    65
 73
     0
 40
0.0
  0
LTYPE
  2
HIDDEN
 70
    64
  3
------------------------
 72
    65
 73
     2
 40
12.6
 49
8.4
 49
-4.2
  0
LTYPE
  2
DOT
 70
    64
  3
････････････････････････
 72
    65
 73
     2
 40
8.0
 49
6.0
 49
-2.0
  0
LTYPE
  2
DASHDOT
 70
    64
  3
--･--･--･--･--･--･--･--
 72
    65
 73
     4
 40
50.5
 49
30.0
 49
-9.0
 49
2.5
 49
-9.0
  0
LTYPE
  2
DIVIDE
 70
    64
  3
--･･--･･--･･--･･--･･--
 72
    65
 73
     6
 40
58.0
 49
30.0
 49
-9.0
 49
2.5
 49
-5.0
 49
2.5
 49
-9.0
  0
LTYPE
  2
ACAD_ISO06W100
 70
    64
  3
____ ... ____ ... ____
 72
    65
 73
     8
 40
37.5
 49
24.0
 49
-3.0
 49
0.5
 49
-3.0
 49
0.5
 49
-3.0
 49
0.5
 49
-3.0
  0
LTYPE
  2
ACAD_ISO14W100
 70
    64
  3
__ . . . __ . . . __ . . . 
 72
    65
 73
     8
 40
25.5
 49
12.0
 49
-3.0
 49
0.5
 49
-3.0
 49
0.5
 49
-3.0
 49
0.5
 49
-3.0
  0
ENDTAB
  0
TABLE
  2
LAYER
 70
1
  0
LAYER
  2
1
 70
64
 62
7
  6
CONTINUOUS
  0
ENDTAB
  0
TABLE
  2
STYLE
 70
     2
  0
STYLE
  2
STANDARD
 70
    64
 40
0.0
 41
1.0
 50
0.0
 71
     0
 42
0.2
  3
TXT
  4

  0
STYLE
  2
KANJI
 70
    64
 40
0.0
 41
1.0
 50
0.0
 71
     0
 42
0.2
  3
TXT
  4
BIGFONT
  0
ENDTAB
  0
TABLE
  2
VIEW
 70
     0
  0
ENDTAB
  0
ENDSEC
  0
SECTION
  2
BLOCKS
  0
BLOCK
  8
1
 62
7
  6
CONTINUOUS
  2
*D1
 70
    65
 10
0.0
 20
0.0
  0
LINE
  8
1
 62
7
  6
CONTINUOUS
 10
184.941541
 20
427.927556
 11
247.941541
 21
427.927556
  0
LINE
  8
1
 62
7
  6
CONTINUOUS
 10
184.941541
 20
423.927556
 11
184.941541
 21
445.591930
  0
LINE
  8
1
 62
7
  6
CONTINUOUS
 10
247.941541
 20
423.927556
 11
247.941541
 21
445.591930
  0
LINE
  8
1
 62
7
  6
CONTINUOUS
 10
184.941541
 20
427.927556
 11
189.771170
 21
429.221651
  0
LINE
  8
1
 62
7
  6
CONTINUOUS
 10
184.941541
 20
427.927556
 11
189.771170
 21
426.633461
  0
LINE
  8
1
 62
7
  6
CONTINUOUS
 10
247.941541
 20
427.927556
 11
243.111911
 21
426.633461
  0
LINE
  8
1
 62
7
  6
CONTINUOUS
 10
247.941541
 20
427.927556
 11
243.111911
 21
429.221651
  0
TEXT
  8
1
 62
7
  6
CONTINUOUS
 10
213.441541
 20
427.927556
 40
6.000000
 41
0.500000
  1
63
  7
KANJI
 50
0.000000
 51
30.000000
  0
ENDBLK
  0
BLOCK
  8
1
 62
7
  6
CONTINUOUS
  2
*D2
 70
    65
 10
0.0
 20
0.0
  0
LINE
  8
1
 62
7
  6
CONTINUOUS
 10
245.529574
 20
269.365734
 11
245.529574
 21
286.865734
  0
LINE
  8
1
 62
7
  6
CONTINUOUS
 10
249.529574
 20
269.365734
 11
235.574966
 21
269.365734
  0
LINE
  8
1
 62
7
  6
CONTINUOUS
 10
249.529574
 20
286.865734
 11
235.574966
 21
286.865734
  0
LINE
  8
1
 62
7
  6
CONTINUOUS
 10
245.529574
 20
269.365734
 11
244.235478
 21
274.195364
  0
LINE
  8
1
 62
7
  6
CONTINUOUS
 10
245.529574
 20
269.365734
 11
246.823669
 21
274.195364
  0
LINE
  8
1
 62
7
  6
CONTINUOUS
 10
245.529574
 20
286.865734
 11
246.823669
 21
282.036105
  0
LINE
  8
1
 62
7
  6
CONTINUOUS
 10
245.529574
 20
286.865734
 11
244.235478
 21
282.036105
  0
TEXT
  8
1
 62
7
  6
CONTINUOUS
 10
245.529574
 20
272.115734
 40
6.000000
 41
0.500000
  1
17.5
  7
KANJI
 50
90.000000
 51
30.000000
  0
ENDBLK
  0
BLOCK
  8
1
 62
7
  6
CONTINUOUS
  2
*D3
 70
    65
 10
0.0
 20
0.0
  0
LINE
  8
1
 62
7
  6
CONTINUOUS
 10
362.214580
 20
204.311249
 11
452.214580
 21
204.311249
  0
LINE
  8
1
 62
7
  6
CONTINUOUS
 10
362.214580
 20
200.311249
 11
362.214580
 21
229.203576
  0
LINE
  8
1
 62
7
  6
CONTINUOUS
 10
452.214580
 20
200.311249
 11
452.214580
 21
229.203576
  0
LINE
  8
1
 62
7
  6
CONTINUOUS
 10
362.214580
 20
204.311249
 11
367.044210
 21
205.605344
  0
LINE
  8
1
 62
7
  6
CONTINUOUS
 10
362.214580
 20
204.311249
 11
367.044210
 21
203.017153
  0
LINE
  8
1
 62
7
  6
CONTINUOUS
 10
452.214580
 20
204.311249
 11
447.384951
 21
203.017153
  0
LINE
  8
1
 62
7
  6
CONTINUOUS
 10
452.214580
 20
204.311249
 11
447.384951
 21
205.605344
  0
TEXT
  8
1
 62
7
  6
CONTINUOUS
 10
404.214580
 20
204.311249
 40
6.000000
 41
0.500000
  1
90
  7
KANJI
 50
0.000000
 51
30.000000
  0
ENDBLK
  0
BLOCK
  8
1
 62
7
  6
CONTINUOUS
  2
*D4
 70
    65
 10
0.0
 20
0.0
  0
LINE
  8
1
 62
7
  6
CONTINUOUS
 10
483.778083
 20
233.203576
 11
483.778083
 21
359.203576
  0
LINE
  8
1
 62
7
  6
CONTINUOUS
 10
487.778083
 20
233.203576
 11
456.214580
 21
233.203576
  0
LINE
  8
1
 62
7
  6
CONTINUOUS
 10
487.778083
 20
359.203576
 11
456.214580
 21
359.203576
  0
LINE
  8
1
 62
7
  6
CONTINUOUS
 10
483.778083
 20
233.203576
 11
482.483988
 21
238.033205
  0
LINE
  8
1
 62
7
  6
CONTINUOUS
 10
483.778083
 20
233.203576
 11
485.072179
 21
238.033205
  0
LINE
  8
1
 62
7
  6
CONTINUOUS
 10
483.778083
 20
359.203576
 11
485.072179
 21
354.373947
  0
LINE
  8
1
 62
7
  6
CONTINUOUS
 10
483.778083
 20
359.203576
 11
482.483988
 21
354.373947
  0
TEXT
  8
1
 62
7
  6
CONTINUOUS
 10
483.778083
 20
291.703576
 40
6.000000
 41
0.500000
  1
126
  7
KANJI
 50
90.000000
 51
30.000000
  0
ENDBLK
  0
BLOCK
  8
1
 62
7
  6
CONTINUOUS
  2
*D5
 70
    65
 10
0.0
 20
0.0
  0
LINE
  8
1
 62
7
  6
CONTINUOUS
 10
131.574966
 20
194.404478
 11
231.574966
 21
194.404478
  0
LINE
  8
1
 62
7
  6
CONTINUOUS
 10
131.574966
 20
190.404478
 11
131.574966
 21
223.414718
  0
LINE
  8
1
 62
7
  6
CONTINUOUS
 10
231.574966
 20
190.404478
 11
231.574966
 21
223.414718
  0
LINE
  8
1
 62
7
  6
CONTINUOUS
 10
131.574966
 20
194.404478
 11
136.404595
 21
195.698573
  0
LINE
  8
1
 62
7
  6
CONTINUOUS
 10
131.574966
 20
194.404478
 11
136.404595
 21
193.110383
  0
LINE
  8
1
 62
7
  6
CONTINUOUS
 10
231.574966
 20
194.404478
 11
226.745336
 21
193.110383
  0
LINE
  8
1
 62
7
  6
CONTINUOUS
 10
231.574966
 20
194.404478
 11
226.745336
 21
195.698573
  0
TEXT
  8
1
 62
7
  6
CONTINUOUS
 10
177.074966
 20
194.404478
 40
6.000000
 41
0.500000
  1
100
  7
KANJI
 50
0.000000
 51
30.000000
  0
ENDBLK
  0
BLOCK
  8
1
 62
7
  6
CONTINUOUS
  2
*D6
 70
    65
 10
0.0
 20
0.0
  0
LINE
  8
1
 62
7
  6
CONTINUOUS
 10
172.523307
 20
210.601941
 11
190.023307
 21
210.601941
  0
LINE
  8
1
 62
7
  6
CONTINUOUS
 10
172.523307
 20
206.601941
 11
172.523307
 21
223.414718
  0
LINE
  8
1
 62
7
  6
CONTINUOUS
 10
190.023307
 20
206.601941
 11
190.023307
 21
223.414718
  0
LINE
  8
1
 62
7
  6
CONTINUOUS
 10
172.523307
 20
210.601941
 11
177.352936
 21
211.896036
  0
LINE
  8
1
 62
7
  6
CONTINUOUS
 10
172.523307
 20
210.601941
 11
177.352936
 21
209.307846
  0
LINE
  8
1
 62
7
  6
CONTINUOUS
 10
190.023307
 20
210.601941
 11
185.193678
 21
209.307846
  0
LINE
  8
1
 62
7
  6
CONTINUOUS
 10
190.023307
 20
210.601941
 11
185.193678
 21
211.896036
  0
TEXT
  8
1
 62
7
  6
CONTINUOUS
 10
175.273307
 20
210.601941
 40
6.000000
 41
0.500000
  1
17.5
  7
KANJI
 50
0.000000
 51
30.000000
  0
ENDBLK
  0
BLOCK
  8
1
 62
7
  6
CONTINUOUS
  2
*D7
 70
    65
 10
0.0
 20
0.0
  0
LINE
  8
1
 62
7
  6
CONTINUOUS
 10
261.876815
 20
227.414718
 11
261.876815
 21
364.414718
  0
LINE
  8
1
 62
7
  6
CONTINUOUS
 10
265.876815
 20
227.414718
 11
235.574966
 21
227.414718
  0
LINE
  8
1
 62
7
  6
CONTINUOUS
 10
265.876815
 20
364.414718
 11
235.574966
 21
364.414718
  0
LINE
  8
1
 62
7
  6
CONTINUOUS
 10
261.876815
 20
227.414718
 11
260.582720
 21
232.244347
  0
LINE
  8
1
 62
7
  6
CONTINUOUS
 10
261.876815
 20
227.414718
 11
263.170910
 21
232.244347
  0
LINE
  8
1
 62
7
  6
CONTINUOUS
 10
261.876815
 20
364.414718
 11
263.170910
 21
359.585089
  0
LINE
  8
1
 62
7
  6
CONTINUOUS
 10
261.876815
 20
364.414718
 11
260.582720
 21
359.585089
  0
TEXT
  8
1
 62
7
  6
CONTINUOUS
 10
261.876815
 20
291.414718
 40
6.000000
 41
0.500000
  1
137
  7
KANJI
 50
90.000000
 51
30.000000
  0
ENDBLK
  0
BLOCK
  8
1
 62
7
  6
CONTINUOUS
  2
*D8
 70
    65
 10
0.0
 20
0.0
  0
LINE
  8
1
 62
7
  6
CONTINUOUS
 10
141.574966
 20
201.765016
 11
221.574966
 21
201.765016
  0
LINE
  8
1
 62
7
  6
CONTINUOUS
 10
141.574966
 20
197.765016
 11
141.574966
 21
233.414718
  0
LINE
  8
1
 62
7
  6
CONTINUOUS
 10
221.574966
 20
197.765016
 11
221.574966
 21
233.414718
  0
LINE
  8
1
 62
7
  6
CONTINUOUS
 10
141.574966
 20
201.765016
 11
146.404595
 21
203.059111
  0
LINE
  8
1
 62
7
  6
CONTINUOUS
 10
141.574966
 20
201.765016
 11
146.404595
 21
200.470921
  0
LINE
  8
1
 62
7
  6
CONTINUOUS
 10
221.574966
 20
201.765016
 11
216.745336
 21
200.470921
  0
LINE
  8
1
 62
7
  6
CONTINUOUS
 10
221.574966
 20
201.765016
 11
216.745336
 21
203.059111
  0
TEXT
  8
1
 62
7
  6
CONTINUOUS
 10
178.574966
 20
201.765016
 40
6.000000
 41
0.500000
  1
80
  7
KANJI
 50
0.000000
 51
30.000000
  0
ENDBLK
  0
BLOCK
  8
1
 62
7
  6
CONTINUOUS
  2
*D9
 70
    65
 10
0.0
 20
0.0
  0
LINE
  8
1
 62
7
  6
CONTINUOUS
 10
254.002751
 20
237.414718
 11
254.002751
 21
354.414718
  0
LINE
  8
1
 62
7
  6
CONTINUOUS
 10
258.002751
 20
237.414718
 11
225.574966
 21
237.414718
  0
LINE
  8
1
 62
7
  6
CONTINUOUS
 10
258.002751
 20
354.414718
 11
225.574966
 21
354.414718
  0
LINE
  8
1
 62
7
  6
CONTINUOUS
 10
254.002751
 20
237.414718
 11
252.708656
 21
242.244347
  0
LINE
  8
1
 62
7
  6
CONTINUOUS
 10
254.002751
 20
237.414718
 11
255.296846
 21
242.244347
  0
LINE
  8
1
 62
7
  6
CONTINUOUS
 10
254.002751
 20
354.414718
 11
255.296846
 21
349.585089
  0
LINE
  8
1
 62
7
  6
CONTINUOUS
 10
254.002751
 20
354.414718
 11
252.708656
 21
349.585089
  0
TEXT
  8
1
 62
7
  6
CONTINUOUS
 10
254.002751
 20
291.414718
 40
6.000000
 41
0.500000
  1
117
  7
KANJI
 50
90.000000
 51
30.000000
  0
ENDBLK
  0
BLOCK
  8
1
 62
7
  6
CONTINUOUS
  2
*D10
 70
    65
 10
0.0
 20
0.0
  0
LINE
  8
1
 62
7
  6
CONTINUOUS
 10
290.574966
 20
205.629235
 11
305.574966
 21
205.629235
  0
LINE
  8
1
 62
7
  6
CONTINUOUS
 10
296.574966
 20
201.629235
 11
296.574966
 21
232.414718
  0
LINE
  8
1
 62
7
  6
CONTINUOUS
 10
299.574966
 20
201.629235
 11
299.574966
 21
227.724730
  0
LINE
  8
1
 62
7
  6
CONTINUOUS
 10
296.574966
 20
205.629235
 11
291.745336
 21
204.335140
  0
LINE
  8
1
 62
7
  6
CONTINUOUS
 10
296.574966
 20
205.629235
 11
291.745336
 21
206.923330
  0
LINE
  8
1
 62
7
  6
CONTINUOUS
 10
299.574966
 20
205.629235
 11
304.404595
 21
206.923330
  0
LINE
  8
1
 62
7
  6
CONTINUOUS
 10
299.574966
 20
205.629235
 11
304.404595
 21
204.335140
  0
TEXT
  8
1
 62
7
  6
CONTINUOUS
 10
296.574966
 20
205.629235
 40
6.000000
 41
0.500000
  1
3
  7
KANJI
 50
0.000000
 51
30.000000
  0
ENDBLK
  0
BLOCK
  8
1
 62
7
  6
CONTINUOUS
  2
*D11
 70
    65
 10
0.0
 20
0.0
  0
LINE
  8
1
 62
7
  6
CONTINUOUS
 10
299.574966
 20
205.629235
 11
309.574966
 21
205.629235
  0
LINE
  8
1
 62
7
  6
CONTINUOUS
 10
299.574966
 20
201.629235
 11
299.574966
 21
229.203576
  0
LINE
  8
1
 62
7
  6
CONTINUOUS
 10
309.574966
 20
201.629235
 11
309.574966
 21
229.203576
  0
LINE
  8
1
 62
7
  6
CONTINUOUS
 10
299.574966
 20
205.629235
 11
304.404595
 21
206.923330
  0
LINE
  8
1
 62
7
  6
CONTINUOUS
 10
299.574966
 20
205.629235
 11
304.404595
 21
204.335140
  0
LINE
  8
1
 62
7
  6
CONTINUOUS
 10
309.574966
 20
205.629235
 11
304.745336
 21
204.335140
  0
LINE
  8
1
 62
7
  6
CONTINUOUS
 10
309.574966
 20
205.629235
 11
304.745336
 21
206.923330
  0
TEXT
  8
1
 62
7
  6
CONTINUOUS
 10
301.574966
 20
205.629235
 40
6.000000
 41
0.500000
  1
10
  7
KANJI
 50
0.000000
 51
30.000000
  0
ENDBLK
  0
BLOCK
  8
1
 62
7
  6
CONTINUOUS
  2
*D12
 70
    65
 10
0.0
 20
0.0
  0
LINE
  8
1
 62
7
  6
CONTINUOUS
 10
399.264659
 20
154.763131
 11
416.399918
 21
154.763131
  0
LINE
  8
1
 62
7
  6
CONTINUOUS
 10
405.264659
 20
150.763131
 11
405.264659
 21
163.201870
  0
LINE
  8
1
 62
7
  6
CONTINUOUS
 10
410.399918
 20
150.763131
 11
410.399918
 21
163.201870
  0
LINE
  8
1
 62
7
  6
CONTINUOUS
 10
405.264659
 20
154.763131
 11
400.435030
 21
153.469036
  0
LINE
  8
1
 62
7
  6
CONTINUOUS
 10
405.264659
 20
154.763131
 11
400.435030
 21
156.057226
  0
LINE
  8
1
 62
7
  6
CONTINUOUS
 10
410.399918
 20
154.763131
 11
415.229548
 21
156.057226
  0
LINE
  8
1
 62
7
  6
CONTINUOUS
 10
410.399918
 20
154.763131
 11
415.229548
 21
153.469036
  0
TEXT
  8
1
 62
7
  6
CONTINUOUS
 10
402.832289
 20
154.763131
 40
5.000000
 41
0.500000
  1
2.54
  7
KANJI
 50
0.000000
 51
30.000000
  0
ENDBLK
  0
ENDSEC
  0
SECTION
  2
ENTITIES
  0
LINE
  8
1
 62
7
  6
CONTINUOUS
 10
138.724209
 20
479.055479
 11
138.724209
 21
489.555479
  0
LINE
  8
1
 62
7
  6
CONTINUOUS
 10
138.724209
 20
489.555479
 11
149.224209
 21
489.555479
  0
LINE
  8
1
 62
7
  6
CONTINUOUS
 10
149.224209
 20
489.555479
 11
149.224209
 21
479.055479
  0
LINE
  8
1
 62
7
  6
CONTINUOUS
 10
149.224209
 20
479.055479
 11
138.724209
 21
479.055479
  0
LINE
  8
1
 62
7
  6
CONTINUOUS
 10
184.941541
 20
449.591930
 11
184.941541
 21
460.091930
  0
LINE
  8
1
 62
7
  6
CONTINUOUS
 10
184.941541
 20
460.091930
 11
195.441541
 21
460.091930
  0
LINE
  8
1
 62
7
  6
CONTINUOUS
 10
195.441541
 20
460.091930
 11
195.441541
 21
449.591930
  0
LINE
  8
1
 62
7
  6
CONTINUOUS
 10
195.441541
 20
449.591930
 11
184.941541
 21
449.591930
  0
LINE
  8
1
 62
7
  6
CONTINUOUS
 10
202.441541
 20
449.591930
 11
202.441541
 21
460.091930
  0
LINE
  8
1
 62
7
  6
CONTINUOUS
 10
202.441541
 20
460.091930
 11
212.941541
 21
460.091930
  0
LINE
  8
1
 62
7
  6
CONTINUOUS
 10
212.941541
 20
460.091930
 11
212.941541
 21
449.591930
  0
LINE
  8
1
 62
7
  6
CONTINUOUS
 10
212.941541
 20
449.591930
 11
202.441541
 21
449.591930
  0
LINE
  8
1
 62
7
  6
CONTINUOUS
 10
219.941541
 20
449.591930
 11
219.941541
 21
460.091930
  0
LINE
  8
1
 62
7
  6
CONTINUOUS
 10
219.941541
 20
460.091930
 11
230.441541
 21
460.091930
  0
LINE
  8
1
 62
7
  6
CONTINUOUS
 10
230.441541
 20
460.091930
 11
230.441541
 21
449.591930
  0
LINE
  8
1
 62
7
  6
CONTINUOUS
 10
230.441541
 20
449.591930
 11
219.941541
 21
449.591930
  0
LINE
  8
1
 62
7
  6
CONTINUOUS
 10
237.441541
 20
449.591930
 11
237.441541
 21
460.091930
  0
LINE
  8
1
 62
7
  6
CONTINUOUS
 10
237.441541
 20
460.091930
 11
247.941541
 21
460.091930
  0
LINE
  8
1
 62
7
  6
CONTINUOUS
 10
247.941541
 20
460.091930
 11
247.941541
 21
449.591930
  0
LINE
  8
1
 62
7
  6
CONTINUOUS
 10
247.941541
 20
449.591930
 11
237.441541
 21
449.591930
  0
LINE
  8
1
 62
7
  6
CONTINUOUS
 10
184.941541
 20
467.091930
 11
184.941541
 21
477.591930
  0
LINE
  8
1
 62
7
  6
CONTINUOUS
 10
184.941541
 20
477.591930
 11
195.441541
 21
477.591930
  0
LINE
  8
1
 62
7
  6
CONTINUOUS
 10
195.441541
 20
477.591930
 11
195.441541
 21
467.091930
  0
LINE
  8
1
 62
7
  6
CONTINUOUS
 10
195.441541
 20
467.091930
 11
184.941541
 21
467.091930
  0
LINE
  8
1
 62
7
  6
CONTINUOUS
 10
202.441541
 20
467.091930
 11
202.441541
 21
477.591930
  0
LINE
  8
1
 62
7
  6
CONTINUOUS
 10
202.441541
 20
477.591930
 11
212.941541
 21
477.591930
  0
LINE
  8
1
 62
7
  6
CONTINUOUS
 10
212.941541
 20
477.591930
 11
212.941541
 21
467.091930
  0
LINE
  8
1
 62
7
  6
CONTINUOUS
 10
212.941541
 20
467.091930
 11
202.441541
 21
467.091930
  0
LINE
  8
1
 62
7
  6
CONTINUOUS
 10
219.941541
 20
467.091930
 11
219.941541
 21
477.591930
  0
LINE
  8
1
 62
7
  6
CONTINUOUS
 10
219.941541
 20
477.591930
 11
230.441541
 21
477.591930
  0
LINE
  8
1
 62
7
  6
CONTINUOUS
 10
230.441541
 20
477.591930
 11
230.441541
 21
467.091930
  0
LINE
  8
1
 62
7
  6
CONTINUOUS
 10
230.441541
 20
467.091930
 11
219.941541
 21
467.091930
  0
LINE
  8
1
 62
7
  6
CONTINUOUS
 10
237.441541
 20
467.091930
 11
237.441541
 21
477.591930
  0
LINE
  8
1
 62
7
  6
CONTINUOUS
 10
237.441541
 20
477.591930
 11
247.941541
 21
477.591930
  0
LINE
  8
1
 62
7
  6
CONTINUOUS
 10
247.941541
 20
477.591930
 11
247.941541
 21
467.091930
  0
LINE
  8
1
 62
7
  6
CONTINUOUS
 10
247.941541
 20
467.091930
 11
237.441541
 21
467.091930
  0
LINE
  8
1
 62
7
  6
CONTINUOUS
 10
184.941541
 20
484.591930
 11
184.941541
 21
495.091930
  0
LINE
  8
1
 62
7
  6
CONTINUOUS
 10
184.941541
 20
495.091930
 11
195.441541
 21
495.091930
  0
LINE
  8
1
 62
7
  6
CONTINUOUS
 10
195.441541
 20
495.091930
 11
195.441541
 21
484.591930
  0
LINE
  8
1
 62
7
  6
CONTINUOUS
 10
195.441541
 20
484.591930
 11
184.941541
 21
484.591930
  0
LINE
  8
1
 62
7
  6
CONTINUOUS
 10
202.441541
 20
484.591930
 11
202.441541
 21
495.091930
  0
LINE
  8
1
 62
7
  6
CONTINUOUS
 10
202.441541
 20
495.091930
 11
212.941541
 21
495.091930
  0
LINE
  8
1
 62
7
  6
CONTINUOUS
 10
212.941541
 20
495.091930
 11
212.941541
 21
484.591930
  0
LINE
  8
1
 62
7
  6
CONTINUOUS
 10
212.941541
 20
484.591930
 11
202.441541
 21
484.591930
  0
LINE
  8
1
 62
7
  6
CONTINUOUS
 10
219.941541
 20
484.591930
 11
219.941541
 21
495.091930
  0
LINE
  8
1
 62
7
  6
CONTINUOUS
 10
219.941541
 20
495.091930
 11
230.441541
 21
495.091930
  0
LINE
  8
1
 62
7
  6
CONTINUOUS
 10
230.441541
 20
495.091930
 11
230.441541
 21
484.591930
  0
LINE
  8
1
 62
7
  6
CONTINUOUS
 10
230.441541
 20
484.591930
 11
219.941541
 21
484.591930
  0
LINE
  8
1
 62
7
  6
CONTINUOUS
 10
237.441541
 20
484.591930
 11
237.441541
 21
495.091930
  0
LINE
  8
1
 62
7
  6
CONTINUOUS
 10
237.441541
 20
495.091930
 11
247.941541
 21
495.091930
  0
LINE
  8
1
 62
7
  6
CONTINUOUS
 10
247.941541
 20
495.091930
 11
247.941541
 21
484.591930
  0
LINE
  8
1
 62
7
  6
CONTINUOUS
 10
247.941541
 20
484.591930
 11
237.441541
 21
484.591930
  0
LINE
  8
1
 62
7
  6
CONTINUOUS
 10
184.941541
 20
502.091930
 11
184.941541
 21
512.591930
  0
LINE
  8
1
 62
7
  6
CONTINUOUS
 10
184.941541
 20
512.591930
 11
195.441541
 21
512.591930
  0
LINE
  8
1
 62
7
  6
CONTINUOUS
 10
195.441541
 20
512.591930
 11
195.441541
 21
502.091930
  0
LINE
  8
1
 62
7
  6
CONTINUOUS
 10
195.441541
 20
502.091930
 11
184.941541
 21
502.091930
  0
LINE
  8
1
 62
7
  6
CONTINUOUS
 10
202.441541
 20
502.091930
 11
202.441541
 21
512.591930
  0
LINE
  8
1
 62
7
  6
CONTINUOUS
 10
202.441541
 20
512.591930
 11
212.941541
 21
512.591930
  0
LINE
  8
1
 62
7
  6
CONTINUOUS
 10
212.941541
 20
512.591930
 11
212.941541
 21
502.091930
  0
LINE
  8
1
 62
7
  6
CONTINUOUS
 10
212.941541
 20
502.091930
 11
202.441541
 21
502.091930
  0
LINE
  8
1
 62
7
  6
CONTINUOUS
 10
219.941541
 20
502.091930
 11
219.941541
 21
512.591930
  0
LINE
  8
1
 62
7
  6
CONTINUOUS
 10
219.941541
 20
512.591930
 11
230.441541
 21
512.591930
  0
LINE
  8
1
 62
7
  6
CONTINUOUS
 10
230.441541
 20
512.591930
 11
230.441541
 21
502.091930
  0
LINE
  8
1
 62
7
  6
CONTINUOUS
 10
230.441541
 20
502.091930
 11
219.941541
 21
502.091930
  0
LINE
  8
1
 62
7
  6
CONTINUOUS
 10
237.441541
 20
502.091930
 11
237.441541
 21
512.591930
  0
LINE
  8
1
 62
7
  6
CONTINUOUS
 10
237.441541
 20
512.591930
 11
247.941541
 21
512.591930
  0
LINE
  8
1
 62
7
  6
CONTINUOUS
 10
247.941541
 20
512.591930
 11
247.941541
 21
502.091930
  0
LINE
  8
1
 62
7
  6
CONTINUOUS
 10
247.941541
 20
502.091930
 11
237.441541
 21
502.091930
  0
DIMENSION
  8
1
 62
7
  6
CONTINUOUS
  2
*D1
 10
184.941541
 20
427.927556
 11
216.441541
 21
427.927556
 70
     0
  1
63
 13
184.941541
 23
445.591930
 14
247.941541
 24
445.591930
 50
0.000000
  0
LINE
  8
1
 62
7
  6
CONTINUOUS
 10
216.441541
 20
480.153854
 11
216.441541
 21
482.074821
  0
LINE
  8
1
 62
7
  6
CONTINUOUS
 10
215.421443
 20
481.091930
 11
217.431168
 21
481.091930
  0
LINE
  8
1
 62
7
  6
CONTINUOUS
 10
150.074966
 20
246.914718
 11
150.074966
 21
257.414718
  0
LINE
  8
1
 62
7
  6
CONTINUOUS
 10
150.074966
 20
257.414718
 11
160.574966
 21
257.414718
  0
LINE
  8
1
 62
7
  6
CONTINUOUS
 10
160.574966
 20
257.414718
 11
160.574966
 21
246.914718
  0
LINE
  8
1
 62
7
  6
CONTINUOUS
 10
160.574966
 20
246.914718
 11
150.074966
 21
246.914718
  0
LINE
  8
1
 62
7
  6
CONTINUOUS
 10
167.574966
 20
246.914718
 11
167.574966
 21
257.414718
  0
LINE
  8
1
 62
7
  6
CONTINUOUS
 10
167.574966
 20
257.414718
 11
178.074966
 21
257.414718
  0
LINE
  8
1
 62
7
  6
CONTINUOUS
 10
178.074966
 20
257.414718
 11
178.074966
 21
246.914718
  0
LINE
  8
1
 62
7
  6
CONTINUOUS
 10
178.074966
 20
246.914718
 11
167.574966
 21
246.914718
  0
LINE
  8
1
 62
7
  6
CONTINUOUS
 10
185.074966
 20
246.914718
 11
185.074966
 21
257.414718
  0
LINE
  8
1
 62
7
  6
CONTINUOUS
 10
185.074966
 20
257.414718
 11
195.574966
 21
257.414718
  0
LINE
  8
1
 62
7
  6
CONTINUOUS
 10
195.574966
 20
257.414718
 11
195.574966
 21
246.914718
  0
LINE
  8
1
 62
7
  6
CONTINUOUS
 10
195.574966
 20
246.914718
 11
185.074966
 21
246.914718
  0
LINE
  8
1
 62
7
  6
CONTINUOUS
 10
202.574966
 20
246.914718
 11
202.574966
 21
257.414718
  0
LINE
  8
1
 62
7
  6
CONTINUOUS
 10
202.574966
 20
257.414718
 11
213.074966
 21
257.414718
  0
LINE
  8
1
 62
7
  6
CONTINUOUS
 10
213.074966
 20
257.414718
 11
213.074966
 21
246.914718
  0
LINE
  8
1
 62
7
  6
CONTINUOUS
 10
213.074966
 20
246.914718
 11
202.574966
 21
246.914718
  0
LINE
  8
1
 62
7
  6
CONTINUOUS
 10
150.074966
 20
264.414718
 11
150.074966
 21
274.914718
  0
LINE
  8
1
 62
7
  6
CONTINUOUS
 10
150.074966
 20
274.914718
 11
160.574966
 21
274.914718
  0
LINE
  8
1
 62
7
  6
CONTINUOUS
 10
160.574966
 20
274.914718
 11
160.574966
 21
264.414718
  0
LINE
  8
1
 62
7
  6
CONTINUOUS
 10
160.574966
 20
264.414718
 11
150.074966
 21
264.414718
  0
LINE
  8
1
 62
7
  6
CONTINUOUS
 10
167.574966
 20
264.414718
 11
167.574966
 21
274.914718
  0
LINE
  8
1
 62
7
  6
CONTINUOUS
 10
167.574966
 20
274.914718
 11
178.074966
 21
274.914718
  0
LINE
  8
1
 62
7
  6
CONTINUOUS
 10
178.074966
 20
274.914718
 11
178.074966
 21
264.414718
  0
LINE
  8
1
 62
7
  6
CONTINUOUS
 10
178.074966
 20
264.414718
 11
167.574966
 21
264.414718
  0
LINE
  8
1
 62
7
  6
CONTINUOUS
 10
185.074966
 20
264.414718
 11
185.074966
 21
274.914718
  0
LINE
  8
1
 62
7
  6
CONTINUOUS
 10
185.074966
 20
274.914718
 11
195.574966
 21
274.914718
  0
LINE
  8
1
 62
7
  6
CONTINUOUS
 10
195.574966
 20
274.914718
 11
195.574966
 21
264.414718
  0
LINE
  8
1
 62
7
  6
CONTINUOUS
 10
195.574966
 20
264.414718
 11
185.074966
 21
264.414718
  0
LINE
  8
1
 62
7
  6
CONTINUOUS
 10
202.574966
 20
264.414718
 11
202.574966
 21
274.914718
  0
LINE
  8
1
 62
7
  6
CONTINUOUS
 10
202.574966
 20
274.914718
 11
213.074966
 21
274.914718
  0
LINE
  8
1
 62
7
  6
CONTINUOUS
 10
213.074966
 20
274.914718
 11
213.074966
 21
264.414718
  0
LINE
  8
1
 62
7
  6
CONTINUOUS
 10
213.074966
 20
264.414718
 11
202.574966
 21
264.414718
  0
LINE
  8
1
 62
7
  6
CONTINUOUS
 10
150.074966
 20
281.914718
 11
150.074966
 21
292.414718
  0
LINE
  8
1
 62
7
  6
CONTINUOUS
 10
150.074966
 20
292.414718
 11
160.574966
 21
292.414718
  0
LINE
  8
1
 62
7
  6
CONTINUOUS
 10
160.574966
 20
292.414718
 11
160.574966
 21
281.914718
  0
LINE
  8
1
 62
7
  6
CONTINUOUS
 10
160.574966
 20
281.914718
 11
150.074966
 21
281.914718
  0
LINE
  8
1
 62
7
  6
CONTINUOUS
 10
167.574966
 20
281.914718
 11
167.574966
 21
292.414718
  0
LINE
  8
1
 62
7
  6
CONTINUOUS
 10
167.574966
 20
292.414718
 11
178.074966
 21
292.414718
  0
LINE
  8
1
 62
7
  6
CONTINUOUS
 10
178.074966
 20
292.414718
 11
178.074966
 21
281.914718
  0
LINE
  8
1
 62
7
  6
CONTINUOUS
 10
178.074966
 20
281.914718
 11
167.574966
 21
281.914718
  0
LINE
  8
1
 62
7
  6
CONTINUOUS
 10
185.074966
 20
281.914718
 11
185.074966
 21
292.414718
  0
LINE
  8
1
 62
7
  6
CONTINUOUS
 10
185.074966
 20
292.414718
 11
195.574966
 21
292.414718
  0
LINE
  8
1
 62
7
  6
CONTINUOUS
 10
195.574966
 20
292.414718
 11
195.574966
 21
281.914718
  0
LINE
  8
1
 62
7
  6
CONTINUOUS
 10
195.574966
 20
281.914718
 11
185.074966
 21
281.914718
  0
LINE
  8
1
 62
7
  6
CONTINUOUS
 10
202.574966
 20
281.914718
 11
202.574966
 21
292.414718
  0
LINE
  8
1
 62
7
  6
CONTINUOUS
 10
202.574966
 20
292.414718
 11
213.074966
 21
292.414718
  0
LINE
  8
1
 62
7
  6
CONTINUOUS
 10
213.074966
 20
292.414718
 11
213.074966
 21
281.914718
  0
LINE
  8
1
 62
7
  6
CONTINUOUS
 10
213.074966
 20
281.914718
 11
202.574966
 21
281.914718
  0
DIMENSION
  8
1
 62
7
  6
CONTINUOUS
  2
*D2
 10
245.529574
 20
269.365734
 11
245.529574
 21
278.115734
 70
     0
  1
17.5
 13
235.574966
 23
269.365734
 14
235.574966
 24
286.865734
 50
90.000000
  0
CIRCLE
  8
1
 62
7
  6
CONTINUOUS
 10
407.718172
 20
278.951551
 40
2.500000
  0
LINE
  8
1
 62
7
  6
CONTINUOUS
 10
407.718172
 20
280.384533
 11
407.718172
 21
277.531611
  0
LINE
  8
1
 62
7
  6
CONTINUOUS
 10
409.073030
 20
278.951551
 11
406.220108
 21
278.951551
  0
LINE
  8
1
 62
7
  6
CONTINUOUS
 10
364.214580
 20
292.367416
 11
366.214580
 21
292.367416
  0
LINE
  8
1
 62
7
  6
CONTINUOUS
 10
448.214580
 20
292.367416
 11
450.214580
 21
292.367416
  0
LINE
  8
1
 62
7
  6
CONTINUOUS
 10
150.074966
 20
334.414718
 11
150.074966
 21
344.914718
  0
LINE
  8
1
 62
7
  6
CONTINUOUS
 10
150.074966
 20
344.914718
 11
160.574966
 21
344.914718
  0
LINE
  8
1
 62
7
  6
CONTINUOUS
 10
160.574966
 20
344.914718
 11
160.574966
 21
334.414718
  0
LINE
  8
1
 62
7
  6
CONTINUOUS
 10
160.574966
 20
334.414718
 11
150.074966
 21
334.414718
  0
LINE
  8
1
 62
7
  6
CONTINUOUS
 10
167.574966
 20
334.414718
 11
167.574966
 21
344.914718
  0
LINE
  8
1
 62
7
  6
CONTINUOUS
 10
167.574966
 20
344.914718
 11
178.074966
 21
344.914718
  0
LINE
  8
1
 62
7
  6
CONTINUOUS
 10
178.074966
 20
344.914718
 11
178.074966
 21
334.414718
  0
LINE
  8
1
 62
7
  6
CONTINUOUS
 10
178.074966
 20
334.414718
 11
167.574966
 21
334.414718
  0
LINE
  8
1
 62
7
  6
CONTINUOUS
 10
185.074966
 20
334.414718
 11
185.074966
 21
344.914718
  0
LINE
  8
1
 62
7
  6
CONTINUOUS
 10
185.074966
 20
344.914718
 11
195.574966
 21
344.914718
  0
LINE
  8
1
 62
7
  6
CONTINUOUS
 10
195.574966
 20
344.914718
 11
195.574966
 21
334.414718
  0
LINE
  8
1
 62
7
  6
CONTINUOUS
 10
195.574966
 20
334.414718
 11
185.074966
 21
334.414718
  0
LINE
  8
1
 62
7
  6
CONTINUOUS
 10
202.574966
 20
334.414718
 11
202.574966
 21
344.914718
  0
LINE
  8
1
 62
7
  6
CONTINUOUS
 10
202.574966
 20
344.914718
 11
213.074966
 21
344.914718
  0
LINE
  8
1
 62
7
  6
CONTINUOUS
 10
213.074966
 20
344.914718
 11
213.074966
 21
334.414718
  0
LINE
  8
1
 62
7
  6
CONTINUOUS
 10
213.074966
 20
334.414718
 11
202.574966
 21
334.414718
  0
LINE
  8
1
 62
7
  6
CONTINUOUS
 10
150.074966
 20
299.414718
 11
150.074966
 21
309.914718
  0
LINE
  8
1
 62
7
  6
CONTINUOUS
 10
150.074966
 20
309.914718
 11
160.574966
 21
309.914718
  0
LINE
  8
1
 62
7
  6
CONTINUOUS
 10
160.574966
 20
309.914718
 11
160.574966
 21
299.414718
  0
LINE
  8
1
 62
7
  6
CONTINUOUS
 10
160.574966
 20
299.414718
 11
150.074966
 21
299.414718
  0
LINE
  8
1
 62
7
  6
CONTINUOUS
 10
167.574966
 20
299.414718
 11
167.574966
 21
309.914718
  0
LINE
  8
1
 62
7
  6
CONTINUOUS
 10
167.574966
 20
309.914718
 11
178.074966
 21
309.914718
  0
LINE
  8
1
 62
7
  6
CONTINUOUS
 10
178.074966
 20
309.914718
 11
178.074966
 21
299.414718
  0
LINE
  8
1
 62
7
  6
CONTINUOUS
 10
178.074966
 20
299.414718
 11
167.574966
 21
299.414718
  0
LINE
  8
1
 62
7
  6
CONTINUOUS
 10
185.074966
 20
299.414718
 11
185.074966
 21
309.914718
  0
LINE
  8
1
 62
7
  6
CONTINUOUS
 10
185.074966
 20
309.914718
 11
195.574966
 21
309.914718
  0
LINE
  8
1
 62
7
  6
CONTINUOUS
 10
195.574966
 20
309.914718
 11
195.574966
 21
299.414718
  0
LINE
  8
1
 62
7
  6
CONTINUOUS
 10
195.574966
 20
299.414718
 11
185.074966
 21
299.414718
  0
LINE
  8
1
 62
7
  6
CONTINUOUS
 10
202.574966
 20
299.414718
 11
202.574966
 21
309.914718
  0
LINE
  8
1
 62
7
  6
CONTINUOUS
 10
202.574966
 20
309.914718
 11
213.074966
 21
309.914718
  0
LINE
  8
1
 62
7
  6
CONTINUOUS
 10
213.074966
 20
309.914718
 11
213.074966
 21
299.414718
  0
LINE
  8
1
 62
7
  6
CONTINUOUS
 10
213.074966
 20
299.414718
 11
202.574966
 21
299.414718
  0
LINE
  8
1
 62
7
  6
CONTINUOUS
 10
150.074966
 20
316.914718
 11
150.074966
 21
327.414718
  0
LINE
  8
1
 62
7
  6
CONTINUOUS
 10
150.074966
 20
327.414718
 11
160.574966
 21
327.414718
  0
LINE
  8
1
 62
7
  6
CONTINUOUS
 10
160.574966
 20
327.414718
 11
160.574966
 21
316.914718
  0
LINE
  8
1
 62
7
  6
CONTINUOUS
 10
160.574966
 20
316.914718
 11
150.074966
 21
316.914718
  0
LINE
  8
1
 62
7
  6
CONTINUOUS
 10
167.574966
 20
316.914718
 11
167.574966
 21
327.414718
  0
LINE
  8
1
 62
7
  6
CONTINUOUS
 10
167.574966
 20
327.414718
 11
178.074966
 21
327.414718
  0
LINE
  8
1
 62
7
  6
CONTINUOUS
 10
178.074966
 20
327.414718
 11
178.074966
 21
316.914718
  0
LINE
  8
1
 62
7
  6
CONTINUOUS
 10
178.074966
 20
316.914718
 11
167.574966
 21
316.914718
  0
LINE
  8
1
 62
7
  6
CONTINUOUS
 10
185.074966
 20
316.914718
 11
185.074966
 21
327.414718
  0
LINE
  8
1
 62
7
  6
CONTINUOUS
 10
185.074966
 20
327.414718
 11
195.574966
 21
327.414718
  0
LINE
  8
1
 62
7
  6
CONTINUOUS
 10
195.574966
 20
327.414718
 11
195.574966
 21
316.914718
  0
LINE
  8
1
 62
7
  6
CONTINUOUS
 10
195.574966
 20
316.914718
 11
185.074966
 21
316.914718
  0
LINE
  8
1
 62
7
  6
CONTINUOUS
 10
202.574966
 20
316.914718
 11
202.574966
 21
327.414718
  0
LINE
  8
1
 62
7
  6
CONTINUOUS
 10
202.574966
 20
327.414718
 11
213.074966
 21
327.414718
  0
LINE
  8
1
 62
7
  6
CONTINUOUS
 10
213.074966
 20
327.414718
 11
213.074966
 21
316.914718
  0
LINE
  8
1
 62
7
  6
CONTINUOUS
 10
213.074966
 20
316.914718
 11
202.574966
 21
316.914718
  0
LINE
  8
1
 62
7
  6
CONTINUOUS
 10
447.214580
 20
354.203576
 11
367.214580
 21
354.203576
  0
LINE
  8
1
 62
7
  6
CONTINUOUS
 10
362.214580
 20
359.203576
 11
362.214580
 21
349.203576
  0
LINE
  8
1
 62
7
  6
CONTINUOUS
 10
452.214580
 20
359.203576
 11
442.214580
 21
359.203576
  0
LINE
  8
1
 62
7
  6
CONTINUOUS
 10
372.214580
 20
359.203576
 11
362.214580
 21
359.203576
  0
LINE
  8
1
 62
7
  6
CONTINUOUS
 10
452.214580
 20
349.203576
 11
452.214580
 21
359.203576
  0
LINE
  8
1
 62
7
  6
CONTINUOUS
 10
364.214580
 20
350.123771
 11
366.214580
 21
350.123771
  0
LINE
  8
1
 62
7
  6
CONTINUOUS
 10
371.122319
 20
357.203576
 11
371.122319
 21
355.203576
  0
LINE
  8
1
 62
7
  6
CONTINUOUS
 10
372.214580
 20
359.203576
 11
372.214580
 21
357.203576
  0
LINE
  8
1
 62
7
  6
CONTINUOUS
 10
364.214580
 20
357.203576
 11
364.214580
 21
350.123771
  0
LINE
  8
1
 62
7
  6
CONTINUOUS
 10
371.122319
 20
357.203576
 11
364.214580
 21
357.203576
  0
LINE
  8
1
 62
7
  6
CONTINUOUS
 10
364.214580
 20
349.203576
 11
362.214580
 21
349.203576
  0
LINE
  8
1
 62
7
  6
CONTINUOUS
 10
442.214580
 20
357.203576
 11
442.214580
 21
359.203576
  0
LINE
  8
1
 62
7
  6
CONTINUOUS
 10
452.214580
 20
349.203576
 11
450.214580
 21
349.203576
  0
LINE
  8
1
 62
7
  6
CONTINUOUS
 10
443.615059
 20
355.203576
 11
371.122319
 21
355.203576
  0
LINE
  8
1
 62
7
  6
CONTINUOUS
 10
443.615059
 20
357.203576
 11
443.615059
 21
355.203576
  0
LINE
  8
1
 62
7
  6
CONTINUOUS
 10
450.214580
 20
350.466122
 11
448.214580
 21
350.466122
  0
LINE
  8
1
 62
7
  6
CONTINUOUS
 10
450.214580
 20
357.203576
 11
443.615059
 21
357.203576
  0
LINE
  8
1
 62
7
  6
CONTINUOUS
 10
442.214580
 20
357.203576
 11
372.214580
 21
357.203576
  0
LINE
  8
1
 62
7
  6
CONTINUOUS
 10
450.214580
 20
350.466122
 11
450.214580
 21
357.203576
  0
CIRCLE
  8
1
 62
7
  6
CONTINUOUS
 10
371.714580
 20
349.703576
 40
2.500000
  0
CIRCLE
  8
1
 62
7
  6
CONTINUOUS
 10
442.714580
 20
349.703576
 40
2.500000
  0
LINE
  8
1
 62
7
  6
CONTINUOUS
 10
442.714580
 20
348.283636
 11
442.714580
 21
351.193617
  0
LINE
  8
1
 62
7
  6
CONTINUOUS
 10
444.107188
 20
349.703576
 11
441.311325
 21
349.703576
  0
LINE
  8
1
 62
7
  6
CONTINUOUS
 10
371.714580
 20
351.136558
 11
371.714580
 21
348.283636
  0
LINE
  8
1
 62
7
  6
CONTINUOUS
 10
373.069438
 20
349.703576
 11
370.216516
 21
349.703576
  0
LINE
  8
1
 62
7
  6
CONTINUOUS
 10
299.574966
 20
359.203576
 11
309.574966
 21
359.203576
  0
LINE
  8
1
 62
7
  6
CONTINUOUS
 10
299.574966
 20
349.203576
 11
309.574966
 21
349.203576
  0
LINE
  8
1
 62
7
  6
CONTINUOUS
 10
299.574966
 20
363.914718
 11
299.510332
 21
363.914718
  0
LINE
  8
1
 62
7
  6
CONTINUOUS
 10
296.574966
 20
355.414718
 11
299.510332
 21
363.914718
  0
LINE
  8
1
 62
7
  6
CONTINUOUS
 10
367.214580
 20
238.203576
 11
447.214580
 21
238.203576
  0
LINE
  8
1
 62
7
  6
CONTINUOUS
 10
362.214580
 20
243.203576
 11
362.214580
 21
233.203576
  0
LINE
  8
1
 62
7
  6
CONTINUOUS
 10
452.214580
 20
233.203576
 11
452.214580
 21
243.203576
  0
LINE
  8
1
 62
7
  6
CONTINUOUS
 10
450.214580
 20
241.716618
 11
448.214580
 21
241.716618
  0
LINE
  8
1
 62
7
  6
CONTINUOUS
 10
364.214580
 20
241.716618
 11
366.214580
 21
241.716618
  0
LINE
  8
1
 62
7
  6
CONTINUOUS
 10
362.214580
 20
243.203576
 11
364.214580
 21
243.203576
  0
LINE
  8
1
 62
7
  6
CONTINUOUS
 10
450.214580
 20
243.203576
 11
452.214580
 21
243.203576
  0
LINE
  8
1
 62
7
  6
CONTINUOUS
 10
364.214580
 20
241.716618
 11
364.214580
 21
235.203576
  0
LINE
  8
1
 62
7
  6
CONTINUOUS
 10
450.214580
 20
235.203576
 11
450.214580
 21
241.716618
  0
CIRCLE
  8
1
 62
7
  6
CONTINUOUS
 10
442.714580
 20
242.703576
 40
2.500000
  0
CIRCLE
  8
1
 62
7
  6
CONTINUOUS
 10
371.714580
 20
242.703576
 40
2.500000
  0
LINE
  8
1
 62
7
  6
CONTINUOUS
 10
370.102400
 20
242.703576
 11
373.354730
 21
242.703576
  0
LINE
  8
1
 62
7
  6
CONTINUOUS
 10
371.714580
 20
244.384100
 11
371.714580
 21
241.245886
  0
LINE
  8
1
 62
7
  6
CONTINUOUS
 10
441.311325
 20
242.703576
 11
444.335422
 21
242.703576
  0
LINE
  8
1
 62
7
  6
CONTINUOUS
 10
442.714580
 20
241.074711
 11
442.714580
 21
244.327042
  0
CIRCLE
  8
1
 62
7
  6
CONTINUOUS
 10
400.864580
 20
242.203576
 40
0.500000
  0
ARC
  8
1
 62
7
  6
CONTINUOUS
 10
400.864580
 20
242.203576
 40
0.808968
 50
0.000000
 51
180.000000
  0
LINE
  8
1
 62
7
  6
CONTINUOUS
 10
299.574966
 20
233.203576
 11
309.574966
 21
233.203576
  0
LINE
  8
1
 62
7
  6
CONTINUOUS
 10
299.574966
 20
243.203576
 11
309.574966
 21
243.203576
  0
LINE
  8
1
 62
7
  6
CONTINUOUS
 10
299.574966
 20
227.914718
 11
299.490632
 21
227.914718
  0
LINE
  8
1
 62
7
  6
CONTINUOUS
 10
296.574966
 20
236.414718
 11
299.490632
 21
227.914718
  0
DIMENSION
  8
1
 62
7
  6
CONTINUOUS
  2
*D3
 10
362.214580
 20
204.311249
 11
407.214580
 21
204.311249
 70
     0
  1
90
 13
362.214580
 23
229.203576
 14
452.214580
 24
229.203576
 50
0.000000
  0
CIRCLE
  8
1
 62
7
  6
CONTINUOUS
 10
395.209216
 20
173.132737
 40
1.000000
  0
ARC
  8
1
 62
7
  6
CONTINUOUS
 10
395.209216
 20
173.132737
 40
1.617935
 50
0.000000
 51
180.000000
  0
TEXT
  8
1
 62
7
  6
CONTINUOUS
 10
428.596804
 20
173.869782
 40
4.000000
 41
0.500000
  1
1
  7
KANJI
 50
0.000000
 51
0.000000
  0
LINE
  8
1
 62
7
  6
CONTINUOUS
 10
369.289317
 20
165.132737
 11
447.345254
 21
165.132737
  0
LINE
  8
1
 62
7
  6
CONTINUOUS
 10
231.574966
 20
164.914718
 11
131.574966
 21
164.914718
  0
LINE
  8
1
 62
7
  6
CONTINUOUS
 10
136.574966
 20
154.914718
 11
136.574966
 21
164.914718
  0
LINE
  8
1
 62
7
  6
CONTINUOUS
 10
226.574966
 20
154.914718
 11
226.574966
 21
164.914718
  0
LINE
  8
1
 62
7
  6
CONTINUOUS
 10
131.574966
 20
165.371245
 11
140.074966
 21
167.914718
  0
LINE
  8
1
 62
7
  6
CONTINUOUS
 10
231.574966
 20
165.472682
 11
223.074966
 21
167.914718
  0
LINE
  8
1
 62
7
  6
CONTINUOUS
 10
223.074966
 20
167.914718
 11
140.074966
 21
167.914718
  0
LINE
  8
1
 62
7
  6
CONTINUOUS
 10
231.574966
 20
164.914718
 11
231.574966
 21
165.472682
  0
LINE
  8
1
 62
7
  6
CONTINUOUS
 10
131.574966
 20
164.914718
 11
131.574966
 21
165.371245
  0
LINE
  8
1
 62
7
  6
CONTINUOUS
 10
136.243024
 20
163.657589
 11
136.243024
 21
164.857589
  0
LINE
  8
1
 62
7
  6
CONTINUOUS
 10
125.028136
 20
165.958370
 11
122.503476
 21
162.509505
  0
LINE
  8
1
 62
7
  6
CONTINUOUS
 10
136.243024
 20
163.657589
 11
123.240728
 21
163.657589
  0
LINE
  8
1
 62
7
  6
CONTINUOUS
 10
136.243024
 20
164.857589
 11
124.222335
 21
164.857589
  0
LINE
  8
1
 62
7
  6
CONTINUOUS
 10
135.873317
 20
163.657589
 11
136.243024
 21
164.027295
  0
LINE
  8
1
 62
7
  6
CONTINUOUS
 10
134.459104
 20
163.657589
 11
135.659104
 21
164.857589
  0
LINE
  8
1
 62
7
  6
CONTINUOUS
 10
133.044890
 20
163.657589
 11
134.244890
 21
164.857589
  0
LINE
  8
1
 62
7
  6
CONTINUOUS
 10
131.630677
 20
163.657589
 11
132.830677
 21
164.857589
  0
LINE
  8
1
 62
7
  6
CONTINUOUS
 10
130.216463
 20
163.657589
 11
131.416463
 21
164.857589
  0
LINE
  8
1
 62
7
  6
CONTINUOUS
 10
128.802250
 20
163.657589
 11
130.002250
 21
164.857589
  0
LINE
  8
1
 62
7
  6
CONTINUOUS
 10
127.388036
 20
163.657589
 11
128.588036
 21
164.857589
  0
LINE
  8
1
 62
7
  6
CONTINUOUS
 10
125.973822
 20
163.657589
 11
127.173822
 21
164.857589
  0
LINE
  8
1
 62
7
  6
CONTINUOUS
 10
124.559609
 20
163.657589
 11
125.759609
 21
164.857589
  0
LINE
  8
1
 62
7
  6
CONTINUOUS
 10
123.886169
 20
164.398363
 11
124.345395
 21
164.857589
  0
LINE
  8
1
 62
7
  6
CONTINUOUS
 10
226.906907
 20
163.657589
 11
226.906907
 21
164.857589
  0
LINE
  8
1
 62
7
  6
CONTINUOUS
 10
238.121796
 20
165.958370
 11
240.646455
 21
162.509505
  0
LINE
  8
1
 62
7
  6
CONTINUOUS
 10
226.906907
 20
163.657589
 11
239.909204
 21
163.657589
  0
LINE
  8
1
 62
7
  6
CONTINUOUS
 10
226.906907
 20
164.857589
 11
238.927597
 21
164.857589
  0
LINE
  8
1
 62
7
  6
CONTINUOUS
 10
239.110907
 20
163.657589
 11
239.512241
 21
164.058922
  0
LINE
  8
1
 62
7
  6
CONTINUOUS
 10
237.696694
 20
163.657589
 11
238.896694
 21
164.857589
  0
LINE
  8
1
 62
7
  6
CONTINUOUS
 10
236.282480
 20
163.657589
 11
237.482480
 21
164.857589
  0
LINE
  8
1
 62
7
  6
CONTINUOUS
 10
234.868267
 20
163.657589
 11
236.068267
 21
164.857589
  0
LINE
  8
1
 62
7
  6
CONTINUOUS
 10
233.454053
 20
163.657589
 11
234.654053
 21
164.857589
  0
LINE
  8
1
 62
7
  6
CONTINUOUS
 10
232.039840
 20
163.657589
 11
233.239840
 21
164.857589
  0
LINE
  8
1
 62
7
  6
CONTINUOUS
 10
230.625626
 20
163.657589
 11
231.825626
 21
164.857589
  0
LINE
  8
1
 62
7
  6
CONTINUOUS
 10
229.211412
 20
163.657589
 11
230.411412
 21
164.857589
  0
LINE
  8
1
 62
7
  6
CONTINUOUS
 10
227.797199
 20
163.657589
 11
228.997199
 21
164.857589
  0
LINE
  8
1
 62
7
  6
CONTINUOUS
 10
226.906907
 20
164.181510
 11
227.582985
 21
164.857589
  0
LINE
  8
1
 62
7
  6
CONTINUOUS
 10
135.264946
 20
162.269896
 11
136.574966
 21
156.995161
  0
LINE
  8
1
 62
7
  6
CONTINUOUS
 10
136.423785
 20
164.154247
 11
136.423785
 21
163.887882
  0
LINE
  8
1
 62
7
  6
CONTINUOUS
 10
136.423785
 20
163.887882
 11
136.259976
 21
163.887882
  0
LINE
  8
1
 62
7
  6
CONTINUOUS
 10
136.259976
 20
163.887882
 11
136.259976
 21
163.637420
  0
LINE
  8
1
 62
7
  6
CONTINUOUS
 10
136.259976
 20
163.637420
 11
136.105946
 21
163.637420
  0
LINE
  8
1
 62
7
  6
CONTINUOUS
 10
136.105946
 20
163.637420
 11
136.105946
 21
163.356902
  0
LINE
  8
1
 62
7
  6
CONTINUOUS
 10
136.105946
 20
163.356902
 11
135.933433
 21
163.356902
  0
LINE
  8
1
 62
7
  6
CONTINUOUS
 10
135.933433
 20
163.356902
 11
135.933433
 21
163.046329
  0
LINE
  8
1
 62
7
  6
CONTINUOUS
 10
135.933433
 20
163.046329
 11
135.742437
 21
163.046329
  0
LINE
  8
1
 62
7
  6
CONTINUOUS
 10
136.574966
 20
164.400078
 11
136.423785
 21
164.154247
  0
LINE
  8
1
 62
7
  6
CONTINUOUS
 10
135.742437
 20
163.046329
 11
135.264946
 21
162.269896
  0
LINE
  8
1
 62
7
  6
CONTINUOUS
 10
227.883922
 20
162.246774
 11
226.571268
 21
156.972694
  0
LINE
  8
1
 62
7
  6
CONTINUOUS
 10
226.726024
 20
164.131703
 11
226.725891
 21
163.865339
  0
LINE
  8
1
 62
7
  6
CONTINUOUS
 10
226.725891
 20
163.865339
 11
226.889700
 21
163.865257
  0
LINE
  8
1
 62
7
  6
CONTINUOUS
 10
226.889700
 20
163.865257
 11
226.889575
 21
163.614795
  0
LINE
  8
1
 62
7
  6
CONTINUOUS
 10
226.889575
 20
163.614795
 11
227.043604
 21
163.614718
  0
LINE
  8
1
 62
7
  6
CONTINUOUS
 10
227.043604
 20
163.614718
 11
227.043464
 21
163.334200
  0
LINE
  8
1
 62
7
  6
CONTINUOUS
 10
227.043464
 20
163.334200
 11
227.215977
 21
163.334114
  0
LINE
  8
1
 62
7
  6
CONTINUOUS
 10
227.215977
 20
163.334114
 11
227.215822
 21
163.023541
  0
LINE
  8
1
 62
7
  6
CONTINUOUS
 10
227.215822
 20
163.023541
 11
227.406818
 21
163.023445
  0
LINE
  8
1
 62
7
  6
CONTINUOUS
 10
226.574966
 20
164.377609
 11
226.726024
 21
164.131703
  0
LINE
  8
1
 62
7
  6
CONTINUOUS
 10
227.406818
 20
163.023445
 11
227.883922
 21
162.246774
  0
TEXT
  8
1
 62
7
  6
CONTINUOUS
 10
274.993122
 20
158.907000
 40
5.000000
 41
0.647059
  1
※　ﾊﾟﾈﾙ厚　1.2～3.0mm
  7
KANJI
 50
0.000000
 51
0.000000
  0
LINE
  8
1
 62
7
  6
CONTINUOUS
 10
367.214580
 20
354.203576
 11
367.214580
 21
238.203576
  0
LINE
  8
1
 62
7
  6
CONTINUOUS
 10
447.214580
 20
238.203576
 11
447.214580
 21
354.203576
  0
LINE
  8
1
 62
7
  6
CONTINUOUS
 10
448.214580
 20
241.716618
 11
448.214580
 21
350.466122
  0
LINE
  8
1
 62
7
  6
CONTINUOUS
 10
366.214580
 20
350.123771
 11
366.214580
 21
241.716618
  0
LINE
  8
1
 62
7
  6
CONTINUOUS
 10
299.574966
 20
363.914718
 11
299.574966
 21
227.914718
  0
LINE
  8
1
 62
7
  6
CONTINUOUS
 10
296.574966
 20
355.414718
 11
296.574966
 21
236.414718
  0
LINE
  8
1
 62
7
  6
CONTINUOUS
 10
309.574966
 20
359.203576
 11
309.574966
 21
233.203576
  0
DIMENSION
  8
1
 62
7
  6
CONTINUOUS
  2
*D4
 10
483.778083
 20
233.203576
 11
483.778083
 21
296.203576
 70
     0
  1
126
 13
456.214580
 23
233.203576
 14
456.214580
 24
359.203576
 50
90.000000
  0
LINE
  8
1
 62
7
  6
CONTINUOUS
 10
231.574966
 20
227.414718
 11
131.574966
 21
227.414718
  0
DIMENSION
  8
1
 62
7
  6
CONTINUOUS
  2
*D5
 10
131.574966
 20
194.404478
 11
181.574966
 21
194.404478
 70
     0
  1
100
 13
131.574966
 23
223.414718
 14
231.574966
 24
223.414718
 50
0.000000
  0
DIMENSION
  8
1
 62
7
  6
CONTINUOUS
  2
*D6
 10
172.523307
 20
210.601941
 11
181.273307
 21
210.601941
 70
     0
  1
17.5
 13
172.523307
 23
223.414718
 14
190.023307
 24
223.414718
 50
0.000000
  0
LINE
  8
1
 62
7
  6
CONTINUOUS
 10
357.214580
 20
227.703576
 11
457.214580
 21
227.703576
  0
LINE
  8
1
 62
7
  6
CONTINUOUS
 10
131.574966
 20
364.414718
 11
231.574966
 21
364.414718
  0
LINE
  8
1
 62
7
  6
CONTINUOUS
 10
457.214580
 20
364.703576
 11
357.214580
 21
364.703576
  0
LINE
  8
1
 62
7
  6
CONTINUOUS
 10
131.574966
 20
227.414718
 11
131.574966
 21
364.414718
  0
LINE
  8
1
 62
7
  6
CONTINUOUS
 10
231.574966
 20
364.414718
 11
231.574966
 21
227.414718
  0
DIMENSION
  8
1
 62
7
  6
CONTINUOUS
  2
*D7
 10
261.876815
 20
227.414718
 11
261.876815
 21
295.914718
 70
     0
  1
137
 13
235.574966
 23
227.414718
 14
235.574966
 24
364.414718
 50
90.000000
  0
LINE
  8
1
 62
7
  6
CONTINUOUS
 10
457.214580
 20
227.703576
 11
457.214580
 21
364.703576
  0
LINE
  8
1
 62
7
  6
CONTINUOUS
 10
357.214580
 20
364.703576
 11
357.214580
 21
227.703576
  0
LINE
  8
1
 62
7
  6
CONTINUOUS
 10
221.574966
 20
237.414718
 11
141.574966
 21
237.414718
  0
LINE
  8
1
 62
7
  6
CONTINUOUS
 10
223.074966
 20
235.914718
 11
140.074966
 21
235.914718
  0
DIMENSION
  8
1
 62
7
  6
CONTINUOUS
  2
*D8
 10
141.574966
 20
201.765016
 11
181.574966
 21
201.765016
 70
     0
  1
80
 13
141.574966
 23
233.414718
 14
221.574966
 24
233.414718
 50
0.000000
  0
LINE
  8
1
 62
7
  6
CONTINUOUS
 10
223.074966
 20
235.914718
 11
231.574966
 21
227.414718
  0
LINE
  8
1
 62
7
  6
CONTINUOUS
 10
140.074966
 20
235.914718
 11
131.574966
 21
227.414718
  0
LINE
  8
1
 62
7
  6
CONTINUOUS
 10
141.574966
 20
354.414718
 11
221.574966
 21
354.414718
  0
LINE
  8
1
 62
7
  6
CONTINUOUS
 10
140.074966
 20
355.914718
 11
223.074966
 21
355.914718
  0
LINE
  8
1
 62
7
  6
CONTINUOUS
 10
140.074966
 20
355.914718
 11
131.574966
 21
364.414718
  0
LINE
  8
1
 62
7
  6
CONTINUOUS
 10
223.074966
 20
355.914718
 11
231.574966
 21
364.414718
  0
LINE
  8
1
 62
7
  6
CONTINUOUS
 10
221.574966
 20
354.414718
 11
221.574966
 21
237.414718
  0
LINE
  8
1
 62
7
  6
CONTINUOUS
 10
141.574966
 20
237.414718
 11
141.574966
 21
354.414718
  0
LINE
  8
1
 62
7
  6
CONTINUOUS
 10
223.074966
 20
355.914718
 11
223.074966
 21
235.914718
  0
LINE
  8
1
 62
7
  6
CONTINUOUS
 10
140.074966
 20
235.914718
 11
140.074966
 21
355.914718
  0
DIMENSION
  8
1
 62
7
  6
CONTINUOUS
  2
*D9
 10
254.002751
 20
237.414718
 11
254.002751
 21
295.914718
 70
     0
  1
117
 13
225.574966
 23
237.414718
 14
225.574966
 24
354.414718
 50
90.000000
  0
LINE
  8
1
 62
7
  6
CONTINUOUS
 10
151.574966
 20
154.914718
 11
151.574966
 21
164.914718
  0
LINE
  8
1
 62
7
  6
CONTINUOUS
 10
211.574966
 20
154.914718
 11
211.574966
 21
164.914718
  0
LINE
  8
1
 62
7
  6
CONTINUOUS
 10
226.574966
 20
154.914718
 11
211.574966
 21
154.914718
  0
LINE
  8
1
 62
7
  6
CONTINUOUS
 10
151.574966
 20
154.914718
 11
136.574966
 21
154.914718
  0
LINE
  8
1
 62
7
  6
CONTINUOUS
 10
151.574966
 20
155.559518
 11
211.574966
 21
155.559518
  0
LINE
  8
1
 62
7
  6
CONTINUOUS
 10
151.574966
 20
157.159518
 11
211.574966
 21
157.159518
  0
LINE
  8
1
 62
7
  6
CONTINUOUS
 10
364.214580
 20
335.198686
 11
366.214580
 21
335.198686
  0
LINE
  8
1
 62
7
  6
CONTINUOUS
 10
448.214580
 20
335.198686
 11
450.214580
 21
335.198686
  0
LINE
  8
1
 62
7
  6
CONTINUOUS
 10
364.214580
 20
323.002445
 11
360.686230
 21
323.002445
  0
LINE
  8
1
 62
7
  6
CONTINUOUS
 10
360.686230
 20
323.002445
 11
360.686230
 21
333.593917
  0
LINE
  8
1
 62
7
  6
CONTINUOUS
 10
360.686230
 20
333.593917
 11
364.214580
 21
333.593917
  0
LINE
  8
1
 62
7
  6
CONTINUOUS
 10
450.214580
 20
323.002445
 11
453.742931
 21
323.002445
  0
LINE
  8
1
 62
7
  6
CONTINUOUS
 10
453.742931
 20
323.002445
 11
453.742931
 21
333.593917
  0
LINE
  8
1
 62
7
  6
CONTINUOUS
 10
453.742931
 20
333.593917
 11
450.214580
 21
333.593917
  0
LINE
  8
1
 62
7
  6
CONTINUOUS
 10
299.574966
 20
333.593917
 11
309.574966
 21
333.593917
  0
LINE
  8
1
 62
7
  6
CONTINUOUS
 10
299.574966
 20
323.002445
 11
309.574966
 21
323.002445
  0
LINE
  8
1
 62
7
  6
CONTINUOUS
 10
303.516735
 20
333.593917
 11
303.516735
 21
323.002445
  0
LINE
  8
1
 62
7
  6
CONTINUOUS
 10
302.921848
 20
333.593917
 11
302.921848
 21
323.002445
  0
LINE
  8
1
 62
7
  6
CONTINUOUS
 10
302.290684
 20
333.593917
 11
302.290684
 21
323.002445
  0
LINE
  8
1
 62
7
  6
CONTINUOUS
 10
301.636977
 20
333.593917
 11
301.636977
 21
323.002445
  0
LINE
  8
1
 62
7
  6
CONTINUOUS
 10
300.938187
 20
333.593917
 11
300.938187
 21
323.002445
  0
LINE
  8
1
 62
7
  6
CONTINUOUS
 10
300.374647
 20
333.593917
 11
300.374647
 21
323.002445
  0
LINE
  8
1
 62
7
  6
CONTINUOUS
 10
364.214580
 20
349.203576
 11
364.214580
 21
333.593917
  0
LINE
  8
1
 62
7
  6
CONTINUOUS
 10
450.214580
 20
333.593917
 11
450.214580
 21
349.203576
  0
LINE
  8
1
 62
7
  6
CONTINUOUS
 10
364.214580
 20
274.779153
 11
366.214580
 21
274.779153
  0
LINE
  8
1
 62
7
  6
CONTINUOUS
 10
448.214580
 20
274.779153
 11
450.214580
 21
274.779153
  0
LINE
  8
1
 62
7
  6
CONTINUOUS
 10
364.214580
 20
260.785572
 11
366.214580
 21
260.785572
  0
LINE
  8
1
 62
7
  6
CONTINUOUS
 10
448.214580
 20
260.785572
 11
450.214580
 21
260.785572
  0
LINE
  8
1
 62
7
  6
CONTINUOUS
 10
364.214580
 20
262.133578
 11
360.686230
 21
262.133578
  0
LINE
  8
1
 62
7
  6
CONTINUOUS
 10
360.686230
 20
262.133578
 11
360.686230
 21
272.725050
  0
LINE
  8
1
 62
7
  6
CONTINUOUS
 10
360.686230
 20
272.725050
 11
364.214580
 21
272.725050
  0
LINE
  8
1
 62
7
  6
CONTINUOUS
 10
450.214580
 20
262.133578
 11
453.742931
 21
262.133578
  0
LINE
  8
1
 62
7
  6
CONTINUOUS
 10
453.742931
 20
262.133578
 11
453.742931
 21
272.725050
  0
LINE
  8
1
 62
7
  6
CONTINUOUS
 10
453.742931
 20
272.725050
 11
450.214580
 21
272.725050
  0
LINE
  8
1
 62
7
  6
CONTINUOUS
 10
364.214580
 20
262.133578
 11
364.214580
 21
243.203576
  0
LINE
  8
1
 62
7
  6
CONTINUOUS
 10
450.214580
 20
243.203576
 11
450.214580
 21
262.133578
  0
LINE
  8
1
 62
7
  6
CONTINUOUS
 10
364.214580
 20
323.002445
 11
364.214580
 21
272.725050
  0
LINE
  8
1
 62
7
  6
CONTINUOUS
 10
450.214580
 20
272.725050
 11
450.214580
 21
323.002445
  0
LINE
  8
1
 62
7
  6
CONTINUOUS
 10
299.574966
 20
271.141678
 11
309.574966
 21
271.141678
  0
LINE
  8
1
 62
7
  6
CONTINUOUS
 10
299.574966
 20
260.550206
 11
309.574966
 21
260.550206
  0
LINE
  8
1
 62
7
  6
CONTINUOUS
 10
303.516735
 20
271.141678
 11
303.516735
 21
260.550206
  0
LINE
  8
1
 62
7
  6
CONTINUOUS
 10
302.921848
 20
271.141678
 11
302.921848
 21
260.550206
  0
LINE
  8
1
 62
7
  6
CONTINUOUS
 10
302.290684
 20
271.141678
 11
302.290684
 21
260.550206
  0
LINE
  8
1
 62
7
  6
CONTINUOUS
 10
301.636977
 20
271.141678
 11
301.636977
 21
260.550206
  0
LINE
  8
1
 62
7
  6
CONTINUOUS
 10
300.938187
 20
271.141678
 11
300.938187
 21
260.550206
  0
LINE
  8
1
 62
7
  6
CONTINUOUS
 10
300.374647
 20
271.141678
 11
300.374647
 21
260.550206
  0
TEXT
  8
1
 62
7
  6
CONTINUOUS
 10
419.992868
 20
242.572099
 40
2.000000
 41
0.500000
  1
1
  7
KANJI
 50
0.000000
 51
0.000000
  0
TEXT
  8
1
 62
7
  6
CONTINUOUS
 10
392.690407
 20
242.990527
 40
2.000000
 41
0.500000
  1
10
  7
KANJI
 50
0.000000
 51
0.000000
  0
CIRCLE
  8
1
 62
7
  6
CONTINUOUS
 10
395.784580
 20
242.203576
 40
0.500000
  0
ARC
  8
1
 62
7
  6
CONTINUOUS
 10
395.784580
 20
242.203576
 40
0.808968
 50
0.000000
 51
180.000000
  0
LINE
  8
1
 62
7
  6
CONTINUOUS
 10
394.975613
 20
242.203576
 11
394.975613
 21
238.846605
  0
LINE
  8
1
 62
7
  6
CONTINUOUS
 10
396.593548
 20
242.203576
 11
396.593548
 21
238.846605
  0
LINE
  8
1
 62
7
  6
CONTINUOUS
 10
395.392455
 20
238.846605
 11
395.392455
 21
238.203576
  0
LINE
  8
1
 62
7
  6
CONTINUOUS
 10
396.091244
 20
238.846605
 11
396.091244
 21
238.203576
  0
LINE
  8
1
 62
7
  6
CONTINUOUS
 10
394.975613
 20
238.846605
 11
395.392455
 21
238.846605
  0
LINE
  8
1
 62
7
  6
CONTINUOUS
 10
396.091244
 20
238.846605
 11
396.593548
 21
238.846605
  0
LINE
  8
1
 62
7
  6
CONTINUOUS
 10
397.974721
 20
238.846605
 11
397.974721
 21
238.203576
  0
LINE
  8
1
 62
7
  6
CONTINUOUS
 10
398.673510
 20
238.846605
 11
398.673510
 21
238.203576
  0
LINE
  8
1
 62
7
  6
CONTINUOUS
 10
400.499380
 20
238.846605
 11
400.499380
 21
238.203576
  0
LINE
  8
1
 62
7
  6
CONTINUOUS
 10
401.198170
 20
238.846605
 11
401.198170
 21
238.203576
  0
LINE
  8
1
 62
7
  6
CONTINUOUS
 10
403.044077
 20
238.846605
 11
403.044077
 21
238.203576
  0
LINE
  8
1
 62
7
  6
CONTINUOUS
 10
403.742866
 20
238.846605
 11
403.742866
 21
238.203576
  0
LINE
  8
1
 62
7
  6
CONTINUOUS
 10
405.588773
 20
238.846605
 11
405.588773
 21
238.203576
  0
LINE
  8
1
 62
7
  6
CONTINUOUS
 10
406.287563
 20
238.846605
 11
406.287563
 21
238.203576
  0
LINE
  8
1
 62
7
  6
CONTINUOUS
 10
408.173544
 20
238.846605
 11
408.173544
 21
238.203576
  0
LINE
  8
1
 62
7
  6
CONTINUOUS
 10
408.872334
 20
238.846605
 11
408.872334
 21
238.203576
  0
LINE
  8
1
 62
7
  6
CONTINUOUS
 10
410.668148
 20
238.846605
 11
410.668148
 21
238.203576
  0
LINE
  8
1
 62
7
  6
CONTINUOUS
 10
411.366938
 20
238.846605
 11
411.366938
 21
238.203576
  0
LINE
  8
1
 62
7
  6
CONTINUOUS
 10
413.212844
 20
238.846605
 11
413.212844
 21
238.203576
  0
LINE
  8
1
 62
7
  6
CONTINUOUS
 10
413.911634
 20
238.846605
 11
413.911634
 21
238.203576
  0
LINE
  8
1
 62
7
  6
CONTINUOUS
 10
415.737504
 20
238.846605
 11
415.737504
 21
238.203576
  0
LINE
  8
1
 62
7
  6
CONTINUOUS
 10
416.436294
 20
238.846605
 11
416.436294
 21
238.203576
  0
LINE
  8
1
 62
7
  6
CONTINUOUS
 10
418.262164
 20
238.846605
 11
418.262164
 21
238.203576
  0
LINE
  8
1
 62
7
  6
CONTINUOUS
 10
418.960953
 20
238.846605
 11
418.960953
 21
238.203576
  0
CIRCLE
  8
1
 62
7
  6
CONTINUOUS
 10
418.644580
 20
242.203576
 40
0.500000
  0
ARC
  8
1
 62
7
  6
CONTINUOUS
 10
418.644580
 20
242.203576
 40
0.808968
 50
0.000000
 51
180.000000
  0
LINE
  8
1
 62
7
  6
CONTINUOUS
 10
417.835613
 20
242.203576
 11
417.835613
 21
238.846605
  0
LINE
  8
1
 62
7
  6
CONTINUOUS
 10
419.453548
 20
242.203576
 11
419.453548
 21
238.846605
  0
CIRCLE
  8
1
 62
7
  6
CONTINUOUS
 10
416.104580
 20
242.203576
 40
0.500000
  0
ARC
  8
1
 62
7
  6
CONTINUOUS
 10
416.104580
 20
242.203576
 40
0.808968
 50
0.000000
 51
180.000000
  0
LINE
  8
1
 62
7
  6
CONTINUOUS
 10
416.913548
 20
242.203576
 11
416.913548
 21
238.846605
  0
LINE
  8
1
 62
7
  6
CONTINUOUS
 10
415.295613
 20
242.203576
 11
415.295613
 21
238.846605
  0
CIRCLE
  8
1
 62
7
  6
CONTINUOUS
 10
413.564580
 20
242.203576
 40
0.500000
  0
ARC
  8
1
 62
7
  6
CONTINUOUS
 10
413.564580
 20
242.203576
 40
0.808968
 50
0.000000
 51
180.000000
  0
LINE
  8
1
 62
7
  6
CONTINUOUS
 10
414.373548
 20
242.203576
 11
414.373548
 21
238.846605
  0
LINE
  8
1
 62
7
  6
CONTINUOUS
 10
412.755613
 20
242.203576
 11
412.755613
 21
238.846605
  0
CIRCLE
  8
1
 62
7
  6
CONTINUOUS
 10
411.024580
 20
242.203576
 40
0.500000
  0
ARC
  8
1
 62
7
  6
CONTINUOUS
 10
411.024580
 20
242.203576
 40
0.808968
 50
0.000000
 51
180.000000
  0
LINE
  8
1
 62
7
  6
CONTINUOUS
 10
411.833548
 20
242.203576
 11
411.833548
 21
238.846605
  0
LINE
  8
1
 62
7
  6
CONTINUOUS
 10
410.215613
 20
242.203576
 11
410.215613
 21
238.846605
  0
CIRCLE
  8
1
 62
7
  6
CONTINUOUS
 10
408.484580
 20
242.203576
 40
0.500000
  0
ARC
  8
1
 62
7
  6
CONTINUOUS
 10
408.484580
 20
242.203576
 40
0.808968
 50
0.000000
 51
180.000000
  0
LINE
  8
1
 62
7
  6
CONTINUOUS
 10
409.293548
 20
242.203576
 11
409.293548
 21
238.846605
  0
LINE
  8
1
 62
7
  6
CONTINUOUS
 10
407.675613
 20
242.203576
 11
407.675613
 21
238.846605
  0
CIRCLE
  8
1
 62
7
  6
CONTINUOUS
 10
405.944580
 20
242.203576
 40
0.500000
  0
ARC
  8
1
 62
7
  6
CONTINUOUS
 10
405.944580
 20
242.203576
 40
0.808968
 50
0.000000
 51
180.000000
  0
LINE
  8
1
 62
7
  6
CONTINUOUS
 10
406.753548
 20
242.203576
 11
406.753548
 21
238.846605
  0
LINE
  8
1
 62
7
  6
CONTINUOUS
 10
405.135613
 20
242.203576
 11
405.135613
 21
238.846605
  0
CIRCLE
  8
1
 62
7
  6
CONTINUOUS
 10
403.404580
 20
242.203576
 40
0.500000
  0
ARC
  8
1
 62
7
  6
CONTINUOUS
 10
403.404580
 20
242.203576
 40
0.808968
 50
0.000000
 51
180.000000
  0
LINE
  8
1
 62
7
  6
CONTINUOUS
 10
404.213548
 20
242.203576
 11
404.213548
 21
238.846605
  0
LINE
  8
1
 62
7
  6
CONTINUOUS
 10
402.595613
 20
242.203576
 11
402.595613
 21
238.781484
  0
LINE
  8
1
 62
7
  6
CONTINUOUS
 10
401.673548
 20
242.203576
 11
401.673548
 21
238.846605
  0
LINE
  8
1
 62
7
  6
CONTINUOUS
 10
400.055613
 20
242.203576
 11
400.055613
 21
238.846605
  0
CIRCLE
  8
1
 62
7
  6
CONTINUOUS
 10
398.324580
 20
242.203576
 40
0.500000
  0
ARC
  8
1
 62
7
  6
CONTINUOUS
 10
398.324580
 20
242.203576
 40
0.808968
 50
0.000000
 51
180.000000
  0
LINE
  8
1
 62
7
  6
CONTINUOUS
 10
399.133548
 20
242.203576
 11
399.133548
 21
238.846605
  0
LINE
  8
1
 62
7
  6
CONTINUOUS
 10
397.515613
 20
242.203576
 11
397.515613
 21
238.846605
  0
LINE
  8
1
 62
7
  6
CONTINUOUS
 10
397.515613
 20
238.846605
 11
397.974721
 21
238.846605
  0
LINE
  8
1
 62
7
  6
CONTINUOUS
 10
398.613399
 20
238.846605
 11
399.133548
 21
238.846605
  0
LINE
  8
1
 62
7
  6
CONTINUOUS
 10
400.055613
 20
238.846605
 11
400.499380
 21
238.846605
  0
LINE
  8
1
 62
7
  6
CONTINUOUS
 10
401.198170
 20
238.846605
 11
401.673548
 21
238.846605
  0
LINE
  8
1
 62
7
  6
CONTINUOUS
 10
402.595613
 20
238.846605
 11
403.044077
 21
238.846605
  0
LINE
  8
1
 62
7
  6
CONTINUOUS
 10
406.287563
 20
238.846605
 11
406.753548
 21
238.846605
  0
LINE
  8
1
 62
7
  6
CONTINUOUS
 10
407.675613
 20
238.846605
 11
408.173544
 21
238.846605
  0
LINE
  8
1
 62
7
  6
CONTINUOUS
 10
403.742866
 20
238.846605
 11
404.213548
 21
238.846605
  0
LINE
  8
1
 62
7
  6
CONTINUOUS
 10
405.135613
 20
238.846605
 11
405.588773
 21
238.846605
  0
LINE
  8
1
 62
7
  6
CONTINUOUS
 10
408.872334
 20
238.846605
 11
409.293548
 21
238.846605
  0
LINE
  8
1
 62
7
  6
CONTINUOUS
 10
410.215613
 20
238.846605
 11
410.668148
 21
238.846605
  0
LINE
  8
1
 62
7
  6
CONTINUOUS
 10
411.366938
 20
238.846605
 11
411.833548
 21
238.846605
  0
LINE
  8
1
 62
7
  6
CONTINUOUS
 10
412.755613
 20
238.846605
 11
413.212844
 21
238.846605
  0
LINE
  8
1
 62
7
  6
CONTINUOUS
 10
413.911634
 20
238.846605
 11
414.373548
 21
238.846605
  0
LINE
  8
1
 62
7
  6
CONTINUOUS
 10
415.295613
 20
238.846605
 11
415.737504
 21
238.846605
  0
LINE
  8
1
 62
7
  6
CONTINUOUS
 10
416.436294
 20
238.846605
 11
416.913548
 21
238.846605
  0
LINE
  8
1
 62
7
  6
CONTINUOUS
 10
417.835613
 20
238.846605
 11
418.262164
 21
238.846605
  0
LINE
  8
1
 62
7
  6
CONTINUOUS
 10
418.960953
 20
238.846605
 11
419.453548
 21
238.846605
  0
CIRCLE
  8
1
 62
7
  6
CONTINUOUS
 10
390.129216
 20
173.132737
 40
1.000000
  0
ARC
  8
1
 62
7
  6
CONTINUOUS
 10
390.129216
 20
173.132737
 40
1.617935
 50
0.000000
 51
180.000000
  0
TEXT
  8
1
 62
7
  6
CONTINUOUS
 10
374.505409
 20
173.869782
 40
4.000000
 41
0.500000
  1
10
  7
KANJI
 50
0.000000
 51
0.000000
  0
LINE
  8
1
 62
7
  6
CONTINUOUS
 10
410.449216
 20
174.132737
 11
415.906057
 21
184.519104
  0
LINE
  8
1
 62
7
  6
CONTINUOUS
 10
415.906057
 20
184.519104
 11
435.290692
 21
184.519104
  0
TEXT
  8
1
 62
7
  6
CONTINUOUS
 10
419.290692
 20
184.633221
 40
4.000000
 41
0.571429
  1
10-φ1.0
  7
KANJI
 50
0.000000
 51
30.000000
  0
LINE
  8
1
 62
7
  6
CONTINUOUS
 10
410.449216
 20
174.132737
 11
412.210269
 21
181.936499
  0
LINE
  8
1
 62
7
  6
CONTINUOUS
 10
410.449216
 20
174.132737
 11
415.876213
 21
180.010467
  0
LINE
  8
1
 62
7
  6
CONTINUOUS
 10
379.342050
 20
166.197828
 11
379.342050
 21
165.132737
  0
LINE
  8
1
 62
7
  6
CONTINUOUS
 10
380.491672
 20
166.197828
 11
380.491672
 21
165.132737
  0
LINE
  8
1
 62
7
  6
CONTINUOUS
 10
384.422050
 20
166.197828
 11
384.422050
 21
165.132737
  0
LINE
  8
1
 62
7
  6
CONTINUOUS
 10
385.571672
 20
166.197828
 11
385.571672
 21
165.132737
  0
LINE
  8
1
 62
7
  6
CONTINUOUS
 10
389.502050
 20
166.197828
 11
389.502050
 21
165.132737
  0
LINE
  8
1
 62
7
  6
CONTINUOUS
 10
390.651672
 20
166.197828
 11
390.651672
 21
165.132737
  0
LINE
  8
1
 62
7
  6
CONTINUOUS
 10
394.582050
 20
166.197828
 11
394.582050
 21
165.132737
  0
LINE
  8
1
 62
7
  6
CONTINUOUS
 10
395.731672
 20
166.197828
 11
395.731672
 21
165.132737
  0
LINE
  8
1
 62
7
  6
CONTINUOUS
 10
399.662050
 20
166.197828
 11
399.662050
 21
165.132737
  0
LINE
  8
1
 62
7
  6
CONTINUOUS
 10
400.811672
 20
166.197828
 11
400.811672
 21
165.132737
  0
LINE
  8
1
 62
7
  6
CONTINUOUS
 10
404.742050
 20
166.197828
 11
404.742050
 21
165.132737
  0
LINE
  8
1
 62
7
  6
CONTINUOUS
 10
405.891672
 20
166.197828
 11
405.891672
 21
165.132737
  0
LINE
  8
1
 62
7
  6
CONTINUOUS
 10
409.822050
 20
166.197828
 11
409.822050
 21
165.132737
  0
LINE
  8
1
 62
7
  6
CONTINUOUS
 10
410.971672
 20
166.197828
 11
410.971672
 21
165.132737
  0
LINE
  8
1
 62
7
  6
CONTINUOUS
 10
414.902050
 20
166.197828
 11
414.902050
 21
165.132737
  0
LINE
  8
1
 62
7
  6
CONTINUOUS
 10
416.051672
 20
166.197828
 11
416.051672
 21
165.132737
  0
LINE
  8
1
 62
7
  6
CONTINUOUS
 10
419.982050
 20
166.197828
 11
419.982050
 21
165.132737
  0
LINE
  8
1
 62
7
  6
CONTINUOUS
 10
421.131672
 20
166.197828
 11
421.131672
 21
165.132737
  0
LINE
  8
1
 62
7
  6
CONTINUOUS
 10
425.062050
 20
166.197828
 11
425.062050
 21
165.132737
  0
LINE
  8
1
 62
7
  6
CONTINUOUS
 10
426.211672
 20
166.197828
 11
426.211672
 21
165.132737
  0
CIRCLE
  8
1
 62
7
  6
CONTINUOUS
 10
425.689216
 20
173.132737
 40
1.000000
  0
ARC
  8
1
 62
7
  6
CONTINUOUS
 10
425.689216
 20
173.132737
 40
1.617935
 50
0.000000
 51
180.000000
  0
LINE
  8
1
 62
7
  6
CONTINUOUS
 10
427.307151
 20
173.132737
 11
427.307151
 21
166.197828
  0
LINE
  8
1
 62
7
  6
CONTINUOUS
 10
424.071281
 20
173.132737
 11
424.071281
 21
166.197828
  0
CIRCLE
  8
1
 62
7
  6
CONTINUOUS
 10
420.609216
 20
173.132737
 40
1.000000
  0
ARC
  8
1
 62
7
  6
CONTINUOUS
 10
420.609216
 20
173.132737
 40
1.617935
 50
0.000000
 51
180.000000
  0
LINE
  8
1
 62
7
  6
CONTINUOUS
 10
422.227151
 20
173.132737
 11
422.227151
 21
166.197828
  0
LINE
  8
1
 62
7
  6
CONTINUOUS
 10
418.991281
 20
173.132737
 11
418.991281
 21
166.197828
  0
CIRCLE
  8
1
 62
7
  6
CONTINUOUS
 10
415.529216
 20
173.132737
 40
1.000000
  0
ARC
  8
1
 62
7
  6
CONTINUOUS
 10
415.529216
 20
173.132737
 40
1.617935
 50
0.000000
 51
180.000000
  0
LINE
  8
1
 62
7
  6
CONTINUOUS
 10
417.147151
 20
173.132737
 11
417.147151
 21
166.197828
  0
LINE
  8
1
 62
7
  6
CONTINUOUS
 10
413.911281
 20
173.132737
 11
413.911281
 21
166.197828
  0
CIRCLE
  8
1
 62
7
  6
CONTINUOUS
 10
410.449216
 20
173.132737
 40
1.000000
  0
ARC
  8
1
 62
7
  6
CONTINUOUS
 10
410.449216
 20
173.132737
 40
1.617935
 50
0.000000
 51
180.000000
  0
LINE
  8
1
 62
7
  6
CONTINUOUS
 10
412.067151
 20
173.132737
 11
412.067151
 21
166.197828
  0
LINE
  8
1
 62
7
  6
CONTINUOUS
 10
408.831281
 20
173.132737
 11
408.831281
 21
166.197828
  0
CIRCLE
  8
1
 62
7
  6
CONTINUOUS
 10
405.369216
 20
173.132737
 40
1.000000
  0
ARC
  8
1
 62
7
  6
CONTINUOUS
 10
405.369216
 20
173.132737
 40
1.617935
 50
0.000000
 51
180.000000
  0
LINE
  8
1
 62
7
  6
CONTINUOUS
 10
406.987151
 20
173.132737
 11
406.987151
 21
166.197828
  0
LINE
  8
1
 62
7
  6
CONTINUOUS
 10
403.751281
 20
173.132737
 11
403.751281
 21
166.197828
  0
CIRCLE
  8
1
 62
7
  6
CONTINUOUS
 10
400.289216
 20
173.132737
 40
1.000000
  0
ARC
  8
1
 62
7
  6
CONTINUOUS
 10
400.289216
 20
173.132737
 40
1.617935
 50
0.000000
 51
180.000000
  0
LINE
  8
1
 62
7
  6
CONTINUOUS
 10
401.907151
 20
173.132737
 11
401.907151
 21
166.197828
  0
LINE
  8
1
 62
7
  6
CONTINUOUS
 10
398.671281
 20
173.132737
 11
398.671281
 21
166.197828
  0
LINE
  8
1
 62
7
  6
CONTINUOUS
 10
396.827151
 20
173.132737
 11
396.827151
 21
166.197828
  0
LINE
  8
1
 62
7
  6
CONTINUOUS
 10
393.591281
 20
173.132737
 11
393.591281
 21
166.197828
  0
LINE
  8
1
 62
7
  6
CONTINUOUS
 10
391.747151
 20
173.132737
 11
391.747151
 21
166.197828
  0
LINE
  8
1
 62
7
  6
CONTINUOUS
 10
388.511281
 20
173.132737
 11
388.511281
 21
166.197828
  0
CIRCLE
  8
1
 62
7
  6
CONTINUOUS
 10
385.049216
 20
173.132737
 40
1.000000
  0
ARC
  8
1
 62
7
  6
CONTINUOUS
 10
385.049216
 20
173.132737
 40
1.617935
 50
0.000000
 51
180.000000
  0
LINE
  8
1
 62
7
  6
CONTINUOUS
 10
386.667151
 20
173.132737
 11
386.667151
 21
166.197828
  0
LINE
  8
1
 62
7
  6
CONTINUOUS
 10
383.431281
 20
173.132737
 11
383.431281
 21
166.197828
  0
CIRCLE
  8
1
 62
7
  6
CONTINUOUS
 10
379.969216
 20
173.132737
 40
1.000000
  0
ARC
  8
1
 62
7
  6
CONTINUOUS
 10
379.969216
 20
173.132737
 40
1.617935
 50
0.000000
 51
180.000000
  0
LINE
  8
1
 62
7
  6
CONTINUOUS
 10
381.587151
 20
173.132737
 11
381.587151
 21
166.197828
  0
LINE
  8
1
 62
7
  6
CONTINUOUS
 10
378.351281
 20
173.132737
 11
378.351281
 21
166.197828
  0
LINE
  8
1
 62
7
  6
CONTINUOUS
 10
378.351281
 20
166.197828
 11
379.342050
 21
166.197828
  0
LINE
  8
1
 62
7
  6
CONTINUOUS
 10
380.491672
 20
166.197828
 11
381.587151
 21
166.197828
  0
LINE
  8
1
 62
7
  6
CONTINUOUS
 10
383.431281
 20
166.197828
 11
384.422050
 21
166.197828
  0
LINE
  8
1
 62
7
  6
CONTINUOUS
 10
385.571672
 20
166.197828
 11
386.667151
 21
166.197828
  0
LINE
  8
1
 62
7
  6
CONTINUOUS
 10
388.511281
 20
166.197828
 11
389.502050
 21
166.197828
  0
CIRCLE
  8
1
 62
7
  6
CONTINUOUS
 10
390.129216
 20
173.132737
 40
1.000000
  0
ARC
  8
1
 62
7
  6
CONTINUOUS
 10
390.129216
 20
173.132737
 40
1.617935
 50
0.000000
 51
180.000000
  0
LINE
  8
1
 62
7
  6
CONTINUOUS
 10
388.511281
 20
173.132737
 11
388.511281
 21
166.197828
  0
LINE
  8
1
 62
7
  6
CONTINUOUS
 10
391.747151
 20
173.132737
 11
391.747151
 21
166.197828
  0
LINE
  8
1
 62
7
  6
CONTINUOUS
 10
390.651672
 20
166.197828
 11
391.747151
 21
166.197828
  0
LINE
  8
1
 62
7
  6
CONTINUOUS
 10
393.591281
 20
166.197828
 11
394.582050
 21
166.197828
  0
LINE
  8
1
 62
7
  6
CONTINUOUS
 10
395.731672
 20
166.197828
 11
396.827151
 21
166.197828
  0
LINE
  8
1
 62
7
  6
CONTINUOUS
 10
398.671281
 20
166.197828
 11
399.662050
 21
166.197828
  0
LINE
  8
1
 62
7
  6
CONTINUOUS
 10
400.811672
 20
166.197828
 11
401.907151
 21
166.197828
  0
LINE
  8
1
 62
7
  6
CONTINUOUS
 10
403.751281
 20
166.197828
 11
404.742050
 21
166.197828
  0
LINE
  8
1
 62
7
  6
CONTINUOUS
 10
405.891672
 20
166.197828
 11
406.987151
 21
166.197828
  0
LINE
  8
1
 62
7
  6
CONTINUOUS
 10
408.831281
 20
166.197828
 11
409.822050
 21
166.197828
  0
LINE
  8
1
 62
7
  6
CONTINUOUS
 10
410.971672
 20
166.197828
 11
412.067151
 21
166.197828
  0
LINE
  8
1
 62
7
  6
CONTINUOUS
 10
413.911281
 20
166.197828
 11
414.902050
 21
166.197828
  0
LINE
  8
1
 62
7
  6
CONTINUOUS
 10
416.051672
 20
166.197828
 11
417.147151
 21
166.197828
  0
LINE
  8
1
 62
7
  6
CONTINUOUS
 10
418.991281
 20
166.197828
 11
419.982050
 21
166.197828
  0
LINE
  8
1
 62
7
  6
CONTINUOUS
 10
421.131672
 20
166.197828
 11
422.227151
 21
166.197828
  0
LINE
  8
1
 62
7
  6
CONTINUOUS
 10
424.071281
 20
166.197828
 11
425.062050
 21
166.197828
  0
LINE
  8
1
 62
7
  6
CONTINUOUS
 10
426.211672
 20
166.197828
 11
427.307151
 21
166.197828
  0
TEXT
  8
1
 62
7
  6
CONTINUOUS
 10
382.120332
 20
347.559708
 40
4.000000
 41
1.000000
  1
ＢＩＲＤ
  7
KANJI
 50
0.000000
 51
0.000000
  0
TEXT
  8
1
 62
7
  6
CONTINUOUS
 10
411.134211
 20
347.824226
 40
3.900000
 41
0.500000
  1
MODEL.
  7
KANJI
 50
0.000000
 51
0.000000
  0
TEXT
  8
1
 62
7
  6
CONTINUOUS
 10
424.847493
 20
347.968869
 40
3.900000
 41
0.500000
  1
S-61
  7
KANJI
 50
0.000000
 51
0.000000
  0
DIMENSION
  8
1
 62
7
  6
CONTINUOUS
  2
*D10
 10
296.574966
 20
205.629235
 11
298.074966
 21
205.629235
 70
     0
  1
3
 13
296.574966
 23
232.414718
 14
299.574966
 24
227.724730
 50
0.000000
  0
DIMENSION
  8
1
 62
7
  6
CONTINUOUS
  2
*D11
 10
299.574966
 20
205.629235
 11
304.574966
 21
205.629235
 70
     0
  1
10
 13
299.574966
 23
229.203576
 14
309.574966
 24
229.203576
 50
0.000000
  0
TEXT
  8
1
 62
7
  6
CONTINUOUS
 10
445.419532
 20
20.220083
 40
8.000000
 41
0.875000
  1
スタンダードキーボード　S-61
  7
KANJI
 50
0.000000
 51
0.000000
  0
TEXT
  8
1
 62
7
  6
CONTINUOUS
 10
293.480055
 20
32.929849
 40
6.000000
 41
1.000000
  1
回路図
  7
KANJI
 50
0.000000
 51
0.000000
  0
CIRCLE
  8
1
 62
7
  6
CONTINUOUS
 10
269.259972
 20
78.647180
 40
4.000000
  0
CIRCLE
  8
1
 62
7
  6
CONTINUOUS
 10
279.259972
 20
78.647180
 40
4.000000
  0
CIRCLE
  8
1
 62
7
  6
CONTINUOUS
 10
289.259972
 20
78.647180
 40
4.000000
  0
CIRCLE
  8
1
 62
7
  6
CONTINUOUS
 10
299.259972
 20
78.647180
 40
4.000000
  0
CIRCLE
  8
1
 62
7
  6
CONTINUOUS
 10
269.259972
 20
88.647180
 40
4.000000
  0
CIRCLE
  8
1
 62
7
  6
CONTINUOUS
 10
279.259972
 20
88.647180
 40
4.000000
  0
CIRCLE
  8
1
 62
7
  6
CONTINUOUS
 10
289.259972
 20
88.647180
 40
4.000000
  0
CIRCLE
  8
1
 62
7
  6
CONTINUOUS
 10
299.259972
 20
88.647180
 40
4.000000
  0
CIRCLE
  8
1
 62
7
  6
CONTINUOUS
 10
269.259972
 20
98.647180
 40
4.000000
  0
CIRCLE
  8
1
 62
7
  6
CONTINUOUS
 10
279.259972
 20
98.647180
 40
4.000000
  0
CIRCLE
  8
1
 62
7
  6
CONTINUOUS
 10
289.259972
 20
98.647180
 40
4.000000
  0
CIRCLE
  8
1
 62
7
  6
CONTINUOUS
 10
299.259972
 20
98.647180
 40
4.000000
  0
CIRCLE
  8
1
 62
7
  6
CONTINUOUS
 10
269.259972
 20
108.647180
 40
4.000000
  0
CIRCLE
  8
1
 62
7
  6
CONTINUOUS
 10
279.259972
 20
108.647180
 40
4.000000
  0
CIRCLE
  8
1
 62
7
  6
CONTINUOUS
 10
289.259972
 20
108.647180
 40
4.000000
  0
CIRCLE
  8
1
 62
7
  6
CONTINUOUS
 10
299.259972
 20
108.647180
 40
4.000000
  0
LINE
  8
1
 62
7
  6
CONTINUOUS
 10
273.259972
 20
108.647180
 11
275.259972
 21
108.647180
  0
LINE
  8
1
 62
7
  6
CONTINUOUS
 10
283.024005
 20
108.647180
 11
285.259972
 21
108.647180
  0
LINE
  8
1
 62
7
  6
CONTINUOUS
 10
293.259972
 20
108.647180
 11
295.259972
 21
108.647180
  0
LINE
  8
1
 62
7
  6
CONTINUOUS
 10
273.259972
 20
98.647180
 11
275.259972
 21
98.647180
  0
LINE
  8
1
 62
7
  6
CONTINUOUS
 10
283.259972
 20
98.647180
 11
285.259972
 21
98.647180
  0
LINE
  8
1
 62
7
  6
CONTINUOUS
 10
293.259972
 20
98.647180
 11
295.259972
 21
98.647180
  0
LINE
  8
1
 62
7
  6
CONTINUOUS
 10
273.259972
 20
88.647180
 11
275.259972
 21
88.647180
  0
LINE
  8
1
 62
7
  6
CONTINUOUS
 10
283.259972
 20
88.647180
 11
285.259972
 21
88.647180
  0
LINE
  8
1
 62
7
  6
CONTINUOUS
 10
293.259972
 20
88.647180
 11
295.259972
 21
88.647180
  0
LINE
  8
1
 62
7
  6
CONTINUOUS
 10
273.259972
 20
78.647180
 11
275.259972
 21
78.647180
  0
LINE
  8
1
 62
7
  6
CONTINUOUS
 10
283.259972
 20
78.647180
 11
285.259972
 21
78.647180
  0
LINE
  8
1
 62
7
  6
CONTINUOUS
 10
293.259972
 20
78.647180
 11
295.259972
 21
78.647180
  0
LINE
  8
1
 62
7
  6
CONTINUOUS
 10
269.259972
 20
104.647180
 11
269.259972
 21
102.647180
  0
LINE
  8
1
 62
7
  6
CONTINUOUS
 10
269.259972
 20
94.647180
 11
269.259972
 21
92.647180
  0
LINE
  8
1
 62
7
  6
CONTINUOUS
 10
269.259972
 20
84.647180
 11
269.259972
 21
82.586534
  0
LINE
  8
1
 62
7
  6
CONTINUOUS
 10
279.259972
 20
104.647180
 11
279.259972
 21
102.647180
  0
LINE
  8
1
 62
7
  6
CONTINUOUS
 10
279.259972
 20
94.647180
 11
279.259972
 21
92.647180
  0
LINE
  8
1
 62
7
  6
CONTINUOUS
 10
279.259972
 20
84.647180
 11
279.259972
 21
82.647180
  0
LINE
  8
1
 62
7
  6
CONTINUOUS
 10
289.259972
 20
104.647180
 11
289.259972
 21
102.647180
  0
LINE
  8
1
 62
7
  6
CONTINUOUS
 10
289.259972
 20
94.647180
 11
289.259972
 21
92.647180
  0
LINE
  8
1
 62
7
  6
CONTINUOUS
 10
289.259972
 20
84.647180
 11
289.259972
 21
82.647180
  0
LINE
  8
1
 62
7
  6
CONTINUOUS
 10
299.259972
 20
104.647180
 11
299.259972
 21
102.647180
  0
LINE
  8
1
 62
7
  6
CONTINUOUS
 10
299.259972
 20
94.647180
 11
299.259972
 21
92.647180
  0
LINE
  8
1
 62
7
  6
CONTINUOUS
 10
299.259972
 20
84.647180
 11
299.259972
 21
82.647180
  0
TEXT
  8
1
 62
7
  6
CONTINUOUS
 10
267.791873
 20
75.634970
 40
6.000000
 41
0.500000
  1
1
  7
KANJI
 50
0.000000
 51
0.000000
  0
TEXT
  8
1
 62
7
  6
CONTINUOUS
 10
277.986313
 20
76.015360
 40
5.000000
 41
0.500000
  1
2
  7
KANJI
 50
0.000000
 51
0.000000
  0
TEXT
  8
1
 62
7
  6
CONTINUOUS
 10
288.104675
 20
76.167516
 40
5.000000
 41
0.500000
  1
3
  7
KANJI
 50
0.000000
 51
0.000000
  0
TEXT
  8
1
 62
7
  6
CONTINUOUS
 10
298.070882
 20
76.015360
 40
5.000000
 41
0.500000
  1
4
  7
KANJI
 50
0.000000
 51
0.000000
  0
TEXT
  8
1
 62
7
  6
CONTINUOUS
 10
268.172262
 20
85.905488
 40
5.000000
 41
0.500000
  1
5
  7
KANJI
 50
0.000000
 51
0.000000
  0
TEXT
  8
1
 62
7
  6
CONTINUOUS
 10
278.062391
 20
85.981566
 40
5.000000
 41
0.500000
  1
6
  7
KANJI
 50
0.000000
 51
0.000000
  0
TEXT
  8
1
 62
7
  6
CONTINUOUS
 10
288.104675
 20
85.905488
 40
5.000000
 41
0.500000
  1
7
  7
KANJI
 50
0.000000
 51
0.000000
  0
TEXT
  8
1
 62
7
  6
CONTINUOUS
 10
297.994804
 20
85.829411
 40
5.000000
 41
0.500000
  1
8
  7
KANJI
 50
0.000000
 51
0.000000
  0
TEXT
  8
1
 62
7
  6
CONTINUOUS
 10
268.172262
 20
96.023851
 40
5.000000
 41
0.500000
  1
9
  7
KANJI
 50
0.000000
 51
0.000000
  0
TEXT
  8
1
 62
7
  6
CONTINUOUS
 10
276.593057
 20
95.665979
 40
5.000000
 41
0.500000
  1
10
  7
KANJI
 50
0.000000
 51
0.000000
  0
TEXT
  8
1
 62
7
  6
CONTINUOUS
 10
286.619302
 20
95.642707
 40
5.000000
 41
0.500000
  1
11
  7
KANJI
 50
0.000000
 51
0.000000
  0
TEXT
  8
1
 62
7
  6
CONTINUOUS
 10
296.510654
 20
95.741797
 40
5.000000
 41
0.500000
  1
12
  7
KANJI
 50
0.000000
 51
0.000000
  0
TEXT
  8
1
 62
7
  6
CONTINUOUS
 10
266.673702
 20
105.595753
 40
5.000000
 41
0.500000
  1
13
  7
KANJI
 50
0.000000
 51
0.000000
  0
TEXT
  8
1
 62
7
  6
CONTINUOUS
 10
286.658424
 20
105.608768
 40
5.000000
 41
0.500000
  1
15
  7
KANJI
 50
0.000000
 51
0.000000
  0
TEXT
  8
1
 62
7
  6
CONTINUOUS
 10
296.698058
 20
105.575276
 40
5.000000
 41
0.500000
  1
16
  7
KANJI
 50
0.000000
 51
0.000000
  0
TEXT
  8
1
 62
7
  6
CONTINUOUS
 10
276.845144
 20
105.913979
 40
5.000000
 41
0.500000
  1
14
  7
KANJI
 50
0.000000
 51
0.000000
  0
CIRCLE
  8
1
 62
7
  6
CONTINUOUS
 10
269.259972
 20
55.645499
 40
2.000000
  0
CIRCLE
  8
1
 62
7
  6
CONTINUOUS
 10
279.259972
 20
55.645499
 40
2.000000
  0
CIRCLE
  8
1
 62
7
  6
CONTINUOUS
 10
289.259972
 20
55.645499
 40
2.000000
  0
CIRCLE
  8
1
 62
7
  6
CONTINUOUS
 10
299.259972
 20
55.645499
 40
2.000000
  0
CIRCLE
  8
1
 62
7
  6
CONTINUOUS
 10
309.259972
 20
55.645499
 40
2.000000
  0
CIRCLE
  8
1
 62
7
  6
CONTINUOUS
 10
319.259972
 20
55.645499
 40
2.000000
  0
CIRCLE
  8
1
 62
7
  6
CONTINUOUS
 10
329.259972
 20
55.645499
 40
2.000000
  0
CIRCLE
  8
1
 62
7
  6
CONTINUOUS
 10
339.259972
 20
55.645499
 40
2.000000
  0
LINE
  8
1
 62
7
  6
CONTINUOUS
 10
303.259972
 20
108.647180
 11
339.259972
 21
108.647180
  0
LINE
  8
1
 62
7
  6
CONTINUOUS
 10
339.259972
 20
57.645499
 11
339.259972
 21
108.647180
  0
LINE
  8
1
 62
7
  6
CONTINUOUS
 10
303.259972
 20
98.647180
 11
329.259972
 21
98.647180
  0
LINE
  8
1
 62
7
  6
CONTINUOUS
 10
329.259972
 20
57.645499
 11
329.259972
 21
98.647180
  0
LINE
  8
1
 62
7
  6
CONTINUOUS
 10
303.259972
 20
88.647180
 11
319.259972
 21
88.647180
  0
LINE
  8
1
 62
7
  6
CONTINUOUS
 10
319.259972
 20
57.645499
 11
319.259972
 21
88.647180
  0
LINE
  8
1
 62
7
  6
CONTINUOUS
 10
303.259972
 20
78.647180
 11
309.259972
 21
78.647180
  0
LINE
  8
1
 62
7
  6
CONTINUOUS
 10
309.259972
 20
57.645499
 11
309.259972
 21
78.647180
  0
LINE
  8
1
 62
7
  6
CONTINUOUS
 10
299.259972
 20
74.647180
 11
299.259972
 21
57.645499
  0
LINE
  8
1
 62
7
  6
CONTINUOUS
 10
289.259972
 20
74.647180
 11
289.259972
 21
57.645499
  0
LINE
  8
1
 62
7
  6
CONTINUOUS
 10
279.259972
 20
74.647180
 11
279.259972
 21
57.645499
  0
LINE
  8
1
 62
7
  6
CONTINUOUS
 10
269.259972
 20
74.673996
 11
269.259972
 21
57.645499
  0
TEXT
  8
1
 62
7
  6
CONTINUOUS
 10
308.455516
 20
43.948520
 40
5.000000
 41
0.500000
  1
1
  7
KANJI
 50
0.000000
 51
0.000000
  0
TEXT
  8
1
 62
7
  6
CONTINUOUS
 10
328.768319
 20
43.720286
 40
5.000000
 41
0.500000
  1
3
  7
KANJI
 50
0.000000
 51
0.000000
  0
TEXT
  8
1
 62
7
  6
CONTINUOUS
 10
338.810603
 20
44.176754
 40
5.000000
 41
0.500000
  1
4
  7
KANJI
 50
0.000000
 51
0.000000
  0
TEXT
  8
1
 62
7
  6
CONTINUOUS
 10
318.269567
 20
44.062637
 40
5.000000
 41
0.500000
  1
2
  7
KANJI
 50
0.000000
 51
0.000000
  0
CIRCLE
  8
1
 62
7
  6
CONTINUOUS
 10
225.181110
 20
98.803072
 40
9.777242
  0
LINE
  8
1
 62
7
  6
CONTINUOUS
 10
220.687758
 20
113.695323
 11
220.687758
 21
80.958047
  0
LINE
  8
1
 62
7
  6
CONTINUOUS
 10
206.244842
 20
94.823246
 11
245.722146
 21
94.823246
  0
CIRCLE
  8
1
 62
7
  6
CONTINUOUS
 10
224.242570
 20
100.743500
 40
1.119501
  0
CIRCLE
  8
1
 62
7
  6
CONTINUOUS
 10
227.995747
 20
97.396072
 40
1.119501
  0
LINE
  8
1
 62
7
  6
CONTINUOUS
 10
220.687758
 20
103.938331
 11
223.409927
 21
101.491824
  0
LINE
  8
1
 62
7
  6
CONTINUOUS
 10
228.815501
 20
96.633651
 11
230.829895
 21
94.823246
  0
LINE
  8
1
 62
7
  6
CONTINUOUS
 10
225.709145
 20
104.445678
 11
231.263646
 21
99.453658
  0
TEXT
  8
1
 62
7
  6
CONTINUOUS
 10
213.177442
 20
75.180880
 40
5.000000
 41
1.000000
  1
スイッチ略図
  7
KANJI
 50
0.000000
 51
0.000000
  0
TEXT
  8
1
 62
7
  6
CONTINUOUS
 10
237.441541
 20
43.984182
 40
6.000000
 41
0.700000
  1
端子NO,
  7
KANJI
 50
0.000000
 51
0.000000
  0
CIRCLE
  8
1
 62
7
  6
CONTINUOUS
 10
269.259972
 20
118.647180
 40
4.000000
  0
CIRCLE
  8
1
 62
7
  6
CONTINUOUS
 10
279.259972
 20
118.647180
 40
4.000000
  0
CIRCLE
  8
1
 62
7
  6
CONTINUOUS
 10
289.259972
 20
118.647180
 40
4.000000
  0
CIRCLE
  8
1
 62
7
  6
CONTINUOUS
 10
299.259972
 20
118.647180
 40
4.000000
  0
CIRCLE
  8
1
 62
7
  6
CONTINUOUS
 10
269.259972
 20
128.647180
 40
4.000000
  0
CIRCLE
  8
1
 62
7
  6
CONTINUOUS
 10
279.259972
 20
128.647180
 40
4.000000
  0
CIRCLE
  8
1
 62
7
  6
CONTINUOUS
 10
289.259972
 20
128.647180
 40
4.000000
  0
CIRCLE
  8
1
 62
7
  6
CONTINUOUS
 10
299.259972
 20
128.647180
 40
4.000000
  0
LINE
  8
1
 62
7
  6
CONTINUOUS
 10
273.259972
 20
128.647180
 11
275.259972
 21
128.647180
  0
LINE
  8
1
 62
7
  6
CONTINUOUS
 10
283.024005
 20
128.647180
 11
285.259972
 21
128.647180
  0
LINE
  8
1
 62
7
  6
CONTINUOUS
 10
293.259972
 20
128.647180
 11
295.259972
 21
128.647180
  0
LINE
  8
1
 62
7
  6
CONTINUOUS
 10
273.259972
 20
118.647180
 11
275.259972
 21
118.647180
  0
LINE
  8
1
 62
7
  6
CONTINUOUS
 10
283.259972
 20
118.647180
 11
285.259972
 21
118.647180
  0
LINE
  8
1
 62
7
  6
CONTINUOUS
 10
293.259972
 20
118.647180
 11
295.259972
 21
118.647180
  0
LINE
  8
1
 62
7
  6
CONTINUOUS
 10
269.259972
 20
124.647180
 11
269.259972
 21
122.647180
  0
LINE
  8
1
 62
7
  6
CONTINUOUS
 10
279.259972
 20
124.647180
 11
279.259972
 21
122.647180
  0
LINE
  8
1
 62
7
  6
CONTINUOUS
 10
289.259972
 20
124.647180
 11
289.259972
 21
122.647180
  0
LINE
  8
1
 62
7
  6
CONTINUOUS
 10
299.259972
 20
124.647180
 11
299.259972
 21
122.647180
  0
TEXT
  8
1
 62
7
  6
CONTINUOUS
 10
276.593057
 20
115.665979
 40
5.000000
 41
0.500000
  1
18
  7
KANJI
 50
0.000000
 51
0.000000
  0
TEXT
  8
1
 62
7
  6
CONTINUOUS
 10
286.619302
 20
115.642707
 40
5.000000
 41
0.500000
  1
19
  7
KANJI
 50
0.000000
 51
0.000000
  0
TEXT
  8
1
 62
7
  6
CONTINUOUS
 10
296.510654
 20
115.741797
 40
5.000000
 41
0.500000
  1
20
  7
KANJI
 50
0.000000
 51
0.000000
  0
TEXT
  8
1
 62
7
  6
CONTINUOUS
 10
266.673702
 20
125.595753
 40
5.000000
 41
0.500000
  1
21
  7
KANJI
 50
0.000000
 51
0.000000
  0
TEXT
  8
1
 62
7
  6
CONTINUOUS
 10
276.845144
 20
125.913979
 40
5.000000
 41
0.500000
  1
22
  7
KANJI
 50
0.000000
 51
0.000000
  0
TEXT
  8
1
 62
7
  6
CONTINUOUS
 10
286.658424
 20
125.608768
 40
5.000000
 41
0.500000
  1
23
  7
KANJI
 50
0.000000
 51
0.000000
  0
TEXT
  8
1
 62
7
  6
CONTINUOUS
 10
296.698058
 20
125.575276
 40
5.000000
 41
0.500000
  1
24
  7
KANJI
 50
0.000000
 51
0.000000
  0
TEXT
  8
1
 62
7
  6
CONTINUOUS
 10
266.802860
 20
116.480318
 40
5.000000
 41
0.500000
  1
17
  7
KANJI
 50
0.000000
 51
0.000000
  0
LINE
  8
1
 62
7
  6
CONTINUOUS
 10
269.259972
 20
114.647180
 11
269.259972
 21
112.647180
  0
LINE
  8
1
 62
7
  6
CONTINUOUS
 10
279.259972
 20
114.647180
 11
279.259972
 21
112.647180
  0
LINE
  8
1
 62
7
  6
CONTINUOUS
 10
289.259972
 20
114.647180
 11
289.259972
 21
112.647180
  0
LINE
  8
1
 62
7
  6
CONTINUOUS
 10
299.259972
 20
114.647180
 11
299.259972
 21
112.647180
  0
CIRCLE
  8
1
 62
7
  6
CONTINUOUS
 10
349.259972
 20
55.645499
 40
2.000000
  0
CIRCLE
  8
1
 62
7
  6
CONTINUOUS
 10
359.259972
 20
55.645499
 40
2.000000
  0
LINE
  8
1
 62
7
  6
CONTINUOUS
 10
262.009951
 20
60.267232
 11
262.009951
 21
50.795532
  0
LINE
  8
1
 62
7
  6
CONTINUOUS
 10
262.009951
 20
50.795532
 11
368.282303
 21
50.795532
  0
LINE
  8
1
 62
7
  6
CONTINUOUS
 10
368.282303
 20
50.795532
 11
368.282303
 21
60.267232
  0
LINE
  8
1
 62
7
  6
CONTINUOUS
 10
368.282303
 20
60.267232
 11
262.009951
 21
60.267232
  0
LINE
  8
1
 62
7
  6
CONTINUOUS
 10
303.259972
 20
128.647180
 11
359.259972
 21
128.647180
  0
LINE
  8
1
 62
7
  6
CONTINUOUS
 10
359.259972
 20
57.645499
 11
359.259972
 21
128.647180
  0
LINE
  8
1
 62
7
  6
CONTINUOUS
 10
303.259972
 20
118.647180
 11
349.259972
 21
118.647180
  0
LINE
  8
1
 62
7
  6
CONTINUOUS
 10
349.259972
 20
57.645499
 11
349.259972
 21
118.647180
  0
TEXT
  8
1
 62
7
  6
CONTINUOUS
 10
268.058145
 20
44.062637
 40
5.000000
 41
0.500000
  1
7
  7
KANJI
 50
0.000000
 51
0.000000
  0
TEXT
  8
1
 62
7
  6
CONTINUOUS
 10
278.214547
 20
43.606169
 40
5.000000
 41
0.500000
  1
8
  7
KANJI
 50
0.000000
 51
0.000000
  0
TEXT
  8
1
 62
7
  6
CONTINUOUS
 10
288.256831
 20
43.492053
 40
5.000000
 41
0.500000
  1
9
  7
KANJI
 50
0.000000
 51
0.000000
  0
TEXT
  8
1
 62
7
  6
CONTINUOUS
 10
297.500297
 20
43.777345
 40
5.000000
 41
0.500000
  1
10
  7
KANJI
 50
0.000000
 51
0.000000
  0
TEXT
  8
1
 62
7
  6
CONTINUOUS
 10
348.967005
 20
43.720286
 40
5.000000
 41
0.500000
  1
5
  7
KANJI
 50
0.000000
 51
0.000000
  0
TEXT
  8
1
 62
7
  6
CONTINUOUS
 10
359.009289
 20
44.176754
 40
5.000000
 41
0.500000
  1
6
  7
KANJI
 50
0.000000
 51
0.000000
  0
LINE
  8
1
 62
7
  6
CONTINUOUS
 10
362.214580
 20
233.203576
 11
377.214580
 21
233.203576
  0
LINE
  8
1
 62
7
  6
CONTINUOUS
 10
364.214580
 20
235.203576
 11
375.694381
 21
235.203576
  0
LINE
  8
1
 62
7
  6
CONTINUOUS
 10
377.214580
 20
235.203576
 11
377.214580
 21
233.203576
  0
LINE
  8
1
 62
7
  6
CONTINUOUS
 10
375.694381
 20
235.203576
 11
375.694381
 21
237.203576
  0
LINE
  8
1
 62
7
  6
CONTINUOUS
 10
437.214580
 20
233.203576
 11
452.214580
 21
233.203576
  0
LINE
  8
1
 62
7
  6
CONTINUOUS
 10
438.957410
 20
235.203576
 11
450.214580
 21
235.203576
  0
LINE
  8
1
 62
7
  6
CONTINUOUS
 10
437.214580
 20
233.203576
 11
437.214580
 21
235.203576
  0
LINE
  8
1
 62
7
  6
CONTINUOUS
 10
438.957410
 20
235.203576
 11
438.957410
 21
237.203576
  0
LINE
  8
1
 62
7
  6
CONTINUOUS
 10
375.694381
 20
237.203576
 11
438.957410
 21
237.203576
  0
LINE
  8
1
 62
7
  6
CONTINUOUS
 10
438.023333
 20
237.203576
 11
438.023333
 21
235.203576
  0
LINE
  8
1
 62
7
  6
CONTINUOUS
 10
376.704536
 20
237.203576
 11
376.704536
 21
235.203576
  0
LINE
  8
1
 62
7
  6
CONTINUOUS
 10
376.704536
 20
235.203576
 11
438.023333
 21
235.203576
  0
DIMENSION
  8
1
 62
7
  6
CONTINUOUS
  2
*D12
 10
405.264659
 20
154.763131
 11
407.832289
 21
154.763131
 70
     0
  1
2.54
 13
405.264659
 23
163.201870
 14
410.399918
 24
163.201870
 50
0.000000
  0
TEXT
  8
1
 62
7
  6
CONTINUOUS
 10
362.363849
 20
152.450626
 40
6.000000
 41
1.000000
  1
端子部
  7
KANJI
 50
0.000000
 51
0.000000
  0
TEXT
  8
1
 62
7
  6
CONTINUOUS
 10
274.936064
 20
165.925187
 40
5.000000
 41
0.604167
  1
※　ﾊﾟﾈﾙｶｯﾄ寸法　126.3x90.5mm
  7
KANJI
 50
0.000000
 51
0.000000
  0
LINE
  8
1
 62
7
  6
CONTINUOUS
 10
153.865199
 20
360.833563
 11
167.854912
 21
379.904955
  0
LINE
  8
1
 62
7
  6
CONTINUOUS
 10
167.854912
 20
379.904955
 11
214.461362
 21
379.904955
  0
TEXT
  8
1
 62
7
  6
CONTINUOUS
 10
170.461362
 20
380.354290
 40
4.000000
 41
0.578947
  1
ABS ﾀﾞｰｸｸﾞﾚｰ(ﾏｯﾄ処理）
  7
KANJI
 50
0.000000
 51
30.000000
  0
LINE
  8
1
 62
7
  6
CONTINUOUS
 10
153.865199
 20
360.833563
 11
156.766226
 21
368.289033
  0
LINE
  8
1
 62
7
  6
CONTINUOUS
 10
153.865199
 20
360.833563
 11
160.105298
 21
365.839676
  0
TEXT
  8
1
 62
7
  6
CONTINUOUS
 10
15.020633
 20
9.821183
 40
5.000000
 41
0.500000
  1
2015/04/03
  7
KANJI
 50
0.000000
 51
0.000000
  0
ENDSEC
  0
EOF
