  0
SECTION
  2
HEADER
  9
$ACADVER
  1
AC1009
  9
$INSBASE
 10
0.000000
 20
0.000000
  9
$EXTMIN
 10
0.000000
 20
0.000000
  9
$EXTMAX
 10
594.000000
 20
420.000000
  9
$LIMMIN
 10
0.000000
 20
0.000000
  9
$LIMMAX
 10
594.000000
 20
420.000000
  9
$VIEWCTR
 10
297.000000
 20
210.000000
  9
$VIEWSIZE
 40
420.000000
  9
$PEXTMIN
 10
0.000000
 20
0.000000
 30
0.000000
  9
$PEXTMAX
 10
297.000000
 20
210.000000
 30
0.000000
  9
$SNAPMODE
 70
     0
  9
$SNAPUNIT
 10
1.000000
 20
1.000000
  9
$SNAPBASE
 10
0.000000
 20
0.000000
  9
$SNAPANG
 50
0.000000
  9
$SNAPISOPAIR
 70
     0
  9
$SNAPSTYLE
 70
     0
  9
$GRIDMODE
 70
     0
  9
$GRIDUNIT
 10
0.000000
 20
0.000000
  9
$ORTHOMODE
 70
     0
  9
$REGENMODE
 70
     1
  9
$FILLMODE
 70
     1
  9
$QTEXTMODE
 70
     0
  9
$DRAGMODE
 70
     2
  9
$LTSCALE
 40
0.500000
  9
$OSMODE
 70
     0
  9
$ATTMODE
 70
     1
  9
$TEXTSIZE
 40
4.000000
  9
$TRACEWID
 40
0.050000
  9
$TEXTSTYLE
  7
STANDARD
  9
$CLAYER
  8
0
  9
$CELTYPE
  6
BYLAYER
  9
$CECOLOR
 62
   256
  9
$DIMSCALE
 40
1.000000
  9
$DIMASZ
 40
1.000000
  9
$DIMEXO
 40
0.000000
  9
$DIMDLI
 40
0.500000
  9
$DIMRND
 40
0.000000
  9
$DIMDLE
 40
0.000000
  9
$DIMEXE
 40
0.000000
  9
$DIMTP
 40
0.000000
  9
$DIMTM
 40
0.000000
  9
$DIMTXT
 40
3.000000
  9
$DIMCEN
 40
0.000000
  9
$DIMTSZ
 40
0.000000
  9
$DIMTOL
 70
     0
  9
$DIMLIM
 70
     0
  9
$DIMTIH
 70
     1
  9
$DIMTOH
 70
     1
  9
$DIMSE1
 70
     0
  9
$DIMSE2
 70
     0
  9
$DIMTAD
 70
     0
  9
$DIMZIN
 70
     0
  9
$DIMBLK
  1

  9
$DIMASO
 70
     0
  9
$DIMSHO
 70
     0
  9
$DIMPOST
  1

  9
$DIMAPOST
  1

  9
$DIMALT
 70
     0
  9
$DIMALTD
 70
     0
  9
$DIMALTF
 40
25.400000
  9
$DIMLFAC
 40
1.000000
  9
$DIMTOFL
 70
     0
  9
$DIMTVP
 40
0.000000
  9
$DIMTIX
 70
     0
  9
$DIMSOXD
 70
     0
  9
$DIMSAH
 70
     0
  9
$DIMBLKL
  1

  9
$DIMBLKR
  1

  9
$LUNITS
 70
     2
  9
$LUPREC
 70
     2
  9
$AXISMODE
 70
     0
  9
$AXISUNIT
 10
1.000000
 20
1.000000
  9
$SKETCHINC
 40
0.000000
  9
$FILLETRAD
 40
0.000000
  9
$AUNITS
 70
     1
  9
$AUPREC
 70
     2
  9
$MENU
  1
ACAD
  9
$ELEVATION
 40
0.000000
  9
$THICKNESS
 40
0.000000
  9
$VIEWDIR
 10
0.000000
 20
0.000000
 30
1.000000
  9
$LIMCHECK
 70
     1
  9
$BLIPMODE
 70
     1
  9
$CHAMFERA
 40
0.000000
  9
$CHAMFERB
 40
0.000000
  9
$FASTZOOM
 70
     1
  9
$SKPOLY
 70
     0
  9
$TDCREATE
 40
0.000000
  9
$TDUPDATE
 40
0.000000
  9
$TDINDWG
 40
0.000000
  9
$TDUSRTIMER
 40
0.000000
  9
$USRTIMER
 70
     1
  9
$ANGBASE
 50
0.000000
  9
$ANGDIR
 70
     0
  9
$PDMODE
 70
     0
  9
$PDSIZE
 40
0.000000
  9
$PLINEWID
 40
0.000000
  9
$COORDS
 70
     2
  9
$USERI1
 70
     0
  9
$USERI2
 70
     0
  9
$USERI3
 70
     0
  9
$USERI4
 70
     0
  9
$USERI5
 70
     0
  9
$USERR1
 40
0.000000
  9
$USERR2
 40
0.000000
  9
$USERR3
 40
0.000000
  9
$USERR4
 40
0.000000
  9
$USERR5
 40
0.000000
  0
ENDSEC
  0
SECTION
  2
TABLES
  0
TABLE
  2
LTYPE
 70
     5
  0
LTYPE
  2
CONTINUOUS
 70
    64
  3
Solid line
 72
    65
 73
     0
 40
0.0
  0
LTYPE
  2
HIDDEN
 70
    64
  3
------------------------
 72
    65
 73
     2
 40
12.6
 49
8.4
 49
-4.2
  0
LTYPE
  2
DOT
 70
    64
  3
････････････････････････
 72
    65
 73
     2
 40
8.0
 49
6.0
 49
-2.0
  0
LTYPE
  2
DASHDOT
 70
    64
  3
--･--･--･--･--･--･--･--
 72
    65
 73
     4
 40
50.5
 49
30.0
 49
-9.0
 49
2.5
 49
-9.0
  0
LTYPE
  2
DIVIDE
 70
    64
  3
--･･--･･--･･--･･--･･--
 72
    65
 73
     6
 40
58.0
 49
30.0
 49
-9.0
 49
2.5
 49
-5.0
 49
2.5
 49
-9.0
  0
LTYPE
  2
ACAD_ISO06W100
 70
    64
  3
____ ... ____ ... ____
 72
    65
 73
     8
 40
37.5
 49
24.0
 49
-3.0
 49
0.5
 49
-3.0
 49
0.5
 49
-3.0
 49
0.5
 49
-3.0
  0
LTYPE
  2
ACAD_ISO14W100
 70
    64
  3
__ . . . __ . . . __ . . . 
 72
    65
 73
     8
 40
25.5
 49
12.0
 49
-3.0
 49
0.5
 49
-3.0
 49
0.5
 49
-3.0
 49
0.5
 49
-3.0
  0
ENDTAB
  0
TABLE
  2
LAYER
 70
1
  0
LAYER
  2
1
 70
64
 62
7
  6
CONTINUOUS
  0
ENDTAB
  0
TABLE
  2
STYLE
 70
     2
  0
STYLE
  2
STANDARD
 70
    64
 40
0.0
 41
1.0
 50
0.0
 71
     0
 42
0.2
  3
TXT
  4

  0
STYLE
  2
KANJI
 70
    64
 40
0.0
 41
1.0
 50
0.0
 71
     0
 42
0.2
  3
TXT
  4
BIGFONT
  0
ENDTAB
  0
TABLE
  2
VIEW
 70
     0
  0
ENDTAB
  0
ENDSEC
  0
SECTION
  2
BLOCKS
  0
BLOCK
  8
1
 62
7
  6
CONTINUOUS
  2
*D1
 70
    65
 10
0.0
 20
0.0
  0
LINE
  8
1
 62
7
  6
CONTINUOUS
 10
184.941541
 20
427.927556
 11
247.941541
 21
427.927556
  0
LINE
  8
1
 62
7
  6
CONTINUOUS
 10
184.941541
 20
423.927556
 11
184.941541
 21
445.591930
  0
LINE
  8
1
 62
7
  6
CONTINUOUS
 10
247.941541
 20
423.927556
 11
247.941541
 21
445.591930
  0
LINE
  8
1
 62
7
  6
CONTINUOUS
 10
184.941541
 20
427.927556
 11
189.771170
 21
429.221651
  0
LINE
  8
1
 62
7
  6
CONTINUOUS
 10
184.941541
 20
427.927556
 11
189.771170
 21
426.633461
  0
LINE
  8
1
 62
7
  6
CONTINUOUS
 10
247.941541
 20
427.927556
 11
243.111911
 21
426.633461
  0
LINE
  8
1
 62
7
  6
CONTINUOUS
 10
247.941541
 20
427.927556
 11
243.111911
 21
429.221651
  0
TEXT
  8
1
 62
7
  6
CONTINUOUS
 10
213.441541
 20
427.927556
 40
6.000000
 41
0.500000
  1
63
  7
KANJI
 50
0.000000
 51
30.000000
  0
ENDBLK
  0
BLOCK
  8
1
 62
7
  6
CONTINUOUS
  2
*D2
 70
    65
 10
0.0
 20
0.0
  0
LINE
  8
1
 62
7
  6
CONTINUOUS
 10
245.529574
 20
269.365734
 11
245.529574
 21
286.865734
  0
LINE
  8
1
 62
7
  6
CONTINUOUS
 10
249.529574
 20
269.365734
 11
235.574966
 21
269.365734
  0
LINE
  8
1
 62
7
  6
CONTINUOUS
 10
249.529574
 20
286.865734
 11
235.574966
 21
286.865734
  0
LINE
  8
1
 62
7
  6
CONTINUOUS
 10
245.529574
 20
269.365734
 11
244.235478
 21
274.195364
  0
LINE
  8
1
 62
7
  6
CONTINUOUS
 10
245.529574
 20
269.365734
 11
246.823669
 21
274.195364
  0
LINE
  8
1
 62
7
  6
CONTINUOUS
 10
245.529574
 20
286.865734
 11
246.823669
 21
282.036105
  0
LINE
  8
1
 62
7
  6
CONTINUOUS
 10
245.529574
 20
286.865734
 11
244.235478
 21
282.036105
  0
TEXT
  8
1
 62
7
  6
CONTINUOUS
 10
245.529574
 20
272.115734
 40
6.000000
 41
0.500000
  1
17.5
  7
KANJI
 50
90.000000
 51
30.000000
  0
ENDBLK
  0
BLOCK
  8
1
 62
7
  6
CONTINUOUS
  2
*D3
 70
    65
 10
0.0
 20
0.0
  0
LINE
  8
1
 62
7
  6
CONTINUOUS
 10
362.214580
 20
204.311249
 11
452.214580
 21
204.311249
  0
LINE
  8
1
 62
7
  6
CONTINUOUS
 10
362.214580
 20
200.311249
 11
362.214580
 21
229.203576
  0
LINE
  8
1
 62
7
  6
CONTINUOUS
 10
452.214580
 20
200.311249
 11
452.214580
 21
229.203576
  0
LINE
  8
1
 62
7
  6
CONTINUOUS
 10
362.214580
 20
204.311249
 11
367.044210
 21
205.605344
  0
LINE
  8
1
 62
7
  6
CONTINUOUS
 10
362.214580
 20
204.311249
 11
367.044210
 21
203.017153
  0
LINE
  8
1
 62
7
  6
CONTINUOUS
 10
452.214580
 20
204.311249
 11
447.384951
 21
203.017153
  0
LINE
  8
1
 62
7
  6
CONTINUOUS
 10
452.214580
 20
204.311249
 11
447.384951
 21
205.605344
  0
TEXT
  8
1
 62
7
  6
CONTINUOUS
 10
404.214580
 20
204.311249
 40
6.000000
 41
0.500000
  1
90
  7
KANJI
 50
0.000000
 51
30.000000
  0
ENDBLK
  0
BLOCK
  8
1
 62
7
  6
CONTINUOUS
  2
*D4
 70
    65
 10
0.0
 20
0.0
  0
LINE
  8
1
 62
7
  6
CONTINUOUS
 10
483.778083
 20
233.203576
 11
483.778083
 21
359.203576
  0
LINE
  8
1
 62
7
  6
CONTINUOUS
 10
487.778083
 20
233.203576
 11
456.214580
 21
233.203576
  0
LINE
  8
1
 62
7
  6
CONTINUOUS
 10
487.778083
 20
359.203576
 11
456.214580
 21
359.203576
  0
LINE
  8
1
 62
7
  6
CONTINUOUS
 10
483.778083
 20
233.203576
 11
482.483988
 21
238.033205
  0
LINE
  8
1
 62
7
  6
CONTINUOUS
 10
483.778083
 20
233.203576
 11
485.072179
 21
238.033205
  0
LINE
  8
1
 62
7
  6
CONTINUOUS
 10
483.778083
 20
359.203576
 11
485.072179
 21
354.373947
  0
LINE
  8
1
 62
7
  6
CONTINUOUS
 10
483.778083
 20
359.203576
 11
482.483988
 21
354.373947
  0
TEXT
  8
1
 62
7
  6
CONTINUOUS
 10
483.778083
 20
291.703576
 40
6.000000
 41
0.500000
  1
126
  7
KANJI
 50
90.000000
 51
30.000000
  0
ENDBLK
  0
BLOCK
  8
1
 62
7
  6
CONTINUOUS
  2
*D5
 70
    65
 10
0.0
 20
0.0
  0
LINE
  8
1
 62
7
  6
CONTINUOUS
 10
131.574966
 20
194.404478
 11
231.574966
 21
194.404478
  0
LINE
  8
1
 62
7
  6
CONTINUOUS
 10
131.574966
 20
190.404478
 11
131.574966
 21
223.414718
  0
LINE
  8
1
 62
7
  6
CONTINUOUS
 10
231.574966
 20
190.404478
 11
231.574966
 21
223.414718
  0
LINE
  8
1
 62
7
  6
CONTINUOUS
 10
131.574966
 20
194.404478
 11
136.404595
 21
195.698573
  0
LINE
  8
1
 62
7
  6
CONTINUOUS
 10
131.574966
 20
194.404478
 11
136.404595
 21
193.110383
  0
LINE
  8
1
 62
7
  6
CONTINUOUS
 10
231.574966
 20
194.404478
 11
226.745336
 21
193.110383
  0
LINE
  8
1
 62
7
  6
CONTINUOUS
 10
231.574966
 20
194.404478
 11
226.745336
 21
195.698573
  0
TEXT
  8
1
 62
7
  6
CONTINUOUS
 10
177.074966
 20
194.404478
 40
6.000000
 41
0.500000
  1
100
  7
KANJI
 50
0.000000
 51
30.000000
  0
ENDBLK
  0
BLOCK
  8
1
 62
7
  6
CONTINUOUS
  2
*D6
 70
    65
 10
0.0
 20
0.0
  0
LINE
  8
1
 62
7
  6
CONTINUOUS
 10
172.523307
 20
210.601941
 11
190.023307
 21
210.601941
  0
LINE
  8
1
 62
7
  6
CONTINUOUS
 10
172.523307
 20
206.601941
 11
172.523307
 21
223.414718
  0
LINE
  8
1
 62
7
  6
CONTINUOUS
 10
190.023307
 20
206.601941
 11
190.023307
 21
223.414718
  0
LINE
  8
1
 62
7
  6
CONTINUOUS
 10
172.523307
 20
210.601941
 11
177.352936
 21
211.896036
  0
LINE
  8
1
 62
7
  6
CONTINUOUS
 10
172.523307
 20
210.601941
 11
177.352936
 21
209.307846
  0
LINE
  8
1
 62
7
  6
CONTINUOUS
 10
190.023307
 20
210.601941
 11
185.193678
 21
209.307846
  0
LINE
  8
1
 62
7
  6
CONTINUOUS
 10
190.023307
 20
210.601941
 11
185.193678
 21
211.896036
  0
TEXT
  8
1
 62
7
  6
CONTINUOUS
 10
175.273307
 20
210.601941
 40
6.000000
 41
0.500000
  1
17.5
  7
KANJI
 50
0.000000
 51
30.000000
  0
ENDBLK
  0
BLOCK
  8
1
 62
7
  6
CONTINUOUS
  2
*D7
 70
    65
 10
0.0
 20
0.0
  0
LINE
  8
1
 62
7
  6
CONTINUOUS
 10
261.876815
 20
227.414718
 11
261.876815
 21
364.414718
  0
LINE
  8
1
 62
7
  6
CONTINUOUS
 10
265.876815
 20
227.414718
 11
235.574966
 21
227.414718
  0
LINE
  8
1
 62
7
  6
CONTINUOUS
 10
265.876815
 20
364.414718
 11
235.574966
 21
364.414718
  0
LINE
  8
1
 62
7
  6
CONTINUOUS
 10
261.876815
 20
227.414718
 11
260.582720
 21
232.244347
  0
LINE
  8
1
 62
7
  6
CONTINUOUS
 10
261.876815
 20
227.414718
 11
263.170910
 21
232.244347
  0
LINE
  8
1
 62
7
  6
CONTINUOUS
 10
261.876815
 20
364.414718
 11
263.170910
 21
359.585089
  0
LINE
  8
1
 62
7
  6
CONTINUOUS
 10
261.876815
 20
364.414718
 11
260.582720
 21
359.585089
  0
TEXT
  8
1
 62
7
  6
CONTINUOUS
 10
261.876815
 20
291.414718
 40
6.000000
 41
0.500000
  1
137
  7
KANJI
 50
90.000000
 51
30.000000
  0
ENDBLK
  0
BLOCK
  8
1
 62
7
  6
CONTINUOUS
  2
*D8
 70
    65
 10
0.0
 20
0.0
  0
LINE
  8
1
 62
7
  6
CONTINUOUS
 10
141.574966
 20
201.765016
 11
221.574966
 21
201.765016
  0
LINE
  8
1
 62
7
  6
CONTINUOUS
 10
141.574966
 20
197.765016
 11
141.574966
 21
233.414718
  0
LINE
  8
1
 62
7
  6
CONTINUOUS
 10
221.574966
 20
197.765016
 11
221.574966
 21
233.414718
  0
LINE
  8
1
 62
7
  6
CONTINUOUS
 10
141.574966
 20
201.765016
 11
146.404595
 21
203.059111
  0
LINE
  8
1
 62
7
  6
CONTINUOUS
 10
141.574966
 20
201.765016
 11
146.404595
 21
200.470921
  0
LINE
  8
1
 62
7
  6
CONTINUOUS
 10
221.574966
 20
201.765016
 11
216.745336
 21
200.470921
  0
LINE
  8
1
 62
7
  6
CONTINUOUS
 10
221.574966
 20
201.765016
 11
216.745336
 21
203.059111
  0
TEXT
  8
1
 62
7
  6
CONTINUOUS
 10
178.574966
 20
201.765016
 40
6.000000
 41
0.500000
  1
80
  7
KANJI
 50
0.000000
 51
30.000000
  0
ENDBLK
  0
BLOCK
  8
1
 62
7
  6
CONTINUOUS
  2
*D9
 70
    65
 10
0.0
 20
0.0
  0
LINE
  8
1
 62
7
  6
CONTINUOUS
 10
254.002751
 20
237.414718
 11
254.002751
 21
354.414718
  0
LINE
  8
1
 62
7
  6
CONTINUOUS
 10
258.002751
 20
237.414718
 11
225.574966
 21
237.414718
  0
LINE
  8
1
 62
7
  6
CONTINUOUS
 10
258.002751
 20
354.414718
 11
225.574966
 21
354.414718
  0
LINE
  8
1
 62
7
  6
CONTINUOUS
 10
254.002751
 20
237.414718
 11
252.708656
 21
242.244347
  0
LINE
  8
1
 62
7
  6
CONTINUOUS
 10
254.002751
 20
237.414718
 11
255.296846
 21
242.244347
  0
LINE
  8
1
 62
7
  6
CONTINUOUS
 10
254.002751
 20
354.414718
 11
255.296846
 21
349.585089
  0
LINE
  8
1
 62
7
  6
CONTINUOUS
 10
254.002751
 20
354.414718
 11
252.708656
 21
349.585089
  0
TEXT
  8
1
 62
7
  6
CONTINUOUS
 10
254.002751
 20
291.414718
 40
6.000000
 41
0.500000
  1
117
  7
KANJI
 50
90.000000
 51
30.000000
  0
ENDBLK
  0
BLOCK
  8
1
 62
7
  6
CONTINUOUS
  2
*D10
 70
    65
 10
0.0
 20
0.0
  0
LINE
  8
1
 62
7
  6
CONTINUOUS
 10
290.574966
 20
205.629235
 11
305.574966
 21
205.629235
  0
LINE
  8
1
 62
7
  6
CONTINUOUS
 10
296.574966
 20
201.629235
 11
296.574966
 21
232.414718
  0
LINE
  8
1
 62
7
  6
CONTINUOUS
 10
299.574966
 20
201.629235
 11
299.574966
 21
227.724730
  0
LINE
  8
1
 62
7
  6
CONTINUOUS
 10
296.574966
 20
205.629235
 11
291.745336
 21
204.335140
  0
LINE
  8
1
 62
7
  6
CONTINUOUS
 10
296.574966
 20
205.629235
 11
291.745336
 21
206.923330
  0
LINE
  8
1
 62
7
  6
CONTINUOUS
 10
299.574966
 20
205.629235
 11
304.404595
 21
206.923330
  0
LINE
  8
1
 62
7
  6
CONTINUOUS
 10
299.574966
 20
205.629235
 11
304.404595
 21
204.335140
  0
TEXT
  8
1
 62
7
  6
CONTINUOUS
 10
296.574966
 20
205.629235
 40
6.000000
 41
0.500000
  1
3
  7
KANJI
 50
0.000000
 51
30.000000
  0
ENDBLK
  0
BLOCK
  8
1
 62
7
  6
CONTINUOUS
  2
*D11
 70
    65
 10
0.0
 20
0.0
  0
LINE
  8
1
 62
7
  6
CONTINUOUS
 10
299.574966
 20
205.629235
 11
309.574966
 21
205.629235
  0
LINE
  8
1
 62
7
  6
CONTINUOUS
 10
299.574966
 20
201.629235
 11
299.574966
 21
229.203576
  0
LINE
  8
1
 62
7
  6
CONTINUOUS
 10
309.574966
 20
201.629235
 11
309.574966
 21
229.203576
  0
LINE
  8
1
 62
7
  6
CONTINUOUS
 10
299.574966
 20
205.629235
 11
304.404595
 21
206.923330
  0
LINE
  8
1
 62
7
  6
CONTINUOUS
 10
299.574966
 20
205.629235
 11
304.404595
 21
204.335140
  0
LINE
  8
1
 62
7
  6
CONTINUOUS
 10
309.574966
 20
205.629235
 11
304.745336
 21
204.335140
  0
LINE
  8
1
 62
7
  6
CONTINUOUS
 10
309.574966
 20
205.629235
 11
304.745336
 21
206.923330
  0
TEXT
  8
1
 62
7
  6
CONTINUOUS
 10
301.574966
 20
205.629235
 40
6.000000
 41
0.500000
  1
10
  7
KANJI
 50
0.000000
 51
30.000000
  0
ENDBLK
  0
BLOCK
  8
1
 62
7
  6
CONTINUOUS
  2
*D12
 70
    65
 10
0.0
 20
0.0
  0
LINE
  8
1
 62
7
  6
CONTINUOUS
 10
463.840542
 20
153.992842
 11
480.975801
 21
153.992842
  0
LINE
  8
1
 62
7
  6
CONTINUOUS
 10
469.840542
 20
149.992842
 11
469.840542
 21
162.431581
  0
LINE
  8
1
 62
7
  6
CONTINUOUS
 10
474.975801
 20
149.992842
 11
474.975801
 21
162.431581
  0
LINE
  8
1
 62
7
  6
CONTINUOUS
 10
469.840542
 20
153.992842
 11
465.010913
 21
152.698747
  0
LINE
  8
1
 62
7
  6
CONTINUOUS
 10
469.840542
 20
153.992842
 11
465.010913
 21
155.286937
  0
LINE
  8
1
 62
7
  6
CONTINUOUS
 10
474.975801
 20
153.992842
 11
479.805430
 21
155.286937
  0
LINE
  8
1
 62
7
  6
CONTINUOUS
 10
474.975801
 20
153.992842
 11
479.805430
 21
152.698747
  0
TEXT
  8
1
 62
7
  6
CONTINUOUS
 10
467.408172
 20
153.992842
 40
5.000000
 41
0.500000
  1
2.54
  7
KANJI
 50
0.000000
 51
30.000000
  0
ENDBLK
  0
ENDSEC
  0
SECTION
  2
ENTITIES
  0
LINE
  8
1
 62
7
  6
CONTINUOUS
 10
138.724209
 20
479.055479
 11
138.724209
 21
489.555479
  0
LINE
  8
1
 62
7
  6
CONTINUOUS
 10
138.724209
 20
489.555479
 11
149.224209
 21
489.555479
  0
LINE
  8
1
 62
7
  6
CONTINUOUS
 10
149.224209
 20
489.555479
 11
149.224209
 21
479.055479
  0
LINE
  8
1
 62
7
  6
CONTINUOUS
 10
149.224209
 20
479.055479
 11
138.724209
 21
479.055479
  0
LINE
  8
1
 62
7
  6
CONTINUOUS
 10
184.941541
 20
449.591930
 11
184.941541
 21
460.091930
  0
LINE
  8
1
 62
7
  6
CONTINUOUS
 10
184.941541
 20
460.091930
 11
195.441541
 21
460.091930
  0
LINE
  8
1
 62
7
  6
CONTINUOUS
 10
195.441541
 20
460.091930
 11
195.441541
 21
449.591930
  0
LINE
  8
1
 62
7
  6
CONTINUOUS
 10
195.441541
 20
449.591930
 11
184.941541
 21
449.591930
  0
LINE
  8
1
 62
7
  6
CONTINUOUS
 10
202.441541
 20
449.591930
 11
202.441541
 21
460.091930
  0
LINE
  8
1
 62
7
  6
CONTINUOUS
 10
202.441541
 20
460.091930
 11
212.941541
 21
460.091930
  0
LINE
  8
1
 62
7
  6
CONTINUOUS
 10
212.941541
 20
460.091930
 11
212.941541
 21
449.591930
  0
LINE
  8
1
 62
7
  6
CONTINUOUS
 10
212.941541
 20
449.591930
 11
202.441541
 21
449.591930
  0
LINE
  8
1
 62
7
  6
CONTINUOUS
 10
219.941541
 20
449.591930
 11
219.941541
 21
460.091930
  0
LINE
  8
1
 62
7
  6
CONTINUOUS
 10
219.941541
 20
460.091930
 11
230.441541
 21
460.091930
  0
LINE
  8
1
 62
7
  6
CONTINUOUS
 10
230.441541
 20
460.091930
 11
230.441541
 21
449.591930
  0
LINE
  8
1
 62
7
  6
CONTINUOUS
 10
230.441541
 20
449.591930
 11
219.941541
 21
449.591930
  0
LINE
  8
1
 62
7
  6
CONTINUOUS
 10
237.441541
 20
449.591930
 11
237.441541
 21
460.091930
  0
LINE
  8
1
 62
7
  6
CONTINUOUS
 10
237.441541
 20
460.091930
 11
247.941541
 21
460.091930
  0
LINE
  8
1
 62
7
  6
CONTINUOUS
 10
247.941541
 20
460.091930
 11
247.941541
 21
449.591930
  0
LINE
  8
1
 62
7
  6
CONTINUOUS
 10
247.941541
 20
449.591930
 11
237.441541
 21
449.591930
  0
LINE
  8
1
 62
7
  6
CONTINUOUS
 10
184.941541
 20
467.091930
 11
184.941541
 21
477.591930
  0
LINE
  8
1
 62
7
  6
CONTINUOUS
 10
184.941541
 20
477.591930
 11
195.441541
 21
477.591930
  0
LINE
  8
1
 62
7
  6
CONTINUOUS
 10
195.441541
 20
477.591930
 11
195.441541
 21
467.091930
  0
LINE
  8
1
 62
7
  6
CONTINUOUS
 10
195.441541
 20
467.091930
 11
184.941541
 21
467.091930
  0
LINE
  8
1
 62
7
  6
CONTINUOUS
 10
202.441541
 20
467.091930
 11
202.441541
 21
477.591930
  0
LINE
  8
1
 62
7
  6
CONTINUOUS
 10
202.441541
 20
477.591930
 11
212.941541
 21
477.591930
  0
LINE
  8
1
 62
7
  6
CONTINUOUS
 10
212.941541
 20
477.591930
 11
212.941541
 21
467.091930
  0
LINE
  8
1
 62
7
  6
CONTINUOUS
 10
212.941541
 20
467.091930
 11
202.441541
 21
467.091930
  0
LINE
  8
1
 62
7
  6
CONTINUOUS
 10
219.941541
 20
467.091930
 11
219.941541
 21
477.591930
  0
LINE
  8
1
 62
7
  6
CONTINUOUS
 10
219.941541
 20
477.591930
 11
230.441541
 21
477.591930
  0
LINE
  8
1
 62
7
  6
CONTINUOUS
 10
230.441541
 20
477.591930
 11
230.441541
 21
467.091930
  0
LINE
  8
1
 62
7
  6
CONTINUOUS
 10
230.441541
 20
467.091930
 11
219.941541
 21
467.091930
  0
LINE
  8
1
 62
7
  6
CONTINUOUS
 10
237.441541
 20
467.091930
 11
237.441541
 21
477.591930
  0
LINE
  8
1
 62
7
  6
CONTINUOUS
 10
237.441541
 20
477.591930
 11
247.941541
 21
477.591930
  0
LINE
  8
1
 62
7
  6
CONTINUOUS
 10
247.941541
 20
477.591930
 11
247.941541
 21
467.091930
  0
LINE
  8
1
 62
7
  6
CONTINUOUS
 10
247.941541
 20
467.091930
 11
237.441541
 21
467.091930
  0
LINE
  8
1
 62
7
  6
CONTINUOUS
 10
184.941541
 20
484.591930
 11
184.941541
 21
495.091930
  0
LINE
  8
1
 62
7
  6
CONTINUOUS
 10
184.941541
 20
495.091930
 11
195.441541
 21
495.091930
  0
LINE
  8
1
 62
7
  6
CONTINUOUS
 10
195.441541
 20
495.091930
 11
195.441541
 21
484.591930
  0
LINE
  8
1
 62
7
  6
CONTINUOUS
 10
195.441541
 20
484.591930
 11
184.941541
 21
484.591930
  0
LINE
  8
1
 62
7
  6
CONTINUOUS
 10
202.441541
 20
484.591930
 11
202.441541
 21
495.091930
  0
LINE
  8
1
 62
7
  6
CONTINUOUS
 10
202.441541
 20
495.091930
 11
212.941541
 21
495.091930
  0
LINE
  8
1
 62
7
  6
CONTINUOUS
 10
212.941541
 20
495.091930
 11
212.941541
 21
484.591930
  0
LINE
  8
1
 62
7
  6
CONTINUOUS
 10
212.941541
 20
484.591930
 11
202.441541
 21
484.591930
  0
LINE
  8
1
 62
7
  6
CONTINUOUS
 10
219.941541
 20
484.591930
 11
219.941541
 21
495.091930
  0
LINE
  8
1
 62
7
  6
CONTINUOUS
 10
219.941541
 20
495.091930
 11
230.441541
 21
495.091930
  0
LINE
  8
1
 62
7
  6
CONTINUOUS
 10
230.441541
 20
495.091930
 11
230.441541
 21
484.591930
  0
LINE
  8
1
 62
7
  6
CONTINUOUS
 10
230.441541
 20
484.591930
 11
219.941541
 21
484.591930
  0
LINE
  8
1
 62
7
  6
CONTINUOUS
 10
237.441541
 20
484.591930
 11
237.441541
 21
495.091930
  0
LINE
  8
1
 62
7
  6
CONTINUOUS
 10
237.441541
 20
495.091930
 11
247.941541
 21
495.091930
  0
LINE
  8
1
 62
7
  6
CONTINUOUS
 10
247.941541
 20
495.091930
 11
247.941541
 21
484.591930
  0
LINE
  8
1
 62
7
  6
CONTINUOUS
 10
247.941541
 20
484.591930
 11
237.441541
 21
484.591930
  0
LINE
  8
1
 62
7
  6
CONTINUOUS
 10
184.941541
 20
502.091930
 11
184.941541
 21
512.591930
  0
LINE
  8
1
 62
7
  6
CONTINUOUS
 10
184.941541
 20
512.591930
 11
195.441541
 21
512.591930
  0
LINE
  8
1
 62
7
  6
CONTINUOUS
 10
195.441541
 20
512.591930
 11
195.441541
 21
502.091930
  0
LINE
  8
1
 62
7
  6
CONTINUOUS
 10
195.441541
 20
502.091930
 11
184.941541
 21
502.091930
  0
LINE
  8
1
 62
7
  6
CONTINUOUS
 10
202.441541
 20
502.091930
 11
202.441541
 21
512.591930
  0
LINE
  8
1
 62
7
  6
CONTINUOUS
 10
202.441541
 20
512.591930
 11
212.941541
 21
512.591930
  0
LINE
  8
1
 62
7
  6
CONTINUOUS
 10
212.941541
 20
512.591930
 11
212.941541
 21
502.091930
  0
LINE
  8
1
 62
7
  6
CONTINUOUS
 10
212.941541
 20
502.091930
 11
202.441541
 21
502.091930
  0
LINE
  8
1
 62
7
  6
CONTINUOUS
 10
219.941541
 20
502.091930
 11
219.941541
 21
512.591930
  0
LINE
  8
1
 62
7
  6
CONTINUOUS
 10
219.941541
 20
512.591930
 11
230.441541
 21
512.591930
  0
LINE
  8
1
 62
7
  6
CONTINUOUS
 10
230.441541
 20
512.591930
 11
230.441541
 21
502.091930
  0
LINE
  8
1
 62
7
  6
CONTINUOUS
 10
230.441541
 20
502.091930
 11
219.941541
 21
502.091930
  0
LINE
  8
1
 62
7
  6
CONTINUOUS
 10
237.441541
 20
502.091930
 11
237.441541
 21
512.591930
  0
LINE
  8
1
 62
7
  6
CONTINUOUS
 10
237.441541
 20
512.591930
 11
247.941541
 21
512.591930
  0
LINE
  8
1
 62
7
  6
CONTINUOUS
 10
247.941541
 20
512.591930
 11
247.941541
 21
502.091930
  0
LINE
  8
1
 62
7
  6
CONTINUOUS
 10
247.941541
 20
502.091930
 11
237.441541
 21
502.091930
  0
DIMENSION
  8
1
 62
7
  6
CONTINUOUS
  2
*D1
 10
184.941541
 20
427.927556
 11
216.441541
 21
427.927556
 70
     0
  1
63
 13
184.941541
 23
445.591930
 14
247.941541
 24
445.591930
 50
0.000000
  0
LINE
  8
1
 62
7
  6
CONTINUOUS
 10
216.441541
 20
480.153854
 11
216.441541
 21
482.074821
  0
LINE
  8
1
 62
7
  6
CONTINUOUS
 10
215.421443
 20
481.091930
 11
217.431168
 21
481.091930
  0
LINE
  8
1
 62
7
  6
CONTINUOUS
 10
150.074966
 20
246.914718
 11
150.074966
 21
257.414718
  0
LINE
  8
1
 62
7
  6
CONTINUOUS
 10
150.074966
 20
257.414718
 11
160.574966
 21
257.414718
  0
LINE
  8
1
 62
7
  6
CONTINUOUS
 10
160.574966
 20
257.414718
 11
160.574966
 21
246.914718
  0
LINE
  8
1
 62
7
  6
CONTINUOUS
 10
160.574966
 20
246.914718
 11
150.074966
 21
246.914718
  0
LINE
  8
1
 62
7
  6
CONTINUOUS
 10
167.574966
 20
246.914718
 11
167.574966
 21
257.414718
  0
LINE
  8
1
 62
7
  6
CONTINUOUS
 10
167.574966
 20
257.414718
 11
178.074966
 21
257.414718
  0
LINE
  8
1
 62
7
  6
CONTINUOUS
 10
178.074966
 20
257.414718
 11
178.074966
 21
246.914718
  0
LINE
  8
1
 62
7
  6
CONTINUOUS
 10
178.074966
 20
246.914718
 11
167.574966
 21
246.914718
  0
LINE
  8
1
 62
7
  6
CONTINUOUS
 10
185.074966
 20
246.914718
 11
185.074966
 21
257.414718
  0
LINE
  8
1
 62
7
  6
CONTINUOUS
 10
185.074966
 20
257.414718
 11
195.574966
 21
257.414718
  0
LINE
  8
1
 62
7
  6
CONTINUOUS
 10
195.574966
 20
257.414718
 11
195.574966
 21
246.914718
  0
LINE
  8
1
 62
7
  6
CONTINUOUS
 10
195.574966
 20
246.914718
 11
185.074966
 21
246.914718
  0
LINE
  8
1
 62
7
  6
CONTINUOUS
 10
202.574966
 20
246.914718
 11
202.574966
 21
257.414718
  0
LINE
  8
1
 62
7
  6
CONTINUOUS
 10
202.574966
 20
257.414718
 11
213.074966
 21
257.414718
  0
LINE
  8
1
 62
7
  6
CONTINUOUS
 10
213.074966
 20
257.414718
 11
213.074966
 21
246.914718
  0
LINE
  8
1
 62
7
  6
CONTINUOUS
 10
213.074966
 20
246.914718
 11
202.574966
 21
246.914718
  0
LINE
  8
1
 62
7
  6
CONTINUOUS
 10
150.074966
 20
264.414718
 11
150.074966
 21
274.914718
  0
LINE
  8
1
 62
7
  6
CONTINUOUS
 10
150.074966
 20
274.914718
 11
160.574966
 21
274.914718
  0
LINE
  8
1
 62
7
  6
CONTINUOUS
 10
160.574966
 20
274.914718
 11
160.574966
 21
264.414718
  0
LINE
  8
1
 62
7
  6
CONTINUOUS
 10
160.574966
 20
264.414718
 11
150.074966
 21
264.414718
  0
LINE
  8
1
 62
7
  6
CONTINUOUS
 10
167.574966
 20
264.414718
 11
167.574966
 21
274.914718
  0
LINE
  8
1
 62
7
  6
CONTINUOUS
 10
167.574966
 20
274.914718
 11
178.074966
 21
274.914718
  0
LINE
  8
1
 62
7
  6
CONTINUOUS
 10
178.074966
 20
274.914718
 11
178.074966
 21
264.414718
  0
LINE
  8
1
 62
7
  6
CONTINUOUS
 10
178.074966
 20
264.414718
 11
167.574966
 21
264.414718
  0
LINE
  8
1
 62
7
  6
CONTINUOUS
 10
185.074966
 20
264.414718
 11
185.074966
 21
274.914718
  0
LINE
  8
1
 62
7
  6
CONTINUOUS
 10
185.074966
 20
274.914718
 11
195.574966
 21
274.914718
  0
LINE
  8
1
 62
7
  6
CONTINUOUS
 10
195.574966
 20
274.914718
 11
195.574966
 21
264.414718
  0
LINE
  8
1
 62
7
  6
CONTINUOUS
 10
195.574966
 20
264.414718
 11
185.074966
 21
264.414718
  0
LINE
  8
1
 62
7
  6
CONTINUOUS
 10
202.574966
 20
264.414718
 11
202.574966
 21
274.914718
  0
LINE
  8
1
 62
7
  6
CONTINUOUS
 10
202.574966
 20
274.914718
 11
213.074966
 21
274.914718
  0
LINE
  8
1
 62
7
  6
CONTINUOUS
 10
213.074966
 20
274.914718
 11
213.074966
 21
264.414718
  0
LINE
  8
1
 62
7
  6
CONTINUOUS
 10
213.074966
 20
264.414718
 11
202.574966
 21
264.414718
  0
LINE
  8
1
 62
7
  6
CONTINUOUS
 10
150.074966
 20
281.914718
 11
150.074966
 21
292.414718
  0
LINE
  8
1
 62
7
  6
CONTINUOUS
 10
150.074966
 20
292.414718
 11
160.574966
 21
292.414718
  0
LINE
  8
1
 62
7
  6
CONTINUOUS
 10
160.574966
 20
292.414718
 11
160.574966
 21
281.914718
  0
LINE
  8
1
 62
7
  6
CONTINUOUS
 10
160.574966
 20
281.914718
 11
150.074966
 21
281.914718
  0
LINE
  8
1
 62
7
  6
CONTINUOUS
 10
167.574966
 20
281.914718
 11
167.574966
 21
292.414718
  0
LINE
  8
1
 62
7
  6
CONTINUOUS
 10
167.574966
 20
292.414718
 11
178.074966
 21
292.414718
  0
LINE
  8
1
 62
7
  6
CONTINUOUS
 10
178.074966
 20
292.414718
 11
178.074966
 21
281.914718
  0
LINE
  8
1
 62
7
  6
CONTINUOUS
 10
178.074966
 20
281.914718
 11
167.574966
 21
281.914718
  0
LINE
  8
1
 62
7
  6
CONTINUOUS
 10
185.074966
 20
281.914718
 11
185.074966
 21
292.414718
  0
LINE
  8
1
 62
7
  6
CONTINUOUS
 10
185.074966
 20
292.414718
 11
195.574966
 21
292.414718
  0
LINE
  8
1
 62
7
  6
CONTINUOUS
 10
195.574966
 20
292.414718
 11
195.574966
 21
281.914718
  0
LINE
  8
1
 62
7
  6
CONTINUOUS
 10
195.574966
 20
281.914718
 11
185.074966
 21
281.914718
  0
LINE
  8
1
 62
7
  6
CONTINUOUS
 10
202.574966
 20
281.914718
 11
202.574966
 21
292.414718
  0
LINE
  8
1
 62
7
  6
CONTINUOUS
 10
202.574966
 20
292.414718
 11
213.074966
 21
292.414718
  0
LINE
  8
1
 62
7
  6
CONTINUOUS
 10
213.074966
 20
292.414718
 11
213.074966
 21
281.914718
  0
LINE
  8
1
 62
7
  6
CONTINUOUS
 10
213.074966
 20
281.914718
 11
202.574966
 21
281.914718
  0
DIMENSION
  8
1
 62
7
  6
CONTINUOUS
  2
*D2
 10
245.529574
 20
269.365734
 11
245.529574
 21
278.115734
 70
     0
  1
17.5
 13
235.574966
 23
269.365734
 14
235.574966
 24
286.865734
 50
90.000000
  0
CIRCLE
  8
1
 62
7
  6
CONTINUOUS
 10
407.718172
 20
278.951551
 40
2.500000
  0
LINE
  8
1
 62
7
  6
CONTINUOUS
 10
407.718172
 20
280.384533
 11
407.718172
 21
277.531611
  0
LINE
  8
1
 62
7
  6
CONTINUOUS
 10
409.073030
 20
278.951551
 11
406.220108
 21
278.951551
  0
LINE
  8
1
 62
7
  6
CONTINUOUS
 10
364.214580
 20
292.367416
 11
366.214580
 21
292.367416
  0
LINE
  8
1
 62
7
  6
CONTINUOUS
 10
448.214580
 20
292.367416
 11
450.214580
 21
292.367416
  0
LINE
  8
1
 62
7
  6
CONTINUOUS
 10
150.074966
 20
334.414718
 11
150.074966
 21
344.914718
  0
LINE
  8
1
 62
7
  6
CONTINUOUS
 10
150.074966
 20
344.914718
 11
160.574966
 21
344.914718
  0
LINE
  8
1
 62
7
  6
CONTINUOUS
 10
160.574966
 20
344.914718
 11
160.574966
 21
334.414718
  0
LINE
  8
1
 62
7
  6
CONTINUOUS
 10
160.574966
 20
334.414718
 11
150.074966
 21
334.414718
  0
LINE
  8
1
 62
7
  6
CONTINUOUS
 10
167.574966
 20
334.414718
 11
167.574966
 21
344.914718
  0
LINE
  8
1
 62
7
  6
CONTINUOUS
 10
167.574966
 20
344.914718
 11
178.074966
 21
344.914718
  0
LINE
  8
1
 62
7
  6
CONTINUOUS
 10
178.074966
 20
344.914718
 11
178.074966
 21
334.414718
  0
LINE
  8
1
 62
7
  6
CONTINUOUS
 10
178.074966
 20
334.414718
 11
167.574966
 21
334.414718
  0
LINE
  8
1
 62
7
  6
CONTINUOUS
 10
185.074966
 20
334.414718
 11
185.074966
 21
344.914718
  0
LINE
  8
1
 62
7
  6
CONTINUOUS
 10
185.074966
 20
344.914718
 11
195.574966
 21
344.914718
  0
LINE
  8
1
 62
7
  6
CONTINUOUS
 10
195.574966
 20
344.914718
 11
195.574966
 21
334.414718
  0
LINE
  8
1
 62
7
  6
CONTINUOUS
 10
195.574966
 20
334.414718
 11
185.074966
 21
334.414718
  0
LINE
  8
1
 62
7
  6
CONTINUOUS
 10
202.574966
 20
334.414718
 11
202.574966
 21
344.914718
  0
LINE
  8
1
 62
7
  6
CONTINUOUS
 10
202.574966
 20
344.914718
 11
213.074966
 21
344.914718
  0
LINE
  8
1
 62
7
  6
CONTINUOUS
 10
213.074966
 20
344.914718
 11
213.074966
 21
334.414718
  0
LINE
  8
1
 62
7
  6
CONTINUOUS
 10
213.074966
 20
334.414718
 11
202.574966
 21
334.414718
  0
LINE
  8
1
 62
7
  6
CONTINUOUS
 10
150.074966
 20
299.414718
 11
150.074966
 21
309.914718
  0
LINE
  8
1
 62
7
  6
CONTINUOUS
 10
150.074966
 20
309.914718
 11
160.574966
 21
309.914718
  0
LINE
  8
1
 62
7
  6
CONTINUOUS
 10
160.574966
 20
309.914718
 11
160.574966
 21
299.414718
  0
LINE
  8
1
 62
7
  6
CONTINUOUS
 10
160.574966
 20
299.414718
 11
150.074966
 21
299.414718
  0
LINE
  8
1
 62
7
  6
CONTINUOUS
 10
167.574966
 20
299.414718
 11
167.574966
 21
309.914718
  0
LINE
  8
1
 62
7
  6
CONTINUOUS
 10
167.574966
 20
309.914718
 11
178.074966
 21
309.914718
  0
LINE
  8
1
 62
7
  6
CONTINUOUS
 10
178.074966
 20
309.914718
 11
178.074966
 21
299.414718
  0
LINE
  8
1
 62
7
  6
CONTINUOUS
 10
178.074966
 20
299.414718
 11
167.574966
 21
299.414718
  0
LINE
  8
1
 62
7
  6
CONTINUOUS
 10
185.074966
 20
299.414718
 11
185.074966
 21
309.914718
  0
LINE
  8
1
 62
7
  6
CONTINUOUS
 10
185.074966
 20
309.914718
 11
195.574966
 21
309.914718
  0
LINE
  8
1
 62
7
  6
CONTINUOUS
 10
195.574966
 20
309.914718
 11
195.574966
 21
299.414718
  0
LINE
  8
1
 62
7
  6
CONTINUOUS
 10
195.574966
 20
299.414718
 11
185.074966
 21
299.414718
  0
LINE
  8
1
 62
7
  6
CONTINUOUS
 10
202.574966
 20
299.414718
 11
202.574966
 21
309.914718
  0
LINE
  8
1
 62
7
  6
CONTINUOUS
 10
202.574966
 20
309.914718
 11
213.074966
 21
309.914718
  0
LINE
  8
1
 62
7
  6
CONTINUOUS
 10
213.074966
 20
309.914718
 11
213.074966
 21
299.414718
  0
LINE
  8
1
 62
7
  6
CONTINUOUS
 10
213.074966
 20
299.414718
 11
202.574966
 21
299.414718
  0
LINE
  8
1
 62
7
  6
CONTINUOUS
 10
150.074966
 20
316.914718
 11
150.074966
 21
327.414718
  0
LINE
  8
1
 62
7
  6
CONTINUOUS
 10
150.074966
 20
327.414718
 11
160.574966
 21
327.414718
  0
LINE
  8
1
 62
7
  6
CONTINUOUS
 10
160.574966
 20
327.414718
 11
160.574966
 21
316.914718
  0
LINE
  8
1
 62
7
  6
CONTINUOUS
 10
160.574966
 20
316.914718
 11
150.074966
 21
316.914718
  0
LINE
  8
1
 62
7
  6
CONTINUOUS
 10
167.574966
 20
316.914718
 11
167.574966
 21
327.414718
  0
LINE
  8
1
 62
7
  6
CONTINUOUS
 10
167.574966
 20
327.414718
 11
178.074966
 21
327.414718
  0
LINE
  8
1
 62
7
  6
CONTINUOUS
 10
178.074966
 20
327.414718
 11
178.074966
 21
316.914718
  0
LINE
  8
1
 62
7
  6
CONTINUOUS
 10
178.074966
 20
316.914718
 11
167.574966
 21
316.914718
  0
LINE
  8
1
 62
7
  6
CONTINUOUS
 10
185.074966
 20
316.914718
 11
185.074966
 21
327.414718
  0
LINE
  8
1
 62
7
  6
CONTINUOUS
 10
185.074966
 20
327.414718
 11
195.574966
 21
327.414718
  0
LINE
  8
1
 62
7
  6
CONTINUOUS
 10
195.574966
 20
327.414718
 11
195.574966
 21
316.914718
  0
LINE
  8
1
 62
7
  6
CONTINUOUS
 10
195.574966
 20
316.914718
 11
185.074966
 21
316.914718
  0
LINE
  8
1
 62
7
  6
CONTINUOUS
 10
202.574966
 20
316.914718
 11
202.574966
 21
327.414718
  0
LINE
  8
1
 62
7
  6
CONTINUOUS
 10
202.574966
 20
327.414718
 11
213.074966
 21
327.414718
  0
LINE
  8
1
 62
7
  6
CONTINUOUS
 10
213.074966
 20
327.414718
 11
213.074966
 21
316.914718
  0
LINE
  8
1
 62
7
  6
CONTINUOUS
 10
213.074966
 20
316.914718
 11
202.574966
 21
316.914718
  0
LINE
  8
1
 62
7
  6
CONTINUOUS
 10
447.214580
 20
354.203576
 11
367.214580
 21
354.203576
  0
LINE
  8
1
 62
7
  6
CONTINUOUS
 10
362.214580
 20
359.203576
 11
362.214580
 21
349.203576
  0
LINE
  8
1
 62
7
  6
CONTINUOUS
 10
452.214580
 20
359.203576
 11
442.214580
 21
359.203576
  0
LINE
  8
1
 62
7
  6
CONTINUOUS
 10
372.214580
 20
359.203576
 11
362.214580
 21
359.203576
  0
LINE
  8
1
 62
7
  6
CONTINUOUS
 10
452.214580
 20
349.203576
 11
452.214580
 21
359.203576
  0
LINE
  8
1
 62
7
  6
CONTINUOUS
 10
364.214580
 20
350.123771
 11
366.214580
 21
350.123771
  0
LINE
  8
1
 62
7
  6
CONTINUOUS
 10
371.122319
 20
357.203576
 11
371.122319
 21
355.203576
  0
LINE
  8
1
 62
7
  6
CONTINUOUS
 10
372.214580
 20
359.203576
 11
372.214580
 21
357.203576
  0
LINE
  8
1
 62
7
  6
CONTINUOUS
 10
364.214580
 20
357.203576
 11
364.214580
 21
350.123771
  0
LINE
  8
1
 62
7
  6
CONTINUOUS
 10
371.122319
 20
357.203576
 11
364.214580
 21
357.203576
  0
LINE
  8
1
 62
7
  6
CONTINUOUS
 10
364.214580
 20
349.203576
 11
362.214580
 21
349.203576
  0
LINE
  8
1
 62
7
  6
CONTINUOUS
 10
442.214580
 20
357.203576
 11
442.214580
 21
359.203576
  0
LINE
  8
1
 62
7
  6
CONTINUOUS
 10
452.214580
 20
349.203576
 11
450.214580
 21
349.203576
  0
LINE
  8
1
 62
7
  6
CONTINUOUS
 10
443.615059
 20
355.203576
 11
371.122319
 21
355.203576
  0
LINE
  8
1
 62
7
  6
CONTINUOUS
 10
443.615059
 20
357.203576
 11
443.615059
 21
355.203576
  0
LINE
  8
1
 62
7
  6
CONTINUOUS
 10
450.214580
 20
350.466122
 11
448.214580
 21
350.466122
  0
LINE
  8
1
 62
7
  6
CONTINUOUS
 10
450.214580
 20
357.203576
 11
443.615059
 21
357.203576
  0
LINE
  8
1
 62
7
  6
CONTINUOUS
 10
442.214580
 20
357.203576
 11
372.214580
 21
357.203576
  0
LINE
  8
1
 62
7
  6
CONTINUOUS
 10
450.214580
 20
350.466122
 11
450.214580
 21
357.203576
  0
CIRCLE
  8
1
 62
7
  6
CONTINUOUS
 10
371.714580
 20
349.703576
 40
2.500000
  0
CIRCLE
  8
1
 62
7
  6
CONTINUOUS
 10
442.714580
 20
349.703576
 40
2.500000
  0
LINE
  8
1
 62
7
  6
CONTINUOUS
 10
442.714580
 20
348.283636
 11
442.714580
 21
351.193617
  0
LINE
  8
1
 62
7
  6
CONTINUOUS
 10
444.107188
 20
349.703576
 11
441.311325
 21
349.703576
  0
LINE
  8
1
 62
7
  6
CONTINUOUS
 10
371.714580
 20
351.136558
 11
371.714580
 21
348.283636
  0
LINE
  8
1
 62
7
  6
CONTINUOUS
 10
373.069438
 20
349.703576
 11
370.216516
 21
349.703576
  0
LINE
  8
1
 62
7
  6
CONTINUOUS
 10
299.574966
 20
359.203576
 11
309.574966
 21
359.203576
  0
LINE
  8
1
 62
7
  6
CONTINUOUS
 10
299.574966
 20
349.203576
 11
309.574966
 21
349.203576
  0
LINE
  8
1
 62
7
  6
CONTINUOUS
 10
299.574966
 20
363.914718
 11
299.510332
 21
363.914718
  0
LINE
  8
1
 62
7
  6
CONTINUOUS
 10
296.574966
 20
355.414718
 11
299.510332
 21
363.914718
  0
LINE
  8
1
 62
7
  6
CONTINUOUS
 10
367.214580
 20
238.203576
 11
447.214580
 21
238.203576
  0
LINE
  8
1
 62
7
  6
CONTINUOUS
 10
362.214580
 20
243.203576
 11
362.214580
 21
233.203576
  0
LINE
  8
1
 62
7
  6
CONTINUOUS
 10
452.214580
 20
233.203576
 11
452.214580
 21
243.203576
  0
LINE
  8
1
 62
7
  6
CONTINUOUS
 10
450.214580
 20
241.716618
 11
448.214580
 21
241.716618
  0
LINE
  8
1
 62
7
  6
CONTINUOUS
 10
364.214580
 20
241.716618
 11
366.214580
 21
241.716618
  0
LINE
  8
1
 62
7
  6
CONTINUOUS
 10
362.214580
 20
243.203576
 11
364.214580
 21
243.203576
  0
LINE
  8
1
 62
7
  6
CONTINUOUS
 10
450.214580
 20
243.203576
 11
452.214580
 21
243.203576
  0
LINE
  8
1
 62
7
  6
CONTINUOUS
 10
364.214580
 20
241.716618
 11
364.214580
 21
235.203576
  0
LINE
  8
1
 62
7
  6
CONTINUOUS
 10
450.214580
 20
235.203576
 11
450.214580
 21
241.716618
  0
CIRCLE
  8
1
 62
7
  6
CONTINUOUS
 10
442.714580
 20
242.703576
 40
2.500000
  0
CIRCLE
  8
1
 62
7
  6
CONTINUOUS
 10
371.714580
 20
242.703576
 40
2.500000
  0
LINE
  8
1
 62
7
  6
CONTINUOUS
 10
370.102400
 20
242.703576
 11
373.354730
 21
242.703576
  0
LINE
  8
1
 62
7
  6
CONTINUOUS
 10
371.714580
 20
244.384100
 11
371.714580
 21
241.245886
  0
LINE
  8
1
 62
7
  6
CONTINUOUS
 10
441.311325
 20
242.703576
 11
444.335422
 21
242.703576
  0
LINE
  8
1
 62
7
  6
CONTINUOUS
 10
442.714580
 20
241.074711
 11
442.714580
 21
244.327042
  0
LINE
  8
1
 62
7
  6
CONTINUOUS
 10
299.574966
 20
233.203576
 11
309.574966
 21
233.203576
  0
LINE
  8
1
 62
7
  6
CONTINUOUS
 10
299.574966
 20
243.203576
 11
309.574966
 21
243.203576
  0
LINE
  8
1
 62
7
  6
CONTINUOUS
 10
299.574966
 20
227.914718
 11
299.490632
 21
227.914718
  0
LINE
  8
1
 62
7
  6
CONTINUOUS
 10
296.574966
 20
236.414718
 11
299.490632
 21
227.914718
  0
DIMENSION
  8
1
 62
7
  6
CONTINUOUS
  2
*D3
 10
362.214580
 20
204.311249
 11
407.214580
 21
204.311249
 70
     0
  1
90
 13
362.214580
 23
229.203576
 14
452.214580
 24
229.203576
 50
0.000000
  0
LINE
  8
1
 62
7
  6
CONTINUOUS
 10
231.574966
 20
164.914718
 11
131.574966
 21
164.914718
  0
LINE
  8
1
 62
7
  6
CONTINUOUS
 10
136.574966
 20
154.914718
 11
136.574966
 21
164.914718
  0
LINE
  8
1
 62
7
  6
CONTINUOUS
 10
226.574966
 20
154.914718
 11
226.574966
 21
164.914718
  0
LINE
  8
1
 62
7
  6
CONTINUOUS
 10
131.574966
 20
165.371245
 11
140.074966
 21
167.914718
  0
LINE
  8
1
 62
7
  6
CONTINUOUS
 10
231.574966
 20
165.472682
 11
223.074966
 21
167.914718
  0
LINE
  8
1
 62
7
  6
CONTINUOUS
 10
223.074966
 20
167.914718
 11
140.074966
 21
167.914718
  0
LINE
  8
1
 62
7
  6
CONTINUOUS
 10
231.574966
 20
164.914718
 11
231.574966
 21
165.472682
  0
LINE
  8
1
 62
7
  6
CONTINUOUS
 10
131.574966
 20
164.914718
 11
131.574966
 21
165.371245
  0
LINE
  8
1
 62
7
  6
CONTINUOUS
 10
136.243024
 20
163.657589
 11
136.243024
 21
164.857589
  0
LINE
  8
1
 62
7
  6
CONTINUOUS
 10
125.028136
 20
165.958370
 11
122.503476
 21
162.509505
  0
LINE
  8
1
 62
7
  6
CONTINUOUS
 10
136.243024
 20
163.657589
 11
123.240728
 21
163.657589
  0
LINE
  8
1
 62
7
  6
CONTINUOUS
 10
136.243024
 20
164.857589
 11
124.222335
 21
164.857589
  0
LINE
  8
1
 62
7
  6
CONTINUOUS
 10
135.873317
 20
163.657589
 11
136.243024
 21
164.027295
  0
LINE
  8
1
 62
7
  6
CONTINUOUS
 10
134.459104
 20
163.657589
 11
135.659104
 21
164.857589
  0
LINE
  8
1
 62
7
  6
CONTINUOUS
 10
133.044890
 20
163.657589
 11
134.244890
 21
164.857589
  0
LINE
  8
1
 62
7
  6
CONTINUOUS
 10
131.630677
 20
163.657589
 11
132.830677
 21
164.857589
  0
LINE
  8
1
 62
7
  6
CONTINUOUS
 10
130.216463
 20
163.657589
 11
131.416463
 21
164.857589
  0
LINE
  8
1
 62
7
  6
CONTINUOUS
 10
128.802250
 20
163.657589
 11
130.002250
 21
164.857589
  0
LINE
  8
1
 62
7
  6
CONTINUOUS
 10
127.388036
 20
163.657589
 11
128.588036
 21
164.857589
  0
LINE
  8
1
 62
7
  6
CONTINUOUS
 10
125.973822
 20
163.657589
 11
127.173822
 21
164.857589
  0
LINE
  8
1
 62
7
  6
CONTINUOUS
 10
124.559609
 20
163.657589
 11
125.759609
 21
164.857589
  0
LINE
  8
1
 62
7
  6
CONTINUOUS
 10
123.886169
 20
164.398363
 11
124.345395
 21
164.857589
  0
LINE
  8
1
 62
7
  6
CONTINUOUS
 10
226.906907
 20
163.657589
 11
226.906907
 21
164.857589
  0
LINE
  8
1
 62
7
  6
CONTINUOUS
 10
238.121796
 20
165.958370
 11
240.646455
 21
162.509505
  0
LINE
  8
1
 62
7
  6
CONTINUOUS
 10
226.906907
 20
163.657589
 11
239.909204
 21
163.657589
  0
LINE
  8
1
 62
7
  6
CONTINUOUS
 10
226.906907
 20
164.857589
 11
238.927597
 21
164.857589
  0
LINE
  8
1
 62
7
  6
CONTINUOUS
 10
239.110907
 20
163.657589
 11
239.512241
 21
164.058922
  0
LINE
  8
1
 62
7
  6
CONTINUOUS
 10
237.696694
 20
163.657589
 11
238.896694
 21
164.857589
  0
LINE
  8
1
 62
7
  6
CONTINUOUS
 10
236.282480
 20
163.657589
 11
237.482480
 21
164.857589
  0
LINE
  8
1
 62
7
  6
CONTINUOUS
 10
234.868267
 20
163.657589
 11
236.068267
 21
164.857589
  0
LINE
  8
1
 62
7
  6
CONTINUOUS
 10
233.454053
 20
163.657589
 11
234.654053
 21
164.857589
  0
LINE
  8
1
 62
7
  6
CONTINUOUS
 10
232.039840
 20
163.657589
 11
233.239840
 21
164.857589
  0
LINE
  8
1
 62
7
  6
CONTINUOUS
 10
230.625626
 20
163.657589
 11
231.825626
 21
164.857589
  0
LINE
  8
1
 62
7
  6
CONTINUOUS
 10
229.211412
 20
163.657589
 11
230.411412
 21
164.857589
  0
LINE
  8
1
 62
7
  6
CONTINUOUS
 10
227.797199
 20
163.657589
 11
228.997199
 21
164.857589
  0
LINE
  8
1
 62
7
  6
CONTINUOUS
 10
226.906907
 20
164.181510
 11
227.582985
 21
164.857589
  0
LINE
  8
1
 62
7
  6
CONTINUOUS
 10
135.264946
 20
162.269896
 11
136.574966
 21
156.995161
  0
LINE
  8
1
 62
7
  6
CONTINUOUS
 10
136.423785
 20
164.154247
 11
136.423785
 21
163.887882
  0
LINE
  8
1
 62
7
  6
CONTINUOUS
 10
136.423785
 20
163.887882
 11
136.259976
 21
163.887882
  0
LINE
  8
1
 62
7
  6
CONTINUOUS
 10
136.259976
 20
163.887882
 11
136.259976
 21
163.637420
  0
LINE
  8
1
 62
7
  6
CONTINUOUS
 10
136.259976
 20
163.637420
 11
136.105946
 21
163.637420
  0
LINE
  8
1
 62
7
  6
CONTINUOUS
 10
136.105946
 20
163.637420
 11
136.105946
 21
163.356902
  0
LINE
  8
1
 62
7
  6
CONTINUOUS
 10
136.105946
 20
163.356902
 11
135.933433
 21
163.356902
  0
LINE
  8
1
 62
7
  6
CONTINUOUS
 10
135.933433
 20
163.356902
 11
135.933433
 21
163.046329
  0
LINE
  8
1
 62
7
  6
CONTINUOUS
 10
135.933433
 20
163.046329
 11
135.742437
 21
163.046329
  0
LINE
  8
1
 62
7
  6
CONTINUOUS
 10
136.574966
 20
164.400078
 11
136.423785
 21
164.154247
  0
LINE
  8
1
 62
7
  6
CONTINUOUS
 10
135.742437
 20
163.046329
 11
135.264946
 21
162.269896
  0
LINE
  8
1
 62
7
  6
CONTINUOUS
 10
227.883922
 20
162.246774
 11
226.571268
 21
156.972694
  0
LINE
  8
1
 62
7
  6
CONTINUOUS
 10
226.726024
 20
164.131703
 11
226.725891
 21
163.865339
  0
LINE
  8
1
 62
7
  6
CONTINUOUS
 10
226.725891
 20
163.865339
 11
226.889700
 21
163.865257
  0
LINE
  8
1
 62
7
  6
CONTINUOUS
 10
226.889700
 20
163.865257
 11
226.889575
 21
163.614795
  0
LINE
  8
1
 62
7
  6
CONTINUOUS
 10
226.889575
 20
163.614795
 11
227.043604
 21
163.614718
  0
LINE
  8
1
 62
7
  6
CONTINUOUS
 10
227.043604
 20
163.614718
 11
227.043464
 21
163.334200
  0
LINE
  8
1
 62
7
  6
CONTINUOUS
 10
227.043464
 20
163.334200
 11
227.215977
 21
163.334114
  0
LINE
  8
1
 62
7
  6
CONTINUOUS
 10
227.215977
 20
163.334114
 11
227.215822
 21
163.023541
  0
LINE
  8
1
 62
7
  6
CONTINUOUS
 10
227.215822
 20
163.023541
 11
227.406818
 21
163.023445
  0
LINE
  8
1
 62
7
  6
CONTINUOUS
 10
226.574966
 20
164.377609
 11
226.726024
 21
164.131703
  0
LINE
  8
1
 62
7
  6
CONTINUOUS
 10
227.406818
 20
163.023445
 11
227.883922
 21
162.246774
  0
TEXT
  8
1
 62
7
  6
CONTINUOUS
 10
274.993122
 20
158.907000
 40
5.000000
 41
0.647059
  1
※　ﾊﾟﾈﾙ厚　1.2～3.0mm
  7
KANJI
 50
0.000000
 51
0.000000
  0
LINE
  8
1
 62
7
  6
CONTINUOUS
 10
367.214580
 20
354.203576
 11
367.214580
 21
238.203576
  0
LINE
  8
1
 62
7
  6
CONTINUOUS
 10
447.214580
 20
238.203576
 11
447.214580
 21
354.203576
  0
LINE
  8
1
 62
7
  6
CONTINUOUS
 10
448.214580
 20
241.716618
 11
448.214580
 21
350.466122
  0
LINE
  8
1
 62
7
  6
CONTINUOUS
 10
366.214580
 20
350.123771
 11
366.214580
 21
241.716618
  0
LINE
  8
1
 62
7
  6
CONTINUOUS
 10
299.574966
 20
363.914718
 11
299.574966
 21
227.914718
  0
LINE
  8
1
 62
7
  6
CONTINUOUS
 10
296.574966
 20
355.414718
 11
296.574966
 21
236.414718
  0
LINE
  8
1
 62
7
  6
CONTINUOUS
 10
309.574966
 20
359.203576
 11
309.574966
 21
233.203576
  0
DIMENSION
  8
1
 62
7
  6
CONTINUOUS
  2
*D4
 10
483.778083
 20
233.203576
 11
483.778083
 21
296.203576
 70
     0
  1
126
 13
456.214580
 23
233.203576
 14
456.214580
 24
359.203576
 50
90.000000
  0
LINE
  8
1
 62
7
  6
CONTINUOUS
 10
231.574966
 20
227.414718
 11
131.574966
 21
227.414718
  0
DIMENSION
  8
1
 62
7
  6
CONTINUOUS
  2
*D5
 10
131.574966
 20
194.404478
 11
181.574966
 21
194.404478
 70
     0
  1
100
 13
131.574966
 23
223.414718
 14
231.574966
 24
223.414718
 50
0.000000
  0
DIMENSION
  8
1
 62
7
  6
CONTINUOUS
  2
*D6
 10
172.523307
 20
210.601941
 11
181.273307
 21
210.601941
 70
     0
  1
17.5
 13
172.523307
 23
223.414718
 14
190.023307
 24
223.414718
 50
0.000000
  0
LINE
  8
1
 62
7
  6
CONTINUOUS
 10
357.214580
 20
227.703576
 11
457.214580
 21
227.703576
  0
LINE
  8
1
 62
7
  6
CONTINUOUS
 10
131.574966
 20
364.414718
 11
231.574966
 21
364.414718
  0
LINE
  8
1
 62
7
  6
CONTINUOUS
 10
457.214580
 20
364.703576
 11
357.214580
 21
364.703576
  0
LINE
  8
1
 62
7
  6
CONTINUOUS
 10
131.574966
 20
227.414718
 11
131.574966
 21
364.414718
  0
LINE
  8
1
 62
7
  6
CONTINUOUS
 10
231.574966
 20
364.414718
 11
231.574966
 21
227.414718
  0
DIMENSION
  8
1
 62
7
  6
CONTINUOUS
  2
*D7
 10
261.876815
 20
227.414718
 11
261.876815
 21
295.914718
 70
     0
  1
137
 13
235.574966
 23
227.414718
 14
235.574966
 24
364.414718
 50
90.000000
  0
LINE
  8
1
 62
7
  6
CONTINUOUS
 10
457.214580
 20
227.703576
 11
457.214580
 21
364.703576
  0
LINE
  8
1
 62
7
  6
CONTINUOUS
 10
357.214580
 20
364.703576
 11
357.214580
 21
227.703576
  0
LINE
  8
1
 62
7
  6
CONTINUOUS
 10
221.574966
 20
237.414718
 11
141.574966
 21
237.414718
  0
LINE
  8
1
 62
7
  6
CONTINUOUS
 10
223.074966
 20
235.914718
 11
140.074966
 21
235.914718
  0
DIMENSION
  8
1
 62
7
  6
CONTINUOUS
  2
*D8
 10
141.574966
 20
201.765016
 11
181.574966
 21
201.765016
 70
     0
  1
80
 13
141.574966
 23
233.414718
 14
221.574966
 24
233.414718
 50
0.000000
  0
LINE
  8
1
 62
7
  6
CONTINUOUS
 10
223.074966
 20
235.914718
 11
231.574966
 21
227.414718
  0
LINE
  8
1
 62
7
  6
CONTINUOUS
 10
140.074966
 20
235.914718
 11
131.574966
 21
227.414718
  0
LINE
  8
1
 62
7
  6
CONTINUOUS
 10
141.574966
 20
354.414718
 11
221.574966
 21
354.414718
  0
LINE
  8
1
 62
7
  6
CONTINUOUS
 10
140.074966
 20
355.914718
 11
223.074966
 21
355.914718
  0
LINE
  8
1
 62
7
  6
CONTINUOUS
 10
140.074966
 20
355.914718
 11
131.574966
 21
364.414718
  0
LINE
  8
1
 62
7
  6
CONTINUOUS
 10
223.074966
 20
355.914718
 11
231.574966
 21
364.414718
  0
LINE
  8
1
 62
7
  6
CONTINUOUS
 10
221.574966
 20
354.414718
 11
221.574966
 21
237.414718
  0
LINE
  8
1
 62
7
  6
CONTINUOUS
 10
141.574966
 20
237.414718
 11
141.574966
 21
354.414718
  0
LINE
  8
1
 62
7
  6
CONTINUOUS
 10
223.074966
 20
355.914718
 11
223.074966
 21
235.914718
  0
LINE
  8
1
 62
7
  6
CONTINUOUS
 10
140.074966
 20
235.914718
 11
140.074966
 21
355.914718
  0
DIMENSION
  8
1
 62
7
  6
CONTINUOUS
  2
*D9
 10
254.002751
 20
237.414718
 11
254.002751
 21
295.914718
 70
     0
  1
117
 13
225.574966
 23
237.414718
 14
225.574966
 24
354.414718
 50
90.000000
  0
LINE
  8
1
 62
7
  6
CONTINUOUS
 10
151.574966
 20
154.914718
 11
151.574966
 21
164.914718
  0
LINE
  8
1
 62
7
  6
CONTINUOUS
 10
211.574966
 20
154.914718
 11
211.574966
 21
164.914718
  0
LINE
  8
1
 62
7
  6
CONTINUOUS
 10
226.574966
 20
154.914718
 11
211.574966
 21
154.914718
  0
LINE
  8
1
 62
7
  6
CONTINUOUS
 10
151.574966
 20
154.914718
 11
136.574966
 21
154.914718
  0
LINE
  8
1
 62
7
  6
CONTINUOUS
 10
151.574966
 20
155.559518
 11
211.574966
 21
155.559518
  0
LINE
  8
1
 62
7
  6
CONTINUOUS
 10
151.574966
 20
157.159518
 11
211.574966
 21
157.159518
  0
LINE
  8
1
 62
7
  6
CONTINUOUS
 10
364.214580
 20
335.198686
 11
366.214580
 21
335.198686
  0
LINE
  8
1
 62
7
  6
CONTINUOUS
 10
448.214580
 20
335.198686
 11
450.214580
 21
335.198686
  0
LINE
  8
1
 62
7
  6
CONTINUOUS
 10
364.214580
 20
323.002445
 11
360.686230
 21
323.002445
  0
LINE
  8
1
 62
7
  6
CONTINUOUS
 10
360.686230
 20
323.002445
 11
360.686230
 21
333.593917
  0
LINE
  8
1
 62
7
  6
CONTINUOUS
 10
360.686230
 20
333.593917
 11
364.214580
 21
333.593917
  0
LINE
  8
1
 62
7
  6
CONTINUOUS
 10
450.214580
 20
323.002445
 11
453.742931
 21
323.002445
  0
LINE
  8
1
 62
7
  6
CONTINUOUS
 10
453.742931
 20
323.002445
 11
453.742931
 21
333.593917
  0
LINE
  8
1
 62
7
  6
CONTINUOUS
 10
453.742931
 20
333.593917
 11
450.214580
 21
333.593917
  0
LINE
  8
1
 62
7
  6
CONTINUOUS
 10
299.574966
 20
333.593917
 11
309.574966
 21
333.593917
  0
LINE
  8
1
 62
7
  6
CONTINUOUS
 10
299.574966
 20
323.002445
 11
309.574966
 21
323.002445
  0
LINE
  8
1
 62
7
  6
CONTINUOUS
 10
303.516735
 20
333.593917
 11
303.516735
 21
323.002445
  0
LINE
  8
1
 62
7
  6
CONTINUOUS
 10
302.921848
 20
333.593917
 11
302.921848
 21
323.002445
  0
LINE
  8
1
 62
7
  6
CONTINUOUS
 10
302.290684
 20
333.593917
 11
302.290684
 21
323.002445
  0
LINE
  8
1
 62
7
  6
CONTINUOUS
 10
301.636977
 20
333.593917
 11
301.636977
 21
323.002445
  0
LINE
  8
1
 62
7
  6
CONTINUOUS
 10
300.938187
 20
333.593917
 11
300.938187
 21
323.002445
  0
LINE
  8
1
 62
7
  6
CONTINUOUS
 10
300.374647
 20
333.593917
 11
300.374647
 21
323.002445
  0
LINE
  8
1
 62
7
  6
CONTINUOUS
 10
364.214580
 20
349.203576
 11
364.214580
 21
333.593917
  0
LINE
  8
1
 62
7
  6
CONTINUOUS
 10
450.214580
 20
333.593917
 11
450.214580
 21
349.203576
  0
LINE
  8
1
 62
7
  6
CONTINUOUS
 10
364.214580
 20
274.779153
 11
366.214580
 21
274.779153
  0
LINE
  8
1
 62
7
  6
CONTINUOUS
 10
448.214580
 20
274.779153
 11
450.214580
 21
274.779153
  0
LINE
  8
1
 62
7
  6
CONTINUOUS
 10
364.214580
 20
260.785572
 11
366.214580
 21
260.785572
  0
LINE
  8
1
 62
7
  6
CONTINUOUS
 10
448.214580
 20
260.785572
 11
450.214580
 21
260.785572
  0
LINE
  8
1
 62
7
  6
CONTINUOUS
 10
364.214580
 20
262.133578
 11
360.686230
 21
262.133578
  0
LINE
  8
1
 62
7
  6
CONTINUOUS
 10
360.686230
 20
262.133578
 11
360.686230
 21
272.725050
  0
LINE
  8
1
 62
7
  6
CONTINUOUS
 10
360.686230
 20
272.725050
 11
364.214580
 21
272.725050
  0
LINE
  8
1
 62
7
  6
CONTINUOUS
 10
450.214580
 20
262.133578
 11
453.742931
 21
262.133578
  0
LINE
  8
1
 62
7
  6
CONTINUOUS
 10
453.742931
 20
262.133578
 11
453.742931
 21
272.725050
  0
LINE
  8
1
 62
7
  6
CONTINUOUS
 10
453.742931
 20
272.725050
 11
450.214580
 21
272.725050
  0
LINE
  8
1
 62
7
  6
CONTINUOUS
 10
364.214580
 20
262.133578
 11
364.214580
 21
243.203576
  0
LINE
  8
1
 62
7
  6
CONTINUOUS
 10
450.214580
 20
243.203576
 11
450.214580
 21
262.133578
  0
LINE
  8
1
 62
7
  6
CONTINUOUS
 10
364.214580
 20
323.002445
 11
364.214580
 21
272.725050
  0
LINE
  8
1
 62
7
  6
CONTINUOUS
 10
450.214580
 20
272.725050
 11
450.214580
 21
323.002445
  0
LINE
  8
1
 62
7
  6
CONTINUOUS
 10
299.574966
 20
271.141678
 11
309.574966
 21
271.141678
  0
LINE
  8
1
 62
7
  6
CONTINUOUS
 10
299.574966
 20
260.550206
 11
309.574966
 21
260.550206
  0
LINE
  8
1
 62
7
  6
CONTINUOUS
 10
303.516735
 20
271.141678
 11
303.516735
 21
260.550206
  0
LINE
  8
1
 62
7
  6
CONTINUOUS
 10
302.921848
 20
271.141678
 11
302.921848
 21
260.550206
  0
LINE
  8
1
 62
7
  6
CONTINUOUS
 10
302.290684
 20
271.141678
 11
302.290684
 21
260.550206
  0
LINE
  8
1
 62
7
  6
CONTINUOUS
 10
301.636977
 20
271.141678
 11
301.636977
 21
260.550206
  0
LINE
  8
1
 62
7
  6
CONTINUOUS
 10
300.938187
 20
271.141678
 11
300.938187
 21
260.550206
  0
LINE
  8
1
 62
7
  6
CONTINUOUS
 10
300.374647
 20
271.141678
 11
300.374647
 21
260.550206
  0
TEXT
  8
1
 62
7
  6
CONTINUOUS
 10
382.120332
 20
347.559708
 40
4.000000
 41
1.000000
  1
ＢＩＲＤ
  7
KANJI
 50
0.000000
 51
0.000000
  0
TEXT
  8
1
 62
7
  6
CONTINUOUS
 10
411.134211
 20
347.824226
 40
3.900000
 41
0.500000
  1
MODEL.
  7
KANJI
 50
0.000000
 51
0.000000
  0
DIMENSION
  8
1
 62
7
  6
CONTINUOUS
  2
*D10
 10
296.574966
 20
205.629235
 11
298.074966
 21
205.629235
 70
     0
  1
3
 13
296.574966
 23
232.414718
 14
299.574966
 24
227.724730
 50
0.000000
  0
DIMENSION
  8
1
 62
7
  6
CONTINUOUS
  2
*D11
 10
299.574966
 20
205.629235
 11
304.574966
 21
205.629235
 70
     0
  1
10
 13
299.574966
 23
229.203576
 14
309.574966
 24
229.203576
 50
0.000000
  0
TEXT
  8
1
 62
7
  6
CONTINUOUS
 10
292.902338
 20
33.067740
 40
6.000000
 41
1.000000
  1
回路図
  7
KANJI
 50
0.000000
 51
0.000000
  0
CIRCLE
  8
1
 62
7
  6
CONTINUOUS
 10
459.528336
 20
172.362448
 40
1.000000
  0
ARC
  8
1
 62
7
  6
CONTINUOUS
 10
459.528336
 20
172.362448
 40
1.617935
 50
0.000000
 51
180.000000
  0
TEXT
  8
1
 62
7
  6
CONTINUOUS
 10
492.915924
 20
173.099493
 40
4.000000
 41
0.500000
  1
1
  7
KANJI
 50
0.000000
 51
0.000000
  0
CIRCLE
  8
1
 62
7
  6
CONTINUOUS
 10
454.448336
 20
172.362448
 40
1.000000
  0
ARC
  8
1
 62
7
  6
CONTINUOUS
 10
454.448336
 20
172.362448
 40
1.617935
 50
0.000000
 51
180.000000
  0
LINE
  8
1
 62
7
  6
CONTINUOUS
 10
443.661170
 20
165.427539
 11
443.661170
 21
164.362448
  0
LINE
  8
1
 62
7
  6
CONTINUOUS
 10
444.810792
 20
165.427539
 11
444.810792
 21
164.362448
  0
LINE
  8
1
 62
7
  6
CONTINUOUS
 10
448.741170
 20
165.427539
 11
448.741170
 21
164.362448
  0
LINE
  8
1
 62
7
  6
CONTINUOUS
 10
449.890792
 20
165.427539
 11
449.890792
 21
164.362448
  0
LINE
  8
1
 62
7
  6
CONTINUOUS
 10
453.821170
 20
165.427539
 11
453.821170
 21
164.362448
  0
LINE
  8
1
 62
7
  6
CONTINUOUS
 10
454.970792
 20
165.427539
 11
454.970792
 21
164.362448
  0
LINE
  8
1
 62
7
  6
CONTINUOUS
 10
458.901170
 20
165.427539
 11
458.901170
 21
164.362448
  0
LINE
  8
1
 62
7
  6
CONTINUOUS
 10
460.050792
 20
165.427539
 11
460.050792
 21
164.362448
  0
LINE
  8
1
 62
7
  6
CONTINUOUS
 10
463.981170
 20
165.427539
 11
463.981170
 21
164.362448
  0
LINE
  8
1
 62
7
  6
CONTINUOUS
 10
465.130792
 20
165.427539
 11
465.130792
 21
164.362448
  0
LINE
  8
1
 62
7
  6
CONTINUOUS
 10
469.061170
 20
165.427539
 11
469.061170
 21
164.362448
  0
LINE
  8
1
 62
7
  6
CONTINUOUS
 10
470.210792
 20
165.427539
 11
470.210792
 21
164.362448
  0
LINE
  8
1
 62
7
  6
CONTINUOUS
 10
474.141170
 20
165.427539
 11
474.141170
 21
164.362448
  0
LINE
  8
1
 62
7
  6
CONTINUOUS
 10
475.290792
 20
165.427539
 11
475.290792
 21
164.362448
  0
LINE
  8
1
 62
7
  6
CONTINUOUS
 10
479.221170
 20
165.427539
 11
479.221170
 21
164.362448
  0
LINE
  8
1
 62
7
  6
CONTINUOUS
 10
480.370792
 20
165.427539
 11
480.370792
 21
164.362448
  0
LINE
  8
1
 62
7
  6
CONTINUOUS
 10
484.301170
 20
165.427539
 11
484.301170
 21
164.362448
  0
LINE
  8
1
 62
7
  6
CONTINUOUS
 10
485.450792
 20
165.427539
 11
485.450792
 21
164.362448
  0
LINE
  8
1
 62
7
  6
CONTINUOUS
 10
489.381170
 20
165.427539
 11
489.381170
 21
164.362448
  0
LINE
  8
1
 62
7
  6
CONTINUOUS
 10
490.530792
 20
165.427539
 11
490.530792
 21
164.362448
  0
CIRCLE
  8
1
 62
7
  6
CONTINUOUS
 10
490.008336
 20
172.362448
 40
1.000000
  0
ARC
  8
1
 62
7
  6
CONTINUOUS
 10
490.008336
 20
172.362448
 40
1.617935
 50
0.000000
 51
180.000000
  0
LINE
  8
1
 62
7
  6
CONTINUOUS
 10
491.626271
 20
172.362448
 11
491.626271
 21
165.427539
  0
LINE
  8
1
 62
7
  6
CONTINUOUS
 10
488.390400
 20
172.362448
 11
488.390400
 21
165.427539
  0
CIRCLE
  8
1
 62
7
  6
CONTINUOUS
 10
484.928336
 20
172.362448
 40
1.000000
  0
ARC
  8
1
 62
7
  6
CONTINUOUS
 10
484.928336
 20
172.362448
 40
1.617935
 50
0.000000
 51
180.000000
  0
LINE
  8
1
 62
7
  6
CONTINUOUS
 10
486.546271
 20
172.362448
 11
486.546271
 21
165.427539
  0
LINE
  8
1
 62
7
  6
CONTINUOUS
 10
483.310400
 20
172.362448
 11
483.310400
 21
165.427539
  0
CIRCLE
  8
1
 62
7
  6
CONTINUOUS
 10
479.848336
 20
172.362448
 40
1.000000
  0
ARC
  8
1
 62
7
  6
CONTINUOUS
 10
479.848336
 20
172.362448
 40
1.617935
 50
0.000000
 51
180.000000
  0
LINE
  8
1
 62
7
  6
CONTINUOUS
 10
481.466271
 20
172.362448
 11
481.466271
 21
165.427539
  0
LINE
  8
1
 62
7
  6
CONTINUOUS
 10
478.230400
 20
172.362448
 11
478.230400
 21
165.427539
  0
CIRCLE
  8
1
 62
7
  6
CONTINUOUS
 10
474.768336
 20
172.362448
 40
1.000000
  0
ARC
  8
1
 62
7
  6
CONTINUOUS
 10
474.768336
 20
172.362448
 40
1.617935
 50
0.000000
 51
180.000000
  0
LINE
  8
1
 62
7
  6
CONTINUOUS
 10
476.386271
 20
172.362448
 11
476.386271
 21
165.427539
  0
LINE
  8
1
 62
7
  6
CONTINUOUS
 10
473.150400
 20
172.362448
 11
473.150400
 21
165.427539
  0
CIRCLE
  8
1
 62
7
  6
CONTINUOUS
 10
469.688336
 20
172.362448
 40
1.000000
  0
ARC
  8
1
 62
7
  6
CONTINUOUS
 10
469.688336
 20
172.362448
 40
1.617935
 50
0.000000
 51
180.000000
  0
LINE
  8
1
 62
7
  6
CONTINUOUS
 10
471.306271
 20
172.362448
 11
471.306271
 21
165.427539
  0
LINE
  8
1
 62
7
  6
CONTINUOUS
 10
468.070400
 20
172.362448
 11
468.070400
 21
165.427539
  0
CIRCLE
  8
1
 62
7
  6
CONTINUOUS
 10
464.608336
 20
172.362448
 40
1.000000
  0
ARC
  8
1
 62
7
  6
CONTINUOUS
 10
464.608336
 20
172.362448
 40
1.617935
 50
0.000000
 51
180.000000
  0
LINE
  8
1
 62
7
  6
CONTINUOUS
 10
466.226271
 20
172.362448
 11
466.226271
 21
165.427539
  0
LINE
  8
1
 62
7
  6
CONTINUOUS
 10
462.990400
 20
172.362448
 11
462.990400
 21
165.427539
  0
LINE
  8
1
 62
7
  6
CONTINUOUS
 10
461.146271
 20
172.362448
 11
461.146271
 21
165.427539
  0
LINE
  8
1
 62
7
  6
CONTINUOUS
 10
457.910400
 20
172.362448
 11
457.910400
 21
165.427539
  0
LINE
  8
1
 62
7
  6
CONTINUOUS
 10
456.066271
 20
172.362448
 11
456.066271
 21
165.427539
  0
LINE
  8
1
 62
7
  6
CONTINUOUS
 10
452.830400
 20
172.362448
 11
452.830400
 21
165.427539
  0
CIRCLE
  8
1
 62
7
  6
CONTINUOUS
 10
449.368336
 20
172.362448
 40
1.000000
  0
ARC
  8
1
 62
7
  6
CONTINUOUS
 10
449.368336
 20
172.362448
 40
1.617935
 50
0.000000
 51
180.000000
  0
LINE
  8
1
 62
7
  6
CONTINUOUS
 10
450.986271
 20
172.362448
 11
450.986271
 21
165.427539
  0
LINE
  8
1
 62
7
  6
CONTINUOUS
 10
447.750400
 20
172.362448
 11
447.750400
 21
165.427539
  0
CIRCLE
  8
1
 62
7
  6
CONTINUOUS
 10
444.288336
 20
172.362448
 40
1.000000
  0
ARC
  8
1
 62
7
  6
CONTINUOUS
 10
444.288336
 20
172.362448
 40
1.617935
 50
0.000000
 51
180.000000
  0
LINE
  8
1
 62
7
  6
CONTINUOUS
 10
445.906271
 20
172.362448
 11
445.906271
 21
165.427539
  0
LINE
  8
1
 62
7
  6
CONTINUOUS
 10
442.670400
 20
172.362448
 11
442.670400
 21
165.427539
  0
LINE
  8
1
 62
7
  6
CONTINUOUS
 10
442.670400
 20
165.427539
 11
443.661170
 21
165.427539
  0
LINE
  8
1
 62
7
  6
CONTINUOUS
 10
444.810792
 20
165.427539
 11
445.906271
 21
165.427539
  0
LINE
  8
1
 62
7
  6
CONTINUOUS
 10
447.750400
 20
165.427539
 11
448.741170
 21
165.427539
  0
LINE
  8
1
 62
7
  6
CONTINUOUS
 10
449.890792
 20
165.427539
 11
450.986271
 21
165.427539
  0
LINE
  8
1
 62
7
  6
CONTINUOUS
 10
452.830400
 20
165.427539
 11
453.821170
 21
165.427539
  0
CIRCLE
  8
1
 62
7
  6
CONTINUOUS
 10
454.448336
 20
172.362448
 40
1.000000
  0
ARC
  8
1
 62
7
  6
CONTINUOUS
 10
454.448336
 20
172.362448
 40
1.617935
 50
0.000000
 51
180.000000
  0
LINE
  8
1
 62
7
  6
CONTINUOUS
 10
452.830400
 20
172.362448
 11
452.830400
 21
165.427539
  0
LINE
  8
1
 62
7
  6
CONTINUOUS
 10
456.066271
 20
172.362448
 11
456.066271
 21
165.427539
  0
LINE
  8
1
 62
7
  6
CONTINUOUS
 10
454.970792
 20
165.427539
 11
456.066271
 21
165.427539
  0
LINE
  8
1
 62
7
  6
CONTINUOUS
 10
457.910400
 20
165.427539
 11
458.901170
 21
165.427539
  0
LINE
  8
1
 62
7
  6
CONTINUOUS
 10
460.050792
 20
165.427539
 11
461.146271
 21
165.427539
  0
LINE
  8
1
 62
7
  6
CONTINUOUS
 10
462.990400
 20
165.427539
 11
463.981170
 21
165.427539
  0
LINE
  8
1
 62
7
  6
CONTINUOUS
 10
465.130792
 20
165.427539
 11
466.226271
 21
165.427539
  0
LINE
  8
1
 62
7
  6
CONTINUOUS
 10
468.070400
 20
165.427539
 11
469.061170
 21
165.427539
  0
LINE
  8
1
 62
7
  6
CONTINUOUS
 10
470.210792
 20
165.427539
 11
471.306271
 21
165.427539
  0
LINE
  8
1
 62
7
  6
CONTINUOUS
 10
473.150400
 20
165.427539
 11
474.141170
 21
165.427539
  0
LINE
  8
1
 62
7
  6
CONTINUOUS
 10
475.290792
 20
165.427539
 11
476.386271
 21
165.427539
  0
LINE
  8
1
 62
7
  6
CONTINUOUS
 10
478.230400
 20
165.427539
 11
479.221170
 21
165.427539
  0
LINE
  8
1
 62
7
  6
CONTINUOUS
 10
480.370792
 20
165.427539
 11
481.466271
 21
165.427539
  0
LINE
  8
1
 62
7
  6
CONTINUOUS
 10
483.310400
 20
165.427539
 11
484.301170
 21
165.427539
  0
LINE
  8
1
 62
7
  6
CONTINUOUS
 10
485.450792
 20
165.427539
 11
486.546271
 21
165.427539
  0
LINE
  8
1
 62
7
  6
CONTINUOUS
 10
488.390400
 20
165.427539
 11
489.381170
 21
165.427539
  0
LINE
  8
1
 62
7
  6
CONTINUOUS
 10
490.530792
 20
165.427539
 11
491.626271
 21
165.427539
  0
CIRCLE
  8
1
 62
7
  6
CONTINUOUS
 10
408.308881
 20
172.362448
 40
1.000000
  0
ARC
  8
1
 62
7
  6
CONTINUOUS
 10
408.308881
 20
172.362448
 40
1.617935
 50
0.000000
 51
180.000000
  0
CIRCLE
  8
1
 62
7
  6
CONTINUOUS
 10
403.228881
 20
172.362448
 40
1.000000
  0
LINE
  8
1
 62
7
  6
CONTINUOUS
 10
392.441716
 20
165.427539
 11
392.441716
 21
164.362448
  0
LINE
  8
1
 62
7
  6
CONTINUOUS
 10
393.591337
 20
165.427539
 11
393.591337
 21
164.362448
  0
LINE
  8
1
 62
7
  6
CONTINUOUS
 10
397.521716
 20
165.427539
 11
397.521716
 21
164.362448
  0
LINE
  8
1
 62
7
  6
CONTINUOUS
 10
398.671337
 20
165.427539
 11
398.671337
 21
164.362448
  0
LINE
  8
1
 62
7
  6
CONTINUOUS
 10
402.601716
 20
165.427539
 11
402.601716
 21
164.362448
  0
LINE
  8
1
 62
7
  6
CONTINUOUS
 10
403.751337
 20
165.427539
 11
403.751337
 21
164.362448
  0
LINE
  8
1
 62
7
  6
CONTINUOUS
 10
407.681716
 20
165.427539
 11
407.681716
 21
164.362448
  0
LINE
  8
1
 62
7
  6
CONTINUOUS
 10
408.831337
 20
165.427539
 11
408.831337
 21
164.362448
  0
LINE
  8
1
 62
7
  6
CONTINUOUS
 10
412.761716
 20
165.427539
 11
412.761716
 21
164.362448
  0
LINE
  8
1
 62
7
  6
CONTINUOUS
 10
413.911337
 20
165.427539
 11
413.911337
 21
164.362448
  0
LINE
  8
1
 62
7
  6
CONTINUOUS
 10
417.841716
 20
165.427539
 11
417.841716
 21
164.362448
  0
LINE
  8
1
 62
7
  6
CONTINUOUS
 10
418.991337
 20
165.427539
 11
418.991337
 21
164.362448
  0
LINE
  8
1
 62
7
  6
CONTINUOUS
 10
422.921716
 20
165.427539
 11
422.921716
 21
164.362448
  0
LINE
  8
1
 62
7
  6
CONTINUOUS
 10
424.071337
 20
165.427539
 11
424.071337
 21
164.362448
  0
LINE
  8
1
 62
7
  6
CONTINUOUS
 10
428.001716
 20
165.427539
 11
428.001716
 21
164.362448
  0
LINE
  8
1
 62
7
  6
CONTINUOUS
 10
429.151337
 20
165.427539
 11
429.151337
 21
164.362448
  0
LINE
  8
1
 62
7
  6
CONTINUOUS
 10
433.081716
 20
165.427539
 11
433.081716
 21
164.362448
  0
LINE
  8
1
 62
7
  6
CONTINUOUS
 10
434.231337
 20
165.427539
 11
434.231337
 21
164.362448
  0
LINE
  8
1
 62
7
  6
CONTINUOUS
 10
438.161716
 20
165.427539
 11
438.161716
 21
164.362448
  0
LINE
  8
1
 62
7
  6
CONTINUOUS
 10
439.311337
 20
165.427539
 11
439.311337
 21
164.362448
  0
CIRCLE
  8
1
 62
7
  6
CONTINUOUS
 10
438.788881
 20
172.362448
 40
1.000000
  0
ARC
  8
1
 62
7
  6
CONTINUOUS
 10
438.788881
 20
172.362448
 40
1.617935
 50
0.000000
 51
180.000000
  0
LINE
  8
1
 62
7
  6
CONTINUOUS
 10
440.406817
 20
172.362448
 11
440.406817
 21
165.427539
  0
LINE
  8
1
 62
7
  6
CONTINUOUS
 10
437.170946
 20
172.362448
 11
437.170946
 21
165.427539
  0
CIRCLE
  8
1
 62
7
  6
CONTINUOUS
 10
433.708881
 20
172.362448
 40
1.000000
  0
ARC
  8
1
 62
7
  6
CONTINUOUS
 10
433.708881
 20
172.362448
 40
1.617935
 50
0.000000
 51
180.000000
  0
LINE
  8
1
 62
7
  6
CONTINUOUS
 10
435.326817
 20
172.362448
 11
435.326817
 21
165.427539
  0
LINE
  8
1
 62
7
  6
CONTINUOUS
 10
432.090946
 20
172.362448
 11
432.090946
 21
165.427539
  0
CIRCLE
  8
1
 62
7
  6
CONTINUOUS
 10
428.628881
 20
172.362448
 40
1.000000
  0
ARC
  8
1
 62
7
  6
CONTINUOUS
 10
428.628881
 20
172.362448
 40
1.617935
 50
0.000000
 51
180.000000
  0
LINE
  8
1
 62
7
  6
CONTINUOUS
 10
430.246817
 20
172.362448
 11
430.246817
 21
165.427539
  0
LINE
  8
1
 62
7
  6
CONTINUOUS
 10
427.010946
 20
172.362448
 11
427.010946
 21
165.427539
  0
CIRCLE
  8
1
 62
7
  6
CONTINUOUS
 10
423.548881
 20
172.362448
 40
1.000000
  0
ARC
  8
1
 62
7
  6
CONTINUOUS
 10
423.548881
 20
172.362448
 40
1.617935
 50
0.000000
 51
180.000000
  0
LINE
  8
1
 62
7
  6
CONTINUOUS
 10
425.166817
 20
172.362448
 11
425.166817
 21
165.427539
  0
LINE
  8
1
 62
7
  6
CONTINUOUS
 10
421.930946
 20
172.362448
 11
421.930946
 21
165.427539
  0
CIRCLE
  8
1
 62
7
  6
CONTINUOUS
 10
418.468881
 20
172.362448
 40
1.000000
  0
ARC
  8
1
 62
7
  6
CONTINUOUS
 10
418.468881
 20
172.362448
 40
1.617935
 50
0.000000
 51
180.000000
  0
LINE
  8
1
 62
7
  6
CONTINUOUS
 10
420.086817
 20
172.362448
 11
420.086817
 21
165.427539
  0
LINE
  8
1
 62
7
  6
CONTINUOUS
 10
416.850946
 20
172.362448
 11
416.850946
 21
165.427539
  0
CIRCLE
  8
1
 62
7
  6
CONTINUOUS
 10
413.388881
 20
172.362448
 40
1.000000
  0
ARC
  8
1
 62
7
  6
CONTINUOUS
 10
413.388881
 20
172.362448
 40
1.617935
 50
0.000000
 51
180.000000
  0
LINE
  8
1
 62
7
  6
CONTINUOUS
 10
415.006817
 20
172.362448
 11
415.006817
 21
165.427539
  0
LINE
  8
1
 62
7
  6
CONTINUOUS
 10
411.770946
 20
172.362448
 11
411.770946
 21
165.427539
  0
LINE
  8
1
 62
7
  6
CONTINUOUS
 10
409.926817
 20
172.362448
 11
409.926817
 21
165.427539
  0
LINE
  8
1
 62
7
  6
CONTINUOUS
 10
406.690946
 20
172.362448
 11
406.690946
 21
165.427539
  0
LINE
  8
1
 62
7
  6
CONTINUOUS
 10
404.846817
 20
172.362448
 11
404.846817
 21
165.427539
  0
LINE
  8
1
 62
7
  6
CONTINUOUS
 10
401.610946
 20
172.362448
 11
401.610946
 21
165.427539
  0
CIRCLE
  8
1
 62
7
  6
CONTINUOUS
 10
398.148881
 20
172.362448
 40
1.000000
  0
ARC
  8
1
 62
7
  6
CONTINUOUS
 10
398.148881
 20
172.362448
 40
1.617935
 50
0.000000
 51
180.000000
  0
LINE
  8
1
 62
7
  6
CONTINUOUS
 10
399.766817
 20
172.362448
 11
399.766817
 21
165.427539
  0
LINE
  8
1
 62
7
  6
CONTINUOUS
 10
396.530946
 20
172.362448
 11
396.530946
 21
165.427539
  0
CIRCLE
  8
1
 62
7
  6
CONTINUOUS
 10
393.068881
 20
172.362448
 40
1.000000
  0
ARC
  8
1
 62
7
  6
CONTINUOUS
 10
393.068881
 20
172.362448
 40
1.617935
 50
0.000000
 51
180.000000
  0
LINE
  8
1
 62
7
  6
CONTINUOUS
 10
394.686817
 20
172.362448
 11
394.686817
 21
165.427539
  0
LINE
  8
1
 62
7
  6
CONTINUOUS
 10
391.450946
 20
172.362448
 11
391.450946
 21
165.427539
  0
LINE
  8
1
 62
7
  6
CONTINUOUS
 10
391.450946
 20
165.427539
 11
392.441716
 21
165.427539
  0
LINE
  8
1
 62
7
  6
CONTINUOUS
 10
393.591337
 20
165.427539
 11
394.686817
 21
165.427539
  0
LINE
  8
1
 62
7
  6
CONTINUOUS
 10
396.530946
 20
165.427539
 11
397.521716
 21
165.427539
  0
LINE
  8
1
 62
7
  6
CONTINUOUS
 10
398.671337
 20
165.427539
 11
399.766817
 21
165.427539
  0
LINE
  8
1
 62
7
  6
CONTINUOUS
 10
401.610946
 20
165.427539
 11
402.601716
 21
165.427539
  0
CIRCLE
  8
1
 62
7
  6
CONTINUOUS
 10
403.228881
 20
172.362448
 40
1.000000
  0
ARC
  8
1
 62
7
  6
CONTINUOUS
 10
403.228881
 20
172.362448
 40
1.617935
 50
0.000000
 51
180.000000
  0
LINE
  8
1
 62
7
  6
CONTINUOUS
 10
401.610946
 20
172.362448
 11
401.610946
 21
165.427539
  0
LINE
  8
1
 62
7
  6
CONTINUOUS
 10
404.846817
 20
172.362448
 11
404.846817
 21
165.427539
  0
LINE
  8
1
 62
7
  6
CONTINUOUS
 10
403.751337
 20
165.427539
 11
404.846817
 21
165.427539
  0
LINE
  8
1
 62
7
  6
CONTINUOUS
 10
406.690946
 20
165.427539
 11
407.681716
 21
165.427539
  0
LINE
  8
1
 62
7
  6
CONTINUOUS
 10
408.831337
 20
165.427539
 11
409.926817
 21
165.427539
  0
LINE
  8
1
 62
7
  6
CONTINUOUS
 10
411.770946
 20
165.427539
 11
412.761716
 21
165.427539
  0
LINE
  8
1
 62
7
  6
CONTINUOUS
 10
413.911337
 20
165.427539
 11
415.006817
 21
165.427539
  0
LINE
  8
1
 62
7
  6
CONTINUOUS
 10
416.850946
 20
165.427539
 11
417.841716
 21
165.427539
  0
LINE
  8
1
 62
7
  6
CONTINUOUS
 10
418.991337
 20
165.427539
 11
420.086817
 21
165.427539
  0
LINE
  8
1
 62
7
  6
CONTINUOUS
 10
421.930946
 20
165.427539
 11
422.921716
 21
165.427539
  0
LINE
  8
1
 62
7
  6
CONTINUOUS
 10
424.071337
 20
165.427539
 11
425.166817
 21
165.427539
  0
LINE
  8
1
 62
7
  6
CONTINUOUS
 10
427.010946
 20
165.427539
 11
428.001716
 21
165.427539
  0
LINE
  8
1
 62
7
  6
CONTINUOUS
 10
429.151337
 20
165.427539
 11
430.246817
 21
165.427539
  0
LINE
  8
1
 62
7
  6
CONTINUOUS
 10
432.090946
 20
165.427539
 11
433.081716
 21
165.427539
  0
LINE
  8
1
 62
7
  6
CONTINUOUS
 10
434.231337
 20
165.427539
 11
435.326817
 21
165.427539
  0
LINE
  8
1
 62
7
  6
CONTINUOUS
 10
437.170946
 20
165.427539
 11
438.161716
 21
165.427539
  0
LINE
  8
1
 62
7
  6
CONTINUOUS
 10
439.311337
 20
165.427539
 11
440.406817
 21
165.427539
  0
LINE
  8
1
 62
7
  6
CONTINUOUS
 10
358.136770
 20
164.362448
 11
511.664374
 21
164.362448
  0
CIRCLE
  8
1
 62
7
  6
CONTINUOUS
 10
382.908881
 20
172.362448
 40
1.000000
  0
ARC
  8
1
 62
7
  6
CONTINUOUS
 10
382.908881
 20
172.362448
 40
1.617935
 50
0.000000
 51
180.000000
  0
CIRCLE
  8
1
 62
7
  6
CONTINUOUS
 10
377.828881
 20
172.362448
 40
1.000000
  0
LINE
  8
1
 62
7
  6
CONTINUOUS
 10
367.041716
 20
165.427539
 11
367.041716
 21
164.362448
  0
LINE
  8
1
 62
7
  6
CONTINUOUS
 10
368.191337
 20
165.427539
 11
368.191337
 21
164.362448
  0
LINE
  8
1
 62
7
  6
CONTINUOUS
 10
372.121716
 20
165.427539
 11
372.121716
 21
164.362448
  0
LINE
  8
1
 62
7
  6
CONTINUOUS
 10
373.271337
 20
165.427539
 11
373.271337
 21
164.362448
  0
LINE
  8
1
 62
7
  6
CONTINUOUS
 10
377.201716
 20
165.427539
 11
377.201716
 21
164.362448
  0
LINE
  8
1
 62
7
  6
CONTINUOUS
 10
378.351337
 20
165.427539
 11
378.351337
 21
164.362448
  0
LINE
  8
1
 62
7
  6
CONTINUOUS
 10
382.281716
 20
165.427539
 11
382.281716
 21
164.362448
  0
LINE
  8
1
 62
7
  6
CONTINUOUS
 10
383.431337
 20
165.427539
 11
383.431337
 21
164.362448
  0
LINE
  8
1
 62
7
  6
CONTINUOUS
 10
387.361716
 20
165.427539
 11
387.361716
 21
164.362448
  0
LINE
  8
1
 62
7
  6
CONTINUOUS
 10
388.511337
 20
165.427539
 11
388.511337
 21
164.362448
  0
CIRCLE
  8
1
 62
7
  6
CONTINUOUS
 10
387.988881
 20
172.362448
 40
1.000000
  0
ARC
  8
1
 62
7
  6
CONTINUOUS
 10
387.988881
 20
172.362448
 40
1.617935
 50
0.000000
 51
180.000000
  0
LINE
  8
1
 62
7
  6
CONTINUOUS
 10
389.606817
 20
172.362448
 11
389.606817
 21
165.427539
  0
LINE
  8
1
 62
7
  6
CONTINUOUS
 10
386.370946
 20
172.362448
 11
386.370946
 21
165.427539
  0
LINE
  8
1
 62
7
  6
CONTINUOUS
 10
384.526817
 20
172.362448
 11
384.526817
 21
165.427539
  0
LINE
  8
1
 62
7
  6
CONTINUOUS
 10
381.290946
 20
172.362448
 11
381.290946
 21
165.427539
  0
LINE
  8
1
 62
7
  6
CONTINUOUS
 10
379.446817
 20
172.362448
 11
379.446817
 21
165.427539
  0
LINE
  8
1
 62
7
  6
CONTINUOUS
 10
376.210946
 20
172.362448
 11
376.210946
 21
165.427539
  0
CIRCLE
  8
1
 62
7
  6
CONTINUOUS
 10
372.748881
 20
172.362448
 40
1.000000
  0
ARC
  8
1
 62
7
  6
CONTINUOUS
 10
372.748881
 20
172.362448
 40
1.617935
 50
0.000000
 51
180.000000
  0
LINE
  8
1
 62
7
  6
CONTINUOUS
 10
374.366817
 20
172.362448
 11
374.366817
 21
165.427539
  0
LINE
  8
1
 62
7
  6
CONTINUOUS
 10
371.130946
 20
172.362448
 11
371.130946
 21
165.427539
  0
CIRCLE
  8
1
 62
7
  6
CONTINUOUS
 10
367.668881
 20
172.362448
 40
1.000000
  0
ARC
  8
1
 62
7
  6
CONTINUOUS
 10
367.668881
 20
172.362448
 40
1.617935
 50
0.000000
 51
180.000000
  0
LINE
  8
1
 62
7
  6
CONTINUOUS
 10
369.286817
 20
172.362448
 11
369.286817
 21
165.427539
  0
LINE
  8
1
 62
7
  6
CONTINUOUS
 10
366.050946
 20
172.362448
 11
366.050946
 21
165.427539
  0
LINE
  8
1
 62
7
  6
CONTINUOUS
 10
366.050946
 20
165.427539
 11
367.041716
 21
165.427539
  0
LINE
  8
1
 62
7
  6
CONTINUOUS
 10
368.191337
 20
165.427539
 11
369.286817
 21
165.427539
  0
LINE
  8
1
 62
7
  6
CONTINUOUS
 10
371.130946
 20
165.427539
 11
372.121716
 21
165.427539
  0
LINE
  8
1
 62
7
  6
CONTINUOUS
 10
373.271337
 20
165.427539
 11
374.366817
 21
165.427539
  0
LINE
  8
1
 62
7
  6
CONTINUOUS
 10
376.210946
 20
165.427539
 11
377.201716
 21
165.427539
  0
CIRCLE
  8
1
 62
7
  6
CONTINUOUS
 10
377.828881
 20
172.362448
 40
1.000000
  0
ARC
  8
1
 62
7
  6
CONTINUOUS
 10
377.828881
 20
172.362448
 40
1.617935
 50
0.000000
 51
180.000000
  0
LINE
  8
1
 62
7
  6
CONTINUOUS
 10
376.210946
 20
172.362448
 11
376.210946
 21
165.427539
  0
LINE
  8
1
 62
7
  6
CONTINUOUS
 10
379.446817
 20
172.362448
 11
379.446817
 21
165.427539
  0
LINE
  8
1
 62
7
  6
CONTINUOUS
 10
378.351337
 20
165.427539
 11
379.446817
 21
165.427539
  0
LINE
  8
1
 62
7
  6
CONTINUOUS
 10
381.290946
 20
165.427539
 11
382.281716
 21
165.427539
  0
LINE
  8
1
 62
7
  6
CONTINUOUS
 10
383.431337
 20
165.427539
 11
384.526817
 21
165.427539
  0
LINE
  8
1
 62
7
  6
CONTINUOUS
 10
386.370946
 20
165.427539
 11
387.361716
 21
165.427539
  0
LINE
  8
1
 62
7
  6
CONTINUOUS
 10
388.511337
 20
165.427539
 11
389.606817
 21
165.427539
  0
TEXT
  8
1
 62
7
  6
CONTINUOUS
 10
361.725542
 20
173.756041
 40
4.000000
 41
0.500000
  1
25
  7
KANJI
 50
0.000000
 51
0.000000
  0
LINE
  8
1
 62
7
  6
CONTINUOUS
 10
438.957410
 20
235.203576
 11
450.214580
 21
235.203576
  0
LINE
  8
1
 62
7
  6
CONTINUOUS
 10
438.957410
 20
235.203576
 11
438.957410
 21
237.203576
  0
LINE
  8
1
 62
7
  6
CONTINUOUS
 10
364.214580
 20
235.203576
 11
375.694381
 21
235.203576
  0
LINE
  8
1
 62
7
  6
CONTINUOUS
 10
375.694381
 20
235.203576
 11
375.694381
 21
237.203576
  0
LINE
  8
1
 62
7
  6
CONTINUOUS
 10
375.694381
 20
237.203576
 11
438.957410
 21
237.203576
  0
LINE
  8
1
 62
7
  6
CONTINUOUS
 10
376.880466
 20
237.203576
 11
376.880466
 21
233.203576
  0
LINE
  8
1
 62
7
  6
CONTINUOUS
 10
437.742796
 20
237.203576
 11
437.742796
 21
233.203576
  0
LINE
  8
1
 62
7
  6
CONTINUOUS
 10
362.214580
 20
233.203576
 11
376.880466
 21
233.203576
  0
LINE
  8
1
 62
7
  6
CONTINUOUS
 10
376.880466
 20
235.203576
 11
437.742796
 21
235.203576
  0
LINE
  8
1
 62
7
  6
CONTINUOUS
 10
437.742796
 20
233.203576
 11
452.214580
 21
233.203576
  0
CIRCLE
  8
1
 62
7
  6
CONTINUOUS
 10
420.069078
 20
242.203576
 40
0.500000
  0
ARC
  8
1
 62
7
  6
CONTINUOUS
 10
420.069078
 20
242.203576
 40
0.808968
 50
0.000000
 51
180.000000
  0
CIRCLE
  8
1
 62
7
  6
CONTINUOUS
 10
414.989078
 20
242.203576
 40
0.500000
  0
ARC
  8
1
 62
7
  6
CONTINUOUS
 10
414.989078
 20
242.203576
 40
0.808968
 50
0.000000
 51
180.000000
  0
LINE
  8
1
 62
7
  6
CONTINUOUS
 10
414.180110
 20
242.203576
 11
414.180110
 21
238.846605
  0
LINE
  8
1
 62
7
  6
CONTINUOUS
 10
415.798045
 20
242.203576
 11
415.798045
 21
238.846605
  0
LINE
  8
1
 62
7
  6
CONTINUOUS
 10
414.596952
 20
238.846605
 11
414.596952
 21
238.203576
  0
LINE
  8
1
 62
7
  6
CONTINUOUS
 10
415.295741
 20
238.846605
 11
415.295741
 21
238.203576
  0
LINE
  8
1
 62
7
  6
CONTINUOUS
 10
414.180110
 20
238.846605
 11
414.596952
 21
238.846605
  0
LINE
  8
1
 62
7
  6
CONTINUOUS
 10
415.295741
 20
238.846605
 11
415.798045
 21
238.846605
  0
LINE
  8
1
 62
7
  6
CONTINUOUS
 10
417.179218
 20
238.846605
 11
417.179218
 21
238.203576
  0
LINE
  8
1
 62
7
  6
CONTINUOUS
 10
417.878007
 20
238.846605
 11
417.878007
 21
238.203576
  0
LINE
  8
1
 62
7
  6
CONTINUOUS
 10
419.703877
 20
238.846605
 11
419.703877
 21
238.203576
  0
LINE
  8
1
 62
7
  6
CONTINUOUS
 10
420.402667
 20
238.846605
 11
420.402667
 21
238.203576
  0
LINE
  8
1
 62
7
  6
CONTINUOUS
 10
422.248574
 20
238.846605
 11
422.248574
 21
238.203576
  0
LINE
  8
1
 62
7
  6
CONTINUOUS
 10
422.947364
 20
238.846605
 11
422.947364
 21
238.203576
  0
LINE
  8
1
 62
7
  6
CONTINUOUS
 10
424.793270
 20
238.846605
 11
424.793270
 21
238.203576
  0
LINE
  8
1
 62
7
  6
CONTINUOUS
 10
425.492060
 20
238.846605
 11
425.492060
 21
238.203576
  0
LINE
  8
1
 62
7
  6
CONTINUOUS
 10
427.378041
 20
238.846605
 11
427.378041
 21
238.203576
  0
LINE
  8
1
 62
7
  6
CONTINUOUS
 10
428.076831
 20
238.846605
 11
428.076831
 21
238.203576
  0
LINE
  8
1
 62
7
  6
CONTINUOUS
 10
429.872645
 20
238.846605
 11
429.872645
 21
238.203576
  0
LINE
  8
1
 62
7
  6
CONTINUOUS
 10
430.571435
 20
238.846605
 11
430.571435
 21
238.203576
  0
LINE
  8
1
 62
7
  6
CONTINUOUS
 10
432.417342
 20
238.846605
 11
432.417342
 21
238.203576
  0
LINE
  8
1
 62
7
  6
CONTINUOUS
 10
433.116131
 20
238.846605
 11
433.116131
 21
238.203576
  0
LINE
  8
1
 62
7
  6
CONTINUOUS
 10
434.942001
 20
238.846605
 11
434.942001
 21
238.203576
  0
LINE
  8
1
 62
7
  6
CONTINUOUS
 10
435.640791
 20
238.846605
 11
435.640791
 21
238.203576
  0
LINE
  8
1
 62
7
  6
CONTINUOUS
 10
437.466661
 20
238.846605
 11
437.466661
 21
238.203576
  0
LINE
  8
1
 62
7
  6
CONTINUOUS
 10
438.165451
 20
238.846605
 11
438.165451
 21
238.203576
  0
CIRCLE
  8
1
 62
7
  6
CONTINUOUS
 10
437.849078
 20
242.203576
 40
0.500000
  0
ARC
  8
1
 62
7
  6
CONTINUOUS
 10
437.849078
 20
242.203576
 40
0.808968
 50
0.000000
 51
180.000000
  0
LINE
  8
1
 62
7
  6
CONTINUOUS
 10
437.040110
 20
242.203576
 11
437.040110
 21
238.846605
  0
LINE
  8
1
 62
7
  6
CONTINUOUS
 10
438.658045
 20
242.203576
 11
438.658045
 21
238.846605
  0
CIRCLE
  8
1
 62
7
  6
CONTINUOUS
 10
435.309078
 20
242.203576
 40
0.500000
  0
ARC
  8
1
 62
7
  6
CONTINUOUS
 10
435.309078
 20
242.203576
 40
0.808968
 50
0.000000
 51
180.000000
  0
LINE
  8
1
 62
7
  6
CONTINUOUS
 10
436.118045
 20
242.203576
 11
436.118045
 21
238.846605
  0
LINE
  8
1
 62
7
  6
CONTINUOUS
 10
434.500110
 20
242.203576
 11
434.500110
 21
238.846605
  0
CIRCLE
  8
1
 62
7
  6
CONTINUOUS
 10
432.769078
 20
242.203576
 40
0.500000
  0
ARC
  8
1
 62
7
  6
CONTINUOUS
 10
432.769078
 20
242.203576
 40
0.808968
 50
0.000000
 51
180.000000
  0
LINE
  8
1
 62
7
  6
CONTINUOUS
 10
433.578045
 20
242.203576
 11
433.578045
 21
238.846605
  0
LINE
  8
1
 62
7
  6
CONTINUOUS
 10
431.960110
 20
242.203576
 11
431.960110
 21
238.846605
  0
CIRCLE
  8
1
 62
7
  6
CONTINUOUS
 10
430.229078
 20
242.203576
 40
0.500000
  0
ARC
  8
1
 62
7
  6
CONTINUOUS
 10
430.229078
 20
242.203576
 40
0.808968
 50
0.000000
 51
180.000000
  0
LINE
  8
1
 62
7
  6
CONTINUOUS
 10
431.038045
 20
242.203576
 11
431.038045
 21
238.846605
  0
LINE
  8
1
 62
7
  6
CONTINUOUS
 10
429.420110
 20
242.203576
 11
429.420110
 21
238.846605
  0
CIRCLE
  8
1
 62
7
  6
CONTINUOUS
 10
427.689078
 20
242.203576
 40
0.500000
  0
ARC
  8
1
 62
7
  6
CONTINUOUS
 10
427.689078
 20
242.203576
 40
0.808968
 50
0.000000
 51
180.000000
  0
LINE
  8
1
 62
7
  6
CONTINUOUS
 10
428.498045
 20
242.203576
 11
428.498045
 21
238.846605
  0
LINE
  8
1
 62
7
  6
CONTINUOUS
 10
426.880110
 20
242.203576
 11
426.880110
 21
238.846605
  0
CIRCLE
  8
1
 62
7
  6
CONTINUOUS
 10
425.149078
 20
242.203576
 40
0.500000
  0
ARC
  8
1
 62
7
  6
CONTINUOUS
 10
425.149078
 20
242.203576
 40
0.808968
 50
0.000000
 51
180.000000
  0
LINE
  8
1
 62
7
  6
CONTINUOUS
 10
425.958045
 20
242.203576
 11
425.958045
 21
238.846605
  0
LINE
  8
1
 62
7
  6
CONTINUOUS
 10
424.340110
 20
242.203576
 11
424.340110
 21
238.846605
  0
CIRCLE
  8
1
 62
7
  6
CONTINUOUS
 10
422.609078
 20
242.203576
 40
0.500000
  0
ARC
  8
1
 62
7
  6
CONTINUOUS
 10
422.609078
 20
242.203576
 40
0.808968
 50
0.000000
 51
180.000000
  0
LINE
  8
1
 62
7
  6
CONTINUOUS
 10
423.418045
 20
242.203576
 11
423.418045
 21
238.846605
  0
LINE
  8
1
 62
7
  6
CONTINUOUS
 10
421.800110
 20
242.203576
 11
421.800110
 21
238.781484
  0
LINE
  8
1
 62
7
  6
CONTINUOUS
 10
420.878045
 20
242.203576
 11
420.878045
 21
238.846605
  0
LINE
  8
1
 62
7
  6
CONTINUOUS
 10
419.260110
 20
242.203576
 11
419.260110
 21
238.846605
  0
CIRCLE
  8
1
 62
7
  6
CONTINUOUS
 10
417.529078
 20
242.203576
 40
0.500000
  0
ARC
  8
1
 62
7
  6
CONTINUOUS
 10
417.529078
 20
242.203576
 40
0.808968
 50
0.000000
 51
180.000000
  0
LINE
  8
1
 62
7
  6
CONTINUOUS
 10
418.338045
 20
242.203576
 11
418.338045
 21
238.846605
  0
LINE
  8
1
 62
7
  6
CONTINUOUS
 10
416.720110
 20
242.203576
 11
416.720110
 21
238.846605
  0
LINE
  8
1
 62
7
  6
CONTINUOUS
 10
416.720110
 20
238.846605
 11
417.179218
 21
238.846605
  0
LINE
  8
1
 62
7
  6
CONTINUOUS
 10
417.817896
 20
238.846605
 11
418.338045
 21
238.846605
  0
LINE
  8
1
 62
7
  6
CONTINUOUS
 10
419.260110
 20
238.846605
 11
419.703877
 21
238.846605
  0
LINE
  8
1
 62
7
  6
CONTINUOUS
 10
420.402667
 20
238.846605
 11
420.878045
 21
238.846605
  0
LINE
  8
1
 62
7
  6
CONTINUOUS
 10
421.800110
 20
238.846605
 11
422.248574
 21
238.846605
  0
LINE
  8
1
 62
7
  6
CONTINUOUS
 10
425.492060
 20
238.846605
 11
425.958045
 21
238.846605
  0
LINE
  8
1
 62
7
  6
CONTINUOUS
 10
426.880110
 20
238.846605
 11
427.378041
 21
238.846605
  0
LINE
  8
1
 62
7
  6
CONTINUOUS
 10
422.947364
 20
238.846605
 11
423.418045
 21
238.846605
  0
LINE
  8
1
 62
7
  6
CONTINUOUS
 10
424.340110
 20
238.846605
 11
424.793270
 21
238.846605
  0
LINE
  8
1
 62
7
  6
CONTINUOUS
 10
428.076831
 20
238.846605
 11
428.498045
 21
238.846605
  0
LINE
  8
1
 62
7
  6
CONTINUOUS
 10
429.420110
 20
238.846605
 11
429.872645
 21
238.846605
  0
LINE
  8
1
 62
7
  6
CONTINUOUS
 10
430.571435
 20
238.846605
 11
431.038045
 21
238.846605
  0
LINE
  8
1
 62
7
  6
CONTINUOUS
 10
431.960110
 20
238.846605
 11
432.417342
 21
238.846605
  0
LINE
  8
1
 62
7
  6
CONTINUOUS
 10
433.116131
 20
238.846605
 11
433.578045
 21
238.846605
  0
LINE
  8
1
 62
7
  6
CONTINUOUS
 10
434.500110
 20
238.846605
 11
434.942001
 21
238.846605
  0
LINE
  8
1
 62
7
  6
CONTINUOUS
 10
435.640791
 20
238.846605
 11
436.118045
 21
238.846605
  0
LINE
  8
1
 62
7
  6
CONTINUOUS
 10
437.040110
 20
238.846605
 11
437.466661
 21
238.846605
  0
LINE
  8
1
 62
7
  6
CONTINUOUS
 10
438.165451
 20
238.846605
 11
438.658045
 21
238.846605
  0
CIRCLE
  8
1
 62
7
  6
CONTINUOUS
 10
394.582977
 20
242.203576
 40
0.500000
  0
ARC
  8
1
 62
7
  6
CONTINUOUS
 10
394.582977
 20
242.203576
 40
0.808968
 50
0.000000
 51
180.000000
  0
CIRCLE
  8
1
 62
7
  6
CONTINUOUS
 10
389.502977
 20
242.203576
 40
0.500000
  0
ARC
  8
1
 62
7
  6
CONTINUOUS
 10
389.502977
 20
242.203576
 40
0.808968
 50
0.000000
 51
180.000000
  0
LINE
  8
1
 62
7
  6
CONTINUOUS
 10
388.694010
 20
242.203576
 11
388.694010
 21
238.846605
  0
LINE
  8
1
 62
7
  6
CONTINUOUS
 10
390.311945
 20
242.203576
 11
390.311945
 21
238.846605
  0
LINE
  8
1
 62
7
  6
CONTINUOUS
 10
389.110851
 20
238.846605
 11
389.110851
 21
238.203576
  0
LINE
  8
1
 62
7
  6
CONTINUOUS
 10
389.809641
 20
238.846605
 11
389.809641
 21
238.203576
  0
LINE
  8
1
 62
7
  6
CONTINUOUS
 10
388.694010
 20
238.846605
 11
389.110851
 21
238.846605
  0
LINE
  8
1
 62
7
  6
CONTINUOUS
 10
389.809641
 20
238.846605
 11
390.311945
 21
238.846605
  0
LINE
  8
1
 62
7
  6
CONTINUOUS
 10
391.693117
 20
238.846605
 11
391.693117
 21
238.203576
  0
LINE
  8
1
 62
7
  6
CONTINUOUS
 10
392.391907
 20
238.846605
 11
392.391907
 21
238.203576
  0
LINE
  8
1
 62
7
  6
CONTINUOUS
 10
394.217777
 20
238.846605
 11
394.217777
 21
238.203576
  0
LINE
  8
1
 62
7
  6
CONTINUOUS
 10
394.916567
 20
238.846605
 11
394.916567
 21
238.203576
  0
LINE
  8
1
 62
7
  6
CONTINUOUS
 10
396.762473
 20
238.846605
 11
396.762473
 21
238.203576
  0
LINE
  8
1
 62
7
  6
CONTINUOUS
 10
397.461263
 20
238.846605
 11
397.461263
 21
238.203576
  0
LINE
  8
1
 62
7
  6
CONTINUOUS
 10
399.307170
 20
238.846605
 11
399.307170
 21
238.203576
  0
LINE
  8
1
 62
7
  6
CONTINUOUS
 10
400.005960
 20
238.846605
 11
400.005960
 21
238.203576
  0
LINE
  8
1
 62
7
  6
CONTINUOUS
 10
401.891940
 20
238.846605
 11
401.891940
 21
238.203576
  0
LINE
  8
1
 62
7
  6
CONTINUOUS
 10
402.590730
 20
238.846605
 11
402.590730
 21
238.203576
  0
LINE
  8
1
 62
7
  6
CONTINUOUS
 10
404.386545
 20
238.846605
 11
404.386545
 21
238.203576
  0
LINE
  8
1
 62
7
  6
CONTINUOUS
 10
405.085334
 20
238.846605
 11
405.085334
 21
238.203576
  0
LINE
  8
1
 62
7
  6
CONTINUOUS
 10
406.931241
 20
238.846605
 11
406.931241
 21
238.203576
  0
LINE
  8
1
 62
7
  6
CONTINUOUS
 10
407.630031
 20
238.846605
 11
407.630031
 21
238.203576
  0
LINE
  8
1
 62
7
  6
CONTINUOUS
 10
409.455901
 20
238.846605
 11
409.455901
 21
238.203576
  0
LINE
  8
1
 62
7
  6
CONTINUOUS
 10
410.154690
 20
238.846605
 11
410.154690
 21
238.203576
  0
LINE
  8
1
 62
7
  6
CONTINUOUS
 10
411.980560
 20
238.846605
 11
411.980560
 21
238.203576
  0
LINE
  8
1
 62
7
  6
CONTINUOUS
 10
412.679350
 20
238.846605
 11
412.679350
 21
238.203576
  0
CIRCLE
  8
1
 62
7
  6
CONTINUOUS
 10
412.362977
 20
242.203576
 40
0.500000
  0
ARC
  8
1
 62
7
  6
CONTINUOUS
 10
412.362977
 20
242.203576
 40
0.808968
 50
0.000000
 51
180.000000
  0
LINE
  8
1
 62
7
  6
CONTINUOUS
 10
411.554010
 20
242.203576
 11
411.554010
 21
238.846605
  0
LINE
  8
1
 62
7
  6
CONTINUOUS
 10
413.171945
 20
242.203576
 11
413.171945
 21
238.846605
  0
CIRCLE
  8
1
 62
7
  6
CONTINUOUS
 10
409.822977
 20
242.203576
 40
0.500000
  0
ARC
  8
1
 62
7
  6
CONTINUOUS
 10
409.822977
 20
242.203576
 40
0.808968
 50
0.000000
 51
180.000000
  0
LINE
  8
1
 62
7
  6
CONTINUOUS
 10
410.631945
 20
242.203576
 11
410.631945
 21
238.846605
  0
LINE
  8
1
 62
7
  6
CONTINUOUS
 10
409.014010
 20
242.203576
 11
409.014010
 21
238.846605
  0
CIRCLE
  8
1
 62
7
  6
CONTINUOUS
 10
407.282977
 20
242.203576
 40
0.500000
  0
ARC
  8
1
 62
7
  6
CONTINUOUS
 10
407.282977
 20
242.203576
 40
0.808968
 50
0.000000
 51
180.000000
  0
LINE
  8
1
 62
7
  6
CONTINUOUS
 10
408.091945
 20
242.203576
 11
408.091945
 21
238.846605
  0
LINE
  8
1
 62
7
  6
CONTINUOUS
 10
406.474010
 20
242.203576
 11
406.474010
 21
238.846605
  0
CIRCLE
  8
1
 62
7
  6
CONTINUOUS
 10
404.742977
 20
242.203576
 40
0.500000
  0
ARC
  8
1
 62
7
  6
CONTINUOUS
 10
404.742977
 20
242.203576
 40
0.808968
 50
0.000000
 51
180.000000
  0
LINE
  8
1
 62
7
  6
CONTINUOUS
 10
405.551945
 20
242.203576
 11
405.551945
 21
238.846605
  0
LINE
  8
1
 62
7
  6
CONTINUOUS
 10
403.934010
 20
242.203576
 11
403.934010
 21
238.846605
  0
CIRCLE
  8
1
 62
7
  6
CONTINUOUS
 10
402.202977
 20
242.203576
 40
0.500000
  0
ARC
  8
1
 62
7
  6
CONTINUOUS
 10
402.202977
 20
242.203576
 40
0.808968
 50
0.000000
 51
180.000000
  0
LINE
  8
1
 62
7
  6
CONTINUOUS
 10
403.011945
 20
242.203576
 11
403.011945
 21
238.846605
  0
LINE
  8
1
 62
7
  6
CONTINUOUS
 10
401.394010
 20
242.203576
 11
401.394010
 21
238.846605
  0
CIRCLE
  8
1
 62
7
  6
CONTINUOUS
 10
399.662977
 20
242.203576
 40
0.500000
  0
ARC
  8
1
 62
7
  6
CONTINUOUS
 10
399.662977
 20
242.203576
 40
0.808968
 50
0.000000
 51
180.000000
  0
LINE
  8
1
 62
7
  6
CONTINUOUS
 10
400.471945
 20
242.203576
 11
400.471945
 21
238.846605
  0
LINE
  8
1
 62
7
  6
CONTINUOUS
 10
398.854010
 20
242.203576
 11
398.854010
 21
238.846605
  0
CIRCLE
  8
1
 62
7
  6
CONTINUOUS
 10
397.122977
 20
242.203576
 40
0.500000
  0
ARC
  8
1
 62
7
  6
CONTINUOUS
 10
397.122977
 20
242.203576
 40
0.808968
 50
0.000000
 51
180.000000
  0
LINE
  8
1
 62
7
  6
CONTINUOUS
 10
397.931945
 20
242.203576
 11
397.931945
 21
238.846605
  0
LINE
  8
1
 62
7
  6
CONTINUOUS
 10
396.314010
 20
242.203576
 11
396.314010
 21
238.781484
  0
LINE
  8
1
 62
7
  6
CONTINUOUS
 10
395.391945
 20
242.203576
 11
395.391945
 21
238.846605
  0
LINE
  8
1
 62
7
  6
CONTINUOUS
 10
393.774010
 20
242.203576
 11
393.774010
 21
238.846605
  0
CIRCLE
  8
1
 62
7
  6
CONTINUOUS
 10
392.042977
 20
242.203576
 40
0.500000
  0
ARC
  8
1
 62
7
  6
CONTINUOUS
 10
392.042977
 20
242.203576
 40
0.808968
 50
0.000000
 51
180.000000
  0
LINE
  8
1
 62
7
  6
CONTINUOUS
 10
392.851945
 20
242.203576
 11
392.851945
 21
238.846605
  0
LINE
  8
1
 62
7
  6
CONTINUOUS
 10
391.234010
 20
242.203576
 11
391.234010
 21
238.846605
  0
LINE
  8
1
 62
7
  6
CONTINUOUS
 10
391.234010
 20
238.846605
 11
391.693117
 21
238.846605
  0
LINE
  8
1
 62
7
  6
CONTINUOUS
 10
392.331796
 20
238.846605
 11
392.851945
 21
238.846605
  0
LINE
  8
1
 62
7
  6
CONTINUOUS
 10
393.774010
 20
238.846605
 11
394.217777
 21
238.846605
  0
LINE
  8
1
 62
7
  6
CONTINUOUS
 10
394.916567
 20
238.846605
 11
395.391945
 21
238.846605
  0
LINE
  8
1
 62
7
  6
CONTINUOUS
 10
396.314010
 20
238.846605
 11
396.762473
 21
238.846605
  0
LINE
  8
1
 62
7
  6
CONTINUOUS
 10
400.005960
 20
238.846605
 11
400.471945
 21
238.846605
  0
LINE
  8
1
 62
7
  6
CONTINUOUS
 10
401.394010
 20
238.846605
 11
401.891940
 21
238.846605
  0
LINE
  8
1
 62
7
  6
CONTINUOUS
 10
397.461263
 20
238.846605
 11
397.931945
 21
238.846605
  0
LINE
  8
1
 62
7
  6
CONTINUOUS
 10
398.854010
 20
238.846605
 11
399.307170
 21
238.846605
  0
LINE
  8
1
 62
7
  6
CONTINUOUS
 10
402.590730
 20
238.846605
 11
403.011945
 21
238.846605
  0
LINE
  8
1
 62
7
  6
CONTINUOUS
 10
403.934010
 20
238.846605
 11
404.386545
 21
238.846605
  0
LINE
  8
1
 62
7
  6
CONTINUOUS
 10
405.085334
 20
238.846605
 11
405.551945
 21
238.846605
  0
LINE
  8
1
 62
7
  6
CONTINUOUS
 10
406.474010
 20
238.846605
 11
406.931241
 21
238.846605
  0
LINE
  8
1
 62
7
  6
CONTINUOUS
 10
407.630031
 20
238.846605
 11
408.091945
 21
238.846605
  0
LINE
  8
1
 62
7
  6
CONTINUOUS
 10
409.014010
 20
238.846605
 11
409.455901
 21
238.846605
  0
LINE
  8
1
 62
7
  6
CONTINUOUS
 10
410.154690
 20
238.846605
 11
410.631945
 21
238.846605
  0
LINE
  8
1
 62
7
  6
CONTINUOUS
 10
411.554010
 20
238.846605
 11
411.980560
 21
238.846605
  0
LINE
  8
1
 62
7
  6
CONTINUOUS
 10
412.679350
 20
238.846605
 11
413.171945
 21
238.846605
  0
CIRCLE
  8
1
 62
7
  6
CONTINUOUS
 10
381.649732
 20
242.203576
 40
0.500000
  0
ARC
  8
1
 62
7
  6
CONTINUOUS
 10
381.649732
 20
242.203576
 40
0.808968
 50
0.000000
 51
180.000000
  0
CIRCLE
  8
1
 62
7
  6
CONTINUOUS
 10
376.569732
 20
242.203576
 40
0.500000
  0
ARC
  8
1
 62
7
  6
CONTINUOUS
 10
376.569732
 20
242.203576
 40
0.808968
 50
0.000000
 51
180.000000
  0
LINE
  8
1
 62
7
  6
CONTINUOUS
 10
375.760765
 20
242.203576
 11
375.760765
 21
238.846605
  0
LINE
  8
1
 62
7
  6
CONTINUOUS
 10
377.378700
 20
242.203576
 11
377.378700
 21
238.846605
  0
LINE
  8
1
 62
7
  6
CONTINUOUS
 10
376.177606
 20
238.846605
 11
376.177606
 21
238.203576
  0
LINE
  8
1
 62
7
  6
CONTINUOUS
 10
376.876396
 20
238.846605
 11
376.876396
 21
238.203576
  0
LINE
  8
1
 62
7
  6
CONTINUOUS
 10
375.760765
 20
238.846605
 11
376.177606
 21
238.846605
  0
LINE
  8
1
 62
7
  6
CONTINUOUS
 10
376.876396
 20
238.846605
 11
377.378700
 21
238.846605
  0
LINE
  8
1
 62
7
  6
CONTINUOUS
 10
378.759872
 20
238.846605
 11
378.759872
 21
238.203576
  0
LINE
  8
1
 62
7
  6
CONTINUOUS
 10
379.458662
 20
238.846605
 11
379.458662
 21
238.203576
  0
LINE
  8
1
 62
7
  6
CONTINUOUS
 10
381.284532
 20
238.846605
 11
381.284532
 21
238.203576
  0
LINE
  8
1
 62
7
  6
CONTINUOUS
 10
381.983321
 20
238.846605
 11
381.983321
 21
238.203576
  0
LINE
  8
1
 62
7
  6
CONTINUOUS
 10
383.829228
 20
238.846605
 11
383.829228
 21
238.203576
  0
LINE
  8
1
 62
7
  6
CONTINUOUS
 10
384.528018
 20
238.846605
 11
384.528018
 21
238.203576
  0
LINE
  8
1
 62
7
  6
CONTINUOUS
 10
386.373925
 20
238.846605
 11
386.373925
 21
238.203576
  0
LINE
  8
1
 62
7
  6
CONTINUOUS
 10
387.072715
 20
238.846605
 11
387.072715
 21
238.203576
  0
CIRCLE
  8
1
 62
7
  6
CONTINUOUS
 10
386.729732
 20
242.203576
 40
0.500000
  0
ARC
  8
1
 62
7
  6
CONTINUOUS
 10
386.729732
 20
242.203576
 40
0.808968
 50
0.000000
 51
180.000000
  0
LINE
  8
1
 62
7
  6
CONTINUOUS
 10
387.538700
 20
242.203576
 11
387.538700
 21
238.846605
  0
LINE
  8
1
 62
7
  6
CONTINUOUS
 10
385.920765
 20
242.203576
 11
385.920765
 21
238.846605
  0
CIRCLE
  8
1
 62
7
  6
CONTINUOUS
 10
384.189732
 20
242.203576
 40
0.500000
  0
ARC
  8
1
 62
7
  6
CONTINUOUS
 10
384.189732
 20
242.203576
 40
0.808968
 50
0.000000
 51
180.000000
  0
LINE
  8
1
 62
7
  6
CONTINUOUS
 10
384.998700
 20
242.203576
 11
384.998700
 21
238.846605
  0
LINE
  8
1
 62
7
  6
CONTINUOUS
 10
383.380765
 20
242.203576
 11
383.380765
 21
238.781484
  0
LINE
  8
1
 62
7
  6
CONTINUOUS
 10
382.458700
 20
242.203576
 11
382.458700
 21
238.846605
  0
LINE
  8
1
 62
7
  6
CONTINUOUS
 10
380.840765
 20
242.203576
 11
380.840765
 21
238.846605
  0
CIRCLE
  8
1
 62
7
  6
CONTINUOUS
 10
379.109732
 20
242.203576
 40
0.500000
  0
ARC
  8
1
 62
7
  6
CONTINUOUS
 10
379.109732
 20
242.203576
 40
0.808968
 50
0.000000
 51
180.000000
  0
LINE
  8
1
 62
7
  6
CONTINUOUS
 10
379.918700
 20
242.203576
 11
379.918700
 21
238.846605
  0
LINE
  8
1
 62
7
  6
CONTINUOUS
 10
378.300765
 20
242.203576
 11
378.300765
 21
238.846605
  0
LINE
  8
1
 62
7
  6
CONTINUOUS
 10
378.300765
 20
238.846605
 11
378.759872
 21
238.846605
  0
LINE
  8
1
 62
7
  6
CONTINUOUS
 10
379.398551
 20
238.846605
 11
379.918700
 21
238.846605
  0
LINE
  8
1
 62
7
  6
CONTINUOUS
 10
380.840765
 20
238.846605
 11
381.284532
 21
238.846605
  0
LINE
  8
1
 62
7
  6
CONTINUOUS
 10
381.983321
 20
238.846605
 11
382.458700
 21
238.846605
  0
LINE
  8
1
 62
7
  6
CONTINUOUS
 10
383.380765
 20
238.846605
 11
383.829228
 21
238.846605
  0
LINE
  8
1
 62
7
  6
CONTINUOUS
 10
387.072715
 20
238.846605
 11
387.538700
 21
238.846605
  0
LINE
  8
1
 62
7
  6
CONTINUOUS
 10
384.528018
 20
238.846605
 11
384.998700
 21
238.846605
  0
LINE
  8
1
 62
7
  6
CONTINUOUS
 10
385.920765
 20
238.846605
 11
386.373925
 21
238.846605
  0
TEXT
  8
1
 62
7
  6
CONTINUOUS
 10
374.616727
 20
243.370917
 40
2.000000
 41
0.500000
  1
25
  7
KANJI
 50
0.000000
 51
0.000000
  0
TEXT
  8
1
 62
7
  6
CONTINUOUS
 10
438.182993
 20
243.282159
 40
2.000000
 41
0.500000
  1
1
  7
KANJI
 50
0.000000
 51
0.000000
  0
TEXT
  8
1
 62
7
  6
CONTINUOUS
 10
424.847493
 20
347.968869
 40
3.900000
 41
0.500000
  1
S-62
  7
KANJI
 50
0.000000
 51
0.000000
  0
CIRCLE
  8
1
 62
7
  6
CONTINUOUS
 10
275.614856
 20
56.861107
 40
2.000000
  0
CIRCLE
  8
1
 62
7
  6
CONTINUOUS
 10
285.614856
 20
56.861107
 40
2.000000
  0
CIRCLE
  8
1
 62
7
  6
CONTINUOUS
 10
295.614856
 20
56.861107
 40
2.000000
  0
CIRCLE
  8
1
 62
7
  6
CONTINUOUS
 10
305.614856
 20
56.861107
 40
2.000000
  0
CIRCLE
  8
1
 62
7
  6
CONTINUOUS
 10
315.614856
 20
56.861107
 40
2.000000
  0
CIRCLE
  8
1
 62
7
  6
CONTINUOUS
 10
325.614856
 20
56.861107
 40
2.000000
  0
CIRCLE
  8
1
 62
7
  6
CONTINUOUS
 10
335.614856
 20
56.861107
 40
2.000000
  0
CIRCLE
  8
1
 62
7
  6
CONTINUOUS
 10
345.614856
 20
56.861107
 40
2.000000
  0
TEXT
  8
1
 62
7
  6
CONTINUOUS
 10
345.056917
 20
44.588789
 40
5.000000
 41
0.500000
  1
9
  7
KANJI
 50
0.000000
 51
0.000000
  0
TEXT
  8
1
 62
7
  6
CONTINUOUS
 10
333.455035
 20
44.817022
 40
5.000000
 41
0.500000
  1
10
  7
KANJI
 50
0.000000
 51
0.000000
  0
CIRCLE
  8
1
 62
7
  6
CONTINUOUS
 10
265.614856
 20
56.861107
 40
2.000000
  0
TEXT
  8
1
 62
7
  6
CONTINUOUS
 10
323.736082
 20
44.778983
 40
5.000000
 41
0.500000
  1
11
  7
KANJI
 50
0.000000
 51
0.000000
  0
TEXT
  8
1
 62
7
  6
CONTINUOUS
 10
313.979090
 20
44.436633
 40
5.000000
 41
0.500000
  1
12
  7
KANJI
 50
0.000000
 51
0.000000
  0
TEXT
  8
1
 62
7
  6
CONTINUOUS
 10
303.879747
 20
44.950159
 40
5.000000
 41
0.500000
  1
13
  7
KANJI
 50
0.000000
 51
0.000000
  0
TEXT
  8
1
 62
7
  6
CONTINUOUS
 10
293.609229
 20
44.778983
 40
5.000000
 41
0.500000
  1
14
  7
KANJI
 50
0.000000
 51
0.000000
  0
TEXT
  8
1
 62
7
  6
CONTINUOUS
 10
283.681061
 20
44.778983
 40
5.000000
 41
0.500000
  1
15
  7
KANJI
 50
0.000000
 51
0.000000
  0
TEXT
  8
1
 62
7
  6
CONTINUOUS
 10
273.410543
 20
44.950159
 40
5.000000
 41
0.500000
  1
16
  7
KANJI
 50
0.000000
 51
0.000000
  0
TEXT
  8
1
 62
7
  6
CONTINUOUS
 10
263.311201
 20
44.436633
 40
5.000000
 41
0.500000
  1
17
  7
KANJI
 50
0.000000
 51
0.000000
  0
CIRCLE
  8
1
 62
7
  6
CONTINUOUS
 10
265.614856
 20
85.861056
 40
1.059932
  0
CIRCLE
  8
1
 62
7
  6
CONTINUOUS
 10
265.614856
 20
90.861056
 40
1.059932
  0
LINE
  8
1
 62
7
  6
CONTINUOUS
 10
265.614856
 20
58.861107
 11
265.614856
 21
84.801124
  0
LINE
  8
1
 62
7
  6
CONTINUOUS
 10
268.061315
 20
88.181432
 11
269.202484
 21
88.181432
  0
LINE
  8
1
 62
7
  6
CONTINUOUS
 10
268.061315
 20
91.452782
 11
268.061315
 21
84.681848
  0
CIRCLE
  8
1
 62
7
  6
CONTINUOUS
 10
275.614856
 20
85.861056
 40
1.059932
  0
CIRCLE
  8
1
 62
7
  6
CONTINUOUS
 10
275.614856
 20
90.861056
 40
1.059932
  0
LINE
  8
1
 62
7
  6
CONTINUOUS
 10
275.614856
 20
58.861107
 11
275.614856
 21
84.801124
  0
LINE
  8
1
 62
7
  6
CONTINUOUS
 10
275.614856
 20
91.920988
 11
275.614856
 21
113.206310
  0
LINE
  8
1
 62
7
  6
CONTINUOUS
 10
278.061315
 20
88.181432
 11
279.202484
 21
88.181432
  0
LINE
  8
1
 62
7
  6
CONTINUOUS
 10
278.061315
 20
91.452782
 11
278.061315
 21
84.681848
  0
CIRCLE
  8
1
 62
7
  6
CONTINUOUS
 10
285.614856
 20
85.861056
 40
1.059932
  0
CIRCLE
  8
1
 62
7
  6
CONTINUOUS
 10
285.614856
 20
90.861056
 40
1.059932
  0
LINE
  8
1
 62
7
  6
CONTINUOUS
 10
285.614856
 20
58.861107
 11
285.614856
 21
84.801124
  0
LINE
  8
1
 62
7
  6
CONTINUOUS
 10
285.614856
 20
91.920988
 11
285.614856
 21
113.206310
  0
LINE
  8
1
 62
7
  6
CONTINUOUS
 10
288.061315
 20
88.181432
 11
289.202484
 21
88.181432
  0
LINE
  8
1
 62
7
  6
CONTINUOUS
 10
288.061315
 20
91.452782
 11
288.061315
 21
84.681848
  0
CIRCLE
  8
1
 62
7
  6
CONTINUOUS
 10
295.614856
 20
85.861056
 40
1.059932
  0
CIRCLE
  8
1
 62
7
  6
CONTINUOUS
 10
295.614856
 20
90.861056
 40
1.059932
  0
LINE
  8
1
 62
7
  6
CONTINUOUS
 10
295.614856
 20
58.861107
 11
295.614856
 21
84.801124
  0
LINE
  8
1
 62
7
  6
CONTINUOUS
 10
295.614856
 20
91.920988
 11
295.614856
 21
113.206310
  0
LINE
  8
1
 62
7
  6
CONTINUOUS
 10
298.061315
 20
88.181432
 11
299.202484
 21
88.181432
  0
LINE
  8
1
 62
7
  6
CONTINUOUS
 10
298.061315
 20
91.452782
 11
298.061315
 21
84.681848
  0
CIRCLE
  8
1
 62
7
  6
CONTINUOUS
 10
305.614856
 20
85.861056
 40
1.059932
  0
CIRCLE
  8
1
 62
7
  6
CONTINUOUS
 10
305.614856
 20
90.861056
 40
1.059932
  0
LINE
  8
1
 62
7
  6
CONTINUOUS
 10
305.614856
 20
58.861107
 11
305.614856
 21
84.801124
  0
LINE
  8
1
 62
7
  6
CONTINUOUS
 10
305.614856
 20
91.920988
 11
305.614856
 21
113.206310
  0
LINE
  8
1
 62
7
  6
CONTINUOUS
 10
308.061315
 20
88.181432
 11
309.202484
 21
88.181432
  0
LINE
  8
1
 62
7
  6
CONTINUOUS
 10
308.061315
 20
91.452782
 11
308.061315
 21
84.681848
  0
CIRCLE
  8
1
 62
7
  6
CONTINUOUS
 10
315.614856
 20
85.861056
 40
1.059932
  0
CIRCLE
  8
1
 62
7
  6
CONTINUOUS
 10
315.614856
 20
90.861056
 40
1.059932
  0
LINE
  8
1
 62
7
  6
CONTINUOUS
 10
315.614856
 20
58.861107
 11
315.614856
 21
84.801124
  0
LINE
  8
1
 62
7
  6
CONTINUOUS
 10
315.614856
 20
91.920988
 11
315.614856
 21
113.206310
  0
LINE
  8
1
 62
7
  6
CONTINUOUS
 10
318.061315
 20
88.181432
 11
319.202484
 21
88.181432
  0
LINE
  8
1
 62
7
  6
CONTINUOUS
 10
318.061315
 20
91.452782
 11
318.061315
 21
84.681848
  0
CIRCLE
  8
1
 62
7
  6
CONTINUOUS
 10
325.614856
 20
85.861056
 40
1.059932
  0
CIRCLE
  8
1
 62
7
  6
CONTINUOUS
 10
325.614856
 20
90.861056
 40
1.059932
  0
LINE
  8
1
 62
7
  6
CONTINUOUS
 10
325.614856
 20
58.861107
 11
325.614856
 21
84.801124
  0
LINE
  8
1
 62
7
  6
CONTINUOUS
 10
325.614856
 20
91.920988
 11
325.614856
 21
113.206310
  0
LINE
  8
1
 62
7
  6
CONTINUOUS
 10
328.061315
 20
88.181432
 11
329.202484
 21
88.181432
  0
LINE
  8
1
 62
7
  6
CONTINUOUS
 10
328.061315
 20
91.452782
 11
328.061315
 21
84.681848
  0
CIRCLE
  8
1
 62
7
  6
CONTINUOUS
 10
335.614856
 20
85.861056
 40
1.059932
  0
CIRCLE
  8
1
 62
7
  6
CONTINUOUS
 10
335.614856
 20
90.861056
 40
1.059932
  0
LINE
  8
1
 62
7
  6
CONTINUOUS
 10
335.614856
 20
58.861107
 11
335.614856
 21
84.801124
  0
LINE
  8
1
 62
7
  6
CONTINUOUS
 10
335.614856
 20
91.920988
 11
335.614856
 21
113.206310
  0
LINE
  8
1
 62
7
  6
CONTINUOUS
 10
338.061315
 20
88.181432
 11
339.202484
 21
88.181432
  0
LINE
  8
1
 62
7
  6
CONTINUOUS
 10
338.061315
 20
91.452782
 11
338.061315
 21
84.681848
  0
CIRCLE
  8
1
 62
7
  6
CONTINUOUS
 10
345.614856
 20
85.861056
 40
1.059932
  0
CIRCLE
  8
1
 62
7
  6
CONTINUOUS
 10
345.614856
 20
90.861056
 40
1.059932
  0
LINE
  8
1
 62
7
  6
CONTINUOUS
 10
345.614856
 20
58.861107
 11
345.614856
 21
84.801124
  0
LINE
  8
1
 62
7
  6
CONTINUOUS
 10
345.614856
 20
91.920988
 11
345.614856
 21
113.206310
  0
LINE
  8
1
 62
7
  6
CONTINUOUS
 10
348.061315
 20
88.181432
 11
349.202484
 21
88.181432
  0
LINE
  8
1
 62
7
  6
CONTINUOUS
 10
348.061315
 20
91.452782
 11
348.061315
 21
84.681848
  0
LINE
  8
1
 62
7
  6
CONTINUOUS
 10
265.614856
 20
91.920988
 11
265.614856
 21
113.206310
  0
TEXT
  8
1
 62
7
  6
CONTINUOUS
 10
337.354028
 20
93.502131
 40
5.000000
 41
0.500000
  1
9
  7
KANJI
 50
0.000000
 51
0.000000
  0
TEXT
  8
1
 62
7
  6
CONTINUOUS
 10
325.752147
 20
93.730365
 40
5.000000
 41
0.500000
  1
10
  7
KANJI
 50
0.000000
 51
0.000000
  0
TEXT
  8
1
 62
7
  6
CONTINUOUS
 10
316.033194
 20
93.692326
 40
5.000000
 41
0.500000
  1
11
  7
KANJI
 50
0.000000
 51
0.000000
  0
TEXT
  8
1
 62
7
  6
CONTINUOUS
 10
306.276201
 20
93.349975
 40
5.000000
 41
0.500000
  1
12
  7
KANJI
 50
0.000000
 51
0.000000
  0
TEXT
  8
1
 62
7
  6
CONTINUOUS
 10
296.176859
 20
93.863501
 40
5.000000
 41
0.500000
  1
13
  7
KANJI
 50
0.000000
 51
0.000000
  0
TEXT
  8
1
 62
7
  6
CONTINUOUS
 10
285.906340
 20
93.692326
 40
5.000000
 41
0.500000
  1
14
  7
KANJI
 50
0.000000
 51
0.000000
  0
TEXT
  8
1
 62
7
  6
CONTINUOUS
 10
275.978173
 20
93.692326
 40
5.000000
 41
0.500000
  1
15
  7
KANJI
 50
0.000000
 51
0.000000
  0
CIRCLE
  8
1
 62
7
  6
CONTINUOUS
 10
355.317133
 20
56.949649
 40
2.000000
  0
CIRCLE
  8
1
 62
7
  6
CONTINUOUS
 10
365.317133
 20
56.949649
 40
2.000000
  0
CIRCLE
  8
1
 62
7
  6
CONTINUOUS
 10
375.317133
 20
56.949649
 40
2.000000
  0
CIRCLE
  8
1
 62
7
  6
CONTINUOUS
 10
385.317133
 20
56.949649
 40
2.000000
  0
CIRCLE
  8
1
 62
7
  6
CONTINUOUS
 10
395.317133
 20
56.949649
 40
2.000000
  0
CIRCLE
  8
1
 62
7
  6
CONTINUOUS
 10
405.317133
 20
56.949649
 40
2.000000
  0
CIRCLE
  8
1
 62
7
  6
CONTINUOUS
 10
415.317133
 20
56.949649
 40
2.000000
  0
CIRCLE
  8
1
 62
7
  6
CONTINUOUS
 10
425.317133
 20
56.949649
 40
2.000000
  0
TEXT
  8
1
 62
7
  6
CONTINUOUS
 10
424.453997
 20
45.962946
 40
5.000000
 41
0.500000
  1
1
  7
KANJI
 50
0.000000
 51
0.000000
  0
TEXT
  8
1
 62
7
  6
CONTINUOUS
 10
414.626997
 20
45.791771
 40
5.000000
 41
0.500000
  1
2
  7
KANJI
 50
0.000000
 51
0.000000
  0
TEXT
  8
1
 62
7
  6
CONTINUOUS
 10
404.071187
 20
45.962946
 40
5.000000
 41
0.500000
  1
3
  7
KANJI
 50
0.000000
 51
0.000000
  0
TEXT
  8
1
 62
7
  6
CONTINUOUS
 10
394.856250
 20
45.649125
 40
5.000000
 41
0.500000
  1
4
  7
KANJI
 50
0.000000
 51
0.000000
  0
TEXT
  8
1
 62
7
  6
CONTINUOUS
 10
384.699849
 20
45.278245
 40
5.000000
 41
0.500000
  1
5
  7
KANJI
 50
0.000000
 51
0.000000
  0
TEXT
  8
1
 62
7
  6
CONTINUOUS
 10
374.315214
 20
44.821777
 40
5.000000
 41
0.500000
  1
6
  7
KANJI
 50
0.000000
 51
0.000000
  0
TEXT
  8
1
 62
7
  6
CONTINUOUS
 10
364.586751
 20
44.194135
 40
5.000000
 41
0.500000
  1
7
  7
KANJI
 50
0.000000
 51
0.000000
  0
TEXT
  8
1
 62
7
  6
CONTINUOUS
 10
354.495333
 20
44.517466
 40
5.000000
 41
0.500000
  1
8
  7
KANJI
 50
0.000000
 51
0.000000
  0
LINE
  8
1
 62
7
  6
CONTINUOUS
 10
425.317133
 20
58.949649
 11
425.317133
 21
113.206310
  0
CIRCLE
  8
1
 62
7
  6
CONTINUOUS
 10
355.317133
 20
85.949598
 40
1.059932
  0
CIRCLE
  8
1
 62
7
  6
CONTINUOUS
 10
355.317133
 20
90.949598
 40
1.059932
  0
LINE
  8
1
 62
7
  6
CONTINUOUS
 10
355.317133
 20
58.949649
 11
355.317133
 21
84.889666
  0
LINE
  8
1
 62
7
  6
CONTINUOUS
 10
355.317133
 20
92.009531
 11
355.317133
 21
113.294853
  0
LINE
  8
1
 62
7
  6
CONTINUOUS
 10
357.763592
 20
88.269975
 11
358.904761
 21
88.269975
  0
LINE
  8
1
 62
7
  6
CONTINUOUS
 10
357.763592
 20
91.541325
 11
357.763592
 21
84.770391
  0
CIRCLE
  8
1
 62
7
  6
CONTINUOUS
 10
365.317133
 20
85.949598
 40
1.059932
  0
CIRCLE
  8
1
 62
7
  6
CONTINUOUS
 10
365.317133
 20
90.949598
 40
1.059932
  0
LINE
  8
1
 62
7
  6
CONTINUOUS
 10
365.317133
 20
58.949649
 11
365.317133
 21
84.889666
  0
LINE
  8
1
 62
7
  6
CONTINUOUS
 10
365.317133
 20
92.009531
 11
365.317133
 21
113.294853
  0
LINE
  8
1
 62
7
  6
CONTINUOUS
 10
367.763592
 20
88.269975
 11
368.904761
 21
88.269975
  0
LINE
  8
1
 62
7
  6
CONTINUOUS
 10
367.763592
 20
91.541325
 11
367.763592
 21
84.770391
  0
CIRCLE
  8
1
 62
7
  6
CONTINUOUS
 10
375.317133
 20
85.949598
 40
1.059932
  0
CIRCLE
  8
1
 62
7
  6
CONTINUOUS
 10
375.317133
 20
90.949598
 40
1.059932
  0
LINE
  8
1
 62
7
  6
CONTINUOUS
 10
375.317133
 20
58.949649
 11
375.317133
 21
84.889666
  0
LINE
  8
1
 62
7
  6
CONTINUOUS
 10
375.317133
 20
92.009531
 11
375.317133
 21
113.294853
  0
LINE
  8
1
 62
7
  6
CONTINUOUS
 10
377.763592
 20
88.269975
 11
378.904761
 21
88.269975
  0
LINE
  8
1
 62
7
  6
CONTINUOUS
 10
377.763592
 20
91.541325
 11
377.763592
 21
84.770391
  0
CIRCLE
  8
1
 62
7
  6
CONTINUOUS
 10
385.317133
 20
85.949598
 40
1.059932
  0
CIRCLE
  8
1
 62
7
  6
CONTINUOUS
 10
385.317133
 20
90.949598
 40
1.059932
  0
LINE
  8
1
 62
7
  6
CONTINUOUS
 10
385.317133
 20
58.949649
 11
385.317133
 21
84.889666
  0
LINE
  8
1
 62
7
  6
CONTINUOUS
 10
385.317133
 20
92.009531
 11
385.317133
 21
113.294853
  0
LINE
  8
1
 62
7
  6
CONTINUOUS
 10
387.763592
 20
88.269975
 11
388.904761
 21
88.269975
  0
LINE
  8
1
 62
7
  6
CONTINUOUS
 10
387.763592
 20
91.541325
 11
387.763592
 21
84.770391
  0
CIRCLE
  8
1
 62
7
  6
CONTINUOUS
 10
395.317133
 20
85.949598
 40
1.059932
  0
CIRCLE
  8
1
 62
7
  6
CONTINUOUS
 10
395.317133
 20
90.949598
 40
1.059932
  0
LINE
  8
1
 62
7
  6
CONTINUOUS
 10
395.317133
 20
58.949649
 11
395.317133
 21
84.889666
  0
LINE
  8
1
 62
7
  6
CONTINUOUS
 10
395.317133
 20
92.009531
 11
395.317133
 21
113.294853
  0
LINE
  8
1
 62
7
  6
CONTINUOUS
 10
397.763592
 20
88.269975
 11
398.904761
 21
88.269975
  0
LINE
  8
1
 62
7
  6
CONTINUOUS
 10
397.763592
 20
91.541325
 11
397.763592
 21
84.770391
  0
CIRCLE
  8
1
 62
7
  6
CONTINUOUS
 10
405.317133
 20
85.949598
 40
1.059932
  0
CIRCLE
  8
1
 62
7
  6
CONTINUOUS
 10
405.317133
 20
90.949598
 40
1.059932
  0
LINE
  8
1
 62
7
  6
CONTINUOUS
 10
405.317133
 20
58.949649
 11
405.317133
 21
84.889666
  0
LINE
  8
1
 62
7
  6
CONTINUOUS
 10
405.317133
 20
92.009531
 11
405.317133
 21
113.294853
  0
LINE
  8
1
 62
7
  6
CONTINUOUS
 10
407.763592
 20
88.269975
 11
408.904761
 21
88.269975
  0
LINE
  8
1
 62
7
  6
CONTINUOUS
 10
407.763592
 20
91.541325
 11
407.763592
 21
84.770391
  0
CIRCLE
  8
1
 62
7
  6
CONTINUOUS
 10
415.317133
 20
85.949598
 40
1.059932
  0
CIRCLE
  8
1
 62
7
  6
CONTINUOUS
 10
415.317133
 20
90.949598
 40
1.059932
  0
LINE
  8
1
 62
7
  6
CONTINUOUS
 10
415.317133
 20
58.949649
 11
415.317133
 21
84.889666
  0
LINE
  8
1
 62
7
  6
CONTINUOUS
 10
415.317133
 20
92.009531
 11
415.317133
 21
113.294853
  0
LINE
  8
1
 62
7
  6
CONTINUOUS
 10
417.763592
 20
88.269975
 11
418.904761
 21
88.269975
  0
LINE
  8
1
 62
7
  6
CONTINUOUS
 10
417.763592
 20
91.541325
 11
417.763592
 21
84.770391
  0
TEXT
  8
1
 62
7
  6
CONTINUOUS
 10
416.751108
 20
94.876288
 40
5.000000
 41
0.500000
  1
1
  7
KANJI
 50
0.000000
 51
0.000000
  0
TEXT
  8
1
 62
7
  6
CONTINUOUS
 10
406.924109
 20
94.705113
 40
5.000000
 41
0.500000
  1
2
  7
KANJI
 50
0.000000
 51
0.000000
  0
TEXT
  8
1
 62
7
  6
CONTINUOUS
 10
396.368299
 20
94.876288
 40
5.000000
 41
0.500000
  1
3
  7
KANJI
 50
0.000000
 51
0.000000
  0
TEXT
  8
1
 62
7
  6
CONTINUOUS
 10
387.153362
 20
94.562467
 40
5.000000
 41
0.500000
  1
4
  7
KANJI
 50
0.000000
 51
0.000000
  0
TEXT
  8
1
 62
7
  6
CONTINUOUS
 10
376.996960
 20
94.191587
 40
5.000000
 41
0.500000
  1
5
  7
KANJI
 50
0.000000
 51
0.000000
  0
TEXT
  8
1
 62
7
  6
CONTINUOUS
 10
366.612325
 20
93.735120
 40
5.000000
 41
0.500000
  1
6
  7
KANJI
 50
0.000000
 51
0.000000
  0
TEXT
  8
1
 62
7
  6
CONTINUOUS
 10
356.883862
 20
93.107477
 40
5.000000
 41
0.500000
  1
7
  7
KANJI
 50
0.000000
 51
0.000000
  0
TEXT
  8
1
 62
7
  6
CONTINUOUS
 10
346.792444
 20
93.430808
 40
5.000000
 41
0.500000
  1
8
  7
KANJI
 50
0.000000
 51
0.000000
  0
CIRCLE
  8
1
 62
7
  6
CONTINUOUS
 10
195.614856
 20
56.861107
 40
2.000000
  0
CIRCLE
  8
1
 62
7
  6
CONTINUOUS
 10
205.614856
 20
56.861107
 40
2.000000
  0
CIRCLE
  8
1
 62
7
  6
CONTINUOUS
 10
215.614856
 20
56.861107
 40
2.000000
  0
CIRCLE
  8
1
 62
7
  6
CONTINUOUS
 10
225.614856
 20
56.861107
 40
2.000000
  0
CIRCLE
  8
1
 62
7
  6
CONTINUOUS
 10
235.614856
 20
56.861107
 40
2.000000
  0
CIRCLE
  8
1
 62
7
  6
CONTINUOUS
 10
245.614856
 20
56.861107
 40
2.000000
  0
CIRCLE
  8
1
 62
7
  6
CONTINUOUS
 10
255.614856
 20
56.861107
 40
2.000000
  0
CIRCLE
  8
1
 62
7
  6
CONTINUOUS
 10
265.614856
 20
56.861107
 40
2.000000
  0
CIRCLE
  8
1
 62
7
  6
CONTINUOUS
 10
185.614856
 20
56.861107
 40
2.000000
  0
CIRCLE
  8
1
 62
7
  6
CONTINUOUS
 10
185.614856
 20
85.861056
 40
1.059932
  0
CIRCLE
  8
1
 62
7
  6
CONTINUOUS
 10
185.614856
 20
90.861056
 40
1.059932
  0
LINE
  8
1
 62
7
  6
CONTINUOUS
 10
185.614856
 20
58.861107
 11
185.614856
 21
84.801124
  0
LINE
  8
1
 62
7
  6
CONTINUOUS
 10
188.061315
 20
88.181432
 11
189.202484
 21
88.181432
  0
LINE
  8
1
 62
7
  6
CONTINUOUS
 10
188.061315
 20
91.452782
 11
188.061315
 21
84.681848
  0
CIRCLE
  8
1
 62
7
  6
CONTINUOUS
 10
195.614856
 20
85.861056
 40
1.059932
  0
CIRCLE
  8
1
 62
7
  6
CONTINUOUS
 10
195.614856
 20
90.861056
 40
1.059932
  0
LINE
  8
1
 62
7
  6
CONTINUOUS
 10
195.614856
 20
58.861107
 11
195.614856
 21
84.801124
  0
LINE
  8
1
 62
7
  6
CONTINUOUS
 10
195.614856
 20
91.920988
 11
195.614856
 21
113.206310
  0
LINE
  8
1
 62
7
  6
CONTINUOUS
 10
198.061315
 20
88.181432
 11
199.202484
 21
88.181432
  0
LINE
  8
1
 62
7
  6
CONTINUOUS
 10
198.061315
 20
91.452782
 11
198.061315
 21
84.681848
  0
CIRCLE
  8
1
 62
7
  6
CONTINUOUS
 10
205.614856
 20
85.861056
 40
1.059932
  0
CIRCLE
  8
1
 62
7
  6
CONTINUOUS
 10
205.614856
 20
90.861056
 40
1.059932
  0
LINE
  8
1
 62
7
  6
CONTINUOUS
 10
205.614856
 20
58.861107
 11
205.614856
 21
84.801124
  0
LINE
  8
1
 62
7
  6
CONTINUOUS
 10
205.614856
 20
91.920988
 11
205.614856
 21
113.206310
  0
LINE
  8
1
 62
7
  6
CONTINUOUS
 10
208.061315
 20
88.181432
 11
209.202484
 21
88.181432
  0
LINE
  8
1
 62
7
  6
CONTINUOUS
 10
208.061315
 20
91.452782
 11
208.061315
 21
84.681848
  0
CIRCLE
  8
1
 62
7
  6
CONTINUOUS
 10
215.614856
 20
85.861056
 40
1.059932
  0
CIRCLE
  8
1
 62
7
  6
CONTINUOUS
 10
215.614856
 20
90.861056
 40
1.059932
  0
LINE
  8
1
 62
7
  6
CONTINUOUS
 10
215.614856
 20
58.861107
 11
215.614856
 21
84.801124
  0
LINE
  8
1
 62
7
  6
CONTINUOUS
 10
215.614856
 20
91.920988
 11
215.614856
 21
113.206310
  0
LINE
  8
1
 62
7
  6
CONTINUOUS
 10
218.061315
 20
88.181432
 11
219.202484
 21
88.181432
  0
LINE
  8
1
 62
7
  6
CONTINUOUS
 10
218.061315
 20
91.452782
 11
218.061315
 21
84.681848
  0
CIRCLE
  8
1
 62
7
  6
CONTINUOUS
 10
225.614856
 20
85.861056
 40
1.059932
  0
CIRCLE
  8
1
 62
7
  6
CONTINUOUS
 10
225.614856
 20
90.861056
 40
1.059932
  0
LINE
  8
1
 62
7
  6
CONTINUOUS
 10
225.614856
 20
58.861107
 11
225.614856
 21
84.801124
  0
LINE
  8
1
 62
7
  6
CONTINUOUS
 10
225.614856
 20
91.920988
 11
225.614856
 21
113.206310
  0
LINE
  8
1
 62
7
  6
CONTINUOUS
 10
228.061315
 20
88.181432
 11
229.202484
 21
88.181432
  0
LINE
  8
1
 62
7
  6
CONTINUOUS
 10
228.061315
 20
91.452782
 11
228.061315
 21
84.681848
  0
CIRCLE
  8
1
 62
7
  6
CONTINUOUS
 10
235.614856
 20
85.861056
 40
1.059932
  0
CIRCLE
  8
1
 62
7
  6
CONTINUOUS
 10
235.614856
 20
90.861056
 40
1.059932
  0
LINE
  8
1
 62
7
  6
CONTINUOUS
 10
235.614856
 20
58.861107
 11
235.614856
 21
84.801124
  0
LINE
  8
1
 62
7
  6
CONTINUOUS
 10
235.614856
 20
91.920988
 11
235.614856
 21
113.206310
  0
LINE
  8
1
 62
7
  6
CONTINUOUS
 10
238.061315
 20
88.181432
 11
239.202484
 21
88.181432
  0
LINE
  8
1
 62
7
  6
CONTINUOUS
 10
238.061315
 20
91.452782
 11
238.061315
 21
84.681848
  0
CIRCLE
  8
1
 62
7
  6
CONTINUOUS
 10
245.614856
 20
85.861056
 40
1.059932
  0
CIRCLE
  8
1
 62
7
  6
CONTINUOUS
 10
245.614856
 20
90.861056
 40
1.059932
  0
LINE
  8
1
 62
7
  6
CONTINUOUS
 10
245.614856
 20
58.861107
 11
245.614856
 21
84.801124
  0
LINE
  8
1
 62
7
  6
CONTINUOUS
 10
245.614856
 20
91.920988
 11
245.614856
 21
113.206310
  0
LINE
  8
1
 62
7
  6
CONTINUOUS
 10
248.061315
 20
88.181432
 11
249.202484
 21
88.181432
  0
LINE
  8
1
 62
7
  6
CONTINUOUS
 10
248.061315
 20
91.452782
 11
248.061315
 21
84.681848
  0
CIRCLE
  8
1
 62
7
  6
CONTINUOUS
 10
255.614856
 20
85.861056
 40
1.059932
  0
CIRCLE
  8
1
 62
7
  6
CONTINUOUS
 10
255.614856
 20
90.861056
 40
1.059932
  0
LINE
  8
1
 62
7
  6
CONTINUOUS
 10
255.614856
 20
58.861107
 11
255.614856
 21
84.801124
  0
LINE
  8
1
 62
7
  6
CONTINUOUS
 10
255.614856
 20
91.920988
 11
255.614856
 21
113.206310
  0
LINE
  8
1
 62
7
  6
CONTINUOUS
 10
258.061315
 20
88.181432
 11
259.202484
 21
88.181432
  0
LINE
  8
1
 62
7
  6
CONTINUOUS
 10
258.061315
 20
91.452782
 11
258.061315
 21
84.681848
  0
CIRCLE
  8
1
 62
7
  6
CONTINUOUS
 10
265.614856
 20
85.861056
 40
1.059932
  0
CIRCLE
  8
1
 62
7
  6
CONTINUOUS
 10
265.614856
 20
90.861056
 40
1.059932
  0
LINE
  8
1
 62
7
  6
CONTINUOUS
 10
265.614856
 20
58.861107
 11
265.614856
 21
84.801124
  0
LINE
  8
1
 62
7
  6
CONTINUOUS
 10
265.614856
 20
91.920988
 11
265.614856
 21
113.206310
  0
LINE
  8
1
 62
7
  6
CONTINUOUS
 10
268.061315
 20
88.181432
 11
269.202484
 21
88.181432
  0
LINE
  8
1
 62
7
  6
CONTINUOUS
 10
268.061315
 20
91.452782
 11
268.061315
 21
84.681848
  0
TEXT
  8
1
 62
7
  6
CONTINUOUS
 10
266.392356
 20
93.540170
 40
5.000000
 41
0.500000
  1
16
  7
KANJI
 50
0.000000
 51
0.000000
  0
TEXT
  8
1
 62
7
  6
CONTINUOUS
 10
245.752147
 20
93.730365
 40
5.000000
 41
0.500000
  1
18
  7
KANJI
 50
0.000000
 51
0.000000
  0
TEXT
  8
1
 62
7
  6
CONTINUOUS
 10
236.033194
 20
93.692326
 40
5.000000
 41
0.500000
  1
19
  7
KANJI
 50
0.000000
 51
0.000000
  0
TEXT
  8
1
 62
7
  6
CONTINUOUS
 10
226.276201
 20
93.349975
 40
5.000000
 41
0.500000
  1
20
  7
KANJI
 50
0.000000
 51
0.000000
  0
TEXT
  8
1
 62
7
  6
CONTINUOUS
 10
216.176859
 20
93.863501
 40
5.000000
 41
0.500000
  1
21
  7
KANJI
 50
0.000000
 51
0.000000
  0
TEXT
  8
1
 62
7
  6
CONTINUOUS
 10
205.906340
 20
93.692326
 40
5.000000
 41
0.500000
  1
22
  7
KANJI
 50
0.000000
 51
0.000000
  0
TEXT
  8
1
 62
7
  6
CONTINUOUS
 10
195.978173
 20
93.692326
 40
5.000000
 41
0.500000
  1
23
  7
KANJI
 50
0.000000
 51
0.000000
  0
TEXT
  8
1
 62
7
  6
CONTINUOUS
 10
185.707655
 20
93.863501
 40
5.000000
 41
0.500000
  1
24
  7
KANJI
 50
0.000000
 51
0.000000
  0
TEXT
  8
1
 62
7
  6
CONTINUOUS
 10
256.212860
 20
93.388014
 40
5.000000
 41
0.500000
  1
17
  7
KANJI
 50
0.000000
 51
0.000000
  0
TEXT
  8
1
 62
7
  6
CONTINUOUS
 10
253.344994
 20
44.817022
 40
5.000000
 41
0.500000
  1
18
  7
KANJI
 50
0.000000
 51
0.000000
  0
TEXT
  8
1
 62
7
  6
CONTINUOUS
 10
243.626041
 20
44.778983
 40
5.000000
 41
0.500000
  1
19
  7
KANJI
 50
0.000000
 51
0.000000
  0
TEXT
  8
1
 62
7
  6
CONTINUOUS
 10
233.869049
 20
44.436633
 40
5.000000
 41
0.500000
  1
20
  7
KANJI
 50
0.000000
 51
0.000000
  0
TEXT
  8
1
 62
7
  6
CONTINUOUS
 10
223.769706
 20
44.950159
 40
5.000000
 41
0.500000
  1
21
  7
KANJI
 50
0.000000
 51
0.000000
  0
TEXT
  8
1
 62
7
  6
CONTINUOUS
 10
213.499188
 20
44.778983
 40
5.000000
 41
0.500000
  1
22
  7
KANJI
 50
0.000000
 51
0.000000
  0
TEXT
  8
1
 62
7
  6
CONTINUOUS
 10
203.571020
 20
44.778983
 40
5.000000
 41
0.500000
  1
23
  7
KANJI
 50
0.000000
 51
0.000000
  0
TEXT
  8
1
 62
7
  6
CONTINUOUS
 10
193.300502
 20
44.950159
 40
5.000000
 41
0.500000
  1
24
  7
KANJI
 50
0.000000
 51
0.000000
  0
TEXT
  8
1
 62
7
  6
CONTINUOUS
 10
183.201159
 20
44.436633
 40
5.000000
 41
0.500000
  1
25
  7
KANJI
 50
0.000000
 51
0.000000
  0
LINE
  8
1
 62
7
  6
CONTINUOUS
 10
177.662416
 20
61.554163
 11
177.662416
 21
52.481872
  0
LINE
  8
1
 62
7
  6
CONTINUOUS
 10
177.662416
 20
52.481872
 11
434.057772
 21
52.481872
  0
LINE
  8
1
 62
7
  6
CONTINUOUS
 10
434.057772
 20
52.481872
 11
434.057772
 21
61.554163
  0
LINE
  8
1
 62
7
  6
CONTINUOUS
 10
434.057772
 20
61.554163
 11
177.662416
 21
61.554163
  0
TEXT
  8
1
 62
7
  6
CONTINUOUS
 10
160.976616
 20
44.301119
 40
5.000000
 41
0.700000
  1
端子NO,
  7
KANJI
 50
0.000000
 51
0.000000
  0
LINE
  8
1
 62
7
  6
CONTINUOUS
 10
185.614856
 20
91.920988
 11
185.614856
 21
113.206310
  0
LINE
  8
1
 62
7
  6
CONTINUOUS
 10
425.317133
 20
113.206310
 11
185.614856
 21
113.206310
  0
LINE
  8
1
 62
7
  6
CONTINUOUS
 10
153.865199
 20
360.833563
 11
168.050976
 21
380.172239
  0
LINE
  8
1
 62
7
  6
CONTINUOUS
 10
168.050976
 20
380.172239
 11
214.657426
 21
380.172239
  0
TEXT
  8
1
 62
7
  6
CONTINUOUS
 10
170.657426
 20
380.621574
 40
4.000000
 41
0.578947
  1
ABS ﾀﾞｰｸｸﾞﾚｰ(ﾏｯﾄ処理）
  7
KANJI
 50
0.000000
 51
30.000000
  0
LINE
  8
1
 62
7
  6
CONTINUOUS
 10
153.865199
 20
360.833563
 11
156.766226
 21
368.289033
  0
LINE
  8
1
 62
7
  6
CONTINUOUS
 10
153.865199
 20
360.833563
 11
160.105298
 21
365.839676
  0
TEXT
  8
1
 62
7
  6
CONTINUOUS
 10
445.419532
 20
20.220083
 40
8.000000
 41
0.875000
  1
スタンダードキーボード　S-62
  7
KANJI
 50
0.000000
 51
0.000000
  0
LINE
  8
1
 62
7
  6
CONTINUOUS
 10
474.768336
 20
173.362448
 11
480.225177
 21
183.748816
  0
LINE
  8
1
 62
7
  6
CONTINUOUS
 10
480.225177
 20
183.748816
 11
499.609812
 21
183.748816
  0
TEXT
  8
1
 62
7
  6
CONTINUOUS
 10
483.609812
 20
183.862932
 40
4.000000
 41
0.571429
  1
25-φ1.0
  7
KANJI
 50
0.000000
 51
30.000000
  0
LINE
  8
1
 62
7
  6
CONTINUOUS
 10
474.768336
 20
173.362448
 11
476.529388
 21
181.166210
  0
LINE
  8
1
 62
7
  6
CONTINUOUS
 10
474.768336
 20
173.362448
 11
480.195333
 21
179.240178
  0
TEXT
  8
1
 62
7
  6
CONTINUOUS
 10
420.962861
 20
149.243466
 40
6.000000
 41
1.000000
  1
端子部
  7
KANJI
 50
0.000000
 51
0.000000
  0
DIMENSION
  8
1
 62
7
  6
CONTINUOUS
  2
*D12
 10
469.840542
 20
153.992842
 11
472.408172
 21
153.992842
 70
     0
  1
2.54
 13
469.840542
 23
162.431581
 14
474.975801
 24
162.431581
 50
0.000000
  0
TEXT
  8
1
 62
7
  6
CONTINUOUS
 10
274.936064
 20
165.925187
 40
5.000000
 41
0.604167
  1
※　ﾊﾟﾈﾙｶｯﾄ寸法　126.3x90.5mm
  7
KANJI
 50
0.000000
 51
0.000000
  0
TEXT
  8
1
 62
7
  6
CONTINUOUS
 10
15.020633
 20
9.821183
 40
5.000000
 41
0.500000
  1
2015/04/03
  7
KANJI
 50
0.000000
 51
0.000000
  0
ENDSEC
  0
EOF
